osu file format v14

[General]
AudioFilename: audio.ogg
AudioLeadIn: 0
PreviewTime: 4910
Countdown: 0
SampleSet: Soft
StackLeniency: 0.7
Mode: 0
LetterboxInBreaks: 0
WidescreenStoryboard: 1

[Editor]
Bookmarks: 139550,139710
DistanceSpacing: 1
BeatDivisor: 6
GridSize: 32
TimelineZoom: 5.299997

[Metadata]
Title:Event Horizon
TitleUnicode:Event Horizon
Artist:Ensou
ArtistUnicode:Ensou
Creator:Nao Tomori
Version:Insane
Source:
Tags:featured artist mappers' guild fa mpg mg electronic vocaloid rock tagalog filipino pinoy megpoid GUMI
BeatmapID:4287753
BeatmapSetID:2052791

[Difficulty]
HPDrainRate:5
CircleSize:5
OverallDifficulty:7
ApproachRate:8
SliderMultiplier:1.5
SliderTickRate:1

[Events]
//Background and Video events
0,0,"98903239_p0.jpg",0,0
//Break Periods
2,86615,93345
2,159574,173505
//Storyboard Layer 0 (Background)
//Storyboard Layer 1 (Fail)
//Storyboard Layer 2 (Pass)
//Storyboard Layer 3 (Foreground)
//Storyboard Layer 4 (Overlay)
//Storyboard Sound Samples

[TimingPoints]
1935,320,6,2,10,50,1,0
1935,-133.333333333333,3,2,10,50,0,0
4895,-133.333333333333,3,2,10,60,0,0
5215,-133.333333333333,3,2,10,80,0,0
5775,-90.9090909090909,3,2,10,80,0,0
19855,350.877192982456,6,2,10,80,1,0
19855,-90.9090909090909,3,2,10,80,0,0
20030,342.857142857143,6,2,10,80,1,0
20030,-90.9090909090909,3,2,10,80,0,0
20201,303.030303030303,6,2,10,80,1,0
20201,-90.9090909090909,3,2,10,80,0,0
20504,300.751879699248,6,2,10,80,1,0
20504,-100,3,2,10,80,0,0
20655,320,6,2,10,80,1,0
20655,-100,3,2,10,80,0,0
21135,320,6,2,10,80,1,0
21135,-100,3,2,10,80,0,0
21215,-100,3,2,10,70,0,0
36495,-153.846153846154,3,2,10,50,0,0
51855,-105.263157894737,3,2,10,70,0,0
55695,-105.263157894737,3,2,10,40,0,0
59455,-105.263157894737,3,2,10,70,0,0
62335,-105.263157894737,3,2,10,100,0,0
63375,-100,3,2,10,80,0,1
77295,-100,3,2,10,80,0,1
77775,-105.263157894737,3,2,10,80,0,1
78735,-90.9090909090909,3,2,10,80,0,1
79695,-90.9090909090909,3,2,10,80,0,1
82575,-100,3,2,10,80,0,1
86415,-90.9090909090909,3,2,10,60,0,0
86575,-153.846153846154,3,2,10,50,0,0
101775,-105.263157894737,3,2,10,70,0,0
105615,-153.846153846154,3,2,10,50,0,0
109455,-105.263157894737,3,2,10,70,0,0
113295,-100,3,2,10,80,0,1
132175,-100,3,2,10,80,0,1
132495,-100,3,2,10,80,0,1
135055,365.408038976858,6,2,10,80,1,1
135055,-100,3,2,10,80,0,1
135420,289.855072463768,6,2,10,80,1,1
135420,-100,3,2,10,80,0,1
135855,320,6,2,10,80,1,1
135855,-100,3,2,10,80,0,1
136335,320,6,2,10,70,1,0
136335,-100,3,2,10,70,0,0
136815,-133.333333333333,3,2,10,70,0,0
137295,-285.714285714286,3,2,10,50,0,0
139535,-100,3,2,10,70,0,0
140655,-133.333333333333,3,2,10,70,0,0
141135,-181.818181818182,3,2,10,50,0,0
141935,-181.818181818182,3,2,10,70,0,0
142415,-100,3,2,10,70,0,0
144975,-100,3,2,10,70,0,0
147855,-100,3,2,10,70,0,0
148815,-100,3,2,10,70,0,0
151695,-111.111111111111,3,2,10,70,0,0
174175,-133.333333333333,3,2,10,70,0,0
180495,-111.111111111111,3,2,10,70,0,0
184260,-111.111111111111,3,2,10,40,0,0
185695,-111.111111111111,3,2,10,80,0,0
186255,-100,3,2,10,80,0,1
216815,-100,3,2,10,70,0,0
216975,-100,3,2,10,80,0,1
223375,342.857142857143,6,2,10,80,1,1
223375,-100,3,2,10,80,0,1
223717,298.507462686567,6,2,10,80,1,1
223717,-90.9090909090909,3,2,10,80,0,1
224175,320,6,2,10,80,1,1
224175,-100,3,2,10,80,0,1
224655,320,6,2,10,70,1,0
224655,-105.263157894737,3,2,10,70,0,0
239375,-105.263157894737,3,2,10,70,0,0
240335,-105.263157894737,3,2,10,70,0,0
240895,-153.846153846154,3,2,10,50,0,0

[Colours]
Combo1 : 224,207,207
Combo2 : 170,255,170
Combo3 : 176,211,255
Combo4 : 250,163,175

[HitObjects]
474,340,4815,6,0,P|484:305|471:265,1,56.2500021457673,0|0,0:2|3:2,0:0:0:0:
482,286,5055,1,0,1:0:0:0:
482,286,5135,1,8,0:2:0:0:
422,241,5295,1,8,0:2:0:0:
483,182,5455,1,4,0:2:0:0:
391,72,5775,6,0,P|341:97|258:39,1,165.000005035401,6|8,3:2|0:2,0:0:0:0:
184,4,6255,1,0,0:2:0:0:
121,58,6415,2,0,P|134:101|126:141,1,82.5000025177003,8|0,0:2|3:2,0:0:0:0:
66,192,6735,2,0,P|59:232|72:271,1,82.5000025177003,8|0,0:2|0:0,0:0:0:0:
138,321,7055,2,0,L|226:305,1,82.5000025177003,8|0,0:2|3:2,0:0:0:0:
219,306,7295,1,0,3:2:0:0:
219,306,7375,2,0,L|307:290,1,82.5000025177003,8|0,2:2|3:2,0:0:0:0:
490,260,7695,6,0,L|329:240,1,123.75000377655,6|0,2:2|0:2,0:0:0:0:
367,244,8015,2,0,P|362:203|377:152,1,82.5000025177003,8|0,0:2|3:2,0:0:0:0:
317,24,8335,2,0,P|322:65|307:116,1,82.5000025177003,8|0,0:2|3:2,0:0:0:0:
243,149,8655,1,12,0:2:0:0:
231,230,8815,1,8,0:2:0:0:
289,287,8975,1,0,3:2:0:0:
301,308,9055,1,0,3:2:0:0:
302,332,9135,1,0,3:2:0:0:
290,354,9215,1,0,3:2:0:0:
270,369,9295,2,0,L|158:357,1,82.5000025177003,8|0,0:2|3:2,0:0:0:0:
24,304,9615,6,0,P|2:277|50:160,1,165.000005035401,14|8,0:2|0:2,0:0:0:0:
112,130,10095,1,0,3:2:0:0:
93,49,10255,1,8,2:2:0:0:
163,5,10415,1,0,3:2:0:0:
228,55,10575,2,0,P|263:80|344:43,1,123.75000377655,12|0,0:2|0:2,0:0:0:0:
335,57,10895,2,0,B|322:97|322:97|353:158,1,82.5000025177003,8|0,0:2|3:2,0:0:0:0:
423,130,11215,2,0,B|436:90|436:90|405:29,1,82.5000025177003,8|0,0:2|3:2,0:0:0:0:
293,195,11535,5,12,0:2:0:0:
361,241,11695,2,0,P|428:234|447:209,1,82.5000025177003,0|8,3:2|0:2,0:0:0:0:
293,195,12015,5,8,0:2:0:0:
223,239,12175,2,0,P|195:300|207:329,1,82.5000025177003,8|8,0:2|0:2,0:0:0:0:
198,311,12415,1,8,0:2:0:0:
198,311,12495,1,14,0:2:0:0:
285,358,12655,5,0,3:2:0:0:
285,358,12735,1,0,3:2:0:0:
308,366,12815,1,0,3:2:0:0:
332,362,12895,1,0,3:2:0:0:
353,350,12975,1,0,3:2:0:0:
366,329,13055,1,0,3:2:0:0:
368,304,13135,1,8,2:2:0:0:
324,234,13295,1,2,3:2:0:0:
383,177,13455,6,0,P|388:136|367:85,1,82.5000025177003,6|0,3:2|3:2,0:0:0:0:
322,34,13775,2,0,L|227:54,1,82.5000025177003,0|2,3:2|3:2,0:0:0:0:
164,81,14095,2,0,L|69:61,1,82.5000025177003,0|0,3:2|3:2,0:0:0:0:
13,109,14415,2,0,P|8:150|29:201,1,82.5000025177003,8|0,0:2|0:2,0:0:0:0:
87,324,14735,2,0,P|92:283|80:245,1,82.5000025177003,2|0,3:2|3:2,0:0:0:0:
20,373,15055,2,0,P|81:348|171:395,1,165.000005035401,8|2,0:2|3:2,0:0:0:0:
240,350,15535,5,0,3:2:0:0:
200,277,15695,1,0,3:2:0:0:
241,205,15855,1,2,3:2:0:0:
207,129,16015,2,0,P|202:82|229:46,1,82.5000025177003,0|0,3:2|3:2,0:0:0:0:
294,18,16335,6,0,B|329:39|329:39|378:15,1,82.5000025177003,10|0,0:2|0:2,0:0:0:0:
446,38,16655,1,0,3:2:0:0:
461,57,16735,1,0,3:2:0:0:
468,80,16815,1,0,3:2:0:0:
466,104,16895,1,0,3:2:0:0:
454,125,16975,2,0,P|413:135|369:114,1,82.5000025177003,8|0,0:2|0:2,0:0:0:0:
156,165,17295,6,0,P|229:132|304:161,1,165.000005035401,6|0,3:2|3:2,0:0:0:0:
347,232,17775,2,0,B|322:337|322:337|354:359|378:382,1,165.000005035401,2|0,3:2|3:2,0:0:0:0:
449,378,18255,2,0,P|457:336|441:294,1,82.5000025177003,10|0,0:2|3:2,0:0:0:0:
462,140,18575,2,0,P|454:180|467:219,1,82.5000025177003,2|0,3:2|3:2,0:0:0:0:
503,68,18895,1,2,3:2:0:0:
287,16,19215,5,6,3:2:0:0:
274,37,19295,1,0,3:2:0:0:
251,46,19375,1,0,3:2:0:0:
226,42,19455,1,0,3:2:0:0:
204,29,19535,1,0,3:2:0:0:
180,22,19615,1,0,3:2:0:0:
155,25,19695,1,8,3:2:0:0:
132,35,19775,1,8,0:2:0:0:
116,54,19855,2,0,P|116:88|120:116,2,41.2500012588501,0|0|0,3:2|3:2|3:0,0:0:0:0:
58,132,20201,6,0,P|62:185|62:243,1,110.000003356934,10|8,2:2|0:3,0:0:0:0:
48,256,20504,1,0,3:2:0:0:
5,323,20655,5,8,0:2:0:0:
125,294,20815,5,8,0:2:0:0:
245,265,20975,5,8,0:2:0:0:
353,235,21135,6,0,P|354:191|358:142,1,75,6|0,3:2|0:0,0:0:0:0:
413,111,21455,2,0,P|396:73|296:69,2,150,0|0|10,2:2|0:0|0:2,0:0:0:0:
284,189,22415,1,2,3:2:0:0:
411,265,22735,6,0,P|447:275|483:266,1,75,2|0,3:2|0:0,0:0:0:0:
355,315,23055,2,0,P|286:319|211:352,1,150,2|0,3:2|0:2,0:0:0:0:
146,314,23535,2,0,P|87:306|6:262,1,150,2|0,3:2|3:2,0:0:0:0:
48,199,24015,2,0,P|44:151|53:113,1,75,10|0,0:2|0:2,0:0:0:0:
116,17,24335,2,0,P|121:55|116:92,1,75,2|0,3:2|3:2,0:0:0:0:
174,139,24655,1,10,2:2:0:0:
456,101,24975,6,0,P|417:41|346:49,1,150,2|0,3:2|0:2,0:0:0:0:
298,106,25455,2,0,L|318:271,1,150,2|0,3:2|3:2,0:0:0:0:
366,310,25935,2,0,P|337:363|300:370,1,75,8|0,0:2|0:2,0:0:0:0:
254,344,26255,2,0,P|211:328|156:350,1,75,2|0,3:2|0:2,0:0:0:0:
119,371,26575,2,0,P|66:378|29:358,1,75,2|0,3:2|0:2,0:0:0:0:
7,306,26895,6,0,B|-13:250|14:210|14:210|-9:144,1,150,2|0,3:2|0:2,0:0:0:0:
33,22,27375,2,0,P|40:59|31:95,1,75,2|0,3:2|0:0,0:0:0:0:
92,137,27695,1,0,3:2:0:0:
146,85,27855,5,8,0:2:0:0:
206,128,28015,1,0,3:2:0:0:
275,100,28175,1,0,3:2:0:0:
292,27,28335,1,8,0:2:0:0:
348,76,28495,2,0,P|384:83|434:61,1,75,8|4,0:3|0:3,0:0:0:0:
465,209,28815,6,0,P|429:158|398:151,1,75,6|0,3:2|0:0,0:0:0:0:
349,179,29135,2,0,L|197:201,1,150,2|2,0:2|0:0,0:0:0:0:
150,256,29615,1,0,3:0:0:0:
85,218,29775,2,0,P|68:174|86:126,1,75,8|0,0:0|0:0,0:0:0:0:
123,92,30095,2,0,P|167:75|215:93,1,75,0|0,3:0|2:0,2:0:0:0:
262,108,30415,1,2,3:2:0:0:
268,257,30735,5,2,3:2:0:0:
413,215,31055,1,0,0:2:0:0:
413,215,31215,2,0,P|453:275|431:344,1,150,2|0,3:2|3:2,0:0:0:0:
360,368,31695,2,0,P|311:361|282:333,1,75,8|0,0:2|0:2,0:0:0:0:
252,282,32015,2,0,P|208:272|164:295,1,75,2|0,3:2|3:2,0:0:0:0:
125,333,32335,1,8,0:2:0:0:
172,147,32655,6,0,P|195:84|184:52,1,75,2|0,3:2|0:0,0:0:0:0:
140,26,32975,2,0,P|73:37|51:63,1,75,0|2,0:2|3:2,0:0:0:0:
51,114,33295,2,0,P|94:165|127:171,1,75,0|0,0:0|3:2,0:0:0:0:
99,167,33535,1,0,3:2:0:0:
99,167,33615,2,0,P|151:148|195:155,1,75,10|0,0:2|0:2,0:0:0:0:
304,201,33935,2,0,P|267:202|235:185,1,75,2|0,3:2|0:2,0:0:0:0:
288,131,34255,1,2,3:2:0:0:
406,39,34575,6,0,B|426:98|420:136|420:136|424:144|424:144|412:211|439:275,2,225,6|0|4,3:2|3:2|0:3,0:0:0:0:
258,9,35855,1,8,0:2:0:0:
54,142,36495,5,2,0:2:0:0:
54,142,36815,1,2,0:2:0:0:
71,257,37455,1,0,0:2:0:0:
71,257,37775,1,2,0:2:0:0:
179,301,38415,1,2,0:2:0:0:
179,301,38735,1,2,0:2:0:0:
271,229,39375,1,0,0:2:0:0:
271,229,39695,1,2,0:2:0:0:
302,116,40335,5,2,0:2:0:0:
302,116,40655,1,0,0:2:0:0:
302,116,40975,1,0,0:2:0:0:
377,178,41295,2,0,P|420:185|477:150,2,97.4999955368044,2|0|2,0:2|0:2|0:2,0:0:0:0:
304,243,42255,1,2,0:2:0:0:
304,243,42575,2,0,P|261:236|204:271,1,97.4999955368044,0|0,0:2|0:2,0:0:0:0:
197,355,43215,2,0,B|262:386|328:347|277:341|339:286|437:340,1,243.749988842011,2|0,0:2|0:0,0:0:0:0:
424,333,44175,5,2,0:2:0:0:
424,333,44495,1,2,0:2:0:0:
489,235,45135,1,0,0:2:0:0:
489,235,45455,1,2,0:2:0:0:
453,123,46095,1,2,0:2:0:0:
453,123,46415,1,2,0:2:0:0:
341,87,47055,2,0,P|300:97|282:98,1,48.7499977684022,2|0,0:2|0:2,0:0:0:0:
227,71,47375,1,2,0:2:0:0:
130,136,48015,5,2,0:2:0:0:
130,136,48335,2,0,P|106:104|120:40,1,97.4999955368044,0|0,0:2|0:2,0:0:0:0:
189,34,48975,2,0,P|213:66|199:130,1,97.4999955368044,2|0,0:2|0:2,0:0:0:0:
267,169,49615,1,2,0:2:0:0:
214,226,49935,2,0,L|109:211,1,97.4999955368044,2|0,0:2|0:2,0:0:0:0:
66,271,50575,2,0,L|162:284,1,97.4999955368044,0|2,0:2|0:2,0:0:0:0:
216,341,51215,2,0,B|253:351|298:330|272:311|304:286|362:297,1,146.249993305207,2|0,0:2|0:0,0:0:0:0:
417,326,51855,6,0,P|390:297|412:194,1,142.49999619484,6|0,3:2|0:2,0:0:0:0:
456,155,52335,2,0,L|297:177,1,142.49999619484,2|0,3:2|3:2,0:0:0:0:
258,217,52815,2,0,P|212:203|170:218,1,71.2499980974198,8|0,0:2|0:2,0:0:0:0:
145,262,53135,2,0,P|155:308|189:337,1,71.2499980974198,0|0,3:2|0:2,0:0:0:0:
240,337,53455,2,0,P|275:304|283:260,1,71.2499980974198,0|0,3:2|0:2,0:0:0:0:
258,217,53775,6,0,P|257:168|224:56,1,142.49999619484,2|0,3:2|0:2,0:0:0:0:
166,56,54255,2,0,P|146:124|142:195,1,142.49999619484,2|0,3:2|3:2,0:0:0:0:
91,245,54735,1,8,0:2:0:0:
226,288,55055,1,0,3:2:0:0:
89,328,55375,1,0,3:2:0:0:
225,368,55695,1,4,0:2:0:0:
480,22,59535,6,0,P|498:92|494:179,1,142.49999619484,6|0,3:2|0:2,0:0:0:0:
426,153,60015,2,0,P|420:207|436:306,1,142.49999619484,2|0,3:2|3:2,0:0:0:0:
482,344,60495,2,0,P|441:326|399:326,1,71.2499980974198,8|0,0:2|0:2,0:0:0:0:
346,304,60815,2,0,P|303:324|267:324,1,71.2499980974198,0|0,3:2|0:2,0:0:0:0:
209,313,61135,1,0,3:2:0:0:
72,354,61455,6,0,P|59:315|105:222,1,142.49999619484,6|0,3:2|0:2,0:0:0:0:
162,196,61935,2,0,P|160:131|89:56,1,142.49999619484,2|0,3:2|3:2,0:0:0:0:
49,43,62415,1,14,0:2:0:0:
349,361,63375,6,0,P|354:298|383:184,1,150,6|0,3:2|0:2,0:0:0:0:
424,158,63855,1,0,3:2:0:0:
424,158,64015,2,0,P|415:105|399:58,1,75,2|0,0:2|3:2,0:0:0:0:
413,9,64335,2,0,P|366:-8|317:12,1,75,10|0,0:2|0:2,0:0:0:0:
293,53,64655,2,0,P|243:83|208:72,1,75,2|0,3:2|0:2,0:0:0:0:
162,45,64975,2,0,P|118:26|71:37,1,75,0|8,3:2|0:2,0:0:0:0:
30,70,65295,6,0,P|12:102|48:217,1,150,2|0,3:2|0:2,0:0:0:0:
172,241,65775,2,0,L|98:248,1,75,0|0,3:2|0:0,0:0:0:0:
231,288,66095,1,0,3:2:0:0:
231,288,66255,2,0,L|391:306,1,150,8|0,0:2|3:2,0:0:0:0:
440,260,66735,1,10,0:2:0:0:
466,189,66895,1,0,3:2:0:0:
428,124,67055,1,8,0:2:0:0:
355,105,67215,6,0,P|353:63|246:33,1,150,2|0,3:2|0:2,0:0:0:0:
215,78,67695,2,0,P|217:120|324:150,1,150,2|0,3:2|3:2,0:0:0:0:
355,105,68175,1,8,0:2:0:0:
440,228,68495,2,0,P|457:276|451:312,1,75,2|0,3:2|0:2,0:0:0:0:
410,360,68815,2,0,P|362:377|326:371,1,75,2|8,3:2|0:2,0:0:0:0:
279,329,69135,6,0,P|234:313|138:355,1,150,2|0,3:2|0:2,0:0:0:0:
0,224,69615,2,0,P|5:295|72:323,1,150,2|0,3:2|3:2,0:0:0:0:
125,270,70095,1,8,0:2:0:0:
89,203,70255,1,0,3:2:0:0:
135,144,70415,1,0,3:2:0:0:
100,77,70575,2,0,L|112:-2,2,75,8|8|0,2:2|0:2|0:2,0:0:0:0:
194,210,71055,6,0,B|246:219|271:188|264:190|293:158|369:181,1,150,6|0,3:2|0:2,0:0:0:0:
393,221,71535,1,2,3:2:0:0:
369,292,71695,2,0,P|336:306|300:297,1,75,0|0,0:2|3:2,0:0:0:0:
437,325,72015,2,0,P|493:327|519:307,1,75,8|0,0:2|0:0,0:0:0:0:
488,245,72335,2,0,B|505:215|505:215|510:147|452:92,1,150,0|0,3:2|3:2,0:0:0:0:
400,67,72815,1,8,0:2:0:0:
338,110,72975,6,0,P|291:142|184:114,1,150,2|0,3:2|0:2,0:0:0:0:
149,76,73455,2,0,P|77:59|13:95,1,150,0|0,3:2|3:2,0:0:0:0:
2,170,73935,2,0,P|14:203|13:260,1,75,8|0,0:2|0:2,0:0:0:0:
94,353,74255,2,0,P|81:318|80:281,1,75,0|8,3:2|0:2,0:0:0:0:
207,298,74575,1,8,0:3:0:0:
168,362,74735,1,8,0:2:0:0:
165,235,74895,6,0,L|176:70,1,150,2|0,3:2|0:2,0:0:0:0:
223,27,75375,2,0,P|264:9|382:54,1,150,2|0,3:2|3:2,0:0:0:0:
420,80,75855,2,0,L|410:229,2,150,8|0|2,0:2|3:2|3:2,0:0:0:0:
475,30,76655,1,8,0:2:0:0:
346,98,76815,6,0,L|336:247,1,150,2|0,3:2|0:2,0:0:0:0:
497,290,77295,2,0,P|438:332|368:315,1,150,2|0,3:1|0:2,0:0:0:0:
297,327,77775,2,0,P|262:332|237:356,1,71.2499980974198,8|0,0:2|3:2,0:0:0:0:
173,322,78095,1,8,0:3:0:0:
173,322,78175,1,8,0:3:0:0:
173,322,78255,1,4,0:3:0:0:
115,280,78415,2,0,P|124:245|119:210,1,71.2499980974198,4|0,0:3|3:3,0:0:0:0:
113,117,78735,5,12,0:2:0:0:
175,170,78895,2,0,P|223:173|262:158,1,82.5000025177003,0|0,3:2|3:2,0:0:0:0:
295,90,79215,1,8,0:2:0:0:
357,36,79375,2,0,P|405:33|444:48,1,82.5000025177003,0|0,3:2|3:2,0:0:0:0:
504,91,79695,2,0,B|524:128|524:128|508:180,1,82.5000025177003,12|0,0:2|3:2,0:0:0:0:
464,302,80015,2,0,B|444:265|444:265|456:227,1,82.5000025177003,12|0,0:2|3:2,0:0:0:0:
383,187,80335,2,0,L|286:200,1,82.5000025177003,14|0,0:2|3:2,0:0:0:0:
142,229,80655,5,12,0:2:0:0:
189,161,80815,2,0,P|189:113|153:69,1,82.5000025177003,0|0,3:2|3:2,0:0:0:0:
107,32,81135,1,12,0:2:0:0:
172,84,81295,2,0,P|234:90|271:67,1,82.5000025177003,0|0,3:2|3:2,0:0:0:0:
313,27,81615,1,12,0:2:0:0:
393,9,81775,1,0,3:2:0:0:
393,9,81855,1,0,3:2:0:0:
393,9,81935,2,0,P|431:37|437:100,1,82.5000025177003,12|0,0:2|3:2,0:0:0:0:
488,137,82255,2,0,P|464:176|466:238,1,82.5000025177003,8|0,0:2|3:2,0:0:0:0:
502,273,82575,6,0,P|477:317|359:312,1,150,14|0,3:2|0:2,0:0:0:0:
320,369,83055,2,0,P|295:325|177:330,1,150,2|0,3:2|3:2,0:0:0:0:
141,353,83535,2,0,P|135:307|114:262,1,75,8|0,0:2|0:2,0:0:0:0:
67,368,83855,2,0,P|54:333|51:296,1,75,0|2,3:2|0:2,0:0:0:0:
72,223,84175,1,0,3:2:0:0:
23,52,84495,6,0,B|65:39|111:69|86:71|118:117|176:99,1,150,6|0,3:2|0:2,0:0:0:0:
216,54,84975,2,0,B|256:49|284:79|284:79|299:36|337:32,1,150,2|0,3:2|3:2,0:0:0:0:
415,44,85455,2,0,P|430:94|443:131,1,75,8|0,0:2|3:2,0:0:0:0:
437,115,85695,1,0,3:3:0:0:
437,115,85775,2,0,P|436:169|429:204,1,75,8|8,0:3|0:3,0:0:0:0:
407,260,86095,1,4,0:3:0:0:
454,318,86255,1,4,0:3:0:0:
448,333,86415,5,6,3:2:0:0:
107,289,94095,5,4,2:3:0:0:
91,225,94415,1,2,0:2:0:0:
91,225,94495,1,2,0:0:0:0:
91,225,94575,2,0,P|85:177|105:125,1,97.4999955368044,0|0,3:2|0:2,0:0:0:0:
152,88,95055,1,8,0:2:0:0:
304,77,96015,5,2,3:2:0:0:
340,141,96335,1,2,0:2:0:0:
340,141,96495,2,0,P|408:137|429:107,1,97.4999955368044,0|0,3:2|0:2,0:0:0:0:
416,51,96975,2,0,P|418:88|519:124,1,146.249993305207,8|0,0:2|3:2,0:0:0:0:
447,252,97935,6,0,P|444:214|433:183,1,48.7499977684022,2|0,3:2|0:0,0:0:0:0:
374,237,98255,2,0,P|377:275|388:306,1,48.7499977684022,2|0,0:2|3:2,0:0:0:0:
445,323,98575,1,0,0:0:0:0:
157,267,98895,6,0,P|157:242|163:219,1,48.7499977684022,10|0,0:2|0:2,0:0:0:0:
230,252,99215,2,0,P|230:277|225:301,1,48.7499977684022,2|0,0:2|3:2,0:0:0:0:
160,339,99534,1,2,0:2:0:0:
271,27,99855,5,2,3:2:0:0:
215,76,100175,1,0,0:2:0:0:
215,76,100335,2,0,P|171:78|132:119,1,97.4999955368044,0|0,3:2|0:2,0:0:0:0:
273,112,100815,2,0,P|317:114|356:155,1,97.4999955368044,8|2,0:2|3:2,0:0:0:0:
502,267,101775,6,0,P|453:250|384:325,1,142.49999619484,6|0,3:2|0:2,0:0:0:0:
328,342,102255,2,0,P|279:359|210:284,1,142.49999619484,0|0,3:2|3:2,0:0:0:0:
253,248,102735,2,0,P|257:193|245:157,1,71.2499980974198,8|0,0:2|0:2,0:0:0:0:
195,63,103055,2,0,P|190:98|196:134,1,71.2499980974198,0|2,3:2|0:2,0:0:0:0:
240,7,103375,1,0,3:2:0:0:
196,134,103695,6,0,P|152:150|70:87,1,142.49999619484,6|0,3:2|0:2,0:0:0:0:
10,74,104175,2,0,P|45:104|32:206,1,142.49999619484,2|0,3:2|3:2,0:0:0:0:
5,253,104655,2,0,P|1:302|22:330,1,71.2499980974198,8|0,0:2|0:2,0:0:0:0:
74,351,104975,2,0,L|222:331,1,142.49999619484,0|0,3:2|3:2,0:0:0:0:
358,365,105615,5,6,3:2:0:0:
419,51,109455,6,0,P|446:94|436:203,1,142.49999619484,6|0,3:2|0:2,0:0:0:0:
391,230,109935,1,0,3:2:0:0:
330,192,110095,2,0,P|324:150|336:111,1,71.2499980974198,2|0,0:2|3:2,0:0:0:0:
292,61,110415,2,0,P|284:27|178:26,2,142.49999619484,8|0|0,0:2|3:2|3:2,0:0:0:0:
197,167,111375,6,0,B|146:166|135:196|138:190|125:229|69:226,1,142.49999619484,6|0,3:2|0:2,0:0:0:0:
9,255,111855,2,0,B|60:254|71:284|68:278|81:317|137:314,1,142.49999619484,0|0,3:2|3:2,0:0:0:0:
197,341,112335,1,8,0:2:0:0:
247,290,112495,1,0,3:2:0:0:
319,323,112655,1,8,0:3:0:0:
319,323,112735,1,8,0:3:0:0:
319,323,112815,2,0,P|357:330|399:312,2,71.2499980974198,4|8|4,0:3|0:3|0:3,0:0:0:0:
325,247,113295,6,0,P|327:194|343:75,1,150,6|0,3:2|0:2,0:0:0:0:
268,71,113775,2,0,P|258:145|254:220,1,150,0|0,3:2|3:2,0:0:0:0:
207,278,114255,2,0,P|171:288|134:282,1,75,8|0,0:2|0:2,0:0:0:0:
10,231,114575,2,0,P|47:237|83:227,1,75,2|0,3:2|0:2,0:0:0:0:
191,156,114895,2,0,P|155:167|119:161,1,75,2|8,3:2|0:2,0:0:0:0:
70,103,115215,6,0,P|66:62|167:22,1,150,2|0,3:2|0:2,0:0:0:0:
224,15,115695,2,0,P|228:66|337:64,1,150,0|0,3:2|3:2,0:0:0:0:
370,42,116175,1,8,0:2:0:0:
488,134,116495,1,0,3:2:0:0:
488,134,116655,2,0,P|468:181|477:221,2,75,8|0|8,0:2|3:2|0:2,0:0:0:0:
498,59,117135,6,0,P|459:26|357:57,1,150,2|0,3:2|0:2,0:0:0:0:
321,102,117615,2,0,P|282:135|180:104,1,150,0|0,3:2|3:2,0:0:0:0:
138,63,118095,1,8,0:2:0:0:
4,132,118415,2,0,P|18:197|22:222,1,75,2|0,3:2|0:2,0:0:0:0:
89,231,118735,2,0,P|80:267|73:304,1,75,2|8,3:2|0:2,0:0:0:0:
22,359,119055,6,0,P|80:330|153:375,1,150,2|0,3:2|0:2,0:0:0:0:
336,331,119535,2,0,P|270:360|209:322,1,150,2|0,3:2|3:2,0:0:0:0:
176,254,120015,2,0,P|183:211|194:171,1,75,8|0,2:2|3:2,2:2:0:0:
143,121,120335,1,0,3:0:0:0:
210,88,120495,1,8,2:0:0:0:
348,81,120655,1,8,2:0:0:0:
281,110,120815,1,4,0:3:0:0:
338,11,120975,6,0,P|347:50|468:61,1,150,6|0,3:2|0:2,0:0:0:0:
500,34,121455,2,0,P|467:60|505:174,1,150,0|0,3:2|3:2,0:0:0:0:
422,209,121935,2,0,P|437:241|430:307,1,75,8|0,0:2|0:0,0:0:0:0:
365,298,122255,2,0,P|350:266|357:200,1,75,2|0,3:2|0:2,0:0:0:0:
368,154,122575,1,2,3:2:0:0:
315,100,122735,1,8,0:2:0:0:
240,97,122895,6,0,L|79:129,1,150,2|0,3:2|0:2,0:0:0:0:
22,150,123375,2,0,L|183:182,1,150,0|0,3:2|3:2,0:0:0:0:
223,231,123855,1,8,0:2:0:0:
123,343,124175,1,0,3:2:0:0:
51,319,124335,1,8,0:2:0:0:
106,268,124495,2,0,P|104:218|79:171,1,75,0|8,3:2|0:2,0:0:0:0:
124,29,124815,6,0,P|59:56|61:127,1,150,2|0,3:2|0:2,0:0:0:0:
95,195,125295,2,0,P|134:185|256:173,1,150,0|0,3:2|3:2,0:0:0:0:
316,191,125775,2,0,P|366:195|413:192,1,75,10|0,0:2|0:2,0:0:0:0:
397,119,126095,2,0,P|359:115|322:115,1,75,0|2,3:2|0:2,0:0:0:0:
459,161,126415,1,0,3:2:0:0:
503,100,126575,1,8,0:2:0:0:
457,40,126735,6,0,P|407:23|309:62,1,150,2|0,3:2|0:2,0:0:0:0:
112,29,127215,2,0,P|182:51|249:20,1,150,2|0,3:1|0:2,0:0:0:0:
40,9,127695,2,0,P|36:53|48:86,1,75,8|0,0:2|3:2,0:0:0:0:
90,141,128015,1,0,3:3:0:0:
90,141,128095,1,0,3:3:0:0:
90,141,128175,1,8,0:3:0:0:
45,201,128335,2,0,P|40:245|33:291,1,75,8|4,0:3|0:3,0:0:0:0:
77,337,128655,5,14,0:2:0:0:
145,366,128815,1,0,3:2:0:0:
209,327,128975,1,0,3:2:0:0:
259,271,129135,5,8,0:2:0:0:
325,236,129295,1,0,3:2:0:0:
396,258,129455,1,0,3:2:0:0:
469,241,129615,6,0,P|471:195|472:152,1,75,12|0,0:2|3:2,0:0:0:0:
417,40,129935,2,0,P|416:77|415:115,1,75,14|0,0:2|3:2,0:0:0:0:
350,154,130255,2,0,P|293:154|266:133,1,75,14|0,0:2|3:2,0:0:0:0:
220,97,130575,5,14,0:2:0:0:
165,45,130735,1,0,3:2:0:0:
92,65,130895,1,0,3:2:0:0:
112,137,131055,5,8,0:2:0:0:
72,200,131215,1,0,3:2:0:0:
105,267,131375,1,0,3:2:0:0:
179,263,131535,6,0,P|219:286|265:275,1,75,14|0,0:2|3:2,0:0:0:0:
246,283,131775,1,0,3:2:0:0:
246,283,131855,2,0,B|263:250|263:250|243:196,1,75,12|0,2:2|3:2,0:0:0:0:
204,82,132175,2,0,B|191:117|191:117|208:151,1,75,12|0,0:2|0:0,0:0:0:0:
283,151,132495,6,0,P|366:150|447:153,1,150,6|0,3:2|0:2,0:0:0:0:
478,92,132975,2,0,P|511:142|485:247,1,150,2|0,3:2|3:2,0:0:0:0:
457,291,133455,1,10,0:2:0:0:
320,228,133775,1,0,3:2:0:0:
213,334,134095,1,0,3:2:0:0:
76,271,134415,6,0,P|61:199|96:134,1,150,6|0,3:2|0:2,0:0:0:0:
95,134,134895,1,0,3:2:0:0:
163,94,135055,1,2,0:3:0:0:
195,113,135146,1,2,0:3:0:0:
210,147,135237,1,2,0:3:0:0:
201,183,135329,1,2,0:3:0:0:
185,222,135420,2,0,P|177:279|180:305,1,75,4|0,0:3|3:2,0:0:0:0:
247,301,135661,6,0,P|251:325|258:354,2,50,0|0|8,3:0|3:0|0:0,0:0:0:0:
306,205,136015,5,8,0:2:0:0:
326,94,136175,5,8,0:2:0:0:
438,90,136335,6,0,P|475:127|466:234,1,150,6|0,3:2|0:2,0:0:0:0:
418,260,136815,1,2,0:2:0:0:
418,260,137135,1,0,0:2:0:0:
466,324,137295,1,2,0:2:0:0:
466,324,139535,5,8,0:2:0:0:
439,350,139615,1,8,0:2:0:0:
402,357,139695,1,8,0:2:0:0:
367,343,139775,1,8,0:2:0:0:
345,312,139855,1,8,0:3:0:0:
324,280,139935,1,8,0:3:0:0:
291,260,140015,1,4,0:3:0:0:
254,252,140095,1,4,0:3:0:0:
221,271,140175,6,0,P|177:290|70:250,1,150,6|0,3:2|0:2,0:0:0:0:
59,196,140655,1,2,0:2:0:0:
59,196,140975,1,0,0:2:0:0:
99,131,141135,1,2,0:2:0:0:
99,131,142095,5,0,3:2:0:0:
61,64,142255,1,0,3:2:0:0:
128,31,142415,2,0,P|194:20|259:78,1,150,8|0,0:2|3:2,0:0:0:0:
327,50,142895,2,0,L|314:131,1,75,8|8,0:2|0:3,0:0:0:0:
386,147,143215,2,0,L|397:72,1,75,8|0,0:2|3:3,0:0:0:0:
397,72,143455,1,0,3:3:0:0:
397,72,143535,1,8,0:3:0:0:
447,16,143695,2,0,P|474:46|518:49,1,75,8|4,0:3|0:3,0:0:0:0:
488,124,144015,6,0,B|518:140|518:140|538:206|499:275,1,150,6|0,3:2|3:2,0:0:0:0:
500,327,144495,2,0,P|440:351|342:301,1,150,0|0,3:2|3:2,0:0:0:0:
342,252,144975,1,8,0:2:0:0:
342,252,145455,1,0,3:2:0:0:
342,252,145775,1,0,3:2:0:0:
285,210,145935,1,2,3:2:0:0:
285,210,146255,1,0,3:2:0:0:
224,241,146415,1,0,3:2:0:0:
224,241,146735,1,0,3:2:0:0:
155,211,146895,6,0,L|142:51,1,150,8|0,0:2|3:2,0:0:0:0:
83,15,147375,1,8,0:2:0:0:
83,15,147455,1,8,0:2:0:0:
83,15,147535,2,0,P|46:8|13:24,1,75,8|4,0:3|0:3,0:0:0:0:
142,61,147855,6,0,P|183:66|287:31,1,150,6|0,3:2|0:2,0:0:0:0:
346,75,148335,1,2,3:2:0:0:
346,75,148655,1,0,3:2:0:0:
407,31,148815,2,0,P|440:38|468:212,1,225,10|0,0:2|3:2,0:0:0:0:
482,196,149615,1,0,3:2:0:0:
499,268,149775,1,2,3:2:0:0:
499,268,150095,1,0,3:2:0:0:
462,333,150255,1,0,3:2:0:0:
462,333,150575,1,0,3:2:0:0:
390,311,150735,6,0,P|351:300|303:317,1,75,8|0,0:2|3:2,0:0:0:0:
318,307,150975,1,0,3:2:0:0:
318,307,151055,1,8,0:3:0:0:
258,353,151215,1,4,0:3:0:0:
189,323,151375,2,0,P|173:285|195:201,1,112.5,8|0,0:2|0:0,0:0:0:0:
184,216,151695,6,0,P|206:171|148:81,1,134.999995880127,6|0,3:2|3:2,0:0:0:0:
110,83,152175,1,0,3:2:0:0:
110,83,152335,2,0,L|26:90,1,67.4999979400635,0|0,0:0|3:2,0:0:0:0:
7,146,152655,2,0,B|-5:181|9:226|22:199|39:244|26:296,1,134.999995880127,10|2,0:2|0:2,0:0:0:0:
12,340,153135,1,0,3:2:0:0:
12,340,153295,2,0,P|54:357|98:344,1,67.4999979400635,2|0,0:2|3:2,0:0:0:0:
130,315,153615,6,0,P|200:291|222:296,1,67.4999979400635,2|0,3:2|0:0,0:0:0:0:
320,322,153935,2,0,P|286:320|257:305,1,67.4999979400635,0|0,3:2|3:2,0:0:0:0:
243,238,154255,2,0,P|253:181|265:151,1,67.4999979400635,0|0,0:0|3:2,0:0:0:0:
313,60,154575,2,0,P|313:93|307:127,1,67.4999979400635,8|8,0:2|0:3,0:0:0:0:
358,184,154895,2,0,P|374:235|384:251,1,67.4999979400635,0|8,3:2|0:2,0:0:0:0:
381,246,155135,1,8,0:2:0:0:
381,246,155215,2,0,P|431:257|469:278,1,67.4999979400635,8|4,0:3|0:3,0:0:0:0:
491,313,155535,6,0,P|460:357|374:350,1,134.999995880127,6|0,3:2|3:2,0:0:0:0:
317,367,156015,2,0,P|286:323|200:330,1,134.999995880127,0|0,3:2|3:2,0:0:0:0:
151,355,156495,2,0,P|140:311|124:268,1,67.4999979400635,10|0,0:2|0:2,0:0:0:0:
84,367,156815,2,0,P|73:335|66:303,1,67.4999979400635,2|0,0:2|3:2,0:0:0:0:
22,251,157135,2,0,P|28:200|40:166,1,67.4999979400635,2|0,0:2|3:2,0:0:0:0:
18,118,157455,6,0,P|53:83|150:100,1,134.999995880127,2|0,3:2|3:2,0:0:0:0:
189,124,157935,2,0,B|236:115|263:129|249:136|286:160|339:149,1,134.999995880127,0|0,3:2|3:2,0:0:0:0:
372,111,158415,2,0,B|381:79|381:79|357:29,1,67.4999979400635,8|0,0:2|3:2,0:0:0:0:
366,48,158655,1,0,3:2:0:0:
366,48,158735,2,0,P|299:35|209:63,2,134.999995880127,8|2|6,0:2|0:3|3:2,0:0:0:0:
26,352,174255,5,0,3:2:0:0:
70,300,174415,2,0,P|68:253|58:230,1,56.2500021457673,8|0,0:2|3:2,0:0:0:0:
16,188,174735,6,0,P|23:123|32:111,1,56.2500021457673,6|0,3:2|0:2,0:0:0:0:
65,84,175055,2,0,L|186:101,1,112.500004291535,2|0,0:2|0:0,0:0:0:0:
293,32,175695,6,0,P|341:27|359:22,1,56.2500021457673,8|0,0:2|0:2,0:0:0:0:
412,46,176015,2,0,P|447:40|482:119,1,112.500004291535,2|2,3:2|3:2,0:0:0:0:
414,207,176655,6,0,B|406:224|406:224|415:273,1,56.2500021457673,2|0,3:2|0:0,0:0:0:0:
475,285,176975,2,0,B|483:268|483:268|474:219,1,56.2500021457673,0|2,0:2|3:2,0:0:0:0:
414,207,177295,2,0,P|362:211|337:209,1,56.2500021457673,0|0,0:0|3:2,0:0:0:0:
307,255,177615,2,0,P|260:272|205:223,1,112.500004291535,8|0,0:2|3:2,0:0:0:0:
231,174,178095,2,0,P|226:122|157:86,1,112.500004291535,2|8,0:2|0:2,0:0:0:0:
125,48,178575,6,0,P|98:45|36:112,1,112.500004291535,2|0,3:2|0:2,0:0:0:0:
18,162,179055,2,0,B|11:199|32:228|43:203|58:225|61:280,1,112.500004291535,2|0,3:2|3:2,0:0:0:0:
30,322,179535,1,8,0:2:0:0:
158,364,179855,1,2,0:2:0:0:
255,270,180175,1,4,0:3:0:0:
381,317,180495,6,0,P|426:326|474:244,1,134.999995880127,6|8,3:2|0:2,0:0:0:0:
425,219,180975,1,0,3:2:0:0:
445,154,181135,2,0,L|512:155,1,67.4999979400635,8|0,0:2|3:2,0:0:0:0:
393,109,181455,2,0,L|325:107,1,67.4999979400635,8|0,0:2|3:2,0:0:0:0:
282,54,181775,5,8,0:2:0:0:
218,30,181935,1,8,0:3:0:0:
156,57,182095,1,8,0:2:0:0:
129,119,182255,1,0,3:0:0:0:
147,183,182415,5,6,3:2:0:0:
40,31,185775,5,8,0:2:0:0:
129,78,185935,5,8,0:2:0:0:
218,126,186095,5,8,0:2:0:0:
316,179,186255,6,0,P|396:162|469:186,1,150,6|0,3:2|0:2,0:0:0:0:
492,248,186735,1,2,3:2:0:0:
440,302,186895,2,0,P|395:311|361:296,1,75,0|0,0:0|0:2,0:0:0:0:
224,281,187215,2,0,P|260:271|296:282,1,75,8|0,0:2|0:2,0:0:0:0:
160,321,187535,2,0,P|124:331|88:321,1,75,2|0,3:2|0:2,0:0:0:0:
73,213,187855,1,2,3:2:0:0:
29,274,188015,1,8,0:2:0:0:
19,159,188175,6,0,P|0:104|56:24,1,150,2|0,3:2|0:2,0:0:0:0:
98,83,188655,2,0,P|117:138|61:218,1,150,0|0,3:2|3:2,0:0:0:0:
5,246,189135,1,8,0:2:0:0:
119,343,189455,1,0,3:2:0:0:
119,343,189615,2,0,P|176:324|216:328,1,75,8|0,0:2|3:2,0:0:0:0:
262,347,189935,1,8,0:2:0:0:
333,369,190095,6,0,P|389:380|440:302,1,150,2|0,3:2|0:2,0:0:0:0:
389,258,190575,2,0,P|399:207|368:114,1,150,0|0,3:2|3:2,0:0:0:0:
305,75,191055,1,8,0:2:0:0:
200,183,191375,2,0,P|165:195|128:195,1,75,2|0,3:2|0:2,0:0:0:0:
208,107,191695,2,0,P|196:72|196:35,1,75,2|8,3:2|2:2,0:0:0:0:
277,139,192015,6,0,P|332:120|414:172,1,150,2|0,3:2|0:2,0:0:0:0:
475,75,192495,2,0,P|444:143|461:215,1,150,2|0,3:2|3:2,0:0:0:0:
431,284,192975,1,8,0:2:0:0:
431,284,193135,2,0,P|382:287|345:296,1,75,0|0,3:2|3:2,0:0:0:0:
318,357,193455,1,8,0:2:0:0:
186,351,193615,2,0,P|153:365|116:359,1,75,8|4,0:2|0:3,0:0:0:0:
244,302,193935,6,0,B|218:268|218:268|217:215|256:149,1,150,6|0,3:2|0:2,0:0:0:0:
290,105,194415,1,0,3:2:0:0:
242,47,194575,2,0,P|180:42|154:57,1,75,0|0,0:0|3:2,0:0:0:0:
127,108,194895,2,0,B|136:143|137:143|137:143|115:194,1,75,8|0,0:2|0:2,0:0:0:0:
47,170,195215,2,0,B|37:134|36:134|36:134|58:83,1,75,0|2,3:2|0:2,0:0:0:0:
122,178,195535,2,0,B|131:213|132:213|132:213|110:264,1,75,0|8,3:2|0:2,0:0:0:0:
61,298,195855,6,0,P|104:281|205:333,1,150,2|0,3:2|0:2,0:0:0:0:
262,285,196335,2,0,P|305:302|406:250,1,150,0|0,3:2|3:2,0:0:0:0:
458,307,196815,2,0,L|459:133,1,150,8|0,0:2|3:2,0:0:0:0:
481,85,197295,1,8,0:2:0:0:
431,29,197455,1,4,0:3:0:0:
357,45,197615,1,8,0:2:0:0:
327,114,197775,6,0,P|268:144|173:118,1,150,2|0,3:2|0:2,0:0:0:0:
113,119,198255,2,0,P|168:155|193:250,1,150,0|0,3:2|3:2,0:0:0:0:
164,364,198735,2,0,B|146:329|146:329|157:296,1,75,8|0,0:2|0:2,0:0:0:0:
226,323,199055,1,0,3:2:0:0:
226,323,199215,2,0,P|278:320|315:319,1,75,2|0,0:2|3:2,0:0:0:0:
376,314,199535,1,8,0:2:0:0:
442,349,199695,6,0,P|468:308|432:192,1,150,2|0,3:2|0:2,0:0:0:0:
400,31,200175,2,0,L|383:181,1,150,2|0,3:2|3:2,0:0:0:0:
322,136,200655,2,0,P|287:148|250:143,1,75,8|0,0:2|0:2,0:0:0:0:
185,104,200975,1,0,3:2:0:0:
227,42,201135,1,8,0:2:0:0:
158,29,201295,1,8,0:2:0:0:
158,29,201375,1,8,0:2:0:0:
158,29,201455,1,8,0:3:0:0:
158,29,201535,1,4,0:3:0:0:
158,29,201615,6,0,P|98:27|60:109,1,150,6|0,3:2|0:2,0:0:0:0:
97,162,202095,2,0,B|150:155|177:184|157:176|185:220|264:206,1,150,0|0,3:2|3:2,0:0:0:0:
301,175,202575,2,0,P|286:130|299:91,1,75,8|0,0:2|0:2,0:0:0:0:
375,164,202895,2,0,P|380:128|365:93,1,75,2|0,3:2|0:2,0:0:0:0:
434,210,203215,2,0,P|469:221|504:211,1,75,2|8,3:2|0:2,0:0:0:0:
380,263,203535,6,0,P|338:250|251:326,2,150,2|0|0,3:2|0:2|0:0,0:0:0:0:
421,325,204335,1,0,3:2:0:0:
479,277,204495,2,0,B|486:245|498:228|498:228|456:113,1,150,8|0,0:2|3:2,0:0:0:0:
482,63,204975,1,10,0:2:0:0:
418,23,205135,2,0,P|367:28|347:54,1,75,4|8,0:3|0:2,0:0:0:0:
302,99,205455,6,0,P|262:123|173:68,1,150,2|0,3:2|0:2,0:0:0:0:
127,24,205935,2,0,L|148:182,1,150,0|0,3:2|3:2,0:0:0:0:
99,231,206415,1,8,0:2:0:0:
176,359,206735,2,0,P|227:366|267:343,1,75,2|0,3:2|0:2,0:0:0:0:
304,307,207055,2,0,L|288:222,1,75,2|8,3:2|0:2,0:0:0:0:
312,161,207375,6,0,P|323:123|445:116,1,150,2|0,3:2|0:2,0:0:0:0:
498,275,207855,2,0,P|504:203|445:165,1,150,2|0,3:2|3:2,0:0:0:0:
386,212,208335,1,8,0:2:0:0:
419,278,208495,1,8,0:3:0:0:
379,342,208655,1,4,2:3:0:0:
304,347,208815,1,8,0:2:0:0:
252,292,208975,1,8,0:2:0:0:
185,256,209135,1,4,0:3:0:0:
114,281,209295,6,0,P|49:310|47:381,1,150,6|0,3:2|0:2,0:0:0:0:
115,205,209775,1,0,3:2:0:0:
115,205,209935,2,0,P|119:166|95:117,1,75,0|0,0:0|3:2,0:0:0:0:
158,78,210255,2,0,P|189:100|244:104,1,75,8|0,0:2|0:2,0:0:0:0:
243,180,210575,2,0,P|207:196|176:241,1,75,2|0,3:2|0:2,0:0:0:0:
178,297,210895,1,2,3:2:0:0:
235,345,211055,1,8,0:2:0:0:
309,334,211215,6,0,L|456:308,1,150,2|0,3:2|0:2,0:0:0:0:
468,234,211695,2,0,L|320:259,1,150,0|0,3:2|3:2,0:0:0:0:
252,227,212175,1,8,0:2:0:0:
370,134,212495,1,0,3:2:0:0:
370,134,212655,1,8,0:2:0:0:
327,72,212815,1,4,0:3:0:0:
327,72,212975,1,8,0:2:0:0:
383,22,213135,6,0,P|433:9|502:90,1,150,2|0,3:2|0:2,0:0:0:0:
467,137,213615,2,0,P|417:124|348:205,1,150,0|0,3:2|3:2,0:0:0:0:
392,245,214095,2,0,P|412:278|402:332,1,75,8|0,0:2|0:2,0:0:0:0:
338,333,214415,2,0,P|318:300|328:246,1,75,2|0,3:2|0:2,0:0:0:0:
260,217,214735,1,0,3:2:0:0:
202,265,214895,1,8,0:2:0:0:
130,241,215055,6,0,P|131:196|143:140,1,75,2|0,3:2|0:2,0:0:0:0:
150,21,215375,2,0,P|158:57|160:95,1,75,2|0,0:2|3:2,0:0:0:0:
87,117,215695,1,2,0:2:0:0:
210,150,215855,1,0,3:2:0:0:
326,98,216015,6,0,P|383:80|440:166,1,150,8|0,0:2|3:3,0:0:0:0:
441,138,216415,1,0,3:3:0:0:
441,138,216495,2,0,P|446:175|449:212,2,75,8|8|4,0:3|0:3|0:3,0:0:0:0:
487,277,216975,5,14,2:2:0:0:
428,324,217135,1,0,3:2:0:0:
357,298,217295,1,0,3:2:0:0:
291,333,217455,5,8,0:2:0:0:
232,286,217615,1,0,3:2:0:0:
159,305,217775,1,0,3:2:0:0:
97,348,217935,6,0,P|86:303|88:261,1,75,12|0,0:2|3:2,0:0:0:0:
128,147,218255,2,0,P|138:183|139:220,1,75,12|0,0:2|3:2,0:0:0:0:
62,111,218575,2,0,P|52:74|51:37,1,75,12|0,0:2|3:2,0:0:0:0:
121,62,218895,5,14,0:2:0:0:
178,13,219055,1,0,3:2:0:0:
245,45,219215,1,0,3:2:0:0:
309,6,219375,5,10,0:2:0:0:
359,61,219535,1,0,3:2:0:0:
430,39,219695,1,0,3:2:0:0:
478,96,219855,6,0,P|491:139|487:178,1,75,14|0,0:2|3:2,0:0:0:0:
489,168,220095,1,0,3:2:0:0:
489,168,220175,1,14,0:2:0:0:
443,228,220335,1,0,3:2:0:0:
478,293,220495,1,12,0:2:0:0:
275,359,220815,6,0,P|267:309|253:192,1,150,6|0,3:2|0:2,0:0:0:0:
284,141,221295,2,0,P|289:77|203:50,1,150,2|0,3:2|3:2,0:0:0:0:
161,92,221775,2,0,P|125:109|64:93,1,75,8|0,0:2|0:0,0:0:0:0:
29,63,222095,2,0,P|65:107|72:140,1,75,8|0,0:3|0:0,0:0:0:0:
47,195,222415,2,0,P|29:237|33:277,1,75,4|0,0:3|0:0,0:0:0:0:
76,324,222735,6,0,B|119:319|119:319|159:290|159:290|228:286,1,150,6|0,3:2|0:2,0:0:0:0:
216,286,223215,1,2,3:2:0:0:
311,329,223375,1,2,0:3:0:0:
341,311,223460,1,2,0:3:0:0:
357,280,223546,1,2,0:3:0:0:
351,245,223632,1,2,0:3:0:0:
332,215,223717,2,0,P|325:157|373:105,1,110.000003356934,8|0,0:2|3:2,0:0:0:0:
401,108,224015,5,8,0:2:0:0:
343,38,224175,5,8,0:2:0:0:
260,114,224335,5,8,0:2:0:0:
161,59,224495,5,8,0:2:0:0:
97,145,224655,6,0,P|89:209|116:288,1,142.49999619484,6|0,3:2|0:2,0:0:0:0:
174,318,225135,2,0,P|182:254|155:175,1,142.49999619484,0|0,3:2|3:2,0:0:0:0:
204,125,225615,2,0,P|245:110|287:118,1,71.2499980974198,8|0,0:2|0:2,0:0:0:0:
335,145,225935,2,0,P|368:173|382:213,1,71.2499980974198,2|0,3:2|0:2,0:0:0:0:
385,268,226255,2,0,P|377:311|349:343,1,71.2499980974198,2|0,3:2|0:2,0:0:0:0:
292,349,226575,6,0,L|123:326,1,142.49999619484,2|0,3:2|0:2,0:0:0:0:
157,258,227055,2,0,L|-12:235,1,142.49999619484,0|0,3:2|3:2,0:0:0:0:
40,171,227535,2,0,P|34:134|48:97,1,71.2499980974198,8|0,0:2|0:2,0:0:0:0:
93,49,227855,2,0,P|130:43|167:57,1,71.2499980974198,2|0,3:2|3:2,0:0:0:0:
217,97,228175,2,0,P|250:107|285:101,1,71.2499980974198,8|0,0:2|0:2,0:0:0:0:
472,51,228495,6,0,P|406:29|343:59,1,142.49999619484,2|0,3:2|0:2,0:0:0:0:
386,115,228975,2,0,P|367:153|386:250,1,142.49999619484,0|0,3:2|3:2,0:0:0:0:
409,314,229455,2,0,B|380:334|380:334|317:326,1,71.2499980974198,8|0,0:2|0:2,0:0:0:0:
275,349,229775,2,0,B|246:329|246:329|183:337,1,71.2499980974198,2|0,3:2|0:0,0:0:0:0:
151,375,230095,1,0,3:2:0:0:
184,164,230415,6,0,P|294:178|354:186,1,142.49999619484,2|0,3:2|0:2,0:0:0:0:
350,246,230895,2,0,P|396:249|434:154,1,142.49999619484,0|0,3:2|3:2,0:0:0:0:
477,112,231375,1,8,0:2:0:0:
436,53,231535,1,0,3:2:0:0:
379,96,231695,1,0,3:2:0:0:
316,61,231855,1,8,0:2:0:0:
281,123,232015,2,0,P|241:130|196:145,1,71.2499980974198,8|4,0:3|0:3,0:0:0:0:
68,164,232335,6,0,P|88:100|156:94,1,142.49999619484,6|0,3:2|0:2,0:0:0:0:
211,138,232815,2,0,B|223:174|223:174|201:225,1,71.2499980974198,0|0,3:2|0:0,0:0:0:0:
173,265,233135,1,0,3:2:0:0:
225,313,233295,2,0,P|268:319|312:300,1,71.2499980974198,8|0,0:2|0:2,0:0:0:0:
357,277,233615,2,0,P|391:269|426:276,1,71.2499980974198,2|0,3:2|0:2,0:0:0:0:
489,241,233935,2,0,L|486:313,1,71.2499980974198,2|0,3:2|0:2,0:0:0:0:
502,171,234255,6,0,P|497:132|401:109,1,142.49999619484,2|0,3:2|0:2,0:0:0:0:
347,68,234735,2,0,P|323:113|229:98,1,142.49999619484,0|0,3:2|3:2,0:0:0:0:
179,72,235215,2,0,L|186:1,1,71.2499980974198,8|0,0:2|0:2,0:0:0:0:
118,110,235535,2,0,L|110:180,1,71.2499980974198,2|0,3:2|3:2,0:0:0:0:
56,227,235855,1,8,0:2:0:0:
305,334,236175,6,0,P|317:290|239:223,1,142.49999619484,2|0,3:2|0:2,0:0:0:0:
187,210,236655,2,0,P|133:252|139:320,1,142.49999619484,0|0,3:0|0:0,0:0:0:0:
139,320,237055,1,8,0:3:0:0:
139,320,237135,2,0,P|92:337|55:352,1,71.2499980974198,8|0,0:2|3:3,0:0:0:0:
13,303,237455,1,2,3:2:0:0:
104,194,237775,1,2,3:2:0:0:
40,66,238095,6,0,P|91:111|239:80,2,213.749994292259,6|6|6,3:2|3:2|3:2,0:0:0:0:
94,25,239375,1,8,0:2:0:0:
184,342,240015,6,0,P|194:305|232:208,1,142.49999619484,6|0,3:2|3:2,0:0:0:0:
280,155,240495,2,0,P|307:220|327:288,1,142.49999619484,8|4,0:3|0:3,0:0:0:0:
395,325,240975,1,14,0:2:0:0:
256,192,241135,12,0,255375,0:2:0:0:
