osu file format v14

[General]
AudioFilename: audio.ogg
AudioLeadIn: 0
PreviewTime: 4910
Countdown: 0
SampleSet: Soft
StackLeniency: 0.7
Mode: 0
LetterboxInBreaks: 0
WidescreenStoryboard: 1

[Editor]
Bookmarks: 139550,139710
DistanceSpacing: 1
BeatDivisor: 4
GridSize: 32
TimelineZoom: 2.5

[Metadata]
Title:Event Horizon
TitleUnicode:Event Horizon
Artist:Ensou
ArtistUnicode:Ensou
Creator:Nao Tomori
Version:Hard
Source:
Tags:featured artist mappers' guild fa mpg mg electronic vocaloid rock tagalog filipino pinoy megpoid GUMI
BeatmapID:4287930
BeatmapSetID:2052791

[Difficulty]
HPDrainRate:4.5
CircleSize:4
OverallDifficulty:6.5
ApproachRate:7.5
SliderMultiplier:1.4
SliderTickRate:1

[Events]
//Background and Video events
0,0,"98903239_p0.jpg",0,0
//Break Periods
2,36695,51030
2,86615,100950
2,159575,173430
//Storyboard Layer 0 (Background)
//Storyboard Layer 1 (Fail)
//Storyboard Layer 2 (Pass)
//Storyboard Layer 3 (Foreground)
//Storyboard Layer 4 (Overlay)
//Storyboard Sound Samples

[TimingPoints]
1935,320,6,2,10,50,1,0
1935,-133.333333333333,3,2,10,50,0,0
4895,-133.333333333333,3,2,10,60,0,0
5215,-133.333333333333,3,2,10,80,0,0
5775,-90.9090909090909,3,2,10,80,0,0
19855,350.877192982456,6,2,10,80,1,0
20030,342.857142857143,6,2,10,80,1,0
20201,303.030303030303,6,2,10,80,1,0
20201,-90.9090909090909,3,2,10,80,0,0
20504,300.751879699248,6,2,10,80,1,0
20655,320,6,2,10,80,1,0
21135,320,6,2,10,80,1,0
21135,-100,3,2,10,80,0,0
21215,-100,3,2,10,70,0,0
36495,-153.846153846154,3,2,10,50,0,0
51855,-105.263157894737,3,2,10,70,0,0
55695,-105.263157894737,3,2,10,40,0,0
59455,-105.263157894737,3,2,10,70,0,0
62335,-105.263157894737,3,2,10,100,0,0
63375,-100,3,2,10,80,0,1
77295,-100,3,2,10,80,0,1
77775,-105.263157894737,3,2,10,80,0,1
78735,-90.9090909090909,3,2,10,80,0,1
79695,-90.9090909090909,3,2,10,80,0,1
82575,-100,3,2,10,80,0,1
86415,-90.9090909090909,3,2,10,60,0,0
86575,-153.846153846154,3,2,10,50,0,0
101775,-105.263157894737,3,2,10,70,0,0
105615,-153.846153846154,3,2,10,50,0,0
109455,-105.263157894737,3,2,10,70,0,0
113295,-100,3,2,10,80,0,1
132175,-100,3,2,10,80,0,1
132495,-100,3,2,10,80,0,1
135055,365.408038976858,6,2,10,80,1,1
135420,289.855072463768,6,2,10,80,1,1
135420,-100,6,2,10,80,0,1
135855,320,6,2,10,80,1,1
136335,320,6,2,10,70,1,0
136335,-100,3,2,10,70,0,0
136815,-133.333333333333,3,2,10,70,0,0
137295,-285.714285714286,3,2,10,50,0,0
139535,-100,3,2,10,70,0,0
140655,-133.333333333333,3,2,10,70,0,0
141135,-181.818181818182,3,2,10,50,0,0
141935,-181.818181818182,3,2,10,70,0,0
142415,-100,3,2,10,70,0,0
144975,-100,3,2,10,70,0,0
147855,-100,3,2,10,70,0,0
148815,-100,3,2,10,70,0,0
151695,-111.111111111111,3,2,10,70,0,0
174175,-133.333333333333,3,2,10,70,0,0
180495,-111.111111111111,3,2,10,70,0,0
184260,-111.111111111111,3,2,10,40,0,0
185695,-111.111111111111,3,2,10,80,0,0
186255,-100,3,2,10,80,0,1
216815,-100,3,2,10,70,0,0
216975,-100,3,2,10,80,0,1
223375,342.857142857143,6,2,10,80,1,1
223717,298.507462686567,6,2,10,80,1,1
224175,320,6,2,10,80,1,1
224655,320,6,2,10,70,1,0
224655,-105.263157894737,3,2,10,70,0,0
239375,-105.263157894737,3,2,10,70,0,0
240335,-105.263157894737,3,2,10,70,0,0
240895,-153.846153846154,3,2,10,50,0,0

[Colours]
Combo1 : 224,207,207
Combo2 : 170,255,170
Combo3 : 176,211,255
Combo4 : 250,163,175

[HitObjects]
512,369,5295,5,8,0:2:0:0:
445,317,5455,2,0,P|404:326|388:379,1,78.7500030040742,4|0,0:2|0:0,0:0:0:0:
386,355,5775,6,0,P|381:294|389:191,1,154.000004699707,6|8,3:2|0:2,0:0:0:0:
445,141,6255,1,0,0:2:0:0:
421,59,6415,2,0,P|373:47|322:67,1,77.0000023498536,8|0,0:2|3:2,0:0:0:0:
282,110,6735,2,0,P|249:118|192:103,1,77.0000023498536,8|0,0:2|0:0,0:0:0:0:
150,52,7055,1,8,0:2:0:0:
76,27,7215,1,0,3:2:0:0:
76,27,7295,1,0,3:2:0:0:
76,27,7375,2,0,P|25:43|12:85,1,77.0000023498536,8|0,2:2|3:2,0:0:0:0:
62,126,7695,6,0,P|40:171|52:298,1,154.000004699707,6|8,2:2|0:2,0:0:0:0:
109,321,8175,1,0,3:2:0:0:
180,273,8335,2,0,L|268:268,1,77.0000023498536,8|0,0:2|3:2,0:0:0:0:
329,316,8655,2,0,L|417:311,1,77.0000023498536,12|8,0:2|0:2,0:0:0:0:
479,268,8975,1,0,3:2:0:0:
479,268,9055,1,0,3:2:0:0:
479,268,9135,1,0,3:2:0:0:
479,268,9215,1,0,3:2:0:0:
479,268,9295,2,0,P|487:226|461:189,1,77.0000023498536,8|0,0:2|3:2,0:0:0:0:
480,112,9615,6,0,P|456:171|354:177,1,154.000004699707,14|8,0:2|0:2,0:0:0:0:
307,134,10095,2,0,P|299:101|308:41,1,77.0000023498536,0|8,3:2|2:2,0:0:0:0:
302,58,10415,1,0,3:2:0:0:
207,29,10575,2,0,P|210:67|202:104,1,77.0000023498536,12|0,0:2|0:0,0:0:0:0:
133,157,10895,1,8,0:2:0:0:
61,110,11055,1,0,3:2:0:0:
19,186,11215,2,0,P|3:232|18:280,1,77.0000023498536,8|0,0:2|3:2,0:0:0:0:
77,323,11535,5,12,0:2:0:0:
77,323,11695,2,0,P|129:319|173:306,1,77.0000023498536,0|8,3:2|0:2,0:0:0:0:
209,238,12015,1,8,0:2:0:0:
143,171,12175,2,0,P|135:126|123:73,1,77.0000023498536,8|8,0:2|0:2,0:0:0:0:
128,95,12415,1,8,0:2:0:0:
128,95,12495,6,0,P|147:60|248:88,1,154.000004699707,14|0,0:2|3:2,0:0:0:0:
328,118,12975,1,0,3:2:0:0:
328,118,13055,1,0,3:2:0:0:
328,118,13135,2,0,P|372:127|419:98,1,77.0000023498536,8|2,2:2|3:2,0:0:0:0:
463,54,13455,6,0,P|439:129|439:204,1,154.000004699707,6|0,3:2|3:2,0:0:0:0:
485,279,13935,1,2,3:2:0:0:
432,350,14095,2,0,P|384:361|346:342,1,77.0000023498536,0|0,3:2|3:2,0:0:0:0:
292,295,14415,2,0,P|299:256|273:202,1,77.0000023498536,8|0,0:2|0:2,0:0:0:0:
214,175,14735,2,0,L|121:205,1,77.0000023498536,2|0,3:2|3:2,0:0:0:0:
242,94,15055,2,0,L|335:124,1,77.0000023498536,8|0,0:2|3:2,0:0:0:0:
197,20,15375,6,0,B|150:9|102:51|131:56|104:91|35:86,1,154.000004699707,2|0,3:2|3:2,0:0:0:0:
5,28,15855,2,0,P|34:85|9:179,1,154.000004699707,2|0,3:2|3:2,0:0:0:0:
70,236,16335,2,0,P|56:286|62:323,1,77.0000023498536,10|0,0:2|0:2,0:0:0:0:
145,347,16655,1,0,3:2:0:0:
145,347,16735,1,0,3:2:0:0:
145,347,16815,1,0,3:2:0:0:
145,347,16895,1,0,3:2:0:0:
145,347,16975,2,0,P|201:351|240:322,1,77.0000023498536,8|0,0:2|0:2,0:0:0:0:
294,290,17295,6,0,B|300:245|300:245|257:199|257:199|267:127,1,154.000004699707,6|0,3:2|3:2,0:0:0:0:
216,83,17775,2,0,P|237:43|340:38,1,154.000004699707,2|0,3:2|3:2,0:0:0:0:
393,92,18255,2,0,P|380:144|379:184,1,77.0000023498536,10|0,0:2|3:2,0:0:0:0:
451,223,18575,1,2,3:2:0:0:
451,223,18735,1,0,3:2:0:0:
405,296,18895,2,0,P|356:308|305:292,1,77.0000023498536,2|0,3:2|3:2,0:0:0:0:
241,331,19215,6,0,P|202:296|93:343,1,154.000004699707,6|0,3:2|3:2,0:0:0:0:
42,256,19695,2,0,L|-11:269,2,38.5000011749268,8|8|4,3:2|0:2|0:3,0:0:0:0:
78,182,20030,1,4,0:3:0:0:
37,111,20201,2,0,P|34:63|128:31,1,154.000004699707,8|8,2:0|0:3,0:0:0:0:
156,106,20655,5,8,0:0:0:0:
219,149,20815,5,8,0:2:0:0:
295,132,20975,5,8,0:2:0:0:
363,79,21135,6,0,P|380:134|365:297,2,210,6|2|10,3:2|3:2|0:2,0:0:0:0:
253,166,22415,1,2,3:2:0:0:
133,85,22735,1,2,3:2:0:0:
3,183,23055,6,0,P|17:229|166:217,2,210,2|2|10,3:2|3:2|0:2,0:0:0:0:
81,46,24335,1,2,3:2:0:0:
81,46,24495,1,0,3:2:0:0:
144,93,24655,2,0,P|182:93|220:78,1,70,10|0,2:2|0:0,0:0:0:0:
274,17,24975,6,0,B|339:0|395:47|355:66|435:96|492:69,2,210,2|2|8,3:2|3:2|0:2,0:0:0:0:
367,166,26255,1,2,3:2:0:0:
283,285,26575,1,2,3:2:0:0:
456,370,26895,2,0,B|469:342|503:313|503:313|465:163,2,210,2|2|8,3:2|3:2|0:2,0:0:0:0:
384,338,28015,1,0,3:2:0:0:
384,338,28175,2,0,P|332:359|304:368,1,70,0|8,3:2|0:2,0:0:0:0:
243,319,28495,2,0,P|190:310|155:311,1,70,8|4,0:3|0:3,0:0:0:0:
97,353,28815,6,0,P|39:341|42:204,1,210,6|2,3:2|3:2,0:0:0:0:
142,69,29615,1,0,3:2:0:0:
211,120,29775,2,0,P|258:120|365:106,2,140,8|2|2,0:2|3:2|3:2,0:0:0:0:
134,268,30735,6,0,P|184:306|321:256,1,210,2|2,3:2|3:2,0:0:0:0:
493,352,31535,1,0,3:2:0:0:
434,297,31695,2,0,P|438:249|459:134,1,140,8|2,0:2|3:2,0:0:0:0:
488,84,32175,1,0,3:2:0:0:
441,15,32335,1,8,0:2:0:0:
304,72,32655,6,0,P|247:85|180:27,1,140,2|0,3:2|0:2,0:0:0:0:
152,136,33135,2,0,P|99:92|32:103,1,140,2|0,3:2|3:2,0:0:0:0:
32,103,33535,1,0,3:2:0:0:
32,103,33615,2,0,B|18:132|18:132|42:192,1,70,10|0,0:2|0:2,0:0:0:0:
82,243,33935,2,0,B|100:279|100:279|-14:250,1,140,2|2,3:2|3:2,0:0:0:0:
231,318,34575,6,0,P|297:298|430:369,2,210,6|0|4,3:2|3:2|0:3,0:0:0:0:
88,374,35855,1,8,0:2:0:0:
71,383,36495,5,2,0:2:0:0:
498,61,51855,6,0,P|449:95|370:69,1,132.999996448517,6|0,3:2|0:2,0:0:0:0:
309,30,52335,2,0,P|246:13|192:48,1,132.999996448517,2|0,3:2|3:2,0:0:0:0:
108,17,52815,2,0,B|101:65|101:65|132:163,2,132.999996448517,8|0|0,0:2|3:2|3:2,0:0:0:0:
0,266,53775,6,0,B|40:275|71:249|57:246|118:215|144:241,1,132.999996448517,2|0,3:2|0:2,0:0:0:0:
192,286,54255,2,0,B|257:305|257:305|332:267,1,132.999996448517,2|0,3:2|3:2,0:0:0:0:
384,228,54735,1,8,0:2:0:0:
492,141,55055,2,0,P|491:102|462:62,1,66.4999982242585,0|0,3:2|0:2,0:0:0:0:
398,92,55375,2,0,P|399:131|428:171,1,66.4999982242585,0|0,3:2|0:2,0:0:0:0:
384,228,55695,1,4,0:2:0:0:
20,40,59535,6,0,P|66:28|140:92,1,132.999996448517,6|0,3:2|0:2,0:0:0:0:
93,152,60015,2,0,L|85:303,1,132.999996448517,2|0,3:2|3:2,0:0:0:0:
30,353,60495,2,0,P|72:373|113:365,1,66.4999982242585,8|0,0:2|0:2,0:0:0:0:
221,319,60815,2,0,P|166:312|150:322,1,66.4999982242585,0|0,3:2|0:2,0:0:0:0:
289,364,61135,2,0,P|338:356|365:329,1,66.4999982242585,0|0,3:2|0:2,0:0:0:0:
442,363,61455,6,0,B|427:301|427:301|457:239|457:239|466:150,1,199.499994672775,6|2,3:2|3:2,0:0:0:0:
405,11,62255,1,0,3:2:0:0:
334,46,62415,1,14,0:2:0:0:
53,74,63375,6,0,P|39:123|42:165,1,70,6|0,3:2|0:2,0:0:0:0:
100,210,63695,2,0,P|149:197|184:174,1,70,0|0,0:2|3:2,0:0:0:0:
244,149,64015,2,0,P|293:161|328:184,1,70,2|0,0:2|3:2,0:0:0:0:
362,237,64335,2,0,P|363:280|356:340,1,70,10|0,0:2|0:2,0:0:0:0:
449,338,64655,2,0,P|448:295|455:235,1,70,2|0,3:2|0:2,0:0:0:0:
506,201,64975,1,0,3:2:0:0:
506,201,65135,1,8,0:2:0:0:
448,123,65295,6,0,P|401:95|322:144,1,140,2|0,3:2|0:2,0:0:0:0:
272,192,65775,2,0,P|225:220|146:171,1,140,0|0,3:2|3:2,0:0:0:0:
111,114,66255,1,8,0:2:0:0:
28,302,66575,1,0,3:2:0:0:
28,302,66735,1,10,0:2:0:0:
105,343,66895,2,0,P|157:349|189:332,1,70,0|8,3:2|0:2,0:0:0:0:
242,292,67215,6,0,P|240:233|236:137,1,140,2|0,3:2|0:2,0:0:0:0:
322,118,67695,2,0,P|324:187|327:257,1,140,2|0,3:2|3:2,0:0:0:0:
399,312,68175,1,8,0:2:0:0:
492,193,68495,2,0,P|500:151|481:114,1,70,2|0,3:2|0:2,0:0:0:0:
445,59,68815,2,0,P|403:77|362:70,1,70,2|8,3:2|0:2,0:0:0:0:
312,122,69135,2,0,B|272:118|228:146|256:143|207:185|153:171,1,140,2|0,3:2|0:2,0:0:0:0:
119,105,69615,2,8,B|111:63|133:38|133:38|182:72|176:126,1,140,2|0,3:2|3:2,0:0:0:0:
45,129,70095,6,0,P|10:161|37:267,1,140,8|0,0:2|3:2,0:0:0:0:
103,258,70575,1,8,2:2:0:0:
171,201,70735,2,0,P|161:151|158:110,1,70,8|0,0:2|0:2,0:0:0:0:
260,48,71055,6,0,P|251:151|248:205,2,140,6|0|0,3:2|0:2|0:2,0:0:0:0:
333,5,71855,1,0,3:2:0:0:
408,48,72015,2,0,P|420:101|409:143,1,70,8|0,0:2|0:0,0:0:0:0:
384,193,72335,2,0,P|374:235|419:344,1,140,0|0,3:2|3:2,0:0:0:0:
480,354,72815,1,8,0:2:0:0:
463,271,72975,6,0,B|397:270|388:302|396:326|314:328,1,140,2|0,3:2|0:2,0:0:0:0:
260,360,73455,2,0,P|218:323|121:349,1,140,0|0,3:2|3:2,0:0:0:0:
68,374,73935,1,8,0:2:0:0:
4,218,74255,1,0,3:2:0:0:
4,218,74415,1,8,0:2:0:0:
68,164,74575,2,0,P|60:105|51:77,1,70,8|8,0:3|0:2,0:0:0:0:
11,26,74895,6,0,P|42:63|151:61,1,140,2|0,3:2|0:2,0:0:0:0:
206,104,75375,2,0,P|256:57|349:70,1,140,2|0,3:2|3:2,0:0:0:0:
396,103,75855,2,0,P|435:117|493:101,1,70,8|0,0:2|0:2,0:0:0:0:
328,149,76175,2,0,P|325:196|304:230,1,70,0|0,3:2|0:2,0:0:0:0:
243,263,76495,1,2,3:2:0:0:
173,206,76655,1,8,0:2:0:0:
116,279,76815,6,0,B|94:312|94:312|133:368|197:335,1,140,2|0,3:2|0:2,0:0:0:0:
329,298,77295,2,0,B|287:250|223:274|223:274|239:284|257:303,1,140,2|0,3:1|0:2,0:0:0:0:
367,369,77775,2,0,P|372:315|398:239,1,132.999996448517,8|8,0:2|0:3,0:0:0:0:
457,182,78255,1,4,0:3:0:0:
457,182,78335,1,4,0:3:0:0:
457,182,78415,2,0,P|458:128|464:100,1,66.4999982242585,4|0,0:3|3:2,0:0:0:0:
409,20,78735,5,12,0:2:0:0:
372,101,78895,1,0,3:2:0:0:
372,101,79055,1,0,3:2:0:0:
291,52,79215,2,0,P|248:45|208:59,1,77.0000023498536,8|0,0:2|3:2,0:0:0:0:
216,54,79535,1,0,3:2:0:0:
145,114,79695,6,0,P|98:126|37:38,2,154.000004699707,12|12|14,0:2|0:2|0:2,0:0:0:0:
285,227,80655,5,12,0:2:0:0:
339,170,80815,1,0,3:2:0:0:
339,170,80975,1,0,3:2:0:0:
394,236,81135,1,12,0:2:0:0:
471,195,81295,2,0,P|468:135|461:102,1,77.0000023498536,0|0,3:2|3:2,0:0:0:0:
394,236,81615,6,0,P|397:296|404:329,1,77.0000023498536,12|0,0:2|3:2,0:0:0:0:
408,318,81855,1,0,3:2:0:0:
416,328,81935,2,0,P|364:337|328:348,1,77.0000023498536,12|0,0:2|3:2,0:0:0:0:
259,302,82255,2,0,P|201:306|162:298,1,77.0000023498536,8|0,0:2|3:2,0:0:0:0:
103,364,82575,6,0,B|68:341|68:341|52:282|97:227,1,140,14|0,3:2|0:2,0:0:0:0:
142,190,83055,2,0,P|141:120|108:60,1,140,2|0,3:2|3:2,0:0:0:0:
39,112,83535,2,0,P|50:144|53:179,1,70,8|0,0:2|0:2,0:0:0:0:
109,61,83855,2,0,P|172:67|209:54,1,70,0|2,3:2|0:2,0:0:0:0:
257,26,84175,1,0,3:2:0:0:
489,115,84495,6,0,P|447:90|356:123,1,140,6|0,3:2|0:2,0:0:0:0:
313,180,84975,2,0,P|271:205|180:172,1,140,2|0,3:2|3:2,0:0:0:0:
139,119,85455,1,8,0:2:0:0:
185,49,85615,1,0,3:2:0:0:
185,49,85695,1,0,3:3:0:0:
185,49,85775,2,0,P|226:50|275:46,1,70,8|8,0:3|0:3,0:0:0:0:
334,78,86095,2,0,P|382:75|411:68,1,70,4|4,0:3|0:3,0:0:0:0:
476,20,86415,5,6,3:2:0:0:
30,28,101775,6,0,P|17:84|18:182,1,132.999996448517,6|0,3:2|0:2,0:0:0:0:
85,200,102255,2,0,P|93:250|78:353,1,132.999996448517,0|0,3:2|3:2,0:0:0:0:
1,350,102735,2,0,P|2:315|14:271,1,66.4999982242585,8|0,0:2|0:2,0:0:0:0:
172,309,103055,2,0,P|171:344|159:388,1,66.4999982242585,0|2,3:2|0:2,0:0:0:0:
254,354,103375,2,0,P|301:357|334:343,1,66.4999982242585,0|0,3:2|0:2,0:0:0:0:
404,371,103695,6,0,B|409:325|390:303|388:311|361:279|385:231,1,132.999996448517,6|0,3:2|0:2,0:0:0:0:
453,195,104175,2,0,P|472:143|422:69,1,132.999996448517,2|0,3:2|3:2,0:0:0:0:
369,21,104655,2,0,L|283:39,1,66.4999982242585,8|0,0:2|0:2,0:0:0:0:
258,101,104975,2,0,B|213:127|213:127|171:100|107:103,1,132.999996448517,0|0,3:2|3:2,0:0:0:0:
0,196,105615,5,6,3:2:0:0:
456,29,109455,6,0,P|487:79|479:165,1,132.999996448517,6|0,3:2|0:2,0:0:0:0:
424,216,109935,1,0,3:2:0:0:
343,174,110095,2,0,P|347:119|350:85,1,66.4999982242585,2|0,0:2|3:2,0:0:0:0:
279,55,110415,2,0,B|234:49|203:84|222:80|191:108|146:109,1,132.999996448517,8|0,0:2|3:2,0:0:0:0:
99,53,110895,2,0,P|52:34|6:107,1,132.999996448517,2|0,0:2|0:2,0:0:0:0:
49,166,111375,6,0,P|66:206|13:284,1,132.999996448517,6|0,3:2|0:2,0:0:0:0:
77,358,111855,2,0,P|103:323|197:330,1,132.999996448517,0|0,3:2|3:2,0:0:0:0:
263,235,112335,2,0,P|259:271|259:306,1,66.4999982242585,8|0,0:2|3:2,0:0:0:0:
340,350,112655,1,8,0:3:0:0:
340,350,112735,1,8,0:3:0:0:
340,350,112815,1,4,0:3:0:0:
425,318,112975,2,0,P|464:313|509:338,1,66.4999982242585,8|4,0:3|0:3,0:0:0:0:
369,267,113295,6,0,P|365:187|370:110,1,140,6|0,3:2|0:2,0:0:0:0:
419,52,113775,1,0,3:2:0:0:
344,3,113935,2,0,P|303:1|255:17,1,70,0|0,0:0|3:2,0:0:0:0:
140,63,114255,2,0,P|192:70|229:51,1,70,8|0,0:2|0:2,0:0:0:0:
68,12,114575,2,0,P|57:53|60:88,1,70,2|0,3:2|0:2,0:0:0:0:
115,143,114895,1,2,3:2:0:0:
54,209,115055,1,8,0:2:0:0:
100,292,115215,6,0,P|220:274|259:269,1,140,2|0,3:2|0:2,0:0:0:0:
167,365,115695,2,0,P|287:347|326:342,1,140,0|0,3:2|3:2,0:0:0:0:
386,369,116175,2,0,P|434:374|469:359,2,70,8|0|0,0:2|0:2|3:2,0:0:0:0:
419,289,116655,1,8,0:2:0:0:
363,227,116815,1,0,3:2:0:0:
413,161,116975,1,8,0:2:0:0:
362,83,117135,6,0,P|318:69|231:128,1,140,2|0,3:2|0:2,0:0:0:0:
244,203,117615,2,0,P|200:217|113:158,1,140,0|0,3:2|3:2,0:0:0:0:
73,107,118095,1,8,0:2:0:0:
362,83,118415,2,0,P|358:131|354:179,1,70,2|0,3:2|0:2,0:0:0:0:
423,206,118735,1,2,3:2:0:0:
423,206,118895,1,8,0:2:0:0:
398,283,119055,6,0,P|357:312|256:277,1,140,2|0,3:2|0:2,0:0:0:0:
66,318,119535,2,0,P|131:298|191:332,1,140,2|0,3:2|3:2,0:0:0:0:
212,239,120015,2,0,P|202:176|196:142,1,70,8|0,0:2|3:2,0:0:0:0:
180,89,120335,1,0,3:2:0:0:
49,126,120495,2,0,P|110:145|143:129,1,70,8|8,0:2|0:2,0:0:0:0:
180,89,120815,1,4,0:3:0:0:
287,146,120975,6,0,P|338:122|433:154,1,140,6|0,3:2|0:2,0:0:0:0:
474,206,121455,1,0,3:2:0:0:
412,268,121615,2,0,P|416:302|420:349,1,70,0|0,0:0|3:2,0:0:0:0:
329,306,121935,2,0,P|325:272|321:225,1,70,8|0,0:2|0:0,0:0:0:0:
251,352,122255,2,0,P|211:345|161:365,1,70,2|0,3:2|0:2,0:0:0:0:
94,370,122575,2,0,P|54:377|4:357,1,70,2|8,3:2|0:2,0:0:0:0:
63,284,122895,6,0,B|39:250|39:250|62:184|68:141,1,140,2|0,3:2|0:2,0:0:0:0:
29,64,123375,2,0,P|61:115|149:113,1,140,0|0,3:2|3:2,0:0:0:0:
203,57,123855,2,0,P|210:21|128:31,1,140,8|0,0:2|3:2,0:0:0:0:
227,134,124335,1,8,0:2:0:0:
292,77,124495,2,0,P|326:74|367:74,1,70,0|8,3:2|0:2,0:0:0:0:
494,186,124815,6,0,P|451:193|355:159,1,140,2|0,3:2|0:2,0:0:0:0:
325,231,125295,2,0,P|389:264|472:266,1,140,0|0,3:2|3:2,0:0:0:0:
349,332,125775,2,0,P|315:321|286:302,1,70,10|0,0:2|0:2,0:0:0:0:
199,236,126095,2,0,L|206:334,1,70,0|2,3:2|0:2,0:0:0:0:
159,374,126415,1,0,3:2:0:0:
88,332,126575,1,8,0:2:0:0:
11,377,126735,6,0,P|-1:337|31:233,1,140,2|0,3:2|0:2,0:0:0:0:
83,115,127215,2,0,P|100:186|113:266,1,140,2|0,3:1|0:2,0:0:0:0:
172,316,127695,2,0,P|236:316|297:259,1,140,8|0,0:2|3:3,0:0:0:0:
329,197,128175,1,8,0:3:0:0:
403,251,128335,2,0,P|402:300|403:332,1,70,8|4,0:3|0:3,0:0:0:0:
482,359,128655,5,14,0:2:0:0:
508,278,128815,1,0,3:2:0:0:
508,278,128975,1,0,3:2:0:0:
459,188,129135,1,8,0:2:0:0:
459,188,129295,2,0,P|465:136|486:96,1,70,0|0,3:2|3:2,0:0:0:0:
417,49,129615,6,0,P|388:77|343:85,1,70,12|0,0:2|3:2,0:0:0:0:
222,53,129935,2,0,B|246:28|246:28|293:60,1,70,14|0,0:2|3:2,0:0:0:0:
156,110,130255,2,0,P|144:56|134:22,1,70,14|0,0:2|3:2,0:0:0:0:
83,163,130575,5,14,0:2:0:0:
83,163,130735,2,0,P|36:161|9:174,1,70,0|0,3:2|3:2,0:0:0:0:
128,237,131055,1,8,0:2:0:0:
64,291,131215,1,0,3:2:0:0:
64,291,131375,1,0,3:2:0:0:
161,311,131535,6,0,P|175:360|188:380,1,70,14|0,0:2|3:2,0:0:0:0:
184,375,131775,1,0,3:2:0:0:
184,375,131855,2,0,P|225:360|249:333,1,70,12|0,2:2|3:2,0:0:0:0:
290,226,132175,2,0,P|305:280|317:300,1,70,12|0,0:2|0:0,0:0:0:0:
383,343,132495,6,0,P|406:303|399:192,1,140,6|0,3:2|0:2,0:0:0:0:
346,134,132975,2,0,P|384:164|484:147,1,140,2|0,3:2|3:2,0:0:0:0:
501,72,133455,1,10,0:2:0:0:
315,9,133775,1,0,3:2:0:0:
173,106,134095,1,0,3:2:0:0:
5,39,134415,6,0,P|56:60|69:149,1,140,6|0,3:2|0:2,0:0:0:0:
14,193,134895,1,0,3:0:0:0:
99,358,135420,2,0,P|130:340|191:332,1,70,2|0,0:0|0:0,0:0:0:0:
242,334,135661,6,0,L|248:281,2,46.6666666666667,2|2|8,0:0|0:0|0:0,0:0:0:0:
336,315,136015,5,8,0:2:0:0:
425,352,136175,5,8,0:2:0:0:
506,309,136335,6,0,P|513:246|469:163,1,140,6|0,3:2|0:2,0:0:0:0:
410,133,136815,1,2,0:2:0:0:
410,133,137135,1,0,0:2:0:0:
354,192,137295,1,2,0:2:0:0:
66,33,139535,5,8,0:2:0:0:
66,33,139615,1,8,0:2:0:0:
66,33,139695,1,8,0:2:0:0:
66,33,139775,1,8,0:2:0:0:
66,33,139855,2,0,L|56:88,3,35,8|8|4|4,0:3|0:3|0:3|0:3,0:0:0:0:
32,95,140175,6,0,P|19:175|49:240,1,140,6|0,3:2|0:2,0:0:0:0:
116,269,140655,1,2,0:2:0:0:
116,270,140975,1,0,0:2:0:0:
183,220,141135,1,2,0:2:0:0:
472,340,142095,5,0,3:2:0:0:
418,275,142255,1,0,3:2:0:0:
340,317,142415,2,0,P|293:337|255:336,1,70,8|0,0:2|0:0,0:0:0:0:
199,296,142735,1,0,3:2:0:0:
142,234,142895,2,0,P|156:189|146:142,1,70,8|8,0:2|0:3,0:0:0:0:
91,102,143215,2,0,P|23:95|7:104,1,70,8|0,0:2|3:3,0:0:0:0:
24,94,143455,1,0,3:3:0:0:
24,94,143535,2,0,P|104:106|149:62,1,140,8|4,0:3|0:3,0:0:0:0:
229,18,144015,6,0,P|263:61|346:66,1,140,6|0,3:2|3:2,0:0:0:0:
428,28,144495,2,0,B|443:0|443:0|409:27,1,70,0|0,3:2|0:0,0:0:0:0:
417,112,144815,1,0,3:2:0:0:
483,160,144975,2,0,B|495:197|485:237|453:217|436:269|459:321,1,140,8|0,0:2|0:0,0:0:0:0:
505,353,145455,2,0,P|472:332|363:368,1,140,0|0,3:2|3:2,0:0:0:0:
298,323,145935,6,0,P|265:344|156:308,1,140,2|0,3:2|3:2,0:0:0:0:
97,364,146415,2,0,B|64:301|64:301|101:243,1,140,0|0,3:2|3:2,0:0:0:0:
79,152,146895,2,0,P|112:148|151:137,2,70,8|0|0,2:2|3:0|3:2,0:0:0:0:
9,112,147375,1,8,0:2:0:0:
9,112,147455,1,8,0:2:0:0:
9,112,147535,2,0,P|2:71|31:24,1,70,8|4,0:3|0:3,0:0:0:0:
93,6,147855,6,0,B|148:1|177:32|144:50|239:54,1,140,6|0,3:2|0:2,0:0:0:0:
288,100,148335,2,0,P|331:48|399:68,1,140,2|0,3:2|3:2,0:0:0:0:
440,134,148815,1,10,0:2:0:0:
386,324,149295,6,0,P|424:332|463:319,1,70,0|0,3:2|0:0,0:0:0:0:
499,251,149615,1,0,3:2:0:0:
420,203,149775,2,0,B|373:198|356:226|356:253|270:255,1,140,2|0,3:2|3:2,0:0:0:0:
214,214,150255,2,0,L|235:47,1,140,0|0,3:2|3:2,0:0:0:0:
172,15,150735,1,8,0:2:0:0:
102,69,150895,1,0,3:2:0:0:
102,69,150975,1,0,3:2:0:0:
102,69,151055,2,0,L|84:207,1,140,8|8,0:3|0:2,0:0:0:0:
3,353,151695,6,0,P|53:358|82:338,1,62.9999980773926,6|0,3:2|0:0,0:0:0:0:
134,303,152015,2,0,P|184:298|213:318,1,62.9999980773926,0|0,3:2|3:2,0:0:0:0:
255,360,152335,2,0,P|305:365|334:345,1,62.9999980773926,0|0,0:0|3:2,0:0:0:0:
390,313,152655,2,0,L|382:237,1,62.9999980773926,10|0,0:2|0:2,0:0:0:0:
322,191,152975,2,0,L|330:115,1,62.9999980773926,2|0,0:2|3:2,0:0:0:0:
391,67,153295,2,0,L|383:-9,1,62.9999980773926,2|0,0:2|3:2,0:0:0:0:
507,111,153615,6,0,P|472:134|441:126,1,62.9999980773926,2|0,3:2|0:0,0:0:0:0:
391,67,153935,2,0,L|383:-9,1,62.9999980773926,0|0,3:2|3:2,0:0:0:0:
328,128,154255,2,0,P|270:117|246:130,1,62.9999980773926,0|0,0:0|3:2,0:0:0:0:
185,77,154575,2,0,P|144:96|100:88,1,62.9999980773926,8|8,0:2|0:3,0:0:0:0:
44,48,154895,1,0,3:2:0:0:
52,144,155055,1,8,0:2:0:0:
52,144,155135,1,8,0:2:0:0:
52,144,155215,2,0,P|40:185|32:214,1,62.9999980773926,8|4,0:3|0:3,0:0:0:0:
7,288,155535,6,0,P|41:331|123:321,2,125.999996154785,6|0|0,3:2|3:2|0:0,0:0:0:0:
194,201,156495,2,0,P|188:146|183:119,1,62.9999980773926,10|0,0:2|0:2,0:0:0:0:
324,187,156815,2,0,P|279:219|258:237,1,62.9999980773926,2|0,0:2|3:2,0:0:0:0:
246,81,157135,2,0,P|296:103|322:112,1,62.9999980773926,2|0,0:2|3:2,0:0:0:0:
393,84,157455,2,0,B|430:66|462:42|462:42|438:68|441:92,1,125.999996154785,2|0,3:2|3:2,0:0:0:0:
483,153,157935,2,0,P|507:197|486:277,1,125.999996154785,0|0,3:2|3:2,0:0:0:0:
423,326,158415,5,8,0:2:0:0:
351,285,158575,1,0,3:2:0:0:
351,285,158655,1,0,3:2:0:0:
351,285,158735,2,0,P|296:275|247:332,2,125.999996154785,8|2|6,0:2|0:3|3:2,0:0:0:0:
505,354,174255,5,0,3:2:0:0:
454,291,174415,2,0,P|459:244|463:218,1,52.5000020027161,8|0,0:2|3:2,0:0:0:0:
510,169,174735,6,0,P|517:117|390:86,1,210.000008010865,6|0,3:2|0:0,0:0:0:0:
330,144,175535,1,0,3:2:0:0:
330,144,175695,2,0,P|295:170|170:82,1,210.000008010865,8|2,0:2|3:2,0:0:0:0:
32,214,176655,6,0,L|146:202,1,105.000004005432,2|0,3:2|0:2,0:0:0:0:
90,288,177135,2,0,L|204:276,1,105.000004005432,2|0,3:2|3:2,0:0:0:0:
262,326,177615,1,8,0:2:0:0:
430,245,178095,1,2,0:2:0:0:
267,95,178575,6,0,P|266:157|282:200,1,105.000004005432,2|0,3:2|0:2,0:0:0:0:
368,224,179055,2,0,P|369:162|353:119,1,105.000004005432,2|0,3:2|3:2,0:0:0:0:
414,54,179535,2,0,P|404:17|405:-5,1,52.5000020027161,8|0,0:2|0:2,0:0:0:0:
490,18,179855,2,0,P|500:55|499:77,1,52.5000020027161,2|8,0:2|0:3,0:0:0:0:
451,137,180175,1,4,0:3:0:0:
511,268,180495,5,6,3:2:0:0:
352,368,180815,1,8,0:2:0:0:
287,326,180975,2,0,L|292:259,2,62.9999980773926,0|8|0,3:2|0:2|3:2,0:0:0:0:
218,363,181455,2,0,P|178:361|140:374,1,62.9999980773926,8|0,0:2|3:2,0:0:0:0:
90,320,181775,2,0,P|54:334|16:332,1,62.9999980773926,8|8,0:2|0:3,0:0:0:0:
22,225,182095,2,0,P|53:227|82:239,1,62.9999980773926,8|0,0:2|3:0,0:0:0:0:
149,183,182415,5,6,3:2:0:0:
477,54,185775,5,8,0:2:0:0:
376,105,185935,5,8,0:2:0:0:
274,60,186095,5,8,0:2:0:0:
186,128,186255,6,0,P|169:173|192:267,1,140,6|0,3:2|0:2,0:0:0:0:
268,301,186735,1,2,3:2:0:0:
342,252,186895,2,0,P|337:198|329:171,1,70,0|0,0:0|0:2,0:0:0:0:
401,123,187215,2,0,P|406:69|414:42,1,70,8|0,0:2|0:2,0:0:0:0:
320,19,187535,2,0,P|315:73|307:100,1,70,2|0,3:2|0:2,0:0:0:0:
236,135,187855,1,2,3:2:0:0:
173,84,188015,1,8,0:2:0:0:
104,142,188175,6,0,P|54:137|8:226,1,140,2|0,3:2|0:2,0:0:0:0:
43,281,188655,2,0,P|93:276|139:365,1,140,0|0,3:2|3:2,0:0:0:0:
70,380,189135,1,8,0:2:0:0:
297,309,189455,1,0,3:2:0:0:
297,309,189615,2,0,P|333:313|371:320,2,70,8|0|8,0:2|3:2|0:2,0:0:0:0:
231,243,190095,6,0,P|190:261|85:274,1,140,2|0,3:2|0:2,0:0:0:0:
29,209,190575,2,0,P|70:191|175:178,1,140,0|0,3:2|3:2,0:0:0:0:
218,111,191055,1,8,0:2:0:0:
376,182,191375,2,0,P|363:126|359:100,1,70,2|0,3:2|0:2,0:0:0:0:
435,47,191695,2,0,P|448:103|452:129,1,70,2|8,3:2|2:2,0:0:0:0:
376,182,192015,6,0,P|325:184|274:260,1,140,2|0,3:2|0:2,0:0:0:0:
72,251,192495,2,0,P|135:244|197:305,1,140,2|0,3:2|3:2,0:0:0:0:
41,380,192975,1,8,0:2:0:0:
41,380,193135,2,0,P|19:345|20:303,1,70,0|0,3:2|3:2,0:0:0:0:
72,251,193455,1,8,0:2:0:0:
17,182,193615,2,0,P|4:114|-2:96,1,70,8|4,0:2|0:3,0:0:0:0:
109,19,193935,6,0,P|91:73|84:101,1,70,6|0,3:2|0:0,0:0:0:0:
144,207,194255,2,0,P|162:153|169:125,1,70,0|0,0:2|3:2,0:0:0:0:
241,102,194575,2,0,P|228:40|218:11,1,70,0|0,0:0|3:2,0:0:0:0:
316,139,194895,2,0,P|364:136|403:118,1,70,8|0,0:2|0:2,0:0:0:0:
477,60,195215,1,0,3:2:0:0:
477,60,195375,2,0,P|470:98|470:143,1,70,2|0,0:2|3:2,0:0:0:0:
508,209,195695,1,8,0:2:0:0:
469,283,195855,2,0,P|404:302|280:226,2,210,2|0|8,3:2|3:2|0:2,0:0:0:0:
315,92,197135,5,0,3:2:0:0:
257,147,197295,2,0,P|203:153|166:134,2,70,8|4|8,0:2|0:3|0:2,0:0:0:0:
148,75,197775,2,0,P|102:68|42:143,1,140,2|0,3:2|0:2,0:0:0:0:
4,215,198255,2,0,P|51:222|80:313,1,140,0|0,3:2|3:2,0:0:0:0:
34,361,198735,2,0,P|82:343|105:342,1,70,8|0,0:2|0:2,0:0:0:0:
172,298,199055,2,0,P|207:303|239:318,1,70,0|2,3:2|0:2,0:0:0:0:
314,366,199375,1,0,3:2:0:0:
364,300,199535,1,8,0:2:0:0:
442,345,199695,6,0,P|441:297|423:191,1,140,2|0,3:2|0:2,0:0:0:0:
319,64,200175,2,0,P|332:108|340:216,1,140,0|0,3:1|3:2,0:0:0:0:
249,180,200655,2,0,P|245:136|238:100,1,70,8|0,0:2|0:2,0:0:0:0:
166,71,200975,1,0,3:2:0:0:
166,71,201135,1,8,0:2:0:0:
94,112,201295,2,0,P|98:156|105:192,1,70,8|8,0:2|0:3,0:0:0:0:
5,244,201615,6,0,P|38:200|126:214,1,140,6|0,3:2|0:2,0:0:0:0:
174,268,202095,2,0,P|211:302|306:271,1,140,0|0,3:2|3:2,0:0:0:0:
345,209,202575,2,0,P|323:163|325:126,1,70,8|0,0:2|0:2,0:0:0:0:
383,83,202895,2,0,P|433:86|464:107,1,70,2|0,3:2|0:2,0:0:0:0:
473,178,203215,2,0,P|444:220|411:236,1,70,2|8,3:2|0:2,0:0:0:0:
345,209,203535,6,0,B|298:199|266:224|290:230|232:255|189:240,1,140,2|0,3:2|0:2,0:0:0:0:
143,198,204015,2,0,P|142:153|129:55,1,140,0|0,3:2|3:2,0:0:0:0:
52,44,204495,2,0,P|44:82|40:125,2,70,8|0|0,0:2|0:2|3:2,0:0:0:0:
135,66,204975,1,10,0:2:0:0:
135,66,205135,1,4,0:3:0:0:
204,27,205295,1,8,0:2:0:0:
204,27,205455,6,0,P|253:15|321:90,1,140,2|0,3:2|0:2,0:0:0:0:
297,149,205935,2,0,P|281:192|325:280,1,140,0|0,3:2|3:2,0:0:0:0:
395,300,206415,1,8,0:2:0:0:
478,152,206735,2,0,P|473:109|457:77,1,70,2|0,3:2|0:2,0:0:0:0:
367,56,207055,2,0,P|372:99|388:131,1,70,2|8,3:2|0:2,0:0:0:0:
315,181,207375,6,0,B|235:192|212:146|234:155|194:120|113:126,2,210,2|2|8,3:2|3:2|0:2,0:0:0:0:
390,220,208495,1,8,0:3:0:0:
342,289,208655,1,4,2:3:0:0:
408,346,208815,2,0,P|445:351|481:330,2,70,8|8|4,0:2|0:2|0:3,0:0:0:0:
261,309,209295,6,0,P|191:319|115:331,1,140,6|0,3:2|0:2,0:0:0:0:
202,237,209775,2,0,P|132:247|56:259,1,140,0|0,3:2|3:2,0:0:0:0:
6,194,210255,2,0,P|-7:139|-3:106,1,70,8|0,0:2|0:2,0:0:0:0:
44,52,210575,2,0,P|97:42|128:44,1,70,2|0,3:2|0:2,0:0:0:0:
196,82,210895,2,0,P|236:82|279:71,1,70,2|8,3:2|0:2,0:0:0:0:
343,27,211215,6,0,P|389:12|462:78,1,140,2|0,3:2|0:2,0:0:0:0:
407,130,211695,2,0,P|421:171|423:283,1,140,0|0,3:2|3:2,0:0:0:0:
396,358,212175,1,8,0:2:0:0:
232,277,212495,1,0,3:2:0:0:
232,277,212655,1,8,0:0:0:0:
158,330,212815,2,0,P|119:332|74:356,1,70,4|8,2:3|0:0,0:0:0:0:
16,310,213135,6,0,P|24:267|120:264,1,140,2|0,3:2|0:2,0:0:0:0:
187,203,213615,2,0,P|230:246|299:214,1,140,0|0,3:2|3:2,0:0:0:0:
377,258,214095,2,0,P|366:298|377:334,1,70,8|0,0:2|0:2,0:0:0:0:
458,327,214415,2,0,P|469:287|458:251,1,70,2|0,3:2|0:2,0:0:0:0:
416,187,214735,1,0,3:2:0:0:
476,121,214895,1,8,0:2:0:0:
422,54,215055,6,0,P|366:46|336:63,1,70,2|0,3:2|0:2,0:0:0:0:
283,102,215375,2,0,P|252:117|208:107,1,70,2|0,0:2|3:2,0:0:0:0:
135,86,215695,2,0,P|126:39|121:14,1,70,2|0,0:2|3:2,0:0:0:0:
50,70,216015,2,0,P|50:133|43:223,1,140,8|0,0:2|3:3,0:0:0:0:
6,288,216495,2,0,P|71:326|126:301,1,140,8|4,0:3|0:3,0:0:0:0:
205,335,216975,5,14,2:2:0:0:
264,276,217135,1,0,3:2:0:0:
264,276,217295,2,0,P|253:211|248:181,1,70,0|8,3:2|0:2,0:0:0:0:
311,141,217615,2,0,P|314:101|325:53,1,70,0|0,3:2|3:2,0:0:0:0:
381,193,217935,6,0,P|422:194|466:220,1,70,12|0,0:2|3:2,0:0:0:0:
501,299,218255,2,0,P|456:281|414:284,1,70,12|0,0:2|3:2,0:0:0:0:
361,334,218575,2,0,P|337:343|278:340,1,70,12|0,0:2|3:2,0:0:0:0:
212,295,218895,5,14,0:2:0:0:
256,217,219055,1,0,3:2:0:0:
256,217,219215,1,0,3:2:0:0:
201,150,219375,1,10,0:2:0:0:
247,73,219535,2,0,P|240:36|199:5,1,70,0|0,3:2|3:2,0:0:0:0:
132,27,219855,6,0,L|56:38,1,70,14|0,0:2|3:2,0:0:0:0:
62,37,220095,1,0,3:2:0:0:
62,37,220175,2,0,P|47:77|52:118,1,70,14|0,0:2|3:2,0:0:0:0:
103,170,220495,1,12,0:2:0:0:
300,205,220815,6,0,P|409:205|446:206,1,140,6|0,3:2|0:2,0:0:0:0:
482,292,221295,2,0,P|412:290|342:291,1,140,2|0,3:2|3:2,0:0:0:0:
280,343,221775,2,0,P|246:354|201:337,1,70,8|0,0:2|0:0,0:0:0:0:
154,286,222095,2,0,L|162:197,1,70,8|0,0:3|0:0,0:0:0:0:
82,331,222415,2,0,P|31:335|7:361,1,70,4|0,0:3|0:0,0:0:0:0:
154,286,222735,6,0,P|147:232|122:131,1,140,6|0,3:2|0:2,0:0:0:0:
160,69,223215,1,2,3:2:0:0:
90,325,223717,6,0,B|36:334|12:368|12:368|45:355|85:354,1,140,8|4,0:3|0:3,0:3:0:0:
169,358,224175,5,8,2:2:0:0:
255,292,224335,5,8,0:2:0:0:
355,342,224495,5,8,0:2:0:0:
443,281,224655,6,0,P|442:219|420:134,1,132.999996448517,6|0,3:2|0:2,0:0:0:0:
445,68,225135,2,0,P|417:101|325:112,1,132.999996448517,0|0,3:2|3:2,0:0:0:0:
293,39,225615,2,0,P|267:19|213:14,1,66.4999982242585,8|0,0:2|0:2,0:0:0:0:
163,51,225935,2,0,P|142:84|97:96,1,66.4999982242585,2|0,3:2|0:2,0:0:0:0:
37,80,226255,2,0,P|16:45|22:-2,1,66.4999982242585,2|0,3:2|0:2,0:0:0:0:
62,157,226575,6,0,B|72:203|51:228|51:228|45:269|71:291,1,132.999996448517,2|0,3:2|0:2,0:0:0:0:
26,365,227055,2,0,P|70:326|163:336,1,132.999996448517,0|0,3:2|3:2,0:0:0:0:
218,280,227535,2,0,P|255:317|286:319,1,66.4999982242585,8|0,0:2|0:2,0:0:0:0:
331,368,227855,2,0,P|348:343|404:330,1,66.4999982242585,2|0,3:2|3:2,0:0:0:0:
477,307,228175,1,8,0:2:0:0:
425,142,228495,6,0,P|360:160|271:188,1,132.999996448517,2|0,3:2|0:2,0:0:0:0:
223,229,228975,2,0,P|162:219|77:209,1,132.999996448517,0|0,3:2|3:2,0:0:0:0:
13,249,229455,2,0,P|-6:201|-7:171,1,66.4999982242585,8|0,0:2|0:2,0:0:0:0:
19,48,229775,2,0,P|38:96|39:126,1,66.4999982242585,2|0,3:2|0:0,0:0:0:0:
116,142,230095,1,0,3:2:0:0:
207,46,230415,6,0,P|249:81|337:67,1,132.999996448517,2|0,3:2|0:2,0:0:0:0:
392,20,230895,1,0,3:2:0:0:
475,61,231055,2,0,P|475:115|470:141,1,66.4999982242585,0|0,0:0|3:2,0:0:0:0:
400,174,231375,1,8,0:2:0:0:
400,174,231535,1,0,3:2:0:0:
471,230,231695,2,0,P|485:288|497:303,1,66.4999982242585,0|8,3:2|0:2,0:0:0:0:
431,358,232015,2,0,P|392:350|345:364,1,66.4999982242585,8|4,0:3|0:3,0:0:0:0:
291,297,232335,6,0,P|268:336|165:336,1,132.999996448517,6|0,3:2|0:2,0:0:0:0:
105,296,232815,2,0,L|121:151,1,132.999996448517,0|0,3:2|3:2,0:0:0:0:
54,110,233295,2,0,P|41:67|50:36,1,66.4999982242585,8|0,0:2|0:2,0:0:0:0:
121,6,233615,2,0,P|164:16|187:39,1,66.4999982242585,2|0,3:2|0:2,0:0:0:0:
246,88,233935,2,0,P|289:77|312:54,1,66.4999982242585,2|0,3:2|0:2,0:0:0:0:
468,44,234255,6,0,P|417:47|387:137,1,132.999996448517,2|0,3:2|0:2,0:0:0:0:
430,188,234735,2,0,P|471:232|436:320,1,132.999996448517,0|0,3:2|3:2,0:0:0:0:
325,343,235215,2,0,P|376:330|412:343,1,66.4999982242585,8|0,0:2|0:2,0:0:0:0:
245,369,235535,2,0,P|205:364|167:335,1,66.4999982242585,2|0,3:2|3:2,0:0:0:0:
163,259,235855,1,8,0:2:0:0:
11,102,236175,6,0,P|53:133|143:108,1,132.999996448517,2|0,3:2|0:2,0:0:0:0:
158,43,236655,2,0,P|200:12|290:37,1,132.999996448517,0|0,3:2|0:0,0:0:0:0:
275,24,237055,1,8,0:3:0:0:
275,24,237135,2,0,P|276:75|269:116,1,66.4999982242585,8|0,0:2|3:3,0:0:0:0:
346,146,237455,2,0,P|343:179|345:213,1,66.4999982242585,2|8,3:2|0:3,0:0:0:0:
292,284,237775,6,0,P|333:324|418:297,1,132.999996448517,2|6,3:2|3:2,0:0:0:0:
498,156,238575,1,6,3:2:0:0:
196,328,239055,1,6,3:2:0:0:
66,270,239375,1,8,0:2:0:0:
346,64,240015,6,0,P|346:128|341:213,1,132.999996448517,6|0,3:2|3:2,0:0:0:0:
431,238,240495,2,0,P|431:174|436:89,1,132.999996448517,8|4,0:3|0:3,0:0:0:0:
488,37,240975,1,14,0:2:0:0:
256,192,241135,12,0,255375,0:2:0:0:
