osu file format v14

[General]
AudioFilename: audio.ogg
AudioLeadIn: 0
PreviewTime: 4910
Countdown: 0
SampleSet: Soft
StackLeniency: 0.7
Mode: 0
LetterboxInBreaks: 0
WidescreenStoryboard: 1

[Editor]
Bookmarks: 139550,139710
DistanceSpacing: 1
BeatDivisor: 6
GridSize: 32
TimelineZoom: 2.5

[Metadata]
Title:Event Horizon
TitleUnicode:Event Horizon
Artist:Ensou
ArtistUnicode:Ensou
Creator:Nao Tomori
Version:Expert
Source:
Tags:featured artist mappers' guild fa mpg mg electronic vocaloid rock tagalog filipino pinoy megpoid GUMI
BeatmapID:4287675
BeatmapSetID:2052791

[Difficulty]
HPDrainRate:6
CircleSize:4.3
OverallDifficulty:8.3
ApproachRate:9.2
SliderMultiplier:1.76
SliderTickRate:1

[Events]
//Background and Video events
0,0,"98903239_p0.jpg",0,0
//Break Periods
2,159575,173685
//Storyboard Layer 0 (Background)
//Storyboard Layer 1 (Fail)
//Storyboard Layer 2 (Pass)
//Storyboard Layer 3 (Foreground)
//Storyboard Layer 4 (Overlay)
//Storyboard Sound Samples

[TimingPoints]
1935,320,6,2,10,50,1,0
1935,-133.333333333333,3,2,10,50,0,0
4895,-133.333333333333,3,2,10,60,0,0
5215,-133.333333333333,3,2,10,80,0,0
5775,-90.9090909090909,3,2,10,80,0,0
19855,350.877192982456,6,2,10,80,1,0
19855,-90.9090909090909,3,2,10,80,0,0
20030,342.857142857143,6,2,10,80,1,0
20030,-90.9090909090909,3,2,10,80,0,0
20201,303.030303030303,6,2,10,80,1,0
20201,-100,3,2,10,80,0,0
20504,300.751879699248,6,2,10,80,1,0
20504,-100,3,2,10,80,0,0
20655,320,6,2,10,80,1,0
20655,-100,3,2,10,80,0,0
21135,320,6,2,10,80,1,0
21135,-100,3,2,10,80,0,0
21215,-100,3,2,10,70,0,0
36495,-153.846153846154,3,2,10,40,0,0
36655,-153.846153846154,3,2,10,50,0,0
51855,-105.263157894737,3,2,10,70,0,0
55695,-105.263157894737,3,2,10,40,0,0
59455,-105.263157894737,3,2,10,70,0,0
62335,-105.263157894737,3,2,10,100,0,0
63375,-100,3,2,10,80,0,1
77295,-100,3,2,10,80,0,1
77775,-105.263157894737,3,2,10,80,0,1
79695,-90.9090909090909,3,2,10,80,0,1
86415,-90.9090909090909,3,2,10,60,0,0
86575,-153.846153846154,3,2,10,50,0,0
101775,-105.263157894737,3,2,10,70,0,0
105615,-153.846153846154,3,2,10,50,0,0
109455,-105.263157894737,3,2,10,70,0,0
113295,-100,3,2,10,80,0,1
132175,-76.9230769230769,3,2,10,80,0,1
132495,-100,3,2,10,80,0,1
135055,365.408038976858,6,2,10,80,1,1
135055,-100,3,2,10,80,0,1
135420,289.855072463768,6,2,10,80,1,1
135420,-100,3,2,10,80,0,1
135855,320,6,2,10,80,1,1
135855,-100,3,2,10,80,0,1
136335,320,6,2,10,70,1,0
136335,-100,3,2,10,70,0,0
136815,-133.333333333333,3,2,10,70,0,0
137295,-285.714285714286,3,2,10,50,0,0
139535,-100,3,2,10,70,0,0
140655,-133.333333333333,3,2,10,70,0,0
141135,-181.818181818182,3,2,10,50,0,0
141935,-181.818181818182,3,2,10,70,0,0
142415,-100,3,2,10,70,0,0
144975,-133.333333333333,3,2,10,70,0,0
147855,-100,3,2,10,70,0,0
148815,-133.333333333333,3,2,10,70,0,0
151695,-111.111111111111,3,2,10,70,0,0
174175,-133.333333333333,3,2,10,70,0,0
180495,-111.111111111111,3,2,10,70,0,0
184260,-111.111111111111,3,2,10,40,0,0
185135,-111.111111111111,3,2,10,70,0,0
185695,-111.111111111111,3,2,10,80,0,0
186255,-100,3,2,10,80,0,1
216815,-100,3,2,10,70,0,0
216975,-100,3,2,10,80,0,1
223375,342.857142857143,6,2,10,80,1,1
223375,-100,3,2,10,80,0,1
223717,298.507462686567,6,2,10,80,1,1
223717,-100,3,2,10,80,0,1
224175,320,6,2,10,80,1,1
224175,-100,3,2,10,80,0,1
224655,320,6,2,10,70,1,0
224655,-105.263157894737,3,2,10,70,0,0
239375,-222.222222222222,3,2,10,70,0,0
240335,-105.263157894737,3,2,10,70,0,0
240895,-153.846153846154,3,2,10,50,0,0

[Colours]
Combo1 : 224,207,207
Combo2 : 170,255,170
Combo3 : 176,211,255
Combo4 : 250,163,175

[HitObjects]
507,271,2895,6,0,P|501:222|482:192,1,66.0000025177003,8|0,0:2|0:2,0:2:0:0:
415,182,3215,2,0,P|375:211|359:243,1,66.0000025177003,8|0,0:2|0:2,0:2:0:0:
383,306,3535,2,0,P|428:325|463:323,1,66.0000025177003,8|0,0:2|0:2,0:2:0:0:
221,281,3855,6,0,B|154:275|135:317|143:323|99:360|26:349,2,198.000007553101,12|0|0,0:2|0:2|0:2,0:2:0:0:
117,210,4975,2,0,P|121:266|125:294,1,66.0000025177003,0|8,3:2|0:2,0:2:0:0:
371,302,5295,5,8,0:2:0:0:
426,348,5455,2,0,P|464:368|493:385,1,66.0000025177003,4|0,0:2|0:2,0:2:0:0:
188,86,5775,6,0,P|135:60|36:152,1,193.600005908203,6|8,3:2|0:2,0:2:0:0:
100,200,6255,1,0,0:2:0:0:
275,103,6415,2,0,P|256:22|249:-6,1,96.8000029541017,8|0,0:2|3:2,0:2:0:0:
297,209,6735,6,0,B|356:198|390:247|377:252|416:294|503:276,1,193.600005908203,8|8,0:2|0:2,0:2:0:0:
243,332,7215,1,0,3:2:0:0:
236,320,7295,1,0,3:2:0:0:
231,304,7375,1,8,2:2:0:0:
169,240,7535,1,0,3:2:0:0:
0,319,7695,6,0,P|47:347|131:309,1,145.200004431152,6|0,2:2|0:2,0:2:0:0:
126,316,8015,2,0,B|142:269|142:269|114:192,1,96.8000029541017,8|0,0:2|3:2,0:2:0:0:
0,36,8335,2,0,B|-16:83|-16:83|0:128,1,96.8000029541017,8|0,0:2|3:2,0:2:0:0:
271,184,8655,5,12,0:2:0:0:
185,74,8815,1,8,0:2:0:0:
329,75,8975,1,0,3:2:0:0:
348,105,9055,1,0,3:2:0:0:
377,126,9135,1,0,3:2:0:0:
412,134,9215,1,0,3:2:0:0:
448,128,9295,2,0,B|439:21,1,96.8000029541017,8|0,0:2|3:2,0:2:0:0:
322,271,9615,6,0,B|411:310|411:310|502:243,1,193.600005908203,14|8,0:2|0:2,0:2:0:0:
315,172,10095,1,0,3:2:0:0:
196,332,10255,2,0,P|255:362|300:340,1,96.8000029541017,8|0,2:2|3:2,3:2:0:0:
76,364,10575,6,0,B|54:330|54:330|43:255|108:206,1,145.200004431152,12|0,0:2|0:2,0:2:0:0:
80,232,10895,2,0,L|208:249,1,96.8000029541017,8|0,0:2|3:2,0:2:0:0:
422,206,11215,2,0,L|326:193,1,96.8000029541017,8|0,0:2|3:2,0:2:0:0:
112,128,11535,5,12,0:2:0:0:
192,12,11695,1,0,3:2:0:0:
258,137,11855,1,8,0:2:0:0:
44,33,12015,1,8,0:2:0:0:
280,20,12175,1,8,0:2:0:0:
167,209,12335,1,8,0:2:0:0:
162,194,12415,1,8,0:2:0:0:
156,174,12495,6,8,L|263:192,1,96.8000029541017,14|0,0:2|3:2,0:2:0:0:
269,179,12735,1,0,3:2:0:0:
291,169,12815,2,0,P|299:128|296:103,3,48.4000014770508,0|0|0|0,3:2|3:2|3:2|3:2,3:2:0:0:
371,97,13135,2,0,P|402:124|425:134,1,48.4000014770508,8|0,2:2|3:2,3:2:0:0:
403,201,13295,2,0,P|363:214|343:229,1,48.4000014770508,2|0,3:2|3:2,3:2:0:0:
282,369,13455,5,6,3:2:0:0:
214,307,13615,1,0,3:2:0:0:
134,364,13775,1,0,3:2:0:0:
12,286,13935,5,2,3:2:0:0:
89,222,14095,1,0,3:2:0:0:
32,140,14255,1,0,3:2:0:0:
164,41,14415,6,0,P|185:103|191:157,1,96.8000029541017,8|0,0:2|0:2,0:2:0:0:
289,117,14735,2,0,P|280:69|263:24,1,96.8000029541017,2|0,3:2|3:2,0:2:0:0:
239,203,15055,1,8,0:2:0:0:
383,112,15215,1,0,3:2:0:0:
99,61,15375,5,2,3:2:0:0:
23,120,15535,1,0,3:2:0:0:
41,214,15695,1,0,3:2:0:0:
121,164,15855,5,2,3:2:0:0:
178,264,16015,1,0,3:2:0:0:
278,244,16175,1,0,3:2:0:0:
419,301,16335,6,0,B|434:308|440:342|440:342|449:316|470:304,1,96.8000029541017,10|0,0:2|0:2,0:2:0:0:
509,212,16655,1,0,3:2:0:0:
496,182,16735,1,0,3:2:0:0:
470,159,16815,1,0,3:2:0:0:
436,145,16895,1,0,3:2:0:0:
400,161,16975,2,0,B|384:168|378:202|378:202|369:176|348:164,1,96.8000029541017,8|0,0:2|0:2,0:2:0:0:
97,61,17295,5,6,3:2:0:0:
212,116,17455,1,0,3:2:0:0:
322,34,17615,1,0,3:2:0:0:
104,157,17775,5,2,3:2:0:0:
200,17,17935,1,0,3:2:0:0:
313,128,18095,1,0,3:2:0:0:
214,300,18255,6,0,P|198:240|203:170,1,96.8000029541017,10|0,0:2|3:2,0:2:0:0:
435,257,18575,2,0,P|432:208|418:162,1,96.8000029541017,2|0,3:2|3:2,0:2:0:0:
313,240,18895,2,0,P|331:330|338:360,1,96.8000029541017,2|0,3:2|3:2,0:2:0:0:
494,100,19215,5,6,3:2:0:0:
475,83,19295,1,0,3:2:0:0:
454,71,19375,1,0,3:2:0:0:
431,64,19455,1,0,3:2:0:0:
407,62,19535,1,0,3:2:0:0:
383,65,19615,1,0,3:2:0:0:
361,74,19695,2,8,P|311:89|293:86,1,48.4000014770508
334,182,19855,2,8,P|306:169|266:167,1,48.4000014770508
224,122,20030,6,0,P|212:81|203:56,1,48.4000014770508,0|2,3:2|0:0,0:0:0:0:
197,64,20201,2,0,P|151:43|80:66,1,117.333333333333,10|8,2:2|0:3,2:1:0:0:
77,70,20504,1,0,3:2:0:0:
32,136,20655,5,8,0:2:0:0:
139,218,20815,5,8,0:2:0:0:
280,185,20975,5,8,0:2:0:0:
323,59,21135,6,0,P|377:37|473:137,1,176,6|0,3:2|2:2,0:2:0:0:
424,196,21615,2,0,B|460:296|460:296|432:329|419:366,1,176,2|0,3:2|3:2,0:2:0:0:
260,301,22095,2,0,P|315:281|361:304,1,88,10|0,0:2|0:2,0:2:0:0:
175,347,22415,2,0,P|132:354|93:334,1,88,2|0,3:2|0:2,0:2:0:0:
191,261,22735,2,0,P|169:200|178:122,1,132,2|0,3:2|0:2,0:2:0:0:
173,134,23055,6,0,L|-6:155,1,176,2|0,3:2|0:2,0:2:0:0:
195,42,23535,2,0,L|15:62,1,176,2|0,3:2|3:2,0:2:0:0:
300,177,24015,2,0,P|264:112|275:87,1,88,10|0,0:2|0:2,0:2:0:0:
316,31,24335,2,0,P|390:32|406:54,1,88,2|0,3:2|3:2,0:2:0:0:
432,118,24655,2,0,B|424:177|424:177|428:183|428:183|418:268,1,132,10|0,2:2|0:2,0:2:0:0:
476,312,24975,6,0,P|423:277|331:357,1,176,2|0,3:2|0:2,0:2:0:0:
94,294,25455,2,0,P|159:346|235:311,1,176,2|0,3:2|3:2,0:2:0:0:
297,178,25935,2,0,L|281:73,1,88,8|0,0:2|0:2,0:2:0:0:
158,174,26255,2,0,L|171:260,1,88,2|0,3:2|0:2,0:2:0:0:
307,161,26575,2,0,L|291:56,1,88,2|0,3:2|0:2,0:2:0:0:
512,105,26895,6,0,B|459:90|459:90|429:40|429:40|354:19,1,176,2|0,3:2|0:2,0:2:0:0:
188,104,27375,2,0,B|111:141|111:141|28:76,1,176,2|0,3:2|3:2,0:2:0:0:
122,27,27855,1,8,0:2:0:0:
183,200,28015,2,0,P|255:204|291:183,1,88,0|0,3:2|3:2,0:2:0:0:
448,125,28335,1,8,0:2:0:0:
376,86,28495,2,0,P|353:161|358:209,1,88,8|4,0:3|0:3,0:2:0:0:
110,365,28815,6,0,P|100:297|55:189,1,176,6|0,3:2|0:2,0:2:0:0:
122,27,29295,2,0,P|132:95|177:203,1,176,2|0,3:2|3:2,0:2:0:0:
353,323,29775,2,0,P|439:314|459:310,1,88,8|0,0:2|0:2,0:2:0:0:
512,208,30095,2,0,P|426:217|406:221,1,88,2|0,3:2|0:2,0:2:0:0:
361,126,30415,2,0,P|447:117|467:113,1,88,2|0,3:2|0:2,0:2:0:0:
282,33,30735,6,0,B|219:29|195:66|206:69|188:101|98:100,1,176,2|0,3:2|0:2,0:2:0:0:
11,245,31215,2,0,P|49:216|119:211,1,88,2|0,3:2|0:2,0:2:0:0:
177,232,31535,1,0,3:2:0:0:
328,282,31695,2,0,P|276:308|219:294,1,88,8|0,0:2|0:2,0:2:0:0:
352,179,32015,1,2,3:2:0:0:
410,336,32175,1,0,3:2:0:0:
352,179,32335,2,0,B|337:136|337:136|372:88,1,88,8|0,0:2|0:2,0:2:0:0:
502,300,32655,6,0,L|297:278,1,176,2|0,3:2|0:2,0:2:0:0:
229,225,33135,2,0,L|54:243,1,176,2|0,3:2|3:2,0:2:0:0:
46,238,33535,1,0,3:2:0:0:
36,232,33615,2,0,P|19:179|42:120,1,88,10|0,0:2|0:2,0:2:0:0:
222,218,33935,2,0,P|237:258|231:302,1,88,2|0,3:2|0:2,0:2:0:0:
23,234,34255,2,0,P|6:181|29:122,1,88,2|0,3:2|0:2,0:2:0:0:
248,39,34575,6,0,B|321:33|365:87|365:87|404:16|466:11,2,264,6|0|4,3:2|3:2|0:3,0:2:0:0:
183,100,35855,1,8,0:2:0:0:
500,340,36495,5,4,0:2:0:0:
435,292,36815,2,0,L|302:315,1,114.399994763184,2|0,0:2|0:2,0:2:0:0:
120,355,37455,5,0,0:2:0:0:
51,313,37775,2,0,P|34:274|67:195,1,114.399994763184,2|0,0:2|0:2,0:2:0:0:
49,39,38415,5,2,0:2:0:0:
110,89,38735,2,0,B|177:87|149:51|233:49,1,114.399994763184,2|0,0:2|0:2,0:2:0:0:
491,144,39375,5,0,0:2:0:0:
446,77,39695,2,0,P|400:68|344:131,1,114.399994763184,2|0,0:2|0:2,0:2:0:0:
331,268,40335,5,2,0:2:0:0:
388,323,40655,1,0,0:2:0:0:
409,245,40975,1,0,0:2:0:0:
352,190,41295,1,2,0:2:0:0:
409,135,41615,1,0,0:2:0:0:
401,55,41935,1,2,0:2:0:0:
335,9,42255,6,0,P|282:4|223:50,2,114.399994763184,2|0|0,0:2|0:2|0:2,0:2:0:0:
253,115,43215,2,0,B|192:126|121:69|177:70|111:36|18:40,1,228.799989526368,2|0,0:2|0:2,0:2:0:0:
46,336,44175,5,2,0:2:0:0:
98,275,44495,2,0,B|133:280|133:280|161:296|161:296|223:304,1,114.399994763184,2|0,0:2|0:2,0:2:0:0:
455,357,45135,5,0,0:2:0:0:
491,285,45455,2,0,L|472:156,1,114.399994763184,2|0,0:2|0:2,0:2:0:0:
355,26,46095,5,2,0:2:0:0:
315,95,46415,2,0,P|273:115|201:90,1,114.399994763184,2|0,0:2|0:2,0:2:0:0:
23,126,47055,6,0,P|15:80|20:65,1,57.1999973815919,2|0,0:2|0:2,0:2:0:0:
90,29,47375,2,0,L|103:142,1,114.399994763184,2|0,0:2|0:2,0:2:0:0:
311,349,48015,5,2,0:2:0:0:
360,285,48335,1,0,0:2:0:0:
349,205,48655,1,0,0:2:0:0:
283,158,48975,2,0,P|213:159|178:187,2,114.399994763184,2|0|2,0:2|0:2|0:2,0:2:0:0:
340,102,49935,1,2,0:2:0:0:
378,31,50255,1,0,0:2:0:0:
457,26,50575,1,0,0:2:0:0:
506,89,50895,5,2,0:2:0:0:
481,165,51215,2,0,L|497:299,1,114.399994763184,2|0,0:2|0:2,0:2:0:0:
98,51,51855,6,0,P|64:115|92:224,1,167.199995535278,6|0,3:2|0:2,0:2:0:0:
246,229,52335,2,0,B|282:198|282:198|140:222,1,167.199995535278,2|0,3:2|3:2,0:2:0:0:
331,280,52815,2,0,P|382:286|434:254,1,83.5999977676392,8|0,0:2|0:2,0:2:0:0:
317,122,53135,2,0,P|266:116|214:148,1,83.5999977676392,0|0,3:2|0:2,0:2:0:0:
407,149,53455,2,0,B|411:108|411:108|370:42,1,83.5999977676392,0|0,3:2|0:2,0:2:0:0:
154,344,53775,6,0,B|126:311|126:311|127:241|181:194,1,167.199995535278,2|0,3:2|0:2,0:2:0:0:
317,122,54255,2,0,B|337:161|331:229|298:177|277:238|317:307,1,167.199995535278,2|0,3:2|3:2,0:2:0:0:
484,365,54735,2,0,P|487:318|452:281,1,83.5999977676392,8|0,0:2|0:2,0:2:0:0:
240,344,55055,2,0,P|279:370|328:358,1,83.5999977676392,0|0,3:2|0:2,0:2:0:0:
467,212,55375,2,0,L|382:244,1,83.5999977676392,0|0,3:2|0:2,0:2:0:0:
304,279,55695,5,4,0:2:0:0:
50,41,59535,6,0,P|88:95|197:78,1,167.199995535278,6|0,3:2|0:2,0:2:0:0:
412,22,60015,2,0,P|332:11|280:73,1,167.199995535278,2|0,3:2|3:2,0:2:0:0:
467,181,60495,2,0,P|470:126|470:77,1,83.5999977676392,8|0,0:2|0:2,0:2:0:0:
280,159,60815,2,0,P|277:214|277:263,1,83.5999977676392,0|0,3:2|0:2,0:2:0:0:
485,199,61135,2,0,P|488:144|488:95,1,83.5999977676392,0|0,3:2|0:2,0:2:0:0:
358,254,61455,6,0,B|305:257|281:284|292:288|268:334|204:329,1,167.199995535278,6|0,3:2|0:2,0:2:0:0:
14,294,61935,2,0,P|84:231|158:274,1,167.199995535278,2|0,3:2|3:2,0:2:0:0:
266,133,62415,2,2,L|277:74,1,41.7999988838196,14|0,0:2|0:2,0:1:0:0:
481,362,63375,6,0,P|492:313|474:262,1,88,6|0,3:2|0:2,0:2:0:0:
307,268,63695,2,0,P|296:317|314:368,1,88,0|0,0:2|3:2,0:2:0:0:
410,218,64015,2,0,P|399:174|394:113,1,88,2|0,0:2|3:2,0:2:0:0:
211,9,64335,6,0,P|200:53|195:114,1,88,10|0,0:2|0:2,0:2:0:0:
126,170,64655,2,0,P|71:184|37:193,1,88,2|0,3:2|0:2,0:2:0:0:
246,269,64975,2,0,P|240:218|207:173,1,88,0|8,3:2|0:2,0:2:0:0:
389,19,65295,6,0,P|356:104|372:198,1,176,2|0,3:2|0:2,0:2:0:0:
481,372,65775,2,0,P|487:290|448:197,1,176,0|0,3:2|3:2,0:2:0:0:
268,246,66255,2,0,P|326:271|360:261,1,88,8|0,0:2|0:2,0:2:0:0:
491,131,66575,1,0,3:2:0:0:
331,180,66735,1,10,0:2:0:0:
267,41,66895,1,0,3:2:0:0:
384,93,67055,1,8,0:2:0:0:
175,183,67215,6,0,B|127:189|83:164|106:155|70:134|8:145,1,176,2|0,3:2|0:2,0:2:0:0:
188,315,67695,2,0,P|232:269|346:276,1,176,2|0,3:2|3:2,0:2:0:0:
446,221,68175,2,0,B|468:252|468:252|456:330,1,88,8|0,0:2|0:2,0:2:0:0:
363,165,68495,2,0,P|367:116|382:55,1,88,2|0,3:2|0:2,0:2:0:0:
413,6,68815,1,2,3:2:0:0:
457,127,68975,1,8,0:2:0:0:
283,89,69135,6,0,P|226:92|183:111,1,88,2|0,3:2|0:2,0:2:0:0:
132,157,69455,1,0,0:2:0:0:
323,326,69615,6,0,P|256:303|226:296,1,88,2|0,3:2|0:2,0:2:0:0:
148,331,69935,1,0,3:2:0:0:
419,260,70095,5,8,0:2:0:0:
307,213,70255,1,0,3:2:0:0:
400,140,70415,1,0,3:2:0:0:
323,326,70575,1,8,2:2:0:0:
205,147,70735,2,0,P|201:98|214:46,1,88,8|0,0:2|0:2,0:2:0:0:
22,302,71055,6,0,B|65:310|138:335|138:335|190:310|192:308,1,176,6|0,3:2|0:2,0:2:0:0:
332,228,71535,2,0,P|316:292|317:331,1,88,2|0,3:2|0:2,0:2:0:0:
384,366,71855,1,0,3:2:0:0:
475,325,72015,2,0,P|466:257|441:142,2,176,8|0|0,0:2|3:2|3:2,0:2:0:0:
384,366,72815,1,8,0:2:0:0:
237,246,72975,6,0,P|249:172|273:65,1,176,2|0,3:2|0:2,0:2:0:0:
103,181,73455,2,0,P|115:255|139:362,1,176,0|0,3:2|3:2,0:2:0:0:
2,306,73935,2,0,B|-8:284|-8:284|21:207,1,88,8|0,0:2|0:2,0:2:0:0:
10,142,74255,1,0,3:2:0:0:
149,49,74415,1,8,0:2:0:0:
38,33,74575,1,8,0:3:0:0:
155,214,74735,1,8,0:2:0:0:
228,131,74895,6,0,P|283:108|377:195,1,176,2|0,3:2|0:2,0:2:0:0:
480,152,75375,2,0,P|410:164|374:259,1,176,2|0,3:2|3:2,0:2:0:0:
454,366,75855,2,0,B|467:340|467:340|466:312|440:266,1,88,8|0,0:2|0:2,0:2:0:0:
284,225,76175,2,0,B|271:251|271:251|272:279|298:325,1,88,0|0,3:2|0:2,0:2:0:0:
226,361,76495,1,2,3:2:0:0:
44,316,76655,1,8,0:2:0:0:
193,238,76815,6,0,B|128:234|109:285|127:289|85:319|21:317,1,176,2|0,3:2|0:2,0:2:0:0:
292,84,77295,2,0,P|386:111|485:119,1,176,2|0,3:1|0:2,0:2:0:0:
188,3,77775,5,8,0:2:0:0:
125,96,77935,1,0,3:2:0:0:
228,157,78095,1,8,0:3:0:0:
232,144,78175,1,8,0:3:0:0:
230,131,78255,1,4,0:3:0:0:
221,118,78335,1,4,0:3:0:0:
211,106,78415,2,0,P|208:163|219:218,1,83.5999977676392,4|0,0:3|3:2,0:2:0:0:
367,320,78735,5,12,0:2:0:0:
152,277,78895,1,0,3:2:0:0:
367,320,79055,1,0,3:2:0:0:
133,360,79215,5,8,0:2:0:0:
285,296,79375,1,0,3:2:0:0:
133,360,79535,1,0,3:2:0:0:
66,153,79695,5,12,0:2:0:0:
226,202,79855,1,0,3:2:0:0:
289,80,80015,5,12,0:2:0:0:
140,129,80175,1,0,3:2:0:0:
339,285,80335,6,0,P|389:285|445:335,1,96.8000029541017,14|0,0:2|3:2,0:2:0:0:
195,365,80655,5,12,0:2:0:0:
238,176,80815,1,0,3:2:0:0:
195,365,80975,1,0,3:2:0:0:
169,70,81135,5,12,0:2:0:0:
232,261,81295,1,0,3:2:0:0:
169,70,81455,1,0,3:2:0:0:
24,292,81615,6,0,P|8:247|37:187,1,96.8000029541017,12|0,0:2|3:2,0:2:0:0:
22,201,81855,1,0,3:2:0:0:
22,201,81935,2,0,L|142:186,1,96.8000029541017,12|0,0:2|3:2,0:2:0:0:
405,78,82255,2,0,B|369:109|369:109|299:78,1,96.8000029541017,8|0,0:2|3:2,0:2:0:0:
459,0,82575,6,0,B|520:40|507:122|507:122|451:185,1,193.600005908203,14|0,3:2|0:2,0:2:0:0:
322,303,83055,2,0,P|366:256|500:281,1,193.600005908203,2|0,3:2|3:2,0:2:0:0:
259,366,83535,2,0,P|233:316|243:249,1,96.8000029541017,8|0,0:2|0:2,0:2:0:0:
361,125,83855,2,0,P|387:175|377:242,1,96.8000029541017,0|2,3:2|0:2,0:2:0:0:
176,146,84175,2,0,B|162:116|162:116|189:22,1,96.8000029541017,0|0,3:2|0:2,0:2:0:0:
0,283,84495,6,0,P|49:306|190:237,1,193.600005908203,6|0,3:2|0:2,0:2:0:0:
487,347,84975,2,0,P|438:370|297:301,1,193.600005908203,2|0,3:2|3:2,0:2:0:0:
305,67,85455,2,0,P|281:155|275:184,1,96.8000029541017,8|0,0:2|3:2,0:2:0:0:
285,184,85695,1,0,3:3:0:0:
298,205,85775,1,8,0:3:0:0:
407,201,85935,1,8,0:3:0:0:
422,202,86015,1,8,0:3:0:0:
436,210,86095,1,4,0:3:0:0:
482,290,86255,1,4,0:3:0:0:
473,317,86415,5,6,3:2:0:0:
404,358,86735,1,2,0:2:0:0:
404,358,86815,1,2,0:0:0:0:
404,358,86895,2,0,L|272:342,1,114.399994763184,0|0,3:2|0:2,0:2:0:0:
68,370,87375,6,0,P|48:328|78:252,1,114.399994763184,8|0,0:2|0:2,0:2:0:0:
124,210,87855,2,0,P|141:156|120:104,1,114.399994763184,0|0,3:2|0:2,0:2:0:0:
54,59,88335,5,2,3:2:0:0:
111,3,88655,1,2,0:2:0:0:
111,3,88815,2,0,B|138:19|138:19|239:-1,1,114.399994763184,0|0,3:2|0:2,0:2:0:0:
290,39,89295,1,8,0:2:0:0:
447,7,89615,1,2,0:2:0:0:
447,7,89775,2,0,P|473:41|466:122,1,114.399994763184,0|0,3:2|0:2,0:2:0:0:
416,167,90255,6,0,P|405:204|448:282,1,114.399994763184,2|0,3:2|0:2,0:2:0:0:
510,291,90735,2,0,L|379:283,1,114.399994763184,0|0,3:2|0:2,0:2:0:0:
336,338,91215,1,8,0:2:0:0:
287,228,91535,1,2,0:2:0:0:
287,228,91695,1,0,3:2:0:0:
287,228,91855,1,2,0:2:0:0:
195,321,92175,5,2,3:2:0:0:
129,280,92495,1,0,0:2:0:0:
129,280,92655,2,0,P|140:226|148:148,1,114.399994763184,0|0,3:2|0:2,0:2:0:0:
81,118,93135,2,0,P|87:61|98:5,1,114.399994763184,8|0,0:2|0:2,0:2:0:0:
172,39,93615,1,8,3:2:0:0:
186,25,93695,1,8,3:2:0:0:
208,12,93775,1,8,0:2:0:0:
299,5,93935,1,8,0:2:0:0:
353,79,94095,5,4,2:3:0:0:
290,136,94415,1,2,0:2:0:0:
290,136,94495,1,2,0:0:0:0:
290,136,94575,2,0,P|278:185|292:262,1,114.399994763184,0|0,3:2|0:2,0:2:0:0:
349,301,95055,2,0,L|424:287,1,57.1999973815919,8|0,0:2|0:2,0:2:0:0:
472,245,95375,2,0,L|415:255,1,57.1999973815919,2|0,0:2|3:2,0:2:0:0:
502,91,96015,5,2,3:2:0:0:
439,38,96335,1,2,0:2:0:0:
439,38,96495,2,0,P|395:31|336:75,1,114.399994763184,0|0,3:2|0:2,0:2:0:0:
279,120,96975,2,0,B|297:142|297:142|297:197,1,57.1999973815919,8|0,0:2|0:2,0:2:0:0:
219,198,97295,2,0,B|201:176|201:176|201:121,1,57.1999973815919,2|0,0:2|3:2,0:2:0:0:
31,29,97935,5,2,3:2:0:0:
97,100,98255,1,2,0:2:0:0:
97,100,98415,2,0,L|86:217,1,114.399994763184,0|0,3:2|0:2,0:2:0:0:
28,268,98895,2,0,P|24:299|37:340,1,57.1999973815919,10|0,0:2|0:2,0:2:0:0:
100,357,99215,2,0,P|128:344|157:313,1,57.1999973815919,2|0,0:2|3:2,0:2:0:0:
228,338,99535,2,0,P|249:356|276:367,1,57.1999973815919,2|0,0:2|0:2,0:2:0:0:
354,331,99855,6,0,P|395:306|482:316,1,114.399994763184,2|0,3:2|0:2,0:2:0:0:
500,238,100335,2,0,B|513:212|513:212|483:105,1,114.399994763184,0|0,3:2|0:2,0:2:0:0:
464,54,100815,1,8,0:2:0:0:
386,154,101135,2,0,B|333:165|289:138|305:138|267:110|200:129,1,171.599992144776,2|0,3:2|0:2,0:2:0:0:
139,90,101775,6,0,P|117:42|199:45,1,167.199995535278,6|0,3:2|0:2,0:2:0:0:
140,172,102255,2,0,P|94:192|54:178,1,83.5999977676392,0|0,3:2|0:2,0:2:0:0:
25,107,102575,1,0,3:2:0:0:
196,234,102735,2,0,P|190:295|190:338,1,83.5999977676392,8|0,0:2|0:2,0:2:0:0:
363,372,103055,2,0,P|369:311|369:268,1,83.5999977676392,0|2,3:2|0:2,0:2:0:0:
422,218,103375,2,0,P|468:198|508:212,1,83.5999977676392,0|0,3:2|0:2,0:2:0:0:
297,69,103695,6,0,P|357:114|451:81,1,167.199995535278,6|0,3:2|0:2,0:2:0:0:
233,135,104175,2,0,P|167:88|90:112,1,167.199995535278,2|0,3:2|3:2,0:2:0:0:
153,270,104655,2,0,B|135:174,1,83.5999977676392,8|0,0:2|0:2,0:2:0:0:
59,244,104975,2,0,P|53:290|79:335,1,83.5999977676392,0|0,3:2|0:2,0:2:0:0:
238,294,105295,2,0,P|244:248|218:203,1,83.5999977676392,0|0,3:2|0:2,0:2:0:0:
153,270,105615,5,6,3:2:0:0:
261,377,105935,1,2,0:2:0:0:
261,377,106095,2,0,P|324:374|387:365,1,114.399994763184,0|0,3:2|0:2,0:2:0:0:
512,277,106575,2,0,P|449:280|386:289,1,114.399994763184,8|0,0:2|0:2,0:2:0:0:
339,234,107055,1,0,3:2:0:0:
468,68,107535,5,0,3:2:0:0:
399,108,107855,1,2,0:2:0:0:
399,108,108015,2,0,P|366:104|323:29,1,114.399994763184,0|0,3:2|0:2,0:2:0:0:
230,114,108495,2,0,P|242:76|235:46,1,57.1999973815919,8|0,0:2|0:2,0:2:0:0:
165,12,108815,1,0,3:2:0:0:
120,37,108975,1,8,0:2:0:0:
104,121,109135,2,0,P|130:150|160:159,1,57.1999973815919,8|4,0:3|0:3,0:2:0:0:
462,233,109455,6,0,L|291:252,1,167.199995535278,6|0,3:2|0:2,0:2:0:0:
192,355,109935,1,0,3:2:0:0:
112,318,110095,2,0,P|99:277|106:217,1,83.5999977676392,2|0,0:2|3:2,0:2:0:0:
203,16,110415,6,0,P|207:71|211:111,1,83.5999977676392,8|0,0:2|0:2,0:2:0:0:
287,143,110735,1,0,3:2:0:0:
445,86,110895,2,0,P|441:31|437:-9,1,83.5999977676392,2|0,0:2|3:2,0:2:0:0:
360,49,111215,1,0,0:2:0:0:
422,196,111375,6,0,P|468:205|483:332,1,167.199995535278,6|0,3:2|0:2,0:2:0:0:
365,370,111855,2,0,B|350:345|319:314|319:314|350:185,1,167.199995535278,0|0,3:2|3:2,0:2:0:0:
169,320,112335,2,0,P|222:334|258:306,1,83.5999977676392,8|0,0:2|3:2,0:2:0:0:
152,223,112655,1,8,0:3:0:0:
117,209,112735,1,8,0:3:0:0:
83,214,112815,1,4,0:3:0:0:
29,292,112975,1,8,0:3:0:0:
71,372,113135,1,4,0:3:0:0:
152,223,113295,6,0,P|140:165|185:44,1,176,6|0,3:2|0:2,0:2:0:0:
389,277,113775,2,0,P|422:197|412:111,1,176,0|0,3:2|3:2,0:2:0:0:
300,120,114255,2,0,P|279:171|279:223,1,88,8|0,0:2|0:2,0:2:0:0:
73,332,114575,2,0,P|68:288|50:249,1,88,2|0,3:2|0:2,0:2:0:0:
7,177,114895,1,2,3:2:0:0:
0,371,115055,1,8,0:2:0:0:
169,260,115215,6,0,B|220:238|259:275|246:293|280:325|333:313,1,176,2|0,3:2|0:2,0:2:0:0:
512,311,115695,2,0,P|492:245|388:271,1,176,0|0,3:2|3:2,0:2:0:0:
260,163,116175,2,0,P|311:206|341:202,1,88,8|0,0:2|0:2,0:2:0:0:
408,79,116495,1,0,3:2:0:0:
343,36,116655,2,0,P|280:58|268:86,1,88,8|0,0:2|3:2,0:2:0:0:
401,165,116975,1,8,0:2:0:0:
190,112,117135,6,0,L|2:135,1,176,2|0,3:2|0:2,0:2:0:0:
311,315,117615,2,0,L|485:293,1,176,0|0,3:2|3:2,0:2:0:0:
424,221,118095,1,8,0:2:0:0:
34,363,118415,6,0,P|18:318|22:267,1,88,2|0,3:2|0:2,0:2:0:0:
190,112,118735,2,0,P|206:157|202:208,1,88,2|8,3:2|0:2,0:2:0:0:
53,158,119055,2,0,P|54:54|117:2,1,176,2|0,3:2|0:2,0:2:0:0:
390,228,119535,2,0,P|389:124|326:72,1,176,2|0,3:2|3:2,0:2:0:0:
133,246,120015,5,8,0:2:0:0:
241,328,120175,1,0,3:2:0:0:
321,214,120335,1,0,3:2:0:0:
201,50,120495,5,8,0:2:0:0:
221,215,120655,1,8,0:2:0:0:
201,50,120815,1,4,0:3:0:0:
340,77,120975,6,0,B|400:71|436:112|407:103|448:167|518:143,1,176,6|0,3:2|0:2,0:2:0:0:
279,293,121455,2,0,P|340:243|441:263,1,176,0|0,3:2|3:2,0:2:0:0:
399,343,121935,1,8,0:2:0:0:
150,30,122255,2,0,P|164:79|172:137,1,88,2|0,3:2|0:2,0:2:0:0:
241,195,122575,2,0,P|227:244|219:302,1,88,2|8,3:2|0:2,0:2:0:0:
159,357,122895,2,0,P|237:319|333:374,1,176,2|0,3:2|0:2,0:2:0:0:
397,188,123375,2,0,P|319:226|223:171,1,176,0|0,3:2|3:2,0:2:0:0:
347,12,123855,6,0,P|372:52|371:113,1,88,8|0,0:2|0:2,0:2:0:0:
174,256,124175,1,0,3:2:0:0:
174,256,124335,2,0,P|149:216|150:155,1,88,8|0,0:2|3:2,0:2:0:0:
189,92,124655,1,8,0:2:0:0:
397,188,124815,6,0,B|527:196|527:196|470:219,1,176,2|0,3:2|0:2,0:2:0:0:
261,281,125295,2,0,B|131:273|131:273|188:250,1,176,0|0,3:2|3:2,0:2:0:0:
361,282,125775,2,0,P|369:328|369:389,1,88,10|0,0:2|0:2,0:2:0:0:
291,175,126095,2,0,P|283:129|283:68,1,88,0|2,3:2|0:2,0:2:0:0:
311,6,126415,1,0,3:2:0:0:
379,121,126575,1,8,0:2:0:0:
186,89,126735,6,0,P|131:84|58:205,1,176,2|0,3:2|0:2,0:2:0:0:
381,200,127215,2,0,P|436:195|509:316,1,176,2|0,3:1|0:2,0:2:0:0:
195,349,127695,2,0,P|200:294|205:243,1,88,8|0,0:2|3:2,0:2:0:0:
257,182,128015,1,0,3:3:0:0:
274,165,128095,1,0,3:3:0:0:
292,150,128175,1,8,0:3:0:0:
134,112,128335,1,8,0:3:0:0:
187,238,128495,1,4,0:3:0:0:
225,89,128655,5,14,0:2:0:0:
41,160,128815,1,0,3:2:0:0:
225,89,128975,1,0,3:2:0:0:
101,233,129135,5,8,0:2:0:0:
285,304,129295,1,0,3:2:0:0:
101,233,129455,1,0,3:2:0:0:
373,348,129615,6,0,P|381:290|350:229,1,88,12|0,0:2|3:2,0:2:0:0:
210,97,129935,2,0,P|202:155|233:216,1,88,14|0,0:2|3:2,0:2:0:0:
390,358,130255,2,0,P|398:300|367:239,1,88,14|0,0:2|3:2,0:2:0:0:
320,33,130575,5,14,0:2:0:0:
477,103,130735,1,0,3:2:0:0:
320,33,130895,1,0,3:2:0:0:
220,174,131055,5,8,0:2:0:0:
377,104,131215,1,0,3:2:0:0:
220,174,131375,1,0,3:2:0:0:
45,110,131535,6,0,P|32:71|57:14,1,88,14|0,0:2|3:2,0:2:0:0:
45,27,131775,1,0,3:2:0:0:
45,27,131855,2,0,P|86:40|112:74,1,88,12|0,2:2|3:2,0:2:0:0:
106,281,132175,2,0,B|88:337|21:362|21:362|25:314|73:276,1,171.599992144776,12|0,0:2|0:2,0:2:0:0:
106,281,132495,6,0,B|164:263|218:301|178:300|231:341|289:319,1,176,6|0,3:2|0:2,0:2:0:0:
433,272,132975,2,0,B|449:239|464:215|464:215|434:106,1,176,2|0,3:2|3:2,0:2:0:0:
304,24,133455,2,0,P|320:82|322:127,1,88,10|0,0:2|0:2,0:2:0:0:
196,266,133775,2,0,P|180:208|178:163,1,88,0|2,3:2|0:2,0:2:0:0:
289,32,134095,2,0,P|305:90|307:135,1,88,0|0,3:2|0:2,0:2:0:0:
41,221,134415,6,0,P|61:75|82:40,1,176,6|0,3:2|0:2,0:2:0:0:
281,283,134895,2,0,P|279:241|266:182,1,88,0|0,3:2|0:2,0:2:0:0:
262,180,135146,1,2,0:3:0:0:
246,171,135237,1,2,0:3:0:0:
228,169,135329,1,2,0:3:0:0:
208,176,135420,6,0,P|194:226|188:277,1,88,4|0,0:3|3:2,0:2:0:0:
123,311,135661,1,0,3:2:0:0:
102,306,135758,1,0,3:2:0:0:
90,292,135855,5,8,0:2:0:0:
53,206,136015,5,8,0:2:0:0:
106,90,136175,5,8,0:2:0:0:
252,34,136335,6,0,B|287:45|310:43|310:43|357:76|357:76|397:73|423:85,1,176,6|0,3:2|0:2,0:2:0:0:
493,44,136815,2,0,P|486:88|476:186,1,132.000005035401,2|0,0:2|0:2,0:2:0:0:
505,255,137295,2,0,B|403:320|302:239|339:245|257:139|138:187,1,400.399987780762,2|0,0:2|0:2,0:2:0:0:
67,264,139535,5,8,0:2:0:0:
26,252,139615,1,8,0:2:0:0:
12,208,139695,1,8,0:2:0:0:
28,167,139775,1,8,0:2:0:0:
68,149,139855,1,8,0:3:0:0:
99,114,139935,1,8,0:3:0:0:
110,71,140015,1,4,0:3:0:0:
82,38,140095,1,4,0:3:0:0:
41,20,140175,6,0,B|103:78|103:78|200:49,1,176,6|0,3:2|0:2,0:2:0:0:
266,33,140655,2,0,L|410:65,1,132.000005035401,2|0,0:2|0:2,0:2:0:0:
467,29,141135,2,0,B|508:-1|508:-1|460:195,1,242.000007385254,2|0,0:2|0:2,0:2:0:0:
475,360,142095,5,0,3:2:0:0:
404,296,142255,1,0,3:2:0:0:
288,350,142415,2,0,L|334:345,1,44,8|0,0:2|0:2,0:2:0:0:
199,172,142735,5,0,3:2:0:0:
130,277,142895,2,0,P|149:295|170:326,1,44,8|0,0:2|0:2,0:2:0:0:
199,172,143055,1,8,0:3:0:0:
312,212,143215,2,0,P|310:239|313:276,1,44,8|0,0:2|0:2,0:2:0:0:
401,319,143375,5,0,3:3:0:0:
427,329,143455,1,0,3:3:0:0:
460,323,143535,1,8,0:3:0:0:
508,250,143695,1,8,0:3:0:0:
457,174,143855,1,4,0:3:0:0:
488,77,144015,6,0,P|468:125|345:140,1,176,6|0,3:2|3:2,0:2:0:0:
298,72,144495,2,0,L|322:278,1,176,0|0,3:2|3:2,0:2:0:0:
260,308,144975,2,0,B|196:298|167:341|174:340|159:380|80:375,1,198.000007553101,8|0,0:2|3:2,0:2:0:0:
83,375,145775,1,0,3:2:0:0:
44,295,145935,6,0,P|23:269|52:171,1,132.000005035401,2|0,3:2|3:2,0:2:0:0:
196,121,146415,2,0,P|217:147|188:245,1,132.000005035401,0|0,3:2|3:2,0:2:0:0:
126,269,146895,1,8,0:2:0:0:
129,191,147055,1,0,3:2:0:0:
199,236,147215,1,0,3:2:0:0:
411,190,147375,5,8,0:2:0:0:
416,179,147455,1,8,0:2:0:0:
416,170,147535,1,8,0:3:0:0:
385,88,147695,1,4,0:3:0:0:
314,147,147855,6,0,P|326:217|216:255,1,176,6|0,3:2|0:2,0:2:0:0:
78,287,148335,2,0,B|119:285|159:251|159:251|160:291|207:348,1,176,2|0,3:2|3:2,0:2:0:0:
114,359,148815,2,0,P|121:281|73:162,1,198.000007553101,10|0,0:2|3:2,0:2:0:0:
79,170,149615,1,0,3:2:0:0:
10,131,149775,6,0,P|-2:72|52:11,1,132.000005035401,2|0,3:2|3:2,0:2:0:0:
116,5,150255,2,0,P|166:44|230:33,1,132.000005035401,0|0,3:2|3:2,0:2:0:0:
302,89,150735,5,8,0:2:0:0:
439,26,150895,1,0,3:2:0:0:
439,26,150975,1,0,3:2:0:0:
439,26,151055,1,8,0:3:0:0:
364,172,151215,1,4,0:3:0:0:
355,8,151375,1,8,0:2:0:0:
32,238,151695,6,0,P|71:222|162:283,1,158.399995166016,6|0,3:2|3:2,0:2:0:0:
237,236,152175,2,0,P|277:291|369:277,1,158.399995166016,0|0,3:2|3:2,0:2:0:0:
448,325,152655,2,0,P|453:264|461:230,1,79.1999975830079,10|0,0:2|0:2,0:2:0:0:
321,131,152975,2,0,P|316:192|308:226,1,79.1999975830079,2|0,0:2|3:2,0:2:0:0:
436,319,153295,2,0,P|441:258|449:224,1,79.1999975830079,2|0,0:2|3:2,0:2:0:0:
503,80,153615,6,0,B|449:99|390:45|390:45|327:55,1,158.399995166016,2|0,3:2|3:2,0:2:0:0:
276,11,154095,2,0,P|243:55|129:28,1,158.399995166016,0|0,3:2|3:2,0:2:0:0:
66,95,154575,2,0,P|70:50|46:1,1,79.1999975830079,8|8,0:2|0:3,0:2:0:0:
0,137,154895,2,0,P|0:182|20:231,1,79.1999975830079,0|8,3:2|0:2,0:2:0:0:
16,220,155135,1,8,0:2:0:0:
23,226,155215,2,0,L|120:239,1,79.1999975830079,8|4,0:3|0:3,0:2:0:0:
310,319,155535,6,0,P|399:315|488:299,1,158.399995166016,6|0,3:2|3:2,0:2:0:0:
234,355,156015,2,0,P|145:359|56:375,1,158.399995166016,0|0,3:2|3:2,0:2:0:0:
5,316,156495,2,0,P|0:262|-3:215,1,79.1999975830079,10|0,0:2|0:2,0:2:0:0:
39,86,156815,2,0,P|44:140|47:187,1,79.1999975830079,2|0,0:2|3:2,0:2:0:0:
129,281,157135,2,0,P|126:241|122:202,1,79.1999975830079,2|0,0:2|3:2,0:2:0:0:
233,49,157455,6,0,P|314:23|371:90,1,158.399995166016,2|0,3:2|3:2,0:2:0:0:
503,170,157935,2,0,P|412:149|366:205,1,158.399995166016,0|0,3:2|3:2,0:2:0:0:
430,351,158415,2,0,B|447:319|447:319|417:254,1,79.1999975830079,8|0,0:2|3:2,0:2:0:0:
428,279,158655,1,0,3:2:0:0:
428,279,158735,2,0,L|363:293,1,39.5999987915039,8|8,0:2|0:3,0:2:0:0:
321,334,158895,2,0,L|255:320,1,39.5999987915039,4|4,0:3|0:3,0:2:0:0:
219,284,159055,2,2,L|80:296,1,118.799996374512,2|0,0:3|0:2,0:1:0:0:
18,304,159375,5,6,3:2:0:0:
502,24,174255,5,0,3:2:0:0:
476,114,174415,1,8,0:2:0:0:
502,24,174575,1,0,3:2:0:0:
323,22,174735,6,0,P|340:69|344:106,1,66.0000025177003,6|0,3:2|0:2,0:2:0:0:
386,157,175055,1,2,0:2:0:0:
386,157,175215,2,0,P|332:193|247:177,1,132.000005035401,0|0,3:2|3:2,0:2:0:0:
134,98,175695,2,0,P|73:94|46:111,1,66.0000025177003,8|0,0:2|0:2,0:2:0:0:
3,160,176015,2,0,P|-1:221|16:248,1,66.0000025177003,2|0,3:2|0:2,0:2:0:0:
65,291,176335,2,0,P|126:295|153:278,1,66.0000025177003,2|0,3:2|0:2,0:2:0:0:
197,233,176655,6,0,P|247:219|324:280,1,132.000005035401,2|0,3:2|0:2,0:2:0:0:
366,349,177135,2,0,P|342:301|369:212,1,132.000005035401,2|0,3:2|3:2,0:2:0:0:
410,103,177615,2,0,P|423:159|411:191,1,66.0000025177003,8|0,0:2|0:2,0:2:0:0:
330,67,177935,2,0,P|317:11|329:-21,1,66.0000025177003,0|2,3:2|0:2,0:2:0:0:
406,19,178255,1,0,3:2:0:0:
240,56,178415,1,8,0:2:0:0:
406,19,178575,6,0,P|443:48|435:148,1,132.000005035401,2|0,3:2|0:2,0:2:0:0:
492,212,179055,2,0,L|351:235,1,132.000005035401,2|0,3:2|3:2,0:2:0:0:
248,297,179535,2,0,B|280:310|280:310|322:283,1,66.0000025177003,8|0,0:2|0:2,0:2:0:0:
178,259,179855,2,0,B|146:246|146:246|104:273,1,66.0000025177003,2|8,0:2|0:3,0:2:0:0:
56,310,180175,1,4,0:3:0:0:
441,169,180495,6,0,P|440:95|407:50,1,118.799996374512,6|0,3:2|0:2,0:2:0:0:
416,58,180815,2,0,L|314:90,1,79.1999975830079,8|0,0:2|3:2,0:2:0:0:
180,44,181135,2,0,L|255:21,1,79.1999975830079,8|0,0:2|3:2,0:2:0:0:
110,132,181455,2,0,P|56:129|29:85,1,79.1999975830079,8|0,0:2|3:2,0:2:0:0:
109,25,181775,2,0,P|163:28|190:72,1,79.1999975830079,8|8,0:2|0:3,0:2:0:0:
176,187,182095,2,2,P|159:264|149:323,1,118.799996374512,8|0,0:2|0:2,0:1:0:0:
137,381,182415,5,6,3:2:0:0:
512,175,184335,1,0,1:1:0:0:
454,223,184655,1,0,1:1:0:0:
454,223,184815,1,2,0:2:0:0:
389,184,185175,1,2,0:2:0:0:
389,184,185255,1,0,1:2:0:0:
389,184,185335,1,0,1:2:0:0:
406,111,185615,1,0,1:2:0:0:
485,93,185775,5,8,0:2:0:0:
322,162,185935,5,8,0:2:0:0:
180,98,186095,5,8,0:2:0:0:
45,174,186255,6,0,P|86:170|226:192,1,176,6|0,3:2|0:2,0:2:0:0:
464,249,186735,2,0,P|423:245|283:267,1,176,2|0,3:2|0:2,0:2:0:0:
140,307,187215,2,0,P|211:319|246:335,1,88,8|0,0:2|0:2,0:2:0:0:
218,189,187535,2,0,P|174:184|132:171,1,88,2|0,3:2|0:2,0:2:0:0:
68,100,187855,1,2,3:2:0:0:
132,30,188015,1,8,0:2:0:0:
242,26,188175,6,0,P|266:86|391:86,1,176,2|0,3:2|0:2,0:2:0:0:
475,26,188655,2,0,B|451:73|480:106|488:93|519:139|482:221,1,176,0|0,3:2|3:2,0:2:0:0:
423,338,189135,2,0,P|403:292|443:238,1,88,8|0,0:2|0:2,0:2:0:0:
239,284,189455,5,0,3:2:0:0:
159,257,189615,2,0,P|146:206|123:162,1,88,8|0,0:2|3:2,0:2:0:0:
96,315,189935,1,8,0:2:0:0:
19,268,190095,6,0,P|26:210|63:72,1,176,2|0,3:2|0:2,0:2:0:0:
240,366,190575,2,0,P|263:282|276:195,1,176,0|0,3:2|3:2,0:2:0:0:
236,123,191055,1,8,0:2:0:0:
496,24,191375,6,0,P|525:73|524:112,1,88,2|0,3:2|0:2,0:2:0:0:
333,125,191695,2,0,P|360:75|395:56,1,88,2|8,3:2|2:2,3:2:0:0:
440,222,192015,2,0,P|390:272|288:264,1,176,2|0,3:2|0:2,0:2:0:0:
0,272,192495,2,0,P|50:322|152:314,1,176,2|0,3:2|3:2,0:2:0:0:
236,175,192975,1,8,0:2:0:0:
171,101,193135,1,0,3:2:0:0:
230,10,193295,1,0,3:2:0:0:
154,206,193455,1,8,0:2:0:0:
52,67,193615,2,0,P|130:83|171:107,1,88,8|4,0:2|0:3,0:2:0:0:
368,231,193935,6,0,P|439:247|509:159,1,176,6|0,3:2|0:2,0:2:0:0:
438,25,194415,2,0,P|367:9|297:97,1,176,0|0,3:2|3:2,0:2:0:0:
367,152,194895,2,0,P|417:134|452:114,1,88,8|0,0:2|0:2,0:2:0:0:
203,47,195215,2,0,P|217:105|236:169,1,88,0|2,3:2|0:2,0:2:0:0:
166,211,195535,1,0,3:2:0:0:
345,259,195695,1,8,0:2:0:0:
212,359,195855,6,0,B|252:344|252:344|294:277|294:277|353:255,1,176,2|0,3:2|0:2,0:2:0:0:
503,148,196335,2,0,P|451:188|349:139,1,176,0|0,3:2|3:2,0:2:0:0:
398,69,196815,1,8,0:2:0:0:
48,338,197135,5,0,3:2:0:0:
95,259,197295,1,8,0:2:0:0:
58,144,197455,1,4,0:3:0:0:
11,223,197615,1,8,0:2:0:0:
165,338,197775,6,0,P|232:353|305:257,1,176,2|0,3:2|0:2,0:2:0:0:
189,115,198255,2,0,L|-10:151,1,176,0|0,3:2|3:2,0:2:0:0:
280,149,198735,2,0,P|282:88|246:37,1,88,8|0,0:2|0:2,0:2:0:0:
303,283,199055,2,0,P|354:315|416:309,1,88,0|2,3:2|0:2,0:2:0:0:
372,231,199375,1,0,3:2:0:0:
301,384,199535,1,8,0:2:0:0:
139,240,199695,6,0,B|190:224|230:257|210:258|264:297|304:281,1,176,2|0,3:2|3:2,3:2:0:0:
472,167,200175,2,0,P|389:188|310:118,1,176,2|0,3:2|3:2,0:2:0:0:
384,0,200655,2,0,P|396:46|386:111,1,88,8|0,0:2|0:2,0:2:0:0:
150,218,200975,5,0,3:2:0:0:
178,132,201135,1,8,0:2:0:0:
138,49,201295,1,8,0:2:0:0:
117,36,201375,1,8,0:2:0:0:
82,35,201455,1,8,0:3:0:0:
46,59,201535,1,4,0:3:0:0:
25,107,201615,6,0,P|15:164|64:286,1,176,6|0,3:2|0:2,0:2:0:0:
269,224,202095,2,0,P|279:167|230:45,1,176,0|0,3:2|3:2,0:2:0:0:
161,275,202575,2,0,P|175:327|185:376,1,88,8|0,0:2|0:2,0:2:0:0:
389,204,202895,2,0,P|403:256|413:305,1,88,2|0,3:2|0:2,0:2:0:0:
493,212,203215,1,2,3:2:0:0:
306,263,203375,1,8,0:2:0:0:
360,83,203535,6,0,P|337:139|209:151,1,176,2|0,3:2|0:2,0:2:0:0:
39,58,204015,2,0,P|130:64|236:81,1,176,0|0,3:2|3:2,0:2:0:0:
70,151,204495,2,0,P|7:148|-39:131,1,88,8|0,0:2|0:2,0:2:0:0:
154,172,204815,1,0,3:2:0:0:
87,244,204975,2,0,P|89:311|100:355,1,88,10|4,0:2|0:3,0:2:0:0:
154,172,205295,1,8,0:2:0:0:
188,275,205455,6,0,P|240:295|360:211,1,176,2|0,3:2|0:2,0:2:0:0:
455,176,205935,2,0,P|397:217|297:175,1,176,0|0,3:2|3:2,0:2:0:0:
344,107,206415,1,8,0:2:0:0:
17,19,206735,6,0,P|29:75|38:124,1,88,2|0,3:2|0:2,0:2:0:0:
111,194,207055,2,0,P|94:245|76:308,1,88,2|8,3:2|0:2,0:2:0:0:
26,365,207375,2,0,P|85:317|189:357,1,176,2|0,3:2|0:2,0:2:0:0:
251,142,207855,2,0,B|276:196|288:256|288:256|254:300,1,176,2|0,3:2|3:2,0:2:0:0:
485,313,208335,5,8,0:2:0:0:
329,376,208495,1,8,0:3:0:0:
368,265,208655,1,4,2:3:0:0:
424,378,208815,1,8,0:2:0:0:
170,238,208975,2,0,P|160:192|160:125,1,88,8|4,0:2|0:3,0:2:0:0:
432,14,209295,6,0,P|448:78|450:211,1,176,6|0,3:2|0:2,0:2:0:0:
253,210,209775,2,0,P|237:146|235:13,1,176,0|0,3:2|3:2,0:2:0:0:
354,116,210255,2,0,P|361:173|364:220,1,88,8|0,0:2|0:2,0:2:0:0:
434,278,210575,2,0,P|486:314|514:339,1,88,2|0,3:2|0:2,0:2:0:0:
228,336,210895,2,0,P|301:296|334:264,1,88,2|8,3:2|0:2,0:2:0:0:
12,228,211215,6,0,P|79:278|172:265,1,176,2|0,3:2|0:2,0:2:0:0:
212,103,211695,2,0,P|131:129|24:144,1,176,0|0,3:2|3:2,0:2:0:0:
4,61,212175,1,8,0:2:0:0:
221,276,212495,5,0,3:2:0:0:
257,174,212655,1,8,0:2:0:0:
365,194,212815,1,4,0:3:0:0:
329,293,212975,1,8,0:2:0:0:
495,182,213135,6,0,P|493:130|433:14,1,176,2|0,3:2|0:2,0:2:0:0:
262,145,213615,2,0,P|216:219|206:306,1,176,0|0,3:2|3:2,0:2:0:0:
122,359,214095,2,0,P|68:371|22:389,1,88,8|0,0:2|0:2,0:2:0:0:
296,260,214415,2,0,P|354:280|403:284,1,88,2|0,3:2|0:2,0:2:0:0:
125,190,214735,1,0,3:2:0:0:
237,162,214895,1,8,0:2:0:0:
25,25,215055,6,0,P|8:83|17:126,1,88,2|0,3:2|0:2,0:2:0:0:
111,274,215375,2,0,P|128:216|119:173,1,88,2|0,0:2|3:2,0:2:0:0:
12,371,215695,2,0,P|71:374|110:350,1,88,2|0,0:2|3:2,0:2:0:0:
327,271,216015,6,0,B|286:254|286:254|245:275,1,88,8|0,0:2|0:2,0:2:0:0:
410,336,216335,1,0,3:3:0:0:
410,336,216415,1,0,3:3:0:0:
410,336,216495,1,8,0:3:0:0:
474,265,216655,1,8,0:3:0:0:
416,188,216815,1,4,0:3:0:0:
464,104,216975,6,0,P|457:52|432:-3,1,88,14|0,2:2|3:2,0:2:0:0:
257,111,217295,1,0,3:2:0:0:
178,91,217455,6,0,P|185:39|210:-16,1,88,8|0,0:2|3:2,0:2:0:0:
399,143,217775,1,0,3:2:0:0:
180,263,217935,6,0,P|256:249|296:251,1,88,12|0,0:2|3:2,0:2:0:0:
468,329,218255,2,0,P|392:315|352:317,1,88,12|0,0:2|3:2,0:2:0:0:
176,247,218575,2,0,P|252:233|292:235,1,88,12|0,0:2|3:2,0:2:0:0:
81,349,218895,5,14,0:2:0:0:
6,224,219055,1,0,3:2:0:0:
88,93,219215,1,0,3:2:0:0:
108,267,219375,5,10,0:2:0:0:
198,167,219535,1,0,3:2:0:0:
346,195,219695,1,0,3:2:0:0:
215,261,219855,5,14,0:2:0:0:
293,330,220015,1,0,3:2:0:0:
293,330,220095,1,0,3:2:0:0:
293,330,220175,2,0,P|348:342|395:311,1,88,14|0,0:2|3:2,0:2:0:0:
485,112,220495,2,0,L|472:224,1,88,12|0,0:2|3:2,0:2:0:0:
217,244,220815,6,0,P|161:232|71:332,1,176,6|0,3:2|0:2,0:2:0:0:
255,156,221295,2,0,P|311:144|401:244,1,176,2|0,3:2|3:2,0:2:0:0:
163,112,221775,5,8,0:2:0:0:
360,20,222095,1,8,0:3:0:0:
285,327,222415,1,4,0:3:0:0:
51,29,222735,6,0,P|114:70|231:33,1,176,6|0,3:2|0:2,0:2:0:0:
468,116,223215,2,0,P|421:95|368:103,1,88,2|2,3:2|0:3,0:3:0:0:
360,116,223460,1,2,0:3:0:0:
345,152,223546,1,2,0:3:0:0:
359,185,223632,1,2,0:3:0:0:
389,208,223717,6,0,P|439:216|465:285,1,117.333333333333,2|8,3:3|0:3,0:2:0:0:
452,323,224015,1,8,0:2:0:0:
357,281,224175,5,8,0:2:0:0:
204,339,224335,5,8,0:2:0:0:
62,267,224495,5,8,0:2:0:0:
208,210,224655,6,0,P|215:174|157:35,1,167.199995535278,6|0,3:2|0:2,0:2:0:0:
13,89,225135,2,0,P|6:125|64:264,1,167.199995535278,0|0,3:2|3:2,0:2:0:0:
212,301,225615,2,0,P|281:300|325:314,1,83.5999977676392,8|0,0:2|0:2,0:2:0:0:
459,266,225935,2,0,P|390:267|346:253,1,83.5999977676392,2|0,3:2|0:2,0:2:0:0:
236,187,226255,2,0,P|305:186|349:200,1,83.5999977676392,2|0,3:2|0:2,0:2:0:0:
500,35,226575,6,0,B|452:32|416:73|437:61|412:112|351:116,1,167.199995535278,2|0,3:2|0:2,0:2:0:0:
271,65,227055,2,0,P|271:-7|336:23,1,167.199995535278,0|0,3:2|3:2,0:2:0:0:
178,102,227535,2,0,P|162:44|157:-7,1,83.5999977676392,8|0,0:2|0:2,0:2:0:0:
251,153,227855,1,2,3:2:0:0:
178,203,228015,1,0,3:2:0:0:
81,152,228175,2,0,P|82:92|76:34,1,83.5999977676392,8|0,0:2|0:2,0:2:0:0:
23,344,228495,6,0,B|89:358|128:367|128:367|157:344|186:322,1,167.199995535278,2|0,3:2|0:2,0:2:0:0:
284,275,228975,2,0,P|230:305|152:234,1,167.199995535278,0|0,3:2|3:2,0:2:0:0:
219,117,229455,2,0,P|235:174|235:224,1,83.5999977676392,8|0,0:2|0:2,0:2:0:0:
300,368,229775,2,0,P|312:291|360:186,1,167.199995535278,2|0,3:2|3:2,0:2:0:0:
18,20,230415,6,0,B|32:95|32:95|35:104|35:104|52:198,1,167.199995535278,2|0,3:2|0:2,0:2:0:0:
156,249,230895,2,0,B|141:168|141:168|138:159|138:159|124:84,1,167.199995535278,0|0,3:2|3:2,0:2:0:0:
314,111,231375,5,8,0:2:0:0:
405,41,231535,1,0,3:2:0:0:
499,108,231695,1,0,3:2:0:0:
393,172,231855,5,8,0:2:0:0:
496,235,232015,1,8,0:3:0:0:
465,342,232175,1,4,0:3:0:0:
367,291,232335,6,0,P|340:326|213:338,1,167.199995535278,6|0,3:2|0:2,0:2:0:0:
52,263,232815,2,0,P|116:294|208:250,1,167.199995535278,0|0,3:2|3:2,0:2:0:0:
250,148,233295,2,0,P|238:90|238:52,1,83.5999977676392,8|0,0:2|0:2,0:2:0:0:
118,122,233615,2,0,P|130:180|130:218,1,83.5999977676392,2|0,3:2|0:2,0:2:0:0:
262,132,233935,2,0,P|250:74|250:36,1,83.5999977676392,2|0,3:2|0:2,0:2:0:0:
461,177,234255,6,0,B|493:204|493:204|432:167|352:176,1,167.199995535278,2|0,3:2|0:2,0:2:0:0:
176,276,234735,2,0,B|113:275|101:303|105:307|77:352|23:346,1,167.199995535278,0|0,3:2|3:2,0:2:0:0:
231,197,235215,2,0,P|263:264|266:297,1,83.5999977676392,8|0,0:2|0:2,0:2:0:0:
447,317,235535,1,2,3:2:0:0:
352,183,235695,1,0,3:2:0:0:
345,351,235855,2,0,P|355:297|367:233,1,83.5999977676392,8|0,0:2|0:2,0:2:0:0:
470,25,236175,6,0,P|480:73|494:216,1,167.199995535278,2|0,3:2|0:2,0:2:0:0:
385,56,236655,2,0,P|401:139|409:222,1,167.199995535278,0|0,3:2|3:2,0:2:0:0:
405,229,237055,1,8,0:3:0:0:
401,235,237135,2,0,B|362:257|362:257|300:237,1,83.5999977676392,8|0,0:2|3:3,0:2:0:0:
162,180,237455,2,0,B|201:158|201:158|263:178,1,83.5999977676392,2|8,3:2|0:3,0:2:0:0:
94,271,237775,2,0,P|71:225|80:166,1,83.5999977676392,2|4,3:2|0:3,0:2:0:0:
332,31,238095,6,0,P|360:71|338:214,1,167.199995535278,6|0,3:2|0:2,0:2:0:0:
84,308,238575,2,0,P|104:263|239:211,1,167.199995535278,6|0,3:2|0:2,0:2:0:0:
396,358,239055,2,0,P|357:361|266:288,1,125.399996651459,6|0,3:2|0:2,0:2:0:0:
286,235,239375,6,2,P|293:183|309:70,1,158.399995166016,8|6,0:2|3:2,0:2:0:0:
69,111,240335,5,0,3:2:0:0:
21,48,240495,2,0,B|25:5|25:5|74:43,1,83.5999977676392,8|0,0:3|0:2,0:2:0:0:
69,111,240815,1,4,0:3:0:0:
9,182,240975,6,2,P|22:244|264:267,1,343.199984289552,14|0,0:2|0:2,0:2:0:0:
256,192,242015,12,0,255375,0:2:0:0:
