osu file format v14

[General]
AudioFilename: audio2.mp3
AudioLeadIn: 0
PreviewTime: 197028
Countdown: 0
SampleSet: Normal
StackLeniency: 0.7
Mode: 1
LetterboxInBreaks: 0
WidescreenStoryboard: 1

[Editor]
Bookmarks: 154959,172423,181150
DistanceSpacing: 0.1
BeatDivisor: 8
GridSize: 32
TimelineZoom: 3.999998

[Metadata]
Title:March of war / Axe of judgement
TitleUnicode:March of war / Axe of judgement
Artist:Ensiferum
ArtistUnicode:Ensiferum
Creator:Raiden
Version:Inner Oni
Source:
Tags:folk death metal epic one man army mow aoj english
BeatmapID:2370260
BeatmapSetID:1121207

[Difficulty]
HPDrainRate:4
CircleSize:2
OverallDifficulty:7
ApproachRate:10
SliderMultiplier:1.4
SliderTickRate:1

[Events]
//Background and Video events
0,0,"SLAY-THEM.jpg",0,0
//Break Periods
//Storyboard Layer 0 (Background)
//Storyboard Layer 1 (Fail)
//Storyboard Layer 2 (Pass)
//Storyboard Layer 3 (Foreground)
//Storyboard Layer 4 (Overlay)
//Storyboard Sound Samples

[TimingPoints]
620,645.161290322581,4,1,0,30,1,0
31587,645.161290322581,4,1,0,30,1,8
32878,645.161290322581,4,1,0,40,1,0
85873,769.230769230769,4,1,0,40,1,8
86257,810.810810810811,4,1,0,40,1,8
86257,-105.263157894737,4,1,0,40,0,0
86662,-111.111111111111,4,1,0,40,0,0
87067,-117.647058823529,4,1,0,40,0,0
87538,638.297872340426,4,1,0,40,1,0
87538,-153.846153846154,4,1,0,40,0,0
92463,270.27027027027,4,1,0,90,1,1
92463,-90.9090909090909,4,1,0,90,0,1
94625,272.727272727273,4,1,0,90,1,1
94625,-90.0900900900901,4,1,0,90,0,1
107706,270.27027027027,4,1,0,90,1,1
107706,-90.0900900900901,4,1,0,90,0,1
108787,275.229357798165,4,1,0,90,1,1
108787,-88.4955752212389,4,1,0,90,0,1
109887,272.727272727273,4,1,0,90,1,1
109887,-100,4,1,0,90,0,0
124068,272.727272727273,4,1,0,90,1,8
124078,275.229357798165,4,1,0,90,1,0
124078,-99.009900990099,4,1,0,90,0,0
126262,272.727272727273,4,1,0,90,1,0
127342,272.727272727273,4,1,0,90,1,1
127342,-90.9090909090909,4,1,0,90,0,1
134978,-90.9090909090909,4,1,0,90,0,0
136069,-100,4,1,0,90,0,1
143705,272.727272727273,4,1,0,90,1,9
143715,271.493212669683,4,1,0,90,1,0
143715,-100,4,1,0,90,0,0
144799,272.727272727273,4,1,0,90,1,0
161162,275.355667737494,4,1,0,90,1,0
161162,-99.009900990099,4,1,0,90,0,0
162263,272.727272727273,4,1,0,80,1,0
162263,-111.111111111111,4,1,0,80,0,0
169899,-108.695652173913,4,1,0,80,0,8
170035,-107.52688172043,4,1,0,80,0,8
170172,-106.382978723404,4,1,0,80,0,8
170308,-105.263157894737,4,1,0,80,0,8
170444,-104.166666666667,4,1,0,80,0,8
170581,-103.092783505155,4,1,0,80,0,8
170717,-102.040816326531,4,1,0,80,0,8
170853,-101.010101010101,4,1,0,80,0,8
170990,-100,4,1,0,80,0,8
178626,-102.272727272727,4,1,0,80,0,8
178763,-104.651162790698,4,1,0,80,0,8
178899,-107.142857142857,4,1,0,80,0,8
179035,-109.756097560976,4,1,0,80,0,8
179172,-112.5,4,1,0,80,0,8
179308,-115.384615384615,4,1,0,80,0,8
179444,-118.421052631579,4,1,0,80,0,8
179581,-121.621621621622,4,1,0,80,0,8
179717,-125,4,1,0,80,0,0
187353,271.0027100271,4,1,0,70,1,0
187353,-126.582278481013,4,1,0,70,0,0
188437,272.727272727273,4,1,0,70,1,0
188437,-125,4,1,0,70,0,0
196067,266.666666666667,4,1,0,80,1,0
196067,-122.641509433962,4,1,0,80,0,8
196133,-120.37037037037,4,1,0,80,0,8
196200,-118.181818181818,4,1,0,80,0,8
196267,-116.071428571429,4,1,0,80,0,8
196333,-114.035087719298,4,1,0,80,0,8
196400,-112.068965517241,4,1,0,80,0,8
196467,-110.169491525424,4,1,0,80,0,8
196533,-108.333333333333,4,1,0,80,0,8
196600,-106.55737704918,4,1,0,80,0,8
196667,-104.838709677419,4,1,0,80,0,8
196733,-103.174603174603,4,1,0,80,0,8
196800,-101.5625,4,1,0,80,0,8
196892,272.727272727273,4,1,0,80,1,8
196892,-100,4,1,0,80,0,8
197182,270.27027027027,4,1,0,90,1,1
197182,-90.9090909090909,4,1,0,90,0,1
199344,273.972602739726,4,1,0,90,1,1
199344,-89.2857142857143,4,1,0,90,0,1
204813,272.727272727273,4,1,0,90,1,0
204813,-89.2857142857143,4,1,0,90,0,0
205881,272.727272727273,4,1,0,90,1,1
212426,272.727272727273,4,1,0,90,1,9
212449,292.682926829268,4,1,0,80,1,0
212449,-93.4579439252336,4,1,0,80,0,0
212595,-93.4579439252336,4,1,0,40,0,0
216253,-100,4,1,0,80,0,0
216546,-105.263157894737,4,1,0,80,0,0
216692,-111.111111111111,4,1,0,80,0,0
216839,-117.647058823529,4,1,0,80,0,0
217131,-125,4,1,0,80,0,0
233522,-125,4,1,0,70,0,0
234692,-123.287671232877,4,1,0,70,0,8
234839,-121.621621621622,4,1,0,70,0,8
234985,-120,4,1,0,70,0,8
235131,-118.421052631579,4,1,0,70,0,8
235278,-116.883116883117,4,1,0,70,0,8
235424,-115.384615384615,4,1,0,70,0,8
235570,-113.924050632911,4,1,0,70,0,8
235717,-112.5,4,1,0,70,0,8
235856,292.4689251767,4,1,0,70,1,0
235856,-110.786856895806,4,1,0,70,0,0
253404,-112.5,4,1,0,70,0,8
253550,-113.924050632911,4,1,0,70,0,8
253696,-115.384615384615,4,1,0,70,0,8
253842,-116.883116883117,4,1,0,70,0,8
253989,-118.421052631579,4,1,0,70,0,8
254135,-120,4,1,0,70,0,8
254281,-121.621621621622,4,1,0,70,0,8
254427,-123.287671232877,4,1,0,70,0,8
254574,295.712173484475,4,1,0,70,1,0
254574,-125,4,1,0,70,0,0
256939,292.682926829268,4,1,0,70,1,0
256939,-125,4,1,0,70,0,0
261621,291.970802919708,4,1,0,70,1,0
261621,-125,4,1,0,70,0,0
263664,-122.448989587673,4,1,0,70,0,0
263810,-120.000000000048,4,1,0,70,0,0
263956,292.682926829268,4,1,0,70,1,0
263956,-117.647058823529,4,1,0,70,0,0
272443,-116.666666666667,4,1,0,70,0,8
272590,-115.702479338843,4,1,0,70,0,8
272736,-114.754098360656,4,1,0,70,0,8
272882,-113.821138211382,4,1,0,70,0,8
273029,-112.903225806452,4,1,0,70,0,8
273175,-112,4,1,0,70,0,8
273321,292.682926829268,4,1,0,70,1,8
273321,-111.111111111111,4,1,0,70,0,0
273324,292.682926829268,4,1,0,70,1,0
273324,-111.111111111111,4,1,0,70,0,0
309323,-106.382978723404,4,1,0,70,0,0
309470,-102.040816326531,4,1,0,70,0,0
309616,-98.0392156862745,4,1,0,70,0,0
310202,-90.9090909090909,4,1,0,70,0,0
313128,292.682926829268,4,1,0,70,1,8
313455,273.224043715847,4,1,0,80,1,0
316727,272.727272727273,4,1,0,80,1,8
316733,273.972602739726,4,1,0,80,1,0
316733,-99.009900990099,4,1,0,80,0,0
318924,272.727272727273,4,1,0,80,1,0
327651,-90.9090909090909,4,1,0,90,0,1
345105,-100,4,1,0,90,0,0
358196,-95.2380952380952,4,1,0,90,0,0
360379,273.972602739726,4,1,0,70,1,0
360379,-95.2380952380952,4,1,0,70,0,0
360652,-89.2857142857143,4,1,0,70,0,0
360789,-87.719298245614,4,1,0,70,0,0
360926,-86.2068965517241,4,1,0,70,0,0
361200,-83.3333333333333,4,1,0,70,0,0
361474,-80,4,1,0,70,0,0
362022,-71.4285714285714,4,1,0,70,0,0

[HitObjects]
256,192,297,5,0,0:0:0:0:
256,192,458,5,0,0:0:0:0:
256,192,620,5,8,0:0:0:0:
256,192,1265,5,8,0:0:0:0:
256,192,1587,5,8,0:0:0:0:
256,192,1749,5,8,0:0:0:0:
256,192,1910,5,0,0:0:0:0:
256,192,2071,5,0,0:0:0:0:
256,192,2232,5,8,0:0:0:0:
256,192,2555,5,8,0:0:0:0:
256,192,2878,5,0,0:0:0:0:
256,192,3039,5,0,0:0:0:0:
256,192,3200,5,8,0:0:0:0:
256,192,3845,5,8,0:0:0:0:
256,192,4168,5,0,0:0:0:0:
256,192,4329,5,8,0:0:0:0:
256,192,4490,5,0,0:0:0:0:
256,192,4652,5,0,0:0:0:0:
256,192,4813,5,8,0:0:0:0:
256,192,5136,5,8,0:0:0:0:
256,192,5458,5,0,0:0:0:0:
256,192,5620,5,8,0:0:0:0:
256,192,5781,5,0,0:0:0:0:
256,192,6426,5,8,0:0:0:0:
256,192,6749,5,8,0:0:0:0:
256,192,6910,5,0,0:0:0:0:
256,192,7071,5,0,0:0:0:0:
256,192,7232,5,0,0:0:0:0:
256,192,7394,5,8,0:0:0:0:
256,192,7716,5,8,0:0:0:0:
256,192,8039,5,0,0:0:0:0:
256,192,8200,5,0,0:0:0:0:
256,192,8361,5,8,0:0:0:0:
256,192,9007,5,8,0:0:0:0:
256,192,9329,5,0,0:0:0:0:
256,192,9490,5,8,0:0:0:0:
256,192,9652,5,0,0:0:0:0:
256,192,9813,5,8,0:0:0:0:
256,192,9974,5,0,0:0:0:0:
256,192,10297,5,0,0:0:0:0:
256,192,10620,5,0,0:0:0:0:
256,192,10781,5,8,0:0:0:0:
256,192,10942,5,8,0:0:0:0:
256,192,11587,5,8,0:0:0:0:
256,192,11910,5,8,0:0:0:0:
256,192,12071,5,0,0:0:0:0:
256,192,12232,5,8,0:0:0:0:
256,192,12394,5,8,0:0:0:0:
256,192,12555,5,0,0:0:0:0:
256,192,12878,5,8,0:0:0:0:
256,192,13200,5,0,0:0:0:0:
256,192,13361,5,8,0:0:0:0:
256,192,13523,5,8,0:0:0:0:
256,192,14007,5,8,0:0:0:0:
256,192,14168,5,8,0:0:0:0:
256,192,14275,5,8,0:0:0:0:
256,192,14383,5,8,0:0:0:0:
256,192,14490,5,0,0:0:0:0:
256,192,14813,5,8,0:0:0:0:
256,192,15136,5,0,0:0:0:0:
256,192,15458,5,8,0:0:0:0:
256,192,15781,5,0,0:0:0:0:
256,192,15942,5,0,0:0:0:0:
256,192,16103,5,8,0:0:0:0:
256,192,16749,5,8,0:0:0:0:
256,192,17071,5,0,0:0:0:0:
256,192,17232,5,8,0:0:0:0:
256,192,17394,5,0,0:0:0:0:
256,192,17555,5,8,0:0:0:0:
256,192,17716,5,8,0:0:0:0:
256,192,18039,5,8,0:0:0:0:
256,192,18361,5,8,0:0:0:0:
256,192,18523,5,0,0:0:0:0:
256,192,18684,5,8,0:0:0:0:
256,192,19168,5,8,0:0:0:0:
256,192,19329,5,0,0:0:0:0:
256,192,19437,5,8,0:0:0:0:
256,192,19544,5,8,0:0:0:0:
256,192,19652,5,0,0:0:0:0:
256,192,19974,5,8,0:0:0:0:
256,192,20620,5,8,0:0:0:0:
256,192,20942,5,8,0:0:0:0:
256,192,21103,5,8,0:0:0:0:
256,192,21265,5,8,0:0:0:0:
256,192,21749,5,8,0:0:0:0:
256,192,21910,5,8,0:0:0:0:
256,192,22232,5,0,0:0:0:0:
256,192,22555,5,8,0:0:0:0:
256,192,22716,5,0,0:0:0:0:
256,192,22878,5,8,0:0:0:0:
256,192,23039,5,8,0:0:0:0:
256,192,23200,5,0,0:0:0:0:
256,192,23523,5,0,0:0:0:0:
256,192,23684,5,8,0:0:0:0:
256,192,23845,5,8,0:0:0:0:
256,192,24329,5,8,0:0:0:0:
256,192,24490,5,8,0:0:0:0:
256,192,24598,5,8,0:0:0:0:
256,192,24706,5,0,0:0:0:0:
256,192,24813,5,0,0:0:0:0:
256,192,25136,5,8,0:0:0:0:
256,192,25781,5,8,0:0:0:0:
256,192,26103,5,0,0:0:0:0:
256,192,26265,5,8,0:0:0:0:
256,192,26426,5,8,0:0:0:0:
256,192,26910,5,8,0:0:0:0:
256,192,27071,5,8,0:0:0:0:
256,192,27394,5,0,0:0:0:0:
256,192,27716,5,0,0:0:0:0:
256,192,27878,5,8,0:0:0:0:
256,192,28039,5,8,0:0:0:0:
256,192,28200,5,8,0:0:0:0:
256,192,28361,5,0,0:0:0:0:
256,192,28684,5,0,0:0:0:0:
256,192,28845,5,0,0:0:0:0:
256,192,29007,5,8,0:0:0:0:
256,192,29329,5,0,0:0:0:0:
256,192,29652,5,8,0:0:0:0:
256,192,29974,5,8,0:0:0:0:
256,192,30136,5,8,0:0:0:0:
256,192,30297,5,0,0:0:0:0:
256,192,30942,5,0,0:0:0:0:
256,192,31587,5,0,0:0:0:0:
256,192,32232,5,8,0:0:0:0:
256,192,32393,5,0,0:0:0:0:
256,192,32554,5,0,0:0:0:0:
256,192,32716,5,0,0:0:0:0:
256,192,32877,5,12,0:0:0:0:
256,192,33523,5,8,0:0:0:0:
256,192,33845,5,8,0:0:0:0:
256,192,34007,5,8,0:0:0:0:
256,192,34168,5,0,0:0:0:0:
256,192,34329,5,0,0:0:0:0:
256,192,34490,5,8,0:0:0:0:
256,192,34813,5,8,0:0:0:0:
256,192,35136,5,0,0:0:0:0:
256,192,35297,5,0,0:0:0:0:
256,192,35458,5,8,0:0:0:0:
256,192,36103,5,8,0:0:0:0:
256,192,36426,5,0,0:0:0:0:
256,192,36587,5,8,0:0:0:0:
256,192,36748,5,0,0:0:0:0:
256,192,36910,5,0,0:0:0:0:
256,192,37071,5,8,0:0:0:0:
256,192,37394,5,0,0:0:0:0:
256,192,37716,5,0,0:0:0:0:
256,192,37878,5,8,0:0:0:0:
256,192,38039,5,8,0:0:0:0:
256,192,38684,5,8,0:0:0:0:
256,192,39007,5,0,0:0:0:0:
256,192,39168,5,8,0:0:0:0:
256,192,39329,5,0,0:0:0:0:
256,192,39490,5,8,0:0:0:0:
256,192,39652,5,0,0:0:0:0:
256,192,39974,5,8,0:0:0:0:
256,192,40297,5,0,0:0:0:0:
256,192,40458,5,0,0:0:0:0:
256,192,40619,5,8,0:0:0:0:
256,192,41265,5,8,0:0:0:0:
256,192,41587,5,8,0:0:0:0:
256,192,41748,5,0,0:0:0:0:
256,192,41910,5,8,0:0:0:0:
256,192,42071,5,0,0:0:0:0:
256,192,42232,5,8,0:0:0:0:
256,192,42394,5,8,0:0:0:0:
256,192,42555,5,8,0:0:0:0:
256,192,42878,5,8,0:0:0:0:
256,192,43039,5,0,0:0:0:0:
256,192,43200,5,12,0:0:0:0:
256,192,43845,5,8,0:0:0:0:
256,192,44168,5,0,0:0:0:0:
256,192,44329,5,8,0:0:0:0:
256,192,44490,5,0,0:0:0:0:
256,192,44652,5,0,0:0:0:0:
256,192,44813,5,8,0:0:0:0:
256,192,45136,5,8,0:0:0:0:
256,192,45458,5,0,0:0:0:0:
256,192,45619,5,0,0:0:0:0:
256,192,45781,5,12,0:0:0:0:
256,192,46426,5,8,0:0:0:0:
256,192,46748,5,8,0:0:0:0:
256,192,46910,5,0,0:0:0:0:
256,192,47071,5,0,0:0:0:0:
256,192,47232,5,8,0:0:0:0:
256,192,47394,5,8,0:0:0:0:
256,192,47716,5,8,0:0:0:0:
256,192,48039,5,0,0:0:0:0:
256,192,48200,5,8,0:0:0:0:
256,192,48361,5,12,0:0:0:0:
256,192,49007,5,8,0:0:0:0:
256,192,49329,5,0,0:0:0:0:
256,192,49490,5,8,0:0:0:0:
256,192,49652,5,0,0:0:0:0:
256,192,49813,5,8,0:0:0:0:
256,192,49974,5,0,0:0:0:0:
256,192,50136,5,0,0:0:0:0:
256,192,50297,5,8,0:0:0:0:
256,192,50619,5,0,0:0:0:0:
256,192,50781,5,0,0:0:0:0:
256,192,50942,5,8,0:0:0:0:
256,192,51587,5,8,0:0:0:0:
256,192,51910,5,0,0:0:0:0:
256,192,52071,5,8,0:0:0:0:
256,192,52232,5,8,0:0:0:0:
256,192,52394,5,8,0:0:0:0:
256,192,52555,5,0,0:0:0:0:
256,192,52878,5,8,0:0:0:0:
256,192,53200,5,0,0:0:0:0:
256,192,53361,5,8,0:0:0:0:
256,192,53523,5,12,0:0:0:0:
256,192,54168,5,8,0:0:0:0:
256,192,54490,5,0,0:0:0:0:
256,192,54652,5,8,0:0:0:0:
256,192,54813,5,0,0:0:0:0:
256,192,54974,5,0,0:0:0:0:
256,192,55136,5,8,0:0:0:0:
256,192,55458,5,8,0:0:0:0:
256,192,55781,5,0,0:0:0:0:
256,192,55942,5,0,0:0:0:0:
256,192,56103,5,8,0:0:0:0:
256,192,56426,5,8,0:0:0:0:
256,192,56748,5,8,0:0:0:0:
256,192,57071,5,0,0:0:0:0:
256,192,57232,5,8,0:0:0:0:
256,192,57394,5,8,0:0:0:0:
256,192,57555,5,0,0:0:0:0:
256,192,57716,5,8,0:0:0:0:
256,192,58039,5,0,0:0:0:0:
256,192,58361,5,0,0:0:0:0:
256,192,58523,5,0,0:0:0:0:
256,192,58684,5,8,0:0:0:0:
256,192,59329,5,8,0:0:0:0:
256,192,59652,5,8,0:0:0:0:
256,192,59813,5,0,0:0:0:0:
256,192,59974,5,8,0:0:0:0:
256,192,60136,5,0,0:0:0:0:
256,192,60297,5,8,0:0:0:0:
256,192,60619,5,8,0:0:0:0:
256,192,60942,5,0,0:0:0:0:
256,192,61103,5,0,0:0:0:0:
256,192,61265,5,8,0:0:0:0:
256,192,61910,5,8,0:0:0:0:
256,192,62232,5,8,0:0:0:0:
256,192,62394,5,8,0:0:0:0:
256,192,62555,5,0,0:0:0:0:
256,192,62716,5,0,0:0:0:0:
256,192,62878,5,8,0:0:0:0:
256,192,63200,5,8,0:0:0:0:
256,192,63523,5,8,0:0:0:0:
256,192,63684,5,0,0:0:0:0:
256,192,63845,5,12,0:0:0:0:
256,192,64490,5,8,0:0:0:0:
256,192,64813,5,0,0:0:0:0:
256,192,64974,5,8,0:0:0:0:
256,192,65136,5,0,0:0:0:0:
256,192,65297,5,8,0:0:0:0:
256,192,65458,5,8,0:0:0:0:
256,192,65781,5,8,0:0:0:0:
256,192,66103,5,0,0:0:0:0:
256,192,66265,5,8,0:0:0:0:
256,192,66426,5,12,0:0:0:0:
256,192,67071,5,8,0:0:0:0:
256,192,67394,5,8,0:0:0:0:
256,192,67555,5,8,0:0:0:0:
256,192,67716,5,0,0:0:0:0:
256,192,67878,5,8,0:0:0:0:
256,192,68039,5,8,0:0:0:0:
256,192,68361,5,8,0:0:0:0:
256,192,68684,5,0,0:0:0:0:
256,192,68845,5,0,0:0:0:0:
256,192,69007,5,12,0:0:0:0:
256,192,69652,5,8,0:0:0:0:
256,192,69974,5,8,0:0:0:0:
256,192,70136,5,0,0:0:0:0:
256,192,70297,5,0,0:0:0:0:
256,192,70458,5,8,0:0:0:0:
256,192,70619,5,8,0:0:0:0:
256,192,70942,5,8,0:0:0:0:
256,192,71265,5,8,0:0:0:0:
256,192,71426,5,0,0:0:0:0:
256,192,71587,5,12,0:0:0:0:
256,192,72232,5,8,0:0:0:0:
256,192,72555,5,8,0:0:0:0:
256,192,72878,5,0,0:0:0:0:
256,192,73200,5,0,0:0:0:0:
256,192,73523,5,8,0:0:0:0:
256,192,73845,5,0,0:0:0:0:
256,192,74007,5,0,0:0:0:0:
256,192,74168,5,12,0:0:0:0:
256,192,74813,5,8,0:0:0:0:
256,192,75136,5,8,0:0:0:0:
256,192,75297,5,8,0:0:0:0:
256,192,75458,5,0,0:0:0:0:
256,192,75619,5,8,0:0:0:0:
256,192,75781,5,8,0:0:0:0:
256,192,76103,5,8,0:0:0:0:
256,192,76426,5,0,0:0:0:0:
256,192,76587,5,8,0:0:0:0:
256,192,76748,5,0,0:0:0:0:
256,192,77232,5,8,0:0:0:0:
256,192,77394,5,0,0:0:0:0:
256,192,77716,5,0,0:0:0:0:
256,192,78039,5,8,0:0:0:0:
256,192,78684,5,8,0:0:0:0:
256,192,79007,5,0,0:0:0:0:
256,192,79168,5,8,0:0:0:0:
256,192,79329,5,12,0:0:0:0:
256,192,79974,5,8,0:0:0:0:
256,192,80297,5,0,0:0:0:0:
256,192,80458,5,8,0:0:0:0:
256,192,80619,5,0,0:0:0:0:
256,192,80781,5,8,0:0:0:0:
256,192,80942,5,8,0:0:0:0:
256,192,81265,5,8,0:0:0:0:
256,192,81587,5,8,0:0:0:0:
256,192,81748,5,0,0:0:0:0:
256,192,81910,5,12,0:0:0:0:
256,192,82555,5,8,0:0:0:0:
256,192,82878,5,0,0:0:0:0:
256,192,83200,5,8,0:0:0:0:
256,192,83845,5,8,0:0:0:0:
256,192,84168,5,0,0:0:0:0:
256,192,84329,5,8,0:0:0:0:
256,192,84490,5,12,0:0:0:0:
256,192,85136,5,0,0:0:0:0:
256,192,85873,5,12,0:0:0:0:
256,192,86257,5,0,0:0:0:0:
256,192,86662,5,0,0:0:0:0:
256,192,87067,5,8,0:0:0:0:
256,184,87538,5,4,0:0:0:0:
256,192,87857,12,0,92006,0:0:0:0:
256,192,92463,5,8,0:0:0:0:
256,192,92530,5,8,0:0:0:0:
256,192,92598,5,0,0:0:0:0:
256,192,92665,5,0,0:0:0:0:
256,192,92733,5,8,0:0:0:0:
256,192,92800,5,0,0:0:0:0:
256,192,92868,5,0,0:0:0:0:
256,192,92935,5,0,0:0:0:0:
256,192,93003,5,8,0:0:0:0:
256,192,93071,5,0,0:0:0:0:
256,192,93138,5,0,0:0:0:0:
256,192,93206,5,0,0:0:0:0:
256,192,93273,5,8,0:0:0:0:
256,192,93341,5,0,0:0:0:0:
256,192,93408,5,0,0:0:0:0:
256,192,93476,5,0,0:0:0:0:
256,192,93544,5,8,0:0:0:0:
256,192,93611,5,8,0:0:0:0:
256,192,93679,5,0,0:0:0:0:
256,192,93746,5,0,0:0:0:0:
256,192,93814,5,8,0:0:0:0:
256,192,93881,5,0,0:0:0:0:
256,192,93949,5,0,0:0:0:0:
256,192,94017,5,0,0:0:0:0:
256,192,94084,5,8,0:0:0:0:
256,192,94152,5,0,0:0:0:0:
256,192,94219,5,0,0:0:0:0:
256,192,94287,5,0,0:0:0:0:
256,192,94354,5,8,0:0:0:0:
256,192,94422,5,0,0:0:0:0:
256,192,94490,5,0,0:0:0:0:
256,192,94557,5,0,0:0:0:0:
256,192,94625,5,8,0:0:0:0:
256,192,94693,5,8,0:0:0:0:
256,192,94761,5,8,0:0:0:0:
256,192,94829,5,8,0:0:0:0:
256,192,94897,5,0,0:0:0:0:
256,192,94965,5,0,0:0:0:0:
256,192,95034,5,0,0:0:0:0:
256,192,95102,5,0,0:0:0:0:
256,192,95170,5,8,0:0:0:0:
256,192,95238,5,0,0:0:0:0:
256,192,95306,5,0,0:0:0:0:
256,192,95375,5,0,0:0:0:0:
256,192,95443,5,8,0:0:0:0:
256,192,95511,5,8,0:0:0:0:
256,192,95579,5,0,0:0:0:0:
256,192,95647,5,0,0:0:0:0:
256,192,95715,5,8,0:0:0:0:
256,192,95784,5,8,0:0:0:0:
256,192,95852,5,8,0:0:0:0:
256,192,95920,5,8,0:0:0:0:
256,192,95988,5,0,0:0:0:0:
256,192,96056,5,0,0:0:0:0:
256,192,96125,5,0,0:0:0:0:
256,192,96193,5,0,0:0:0:0:
256,192,96261,5,8,0:0:0:0:
256,192,96329,5,0,0:0:0:0:
256,192,96397,5,0,0:0:0:0:
256,192,96465,5,0,0:0:0:0:
256,192,96534,5,8,0:0:0:0:
256,192,96602,5,0,0:0:0:0:
256,192,96670,5,0,0:0:0:0:
256,192,96738,5,0,0:0:0:0:
256,192,96806,5,8,0:0:0:0:
256,192,96875,5,8,0:0:0:0:
256,192,96943,5,8,0:0:0:0:
256,192,97011,5,8,0:0:0:0:
256,192,97079,5,0,0:0:0:0:
256,192,97147,5,0,0:0:0:0:
256,192,97215,5,0,0:0:0:0:
256,192,97284,5,0,0:0:0:0:
256,192,97352,5,8,0:0:0:0:
256,192,97420,5,0,0:0:0:0:
256,192,97488,5,0,0:0:0:0:
256,192,97556,5,0,0:0:0:0:
256,192,97625,5,8,0:0:0:0:
256,192,97693,5,0,0:0:0:0:
256,192,97761,5,0,0:0:0:0:
256,192,97829,5,0,0:0:0:0:
256,192,97897,5,8,0:0:0:0:
256,192,97965,5,8,0:0:0:0:
256,192,98034,5,0,0:0:0:0:
256,192,98102,5,0,0:0:0:0:
256,192,98170,5,8,0:0:0:0:
256,192,98238,5,0,0:0:0:0:
256,192,98306,5,0,0:0:0:0:
256,192,98375,5,0,0:0:0:0:
256,192,98443,5,8,0:0:0:0:
256,192,98511,5,0,0:0:0:0:
256,192,98579,5,0,0:0:0:0:
256,192,98647,5,0,0:0:0:0:
256,192,98715,5,8,0:0:0:0:
256,192,98784,5,0,0:0:0:0:
256,192,98852,5,0,0:0:0:0:
256,192,98920,5,0,0:0:0:0:
256,192,98988,5,8,0:0:0:0:
256,192,99056,5,8,0:0:0:0:
256,192,99125,5,0,0:0:0:0:
256,192,99193,5,0,0:0:0:0:
256,192,99261,5,8,0:0:0:0:
256,192,99329,5,8,0:0:0:0:
256,192,99397,5,8,0:0:0:0:
256,192,99465,5,0,0:0:0:0:
256,192,99534,5,8,0:0:0:0:
256,192,99602,5,0,0:0:0:0:
256,192,99670,5,0,0:0:0:0:
256,192,99738,5,0,0:0:0:0:
256,192,99806,5,8,0:0:0:0:
256,192,99875,5,8,0:0:0:0:
256,192,99943,5,0,0:0:0:0:
256,192,100011,5,0,0:0:0:0:
256,192,100079,5,8,0:0:0:0:
256,192,100147,5,8,0:0:0:0:
256,192,100215,5,8,0:0:0:0:
256,192,100284,5,8,0:0:0:0:
256,192,100352,5,0,0:0:0:0:
256,192,100420,5,0,0:0:0:0:
256,192,100488,5,0,0:0:0:0:
256,192,100556,5,0,0:0:0:0:
256,192,100625,5,8,0:0:0:0:
256,192,100693,5,8,0:0:0:0:
256,192,100761,5,0,0:0:0:0:
256,192,100829,5,0,0:0:0:0:
256,192,100897,5,0,0:0:0:0:
256,192,100965,5,0,0:0:0:0:
256,192,101034,5,0,0:0:0:0:
256,192,101102,5,0,0:0:0:0:
256,192,101170,5,8,0:0:0:0:
256,192,101238,5,8,0:0:0:0:
256,192,101306,5,0,0:0:0:0:
256,192,101375,5,0,0:0:0:0:
256,192,101443,5,8,0:0:0:0:
256,192,101511,5,0,0:0:0:0:
256,192,101579,5,0,0:0:0:0:
256,192,101647,5,0,0:0:0:0:
256,192,101715,5,8,0:0:0:0:
256,192,101784,5,0,0:0:0:0:
256,192,101852,5,0,0:0:0:0:
256,192,101920,5,0,0:0:0:0:
256,192,101988,5,8,0:0:0:0:
256,192,102056,5,0,0:0:0:0:
256,192,102125,5,0,0:0:0:0:
256,192,102193,5,0,0:0:0:0:
256,192,102261,5,8,0:0:0:0:
256,192,102329,5,8,0:0:0:0:
256,192,102397,5,0,0:0:0:0:
256,192,102465,5,0,0:0:0:0:
256,192,102534,5,8,0:0:0:0:
256,192,102602,5,0,0:0:0:0:
256,192,102670,5,0,0:0:0:0:
256,192,102738,5,0,0:0:0:0:
256,192,102806,5,8,0:0:0:0:
256,192,102875,5,0,0:0:0:0:
256,192,102943,5,0,0:0:0:0:
256,192,103011,5,0,0:0:0:0:
256,192,103079,5,8,0:0:0:0:
256,192,103147,5,0,0:0:0:0:
256,192,103215,5,0,0:0:0:0:
256,192,103284,5,0,0:0:0:0:
256,192,103352,5,8,0:0:0:0:
256,192,103420,5,8,0:0:0:0:
256,192,103488,5,0,0:0:0:0:
256,192,103556,5,0,0:0:0:0:
256,192,103625,5,0,0:0:0:0:
256,192,103693,5,0,0:0:0:0:
256,192,103761,5,8,0:0:0:0:
256,192,103829,5,8,0:0:0:0:
256,192,103897,5,0,0:0:0:0:
256,192,103965,5,0,0:0:0:0:
256,192,104034,5,0,0:0:0:0:
256,192,104102,5,0,0:0:0:0:
256,192,104170,5,8,0:0:0:0:
256,192,104238,5,0,0:0:0:0:
256,192,104306,5,0,0:0:0:0:
256,192,104375,5,0,0:0:0:0:
256,192,104443,5,8,0:0:0:0:
256,192,104511,5,8,0:0:0:0:
256,192,104579,5,8,0:0:0:0:
256,192,104647,5,8,0:0:0:0:
256,192,104715,5,0,0:0:0:0:
256,192,104784,5,0,0:0:0:0:
256,192,104852,5,0,0:0:0:0:
256,192,104920,5,0,0:0:0:0:
256,192,104988,5,8,0:0:0:0:
256,192,105056,5,8,0:0:0:0:
256,192,105125,5,0,0:0:0:0:
256,192,105193,5,0,0:0:0:0:
256,192,105261,5,8,0:0:0:0:
256,192,105329,5,8,0:0:0:0:
256,192,105397,5,8,0:0:0:0:
256,192,105465,5,0,0:0:0:0:
256,192,105534,5,8,0:0:0:0:
256,192,105602,5,8,0:0:0:0:
256,192,105670,5,8,0:0:0:0:
256,192,105738,5,8,0:0:0:0:
256,192,105806,5,8,0:0:0:0:
256,192,105875,5,8,0:0:0:0:
256,192,105943,5,0,0:0:0:0:
256,192,106011,5,0,0:0:0:0:
256,192,106079,5,8,0:0:0:0:
256,192,106147,5,8,0:0:0:0:
256,192,106215,5,0,0:0:0:0:
256,192,106284,5,0,0:0:0:0:
256,192,106352,5,8,0:0:0:0:
256,192,106420,5,0,0:0:0:0:
256,192,106488,5,0,0:0:0:0:
256,192,106556,5,0,0:0:0:0:
256,192,106625,5,8,0:0:0:0:
256,192,106693,5,8,0:0:0:0:
256,192,106761,5,0,0:0:0:0:
256,192,106829,5,0,0:0:0:0:
256,192,106897,5,8,0:0:0:0:
256,192,106965,5,8,0:0:0:0:
256,192,107034,5,0,0:0:0:0:
256,192,107102,5,0,0:0:0:0:
256,192,107170,5,8,0:0:0:0:
256,192,107238,5,8,0:0:0:0:
256,192,107306,5,8,0:0:0:0:
256,192,107375,5,8,0:0:0:0:
256,192,107443,5,0,0:0:0:0:
256,192,107706,5,8,0:0:0:0:
256,192,107773,5,0,0:0:0:0:
256,192,107841,5,0,0:0:0:0:
256,192,107908,5,0,0:0:0:0:
256,192,107976,5,8,0:0:0:0:
256,192,108043,5,0,0:0:0:0:
256,192,108111,5,8,0:0:0:0:
256,192,108178,5,8,0:0:0:0:
256,192,108246,5,0,0:0:0:0:
256,192,108314,5,0,0:0:0:0:
256,192,108381,5,8,0:0:0:0:
256,192,108449,5,0,0:0:0:0:
256,192,108516,5,8,0:0:0:0:
256,192,108584,5,8,0:0:0:0:
256,192,108651,5,0,0:0:0:0:
256,192,108719,5,0,0:0:0:0:
256,192,108787,5,8,0:0:0:0:
256,192,108855,5,8,0:0:0:0:
256,192,108924,5,8,0:0:0:0:
256,192,108993,5,8,0:0:0:0:
256,192,109062,5,0,0:0:0:0:
256,192,109131,5,0,0:0:0:0:
256,192,109199,5,0,0:0:0:0:
256,192,109268,5,0,0:0:0:0:
256,192,109337,5,8,0:0:0:0:
256,192,109406,5,8,0:0:0:0:
256,192,109475,5,0,0:0:0:0:
256,192,109543,5,0,0:0:0:0:
256,192,109612,5,8,0:0:0:0:
256,192,109887,5,0,0:0:0:0:
256,192,110023,5,8,0:0:0:0:
256,192,110091,5,8,0:0:0:0:
256,192,110159,5,0,0:0:0:0:
256,192,110296,5,8,0:0:0:0:
256,192,110432,5,8,0:0:0:0:
256,192,110500,5,8,0:0:0:0:
256,192,110568,5,0,0:0:0:0:
256,192,110637,5,0,0:0:0:0:
256,192,110705,5,8,0:0:0:0:
256,192,110841,5,0,0:0:0:0:
256,192,110977,5,0,0:0:0:0:
256,192,111114,5,8,0:0:0:0:
256,192,111182,5,0,0:0:0:0:
256,192,111250,5,8,0:0:0:0:
256,192,111387,5,0,0:0:0:0:
256,192,111523,5,8,0:0:0:0:
256,192,111591,5,0,0:0:0:0:
256,192,111659,5,0,0:0:0:0:
256,192,111727,5,0,0:0:0:0:
256,192,111796,5,8,0:0:0:0:
256,192,111932,5,8,0:0:0:0:
256,192,112068,5,0,0:0:0:0:
256,192,112137,5,0,0:0:0:0:
256,192,112205,5,0,0:0:0:0:
256,192,112341,5,8,0:0:0:0:
256,192,112477,5,0,0:0:0:0:
256,192,112614,5,8,0:0:0:0:
256,192,112682,5,8,0:0:0:0:
256,192,112750,5,0,0:0:0:0:
256,192,112818,5,0,0:0:0:0:
256,192,112887,5,8,0:0:0:0:
256,192,113023,5,8,0:0:0:0:
256,192,113159,5,4,0:0:0:0:
256,192,113296,5,0,0:0:0:0:
256,192,113364,5,0,0:0:0:0:
256,192,113432,5,8,0:0:0:0:
256,192,113568,5,8,0:0:0:0:
256,192,113705,5,12,0:0:0:0:
256,192,113841,5,0,0:0:0:0:
256,192,113977,5,12,0:0:0:0:
256,192,114114,5,0,0:0:0:0:
256,192,114250,5,8,0:0:0:0:
256,192,114387,5,8,0:0:0:0:
256,192,114455,5,8,0:0:0:0:
256,192,114523,5,0,0:0:0:0:
256,192,114659,5,0,0:0:0:0:
256,192,114796,5,8,0:0:0:0:
256,192,114864,5,0,0:0:0:0:
256,192,114932,5,0,0:0:0:0:
256,192,115000,5,0,0:0:0:0:
256,192,115068,5,8,0:0:0:0:
256,192,115205,5,0,0:0:0:0:
256,192,115341,5,8,0:0:0:0:
256,192,115409,5,0,0:0:0:0:
256,192,115477,5,0,0:0:0:0:
256,192,115614,5,8,0:0:0:0:
256,192,115750,5,0,0:0:0:0:
256,192,115887,5,8,0:0:0:0:
256,192,115955,5,8,0:0:0:0:
256,192,116023,5,0,0:0:0:0:
256,192,116091,5,0,0:0:0:0:
256,192,116159,5,8,0:0:0:0:
256,192,116296,5,8,0:0:0:0:
256,192,116432,5,8,0:0:0:0:
256,192,116500,5,8,0:0:0:0:
256,192,116568,5,0,0:0:0:0:
256,192,116705,5,8,0:0:0:0:
256,192,116841,5,0,0:0:0:0:
256,192,116977,5,8,0:0:0:0:
256,192,117046,5,8,0:0:0:0:
256,192,117114,5,0,0:0:0:0:
256,192,117250,5,8,0:0:0:0:
256,192,117318,5,8,0:0:0:0:
256,192,117387,5,8,0:0:0:0:
256,192,117523,5,0,0:0:0:0:
256,192,117659,5,8,0:0:0:0:
256,192,117796,5,0,0:0:0:0:
256,192,117864,5,0,0:0:0:0:
256,192,117932,5,0,0:0:0:0:
256,192,118068,5,12,0:0:0:0:
256,192,118205,5,0,0:0:0:0:
256,192,118341,5,8,0:0:0:0:
256,192,118409,5,8,0:0:0:0:
256,192,118477,5,0,0:0:0:0:
256,192,118546,5,0,0:0:0:0:
256,192,118614,5,8,0:0:0:0:
256,192,118750,5,0,0:0:0:0:
256,192,118887,5,8,0:0:0:0:
256,192,119023,5,0,0:0:0:0:
256,192,119159,5,8,0:0:0:0:
256,192,119296,5,0,0:0:0:0:
256,192,119364,5,0,0:0:0:0:
256,192,119432,5,8,0:0:0:0:
256,192,119500,5,0,0:0:0:0:
256,192,119568,5,8,0:0:0:0:
256,192,119705,5,0,0:0:0:0:
256,192,119841,5,0,0:0:0:0:
256,192,119977,5,8,0:0:0:0:
256,192,120114,5,0,0:0:0:0:
256,192,120182,5,0,0:0:0:0:
256,192,120250,5,8,0:0:0:0:
256,192,120387,5,0,0:0:0:0:
256,192,120523,5,8,0:0:0:0:
256,192,120591,5,8,0:0:0:0:
256,192,120659,5,0,0:0:0:0:
256,192,120796,5,8,0:0:0:0:
256,192,120932,5,8,0:0:0:0:
256,192,121068,5,0,0:0:0:0:
256,192,121205,5,0,0:0:0:0:
256,192,121341,5,8,0:0:0:0:
256,192,121477,5,0,0:0:0:0:
256,192,121546,5,8,0:0:0:0:
256,192,121614,5,8,0:0:0:0:
256,192,121682,5,0,0:0:0:0:
256,192,121750,5,8,0:0:0:0:
256,192,121887,5,0,0:0:0:0:
256,192,122023,5,0,0:0:0:0:
256,192,122159,5,8,0:0:0:0:
256,192,122296,5,0,0:0:0:0:
256,192,122432,5,8,0:0:0:0:
256,192,122500,5,8,0:0:0:0:
256,192,122568,5,8,0:0:0:0:
256,192,122705,5,4,0:0:0:0:
256,192,122841,5,0,0:0:0:0:
256,192,122977,5,12,0:0:0:0:
256,192,123114,5,0,0:0:0:0:
256,192,123250,5,8,0:0:0:0:
256,192,123387,5,0,0:0:0:0:
256,192,123455,5,0,0:0:0:0:
256,192,123523,5,8,0:0:0:0:
256,192,123591,5,0,0:0:0:0:
256,192,123659,5,8,0:0:0:0:
256,192,123796,5,0,0:0:0:0:
256,192,123932,5,8,0:0:0:0:
256,192,124078,5,0,0:0:0:0:
256,192,124146,5,0,0:0:0:0:
256,192,124215,5,0,0:0:0:0:
256,192,124353,5,8,0:0:0:0:
256,192,124490,5,0,0:0:0:0:
256,192,124628,5,8,0:0:0:0:
256,192,124697,5,8,0:0:0:0:
256,192,124766,5,8,0:0:0:0:
256,192,124834,5,8,0:0:0:0:
256,192,124903,5,0,0:0:0:0:
256,192,125041,5,0,0:0:0:0:
256,192,125178,5,8,0:0:0:0:
256,192,125316,5,0,0:0:0:0:
256,192,125385,5,0,0:0:0:0:
256,192,125454,5,8,0:0:0:0:
256,192,125591,5,0,0:0:0:0:
256,192,125729,5,8,0:0:0:0:
256,192,125866,5,0,0:0:0:0:
256,192,125935,5,8,0:0:0:0:
256,192,126004,5,8,0:0:0:0:
256,192,126142,5,0,0:0:0:0:
256,192,126262,5,8,0:0:0:0:
256,192,126330,5,8,0:0:0:0:
256,192,126398,5,0,0:0:0:0:
256,192,126466,5,0,0:0:0:0:
256,192,126534,5,0,0:0:0:0:
256,192,126602,5,0,0:0:0:0:
256,192,126671,5,8,0:0:0:0:
256,192,126739,5,8,0:0:0:0:
256,192,126807,5,8,0:0:0:0:
256,192,126875,5,8,0:0:0:0:
256,192,126943,5,0,0:0:0:0:
256,192,127012,5,0,0:0:0:0:
256,192,127080,5,8,0:0:0:0:
256,192,127342,5,8,0:0:0:0:
256,192,127410,5,8,0:0:0:0:
256,192,127478,5,0,0:0:0:0:
256,192,127546,5,0,0:0:0:0:
256,192,127614,5,8,0:0:0:0:
256,192,127682,5,0,0:0:0:0:
256,192,127751,5,0,0:0:0:0:
256,192,127819,5,0,0:0:0:0:
256,192,127887,5,8,0:0:0:0:
256,192,127955,5,8,0:0:0:0:
256,192,128023,5,0,0:0:0:0:
256,192,128091,5,0,0:0:0:0:
256,192,128160,5,8,0:0:0:0:
256,192,128228,5,0,0:0:0:0:
256,192,128296,5,0,0:0:0:0:
256,192,128364,5,0,0:0:0:0:
256,192,128432,5,8,0:0:0:0:
256,192,128501,5,8,0:0:0:0:
256,192,128569,5,0,0:0:0:0:
256,192,128637,5,0,0:0:0:0:
256,192,128705,5,8,0:0:0:0:
256,192,128773,5,0,0:0:0:0:
256,192,128841,5,0,0:0:0:0:
256,192,128910,5,0,0:0:0:0:
256,192,128978,5,8,0:0:0:0:
256,192,129046,5,0,0:0:0:0:
256,192,129114,5,0,0:0:0:0:
256,192,129182,5,0,0:0:0:0:
256,192,129251,5,8,0:0:0:0:
256,192,129319,5,8,0:0:0:0:
256,192,129387,5,0,0:0:0:0:
256,192,129455,5,0,0:0:0:0:
256,192,129523,5,8,0:0:0:0:
256,192,129591,5,8,0:0:0:0:
256,192,129660,5,8,0:0:0:0:
256,192,129728,5,8,0:0:0:0:
256,192,129796,5,0,0:0:0:0:
256,192,129864,5,0,0:0:0:0:
256,192,129932,5,0,0:0:0:0:
256,192,130001,5,0,0:0:0:0:
256,192,130069,5,8,0:0:0:0:
256,192,130137,5,8,0:0:0:0:
256,192,130205,5,8,0:0:0:0:
256,192,130273,5,0,0:0:0:0:
256,192,130341,5,8,0:0:0:0:
256,192,130410,5,8,0:0:0:0:
256,192,130478,5,0,0:0:0:0:
256,192,130546,5,0,0:0:0:0:
256,192,130614,5,8,0:0:0:0:
256,192,130682,5,8,0:0:0:0:
256,192,130751,5,8,0:0:0:0:
256,192,130819,5,8,0:0:0:0:
256,192,130887,5,0,0:0:0:0:
256,192,130955,5,0,0:0:0:0:
256,192,131023,5,0,0:0:0:0:
256,192,131091,5,0,0:0:0:0:
256,192,131160,5,8,0:0:0:0:
256,192,131228,5,0,0:0:0:0:
256,192,131296,5,0,0:0:0:0:
256,192,131364,5,0,0:0:0:0:
256,192,131432,5,8,0:0:0:0:
256,192,131501,5,0,0:0:0:0:
256,192,131569,5,0,0:0:0:0:
256,192,131637,5,0,0:0:0:0:
256,192,131705,5,8,0:0:0:0:
256,192,131773,5,8,0:0:0:0:
256,192,131841,5,0,0:0:0:0:
256,192,131910,5,0,0:0:0:0:
256,192,131978,5,8,0:0:0:0:
256,192,132046,5,0,0:0:0:0:
256,192,132114,5,0,0:0:0:0:
256,192,132182,5,0,0:0:0:0:
256,192,132251,5,8,0:0:0:0:
256,192,132319,5,8,0:0:0:0:
256,192,132387,5,8,0:0:0:0:
256,192,132455,5,0,0:0:0:0:
256,192,132523,5,8,0:0:0:0:
256,192,132591,5,0,0:0:0:0:
256,192,132660,5,0,0:0:0:0:
256,192,132728,5,0,0:0:0:0:
256,192,132796,5,8,0:0:0:0:
256,192,132864,5,8,0:0:0:0:
256,192,132932,5,8,0:0:0:0:
256,192,133001,5,8,0:0:0:0:
256,192,133069,5,0,0:0:0:0:
256,192,133137,5,0,0:0:0:0:
256,192,133205,5,0,0:0:0:0:
256,192,133273,5,0,0:0:0:0:
256,192,133341,5,8,0:0:0:0:
256,192,133410,5,8,0:0:0:0:
256,192,133478,5,0,0:0:0:0:
256,192,133546,5,0,0:0:0:0:
256,192,133614,5,8,0:0:0:0:
256,192,133682,5,8,0:0:0:0:
256,192,133751,5,8,0:0:0:0:
256,192,133819,5,0,0:0:0:0:
256,192,133887,5,8,0:0:0:0:
256,192,133955,5,8,0:0:0:0:
256,192,134023,5,0,0:0:0:0:
256,192,134091,5,0,0:0:0:0:
256,192,134160,5,8,0:0:0:0:
256,192,134228,5,8,0:0:0:0:
256,192,134296,5,8,0:0:0:0:
256,192,134364,5,0,0:0:0:0:
256,192,134432,5,8,0:0:0:0:
256,192,134501,5,0,0:0:0:0:
256,192,134569,5,0,0:0:0:0:
256,192,134637,5,0,0:0:0:0:
256,192,134705,5,8,0:0:0:0:
256,192,134978,5,8,0:0:0:0:
256,192,135046,5,8,0:0:0:0:
256,192,135114,5,0,0:0:0:0:
256,192,135182,5,0,0:0:0:0:
256,192,135251,5,0,0:0:0:0:
256,192,135319,5,0,0:0:0:0:
256,192,135387,5,0,0:0:0:0:
256,192,135455,5,0,0:0:0:0:
256,192,135523,5,8,0:0:0:0:
256,192,135591,5,8,0:0:0:0:
256,192,135660,5,0,0:0:0:0:
256,192,135728,5,0,0:0:0:0:
256,192,135796,5,8,0:0:0:0:
256,192,136069,5,8,0:0:0:0:
256,192,136160,5,0,0:0:0:0:
256,192,136251,5,0,0:0:0:0:
256,192,136341,5,8,0:0:0:0:
256,192,136432,5,8,0:0:0:0:
256,192,136523,5,0,0:0:0:0:
256,192,136614,5,8,0:0:0:0:
256,192,136705,5,8,0:0:0:0:
256,192,136796,5,0,0:0:0:0:
256,192,136887,5,8,0:0:0:0:
256,192,136978,5,0,0:0:0:0:
256,192,137069,5,0,0:0:0:0:
256,192,137160,5,8,0:0:0:0:
256,192,137251,5,8,0:0:0:0:
256,192,137341,5,0,0:0:0:0:
256,192,137432,5,0,0:0:0:0:
256,192,137523,5,0,0:0:0:0:
256,192,137614,5,0,0:0:0:0:
256,192,137705,5,8,0:0:0:0:
256,192,137796,5,8,0:0:0:0:
256,192,137887,5,0,0:0:0:0:
256,192,137978,5,8,0:0:0:0:
256,192,138069,5,0,0:0:0:0:
256,192,138160,5,0,0:0:0:0:
256,192,138251,5,8,0:0:0:0:
256,192,138341,5,0,0:0:0:0:
256,192,138432,5,0,0:0:0:0:
256,192,138523,5,8,0:0:0:0:
256,192,138614,5,8,0:0:0:0:
256,192,138705,5,0,0:0:0:0:
256,192,138796,5,8,0:0:0:0:
256,192,138887,5,8,0:0:0:0:
256,192,138978,5,8,0:0:0:0:
256,192,139069,5,0,0:0:0:0:
256,192,139160,5,0,0:0:0:0:
256,192,139251,5,0,0:0:0:0:
256,192,139341,5,8,0:0:0:0:
256,192,139432,5,8,0:0:0:0:
256,192,139523,5,8,0:0:0:0:
256,192,139614,5,8,0:0:0:0:
256,192,139705,5,0,0:0:0:0:
256,192,139796,5,0,0:0:0:0:
256,192,139887,5,8,0:0:0:0:
256,192,139978,5,0,0:0:0:0:
256,192,140069,5,0,0:0:0:0:
256,192,140160,5,8,0:0:0:0:
256,192,140251,5,0,0:0:0:0:
256,192,140341,5,0,0:0:0:0:
256,192,140432,5,8,0:0:0:0:
256,192,140523,5,8,0:0:0:0:
256,192,140614,5,8,0:0:0:0:
256,192,140705,5,8,0:0:0:0:
256,192,140796,5,0,0:0:0:0:
256,192,140887,5,0,0:0:0:0:
256,192,140978,5,8,0:0:0:0:
256,192,141069,5,0,0:0:0:0:
256,192,141160,5,0,0:0:0:0:
256,192,141251,5,8,0:0:0:0:
256,192,141341,5,8,0:0:0:0:
256,192,141432,5,0,0:0:0:0:
256,192,141523,5,8,0:0:0:0:
256,192,141614,5,8,0:0:0:0:
256,192,141705,5,0,0:0:0:0:
256,192,141796,5,8,0:0:0:0:
256,192,141887,5,0,0:0:0:0:
256,192,141978,5,0,0:0:0:0:
256,192,142069,5,8,0:0:0:0:
256,192,142160,5,0,0:0:0:0:
256,192,142251,5,0,0:0:0:0:
256,192,142341,5,8,0:0:0:0:
256,192,142432,5,8,0:0:0:0:
256,192,142523,5,0,0:0:0:0:
256,192,142614,5,8,0:0:0:0:
256,192,142705,5,0,0:0:0:0:
256,192,142796,5,0,0:0:0:0:
256,192,142887,5,8,0:0:0:0:
256,192,142978,5,8,0:0:0:0:
256,192,143069,5,0,0:0:0:0:
256,192,143160,5,0,0:0:0:0:
256,192,143251,5,0,0:0:0:0:
256,192,143341,5,0,0:0:0:0:
256,192,143432,5,8,0:0:0:0:
256,192,143523,5,8,0:0:0:0:
256,192,143614,5,0,0:0:0:0:
256,192,143715,5,8,0:0:0:0:
256,192,143986,5,8,0:0:0:0:
256,192,144122,5,8,0:0:0:0:
256,192,144257,5,8,0:0:0:0:
256,192,144393,5,8,0:0:0:0:
256,192,144529,5,0,0:0:0:0:
256,192,144665,5,0,0:0:0:0:
256,192,144800,5,4,0:0:0:0:
256,192,144935,5,8,0:0:0:0:
256,192,145071,5,0,0:0:0:0:
256,192,145208,5,8,0:0:0:0:
256,192,145344,5,8,0:0:0:0:
256,192,145412,5,0,0:0:0:0:
256,192,145480,5,8,0:0:0:0:
256,192,145549,5,8,0:0:0:0:
256,192,145617,5,0,0:0:0:0:
256,192,145753,5,8,0:0:0:0:
256,192,145889,5,8,0:0:0:0:
256,192,145958,5,0,0:0:0:0:
256,192,146026,5,0,0:0:0:0:
256,192,146162,5,8,0:0:0:0:
256,192,146230,5,8,0:0:0:0:
256,192,146299,5,0,0:0:0:0:
256,192,146435,5,8,0:0:0:0:
256,192,146503,5,8,0:0:0:0:
256,192,146571,5,8,0:0:0:0:
256,192,146708,5,0,0:0:0:0:
256,192,146776,5,0,0:0:0:0:
256,192,146844,5,8,0:0:0:0:
256,192,146980,5,8,0:0:0:0:
256,192,147049,5,8,0:0:0:0:
256,192,147117,5,0,0:0:0:0:
256,192,147253,5,8,0:0:0:0:
256,192,147389,5,8,0:0:0:0:
256,192,147526,5,8,0:0:0:0:
256,192,147594,5,8,0:0:0:0:
256,192,147662,5,0,0:0:0:0:
256,192,147730,5,0,0:0:0:0:
256,192,147799,5,8,0:0:0:0:
256,192,147867,5,0,0:0:0:0:
256,192,147935,5,8,0:0:0:0:
256,192,148071,5,0,0:0:0:0:
256,192,148208,5,8,0:0:0:0:
256,192,148344,5,8,0:0:0:0:
256,192,148480,5,0,0:0:0:0:
256,192,148549,5,0,0:0:0:0:
256,192,148617,5,8,0:0:0:0:
256,192,148753,5,0,0:0:0:0:
256,192,148889,5,4,0:0:0:0:
256,192,149026,5,0,0:0:0:0:
256,192,149162,5,12,0:0:0:0:
256,192,149299,5,8,0:0:0:0:
256,192,149367,5,8,0:0:0:0:
256,192,149435,5,0,0:0:0:0:
256,192,149571,5,0,0:0:0:0:
256,192,149708,5,8,0:0:0:0:
256,192,149776,5,0,0:0:0:0:
256,192,149844,5,8,0:0:0:0:
256,192,149912,5,8,0:0:0:0:
256,192,149980,5,0,0:0:0:0:
256,192,150117,5,0,0:0:0:0:
256,192,150253,5,8,0:0:0:0:
256,192,150321,5,0,0:0:0:0:
256,192,150389,5,0,0:0:0:0:
256,192,150526,5,8,0:0:0:0:
256,192,150594,5,8,0:0:0:0:
256,192,150662,5,0,0:0:0:0:
256,192,150799,5,8,0:0:0:0:
256,192,150867,5,8,0:0:0:0:
256,192,150935,5,8,0:0:0:0:
256,192,151071,5,0,0:0:0:0:
256,192,151139,5,0,0:0:0:0:
256,192,151208,5,8,0:0:0:0:
256,192,151276,5,0,0:0:0:0:
256,192,151344,5,8,0:0:0:0:
256,192,151480,5,0,0:0:0:0:
256,192,151617,5,0,0:0:0:0:
256,192,151753,5,8,0:0:0:0:
256,192,151889,5,8,0:0:0:0:
256,192,151958,5,8,0:0:0:0:
256,192,152026,5,0,0:0:0:0:
256,192,152094,5,0,0:0:0:0:
256,192,152162,5,8,0:0:0:0:
256,192,152299,5,0,0:0:0:0:
256,192,152435,5,8,0:0:0:0:
256,192,152503,5,8,0:0:0:0:
256,192,152571,5,8,0:0:0:0:
256,192,152639,5,8,0:0:0:0:
256,192,152708,5,0,0:0:0:0:
256,192,152776,5,0,0:0:0:0:
256,192,152844,5,0,0:0:0:0:
256,192,152912,5,0,0:0:0:0:
256,192,152980,5,8,0:0:0:0:
256,192,153049,5,8,0:0:0:0:
256,192,153117,5,8,0:0:0:0:
256,192,153185,5,8,0:0:0:0:
256,192,153253,5,0,0:0:0:0:
256,192,153321,5,0,0:0:0:0:
256,192,153389,5,0,0:0:0:0:
256,192,153458,5,0,0:0:0:0:
256,192,153526,5,12,0:0:0:0:
256,192,153662,5,8,0:0:0:0:
256,192,153799,5,0,0:0:0:0:
256,192,153867,5,0,0:0:0:0:
256,192,153935,5,0,0:0:0:0:
256,192,154071,5,8,0:0:0:0:
256,192,154208,5,0,0:0:0:0:
256,192,154344,5,8,0:0:0:0:
256,192,154480,5,8,0:0:0:0:
256,192,154549,5,0,0:0:0:0:
256,192,154617,5,8,0:0:0:0:
256,192,154753,5,0,0:0:0:0:
256,192,154889,5,0,0:0:0:0:
256,192,154958,5,0,0:0:0:0:
256,192,155026,5,8,0:0:0:0:
256,192,155162,5,0,0:0:0:0:
256,192,155299,5,0,0:0:0:0:
256,192,155367,5,0,0:0:0:0:
256,192,155435,5,8,0:0:0:0:
256,192,155571,5,0,0:0:0:0:
256,192,155708,5,8,0:0:0:0:
256,192,155844,5,0,0:0:0:0:
256,192,155912,5,0,0:0:0:0:
256,192,155980,5,0,0:0:0:0:
256,192,156117,5,8,0:0:0:0:
256,192,156253,5,8,0:0:0:0:
256,192,156321,5,8,0:0:0:0:
256,192,156389,5,0,0:0:0:0:
256,192,156526,5,8,0:0:0:0:
256,192,156662,5,0,0:0:0:0:
256,192,156799,5,8,0:0:0:0:
256,192,156867,5,8,0:0:0:0:
256,192,156935,5,8,0:0:0:0:
256,192,157071,5,0,0:0:0:0:
256,192,157208,5,0,0:0:0:0:
256,192,157344,5,8,0:0:0:0:
256,192,157412,5,0,0:0:0:0:
256,192,157480,5,0,0:0:0:0:
256,192,157617,5,12,0:0:0:0:
256,192,157753,5,0,0:0:0:0:
256,192,157889,5,12,0:0:0:0:
256,192,158026,5,0,0:0:0:0:
256,192,158094,5,0,0:0:0:0:
256,192,158162,5,8,0:0:0:0:
256,192,158299,5,0,0:0:0:0:
256,192,158367,5,0,0:0:0:0:
256,192,158435,5,8,0:0:0:0:
256,192,158571,5,0,0:0:0:0:
256,192,158708,5,8,0:0:0:0:
256,192,158844,5,0,0:0:0:0:
256,192,158980,5,8,0:0:0:0:
256,192,159049,5,0,0:0:0:0:
256,192,159117,5,8,0:0:0:0:
256,192,159185,5,8,0:0:0:0:
256,192,159253,5,0,0:0:0:0:
256,192,159389,5,8,0:0:0:0:
256,192,159526,5,0,0:0:0:0:
256,192,159662,5,8,0:0:0:0:
256,192,159799,5,0,0:0:0:0:
256,192,159867,5,0,0:0:0:0:
256,192,159935,5,0,0:0:0:0:
256,192,160071,5,8,0:0:0:0:
256,192,160208,5,0,0:0:0:0:
256,192,160276,5,0,0:0:0:0:
256,192,160344,5,8,0:0:0:0:
256,192,160480,5,0,0:0:0:0:
256,192,160549,5,8,0:0:0:0:
256,192,160617,5,8,0:0:0:0:
256,192,160753,5,0,0:0:0:0:
256,192,160889,5,8,0:0:0:0:
256,192,160958,5,8,0:0:0:0:
256,192,161026,5,0,0:0:0:0:
256,192,161162,5,8,0:0:0:0:
256,192,161299,5,0,0:0:0:0:
256,192,161368,5,0,0:0:0:0:
256,192,161437,5,8,0:0:0:0:
256,192,161506,5,0,0:0:0:0:
256,192,161575,5,8,0:0:0:0:
256,192,161712,5,0,0:0:0:0:
256,192,161781,5,0,0:0:0:0:
256,192,161850,5,8,0:0:0:0:
256,192,161919,5,0,0:0:0:0:
256,192,161988,5,8,0:0:0:0:
256,192,162263,5,4,0:0:0:0:
256,192,162399,5,0,0:0:0:0:
256,192,162535,5,0,0:0:0:0:
256,192,162672,5,8,0:0:0:0:
256,192,162808,5,8,0:0:0:0:
256,192,162944,5,0,0:0:0:0:
256,192,163081,5,8,0:0:0:0:
256,192,163217,5,8,0:0:0:0:
256,192,163353,5,0,0:0:0:0:
256,192,163490,5,0,0:0:0:0:
256,192,163626,5,0,0:0:0:0:
256,192,163763,5,0,0:0:0:0:
256,192,163899,5,8,0:0:0:0:
256,192,164035,5,0,0:0:0:0:
256,192,164172,5,8,0:0:0:0:
256,192,164308,5,0,0:0:0:0:
256,192,164444,5,0,0:0:0:0:
256,192,164581,5,8,0:0:0:0:
256,192,164717,5,0,0:0:0:0:
256,192,164853,5,0,0:0:0:0:
256,192,164990,5,8,0:0:0:0:
256,192,165126,5,0,0:0:0:0:
256,192,165263,5,8,0:0:0:0:
256,192,165399,5,8,0:0:0:0:
256,192,165535,5,0,0:0:0:0:
256,192,165672,5,0,0:0:0:0:
256,192,165808,5,0,0:0:0:0:
256,192,165944,5,0,0:0:0:0:
256,192,166081,5,8,0:0:0:0:
256,192,166217,5,8,0:0:0:0:
256,192,166353,5,8,0:0:0:0:
256,192,166490,5,8,0:0:0:0:
256,192,166626,5,4,0:0:0:0:
256,192,166763,5,0,0:0:0:0:
256,192,166899,5,0,0:0:0:0:
256,192,167035,5,0,0:0:0:0:
256,192,167172,5,8,0:0:0:0:
256,192,167308,5,0,0:0:0:0:
256,192,167444,5,8,0:0:0:0:
256,192,167581,5,8,0:0:0:0:
256,192,167717,5,0,0:0:0:0:
256,192,167853,5,0,0:0:0:0:
256,192,167990,5,0,0:0:0:0:
256,192,168126,5,8,0:0:0:0:
256,192,168263,5,8,0:0:0:0:
256,192,168399,5,0,0:0:0:0:
256,192,168535,5,8,0:0:0:0:
256,192,168672,5,0,0:0:0:0:
256,192,168808,5,8,0:0:0:0:
256,192,168944,5,8,0:0:0:0:
256,192,169081,5,0,0:0:0:0:
256,192,169217,5,0,0:0:0:0:
256,192,169353,5,8,0:0:0:0:
256,192,169490,5,0,0:0:0:0:
256,192,169626,5,8,0:0:0:0:
256,192,169763,5,0,0:0:0:0:
256,192,169899,5,8,0:0:0:0:
256,192,170035,5,8,0:0:0:0:
256,192,170172,5,8,0:0:0:0:
256,192,170308,5,8,0:0:0:0:
256,192,170444,5,8,0:0:0:0:
256,192,170581,5,8,0:0:0:0:
256,192,170717,5,8,0:0:0:0:
256,192,170853,5,8,0:0:0:0:
256,192,170990,5,4,0:0:0:0:
256,192,171126,5,0,0:0:0:0:
256,192,171194,5,0,0:0:0:0:
256,192,171263,5,8,0:0:0:0:
256,192,171399,5,0,0:0:0:0:
256,192,171535,5,8,0:0:0:0:
256,192,171672,5,0,0:0:0:0:
256,192,171740,5,0,0:0:0:0:
256,192,171808,5,8,0:0:0:0:
256,192,171876,5,0,0:0:0:0:
256,192,171944,5,8,0:0:0:0:
256,192,172081,5,0,0:0:0:0:
256,192,172217,5,0,0:0:0:0:
256,192,172353,5,8,0:0:0:0:
256,192,172422,5,8,0:0:0:0:
256,192,172490,5,0,0:0:0:0:
256,192,172558,5,0,0:0:0:0:
256,192,172626,5,8,0:0:0:0:
256,192,172763,5,8,0:0:0:0:
256,192,172899,5,8,0:0:0:0:
256,192,172967,5,0,0:0:0:0:
256,192,173035,5,0,0:0:0:0:
256,192,173172,5,8,0:0:0:0:
256,192,173308,5,0,0:0:0:0:
256,192,173376,5,0,0:0:0:0:
256,192,173444,5,8,0:0:0:0:
256,192,173581,5,0,0:0:0:0:
256,192,173717,5,8,0:0:0:0:
256,192,173853,5,0,0:0:0:0:
256,192,173922,5,0,0:0:0:0:
256,192,173990,5,8,0:0:0:0:
256,192,174058,5,0,0:0:0:0:
256,192,174126,5,8,0:0:0:0:
256,192,174263,5,0,0:0:0:0:
256,192,174399,5,8,0:0:0:0:
256,192,174535,5,0,0:0:0:0:
256,192,174603,5,0,0:0:0:0:
256,192,174672,5,0,0:0:0:0:
256,192,174808,5,8,0:0:0:0:
256,192,174944,5,0,0:0:0:0:
256,192,175081,5,12,0:0:0:0:
256,192,175217,5,0,0:0:0:0:
256,192,175353,5,12,0:0:0:0:
256,192,175490,5,0,0:0:0:0:
256,192,175626,5,8,0:0:0:0:
256,192,175763,5,0,0:0:0:0:
256,192,175899,5,8,0:0:0:0:
256,192,175967,5,0,0:0:0:0:
256,192,176035,5,8,0:0:0:0:
256,192,176103,5,0,0:0:0:0:
256,192,176172,5,8,0:0:0:0:
256,192,176240,5,0,0:0:0:0:
256,192,176308,5,8,0:0:0:0:
256,192,176444,5,0,0:0:0:0:
256,192,176581,5,0,0:0:0:0:
256,192,176649,5,0,0:0:0:0:
256,192,176717,5,8,0:0:0:0:
256,192,176853,5,0,0:0:0:0:
256,192,176990,5,8,0:0:0:0:
256,192,177058,5,0,0:0:0:0:
256,192,177126,5,0,0:0:0:0:
256,192,177263,5,0,0:0:0:0:
256,192,177331,5,0,0:0:0:0:
256,192,177399,5,8,0:0:0:0:
256,192,177535,5,0,0:0:0:0:
256,192,177672,5,8,0:0:0:0:
256,192,177740,5,8,0:0:0:0:
256,192,177808,5,8,0:0:0:0:
256,192,177944,5,0,0:0:0:0:
256,192,178081,5,8,0:0:0:0:
256,192,178149,5,8,0:0:0:0:
256,192,178217,5,0,0:0:0:0:
256,192,178285,5,0,0:0:0:0:
256,192,178353,5,8,0:0:0:0:
256,192,178490,5,0,0:0:0:0:
256,192,178626,5,12,0:0:0:0:
256,192,178763,5,0,0:0:0:0:
256,192,178899,5,0,0:0:0:0:
256,192,179035,5,8,0:0:0:0:
256,192,179172,5,8,0:0:0:0:
256,192,179308,5,8,0:0:0:0:
256,192,179444,5,0,0:0:0:0:
256,192,179581,5,0,0:0:0:0:
256,192,179717,5,12,0:0:0:0:
256,192,179853,5,8,0:0:0:0:
256,192,179990,5,8,0:0:0:0:
256,192,180126,5,0,0:0:0:0:
256,192,180263,5,0,0:0:0:0:
256,192,180399,5,8,0:0:0:0:
256,192,180535,5,8,0:0:0:0:
256,192,180672,5,8,0:0:0:0:
256,192,180808,5,0,0:0:0:0:
256,192,180944,5,0,0:0:0:0:
256,192,181081,5,8,0:0:0:0:
256,192,181217,5,0,0:0:0:0:
256,192,181353,5,8,0:0:0:0:
256,192,181490,5,8,0:0:0:0:
256,192,181626,5,8,0:0:0:0:
256,192,181763,5,0,0:0:0:0:
256,192,181899,5,8,0:0:0:0:
256,192,182035,5,8,0:0:0:0:
256,192,182172,5,0,0:0:0:0:
256,192,182308,5,0,0:0:0:0:
256,192,182444,5,8,0:0:0:0:
256,192,182581,5,0,0:0:0:0:
256,192,182717,5,8,0:0:0:0:
256,192,182853,5,0,0:0:0:0:
256,192,182990,5,8,0:0:0:0:
256,192,183126,5,8,0:0:0:0:
256,192,183263,5,8,0:0:0:0:
256,192,183399,5,0,0:0:0:0:
256,192,183535,5,0,0:0:0:0:
256,192,183672,5,0,0:0:0:0:
256,192,183808,5,12,0:0:0:0:
256,192,183944,5,0,0:0:0:0:
256,192,184081,5,12,0:0:0:0:
256,192,184217,5,8,0:0:0:0:
256,192,184353,5,8,0:0:0:0:
256,192,184490,5,0,0:0:0:0:
256,192,184626,5,0,0:0:0:0:
256,192,184763,5,0,0:0:0:0:
256,192,184899,5,8,0:0:0:0:
256,192,185035,5,8,0:0:0:0:
256,192,185172,5,0,0:0:0:0:
256,192,185308,5,0,0:0:0:0:
256,192,185444,5,8,0:0:0:0:
256,192,185581,5,0,0:0:0:0:
256,192,185717,5,8,0:0:0:0:
256,192,185853,5,0,0:0:0:0:
256,192,185990,5,0,0:0:0:0:
256,192,186126,5,8,0:0:0:0:
256,192,186263,5,8,0:0:0:0:
256,192,186399,5,0,0:0:0:0:
256,192,186535,5,0,0:0:0:0:
256,192,186672,5,8,0:0:0:0:
256,192,186808,5,8,0:0:0:0:
256,192,186944,5,0,0:0:0:0:
256,192,187081,5,8,0:0:0:0:
256,192,187217,5,0,0:0:0:0:
256,192,187353,5,8,0:0:0:0:
256,192,187488,5,0,0:0:0:0:
256,192,187624,5,8,0:0:0:0:
256,192,187759,5,0,0:0:0:0:
256,192,187895,5,0,0:0:0:0:
256,192,188030,5,8,0:0:0:0:
256,192,188166,5,8,0:0:0:0:
256,192,188301,5,8,0:0:0:0:
256,192,188437,5,12,0:0:0:0:
256,192,188573,5,0,0:0:0:0:
256,192,188709,5,0,0:0:0:0:
256,192,188846,5,0,0:0:0:0:
256,192,188982,5,8,0:0:0:0:
256,192,189118,5,0,0:0:0:0:
256,192,189255,5,8,0:0:0:0:
256,192,189391,5,0,0:0:0:0:
256,192,189527,5,8,0:0:0:0:
256,192,189664,5,0,0:0:0:0:
256,192,189800,5,8,0:0:0:0:
256,192,189937,5,8,0:0:0:0:
256,192,190073,5,0,0:0:0:0:
256,192,190209,5,0,0:0:0:0:
256,192,190346,5,4,0:0:0:0:
256,192,190482,5,8,0:0:0:0:
256,192,190618,5,12,0:0:0:0:
256,192,190755,5,0,0:0:0:0:
256,192,190891,5,0,0:0:0:0:
256,192,191027,5,0,0:0:0:0:
256,192,191164,5,8,0:0:0:0:
256,192,191300,5,0,0:0:0:0:
256,192,191437,5,8,0:0:0:0:
256,192,191573,5,8,0:0:0:0:
256,192,191709,5,0,0:0:0:0:
256,192,191846,5,0,0:0:0:0:
256,192,191982,5,8,0:0:0:0:
256,192,192118,5,0,0:0:0:0:
256,192,192255,5,0,0:0:0:0:
256,192,192391,5,8,0:0:0:0:
256,192,192527,5,4,0:0:0:0:
256,192,192664,5,0,0:0:0:0:
256,192,192800,5,12,0:0:0:0:
256,192,192937,5,0,0:0:0:0:
256,192,193073,5,0,0:0:0:0:
256,192,193209,5,0,0:0:0:0:
256,192,193346,5,8,0:0:0:0:
256,192,193482,5,8,0:0:0:0:
256,192,193618,5,0,0:0:0:0:
256,192,193755,5,0,0:0:0:0:
256,192,193891,5,8,0:0:0:0:
256,192,194027,5,0,0:0:0:0:
256,192,194164,5,8,0:0:0:0:
256,192,194300,5,8,0:0:0:0:
256,192,194437,5,0,0:0:0:0:
256,192,194573,5,0,0:0:0:0:
256,192,194709,5,12,0:0:0:0:
256,192,194846,5,8,0:0:0:0:
256,192,194982,5,4,0:0:0:0:
256,192,195118,5,8,0:0:0:0:
256,192,195255,5,0,0:0:0:0:
256,192,195391,5,0,0:0:0:0:
256,192,195527,5,8,0:0:0:0:
256,192,195664,5,0,0:0:0:0:
256,192,195800,5,8,0:0:0:0:
256,192,195937,5,8,0:0:0:0:
256,192,196067,5,0,0:0:0:0:
256,192,196133,5,0,0:0:0:0:
256,192,196200,5,0,0:0:0:0:
256,192,196267,5,0,0:0:0:0:
256,192,196333,5,8,0:0:0:0:
256,192,196400,5,8,0:0:0:0:
256,192,196467,5,0,0:0:0:0:
256,192,196533,5,0,0:0:0:0:
256,192,196600,5,0,0:0:0:0:
256,192,196667,5,0,0:0:0:0:
256,192,196733,5,0,0:0:0:0:
256,192,196800,5,0,0:0:0:0:
256,192,196892,5,8,0:0:0:0:
256,192,197182,5,8,0:0:0:0:
256,192,197249,5,8,0:0:0:0:
256,192,197317,5,0,0:0:0:0:
256,192,197384,5,0,0:0:0:0:
256,192,197452,5,8,0:0:0:0:
256,192,197519,5,0,0:0:0:0:
256,192,197587,5,0,0:0:0:0:
256,192,197654,5,0,0:0:0:0:
256,192,197722,5,8,0:0:0:0:
256,192,197790,5,8,0:0:0:0:
256,192,197857,5,0,0:0:0:0:
256,192,197925,5,0,0:0:0:0:
256,192,197992,5,8,0:0:0:0:
256,192,198060,5,0,0:0:0:0:
256,192,198127,5,0,0:0:0:0:
256,192,198195,5,0,0:0:0:0:
256,192,198263,5,8,0:0:0:0:
256,192,198330,5,8,0:0:0:0:
256,192,198398,5,0,0:0:0:0:
256,192,198465,5,0,0:0:0:0:
256,192,198533,5,8,0:0:0:0:
256,192,198600,5,0,0:0:0:0:
256,192,198668,5,0,0:0:0:0:
256,192,198736,5,0,0:0:0:0:
256,192,198803,5,8,0:0:0:0:
256,192,198871,5,0,0:0:0:0:
256,192,198938,5,0,0:0:0:0:
256,192,199006,5,0,0:0:0:0:
256,192,199073,5,8,0:0:0:0:
256,192,199141,5,8,0:0:0:0:
256,192,199209,5,0,0:0:0:0:
256,192,199276,5,0,0:0:0:0:
256,192,199344,5,8,0:0:0:0:
256,192,199412,5,8,0:0:0:0:
256,192,199480,5,8,0:0:0:0:
256,192,199549,5,8,0:0:0:0:
256,192,199617,5,0,0:0:0:0:
256,192,199686,5,0,0:0:0:0:
256,192,199754,5,0,0:0:0:0:
256,192,199823,5,0,0:0:0:0:
256,192,199891,5,8,0:0:0:0:
256,192,199960,5,8,0:0:0:0:
256,192,200028,5,8,0:0:0:0:
256,192,200097,5,0,0:0:0:0:
256,192,200165,5,8,0:0:0:0:
256,192,200234,5,8,0:0:0:0:
256,192,200302,5,0,0:0:0:0:
256,192,200371,5,0,0:0:0:0:
256,192,200439,5,8,0:0:0:0:
256,192,200508,5,8,0:0:0:0:
256,192,200576,5,8,0:0:0:0:
256,192,200645,5,8,0:0:0:0:
256,192,200713,5,0,0:0:0:0:
256,192,200782,5,0,0:0:0:0:
256,192,200850,5,0,0:0:0:0:
256,192,200919,5,0,0:0:0:0:
256,192,200987,5,8,0:0:0:0:
256,192,201056,5,0,0:0:0:0:
256,192,201124,5,0,0:0:0:0:
256,192,201193,5,0,0:0:0:0:
256,192,201261,5,8,0:0:0:0:
256,192,201330,5,0,0:0:0:0:
256,192,201398,5,0,0:0:0:0:
256,192,201467,5,0,0:0:0:0:
256,192,201535,5,8,0:0:0:0:
256,192,201604,5,8,0:0:0:0:
256,192,201672,5,0,0:0:0:0:
256,192,201741,5,0,0:0:0:0:
256,192,201809,5,8,0:0:0:0:
256,192,201878,5,0,0:0:0:0:
256,192,201946,5,0,0:0:0:0:
256,192,202015,5,0,0:0:0:0:
256,192,202083,5,8,0:0:0:0:
256,192,202152,5,8,0:0:0:0:
256,192,202220,5,8,0:0:0:0:
256,192,202289,5,0,0:0:0:0:
256,192,202357,5,8,0:0:0:0:
256,192,202426,5,0,0:0:0:0:
256,192,202494,5,0,0:0:0:0:
256,192,202563,5,0,0:0:0:0:
256,192,202631,5,8,0:0:0:0:
256,192,202700,5,8,0:0:0:0:
256,192,202768,5,8,0:0:0:0:
256,192,202837,5,8,0:0:0:0:
256,192,202905,5,0,0:0:0:0:
256,192,202974,5,0,0:0:0:0:
256,192,203042,5,0,0:0:0:0:
256,192,203111,5,0,0:0:0:0:
256,192,203179,5,8,0:0:0:0:
256,192,203248,5,8,0:0:0:0:
256,192,203316,5,0,0:0:0:0:
256,192,203385,5,0,0:0:0:0:
256,192,203453,5,8,0:0:0:0:
256,192,203522,5,8,0:0:0:0:
256,192,203590,5,8,0:0:0:0:
256,192,203659,5,0,0:0:0:0:
256,192,203727,5,8,0:0:0:0:
256,192,203796,5,8,0:0:0:0:
256,192,203864,5,0,0:0:0:0:
256,192,203933,5,0,0:0:0:0:
256,192,204001,5,8,0:0:0:0:
256,192,204070,5,8,0:0:0:0:
256,192,204138,5,8,0:0:0:0:
256,192,204207,5,0,0:0:0:0:
256,192,204275,5,8,0:0:0:0:
256,192,204344,5,0,0:0:0:0:
256,192,204412,5,0,0:0:0:0:
256,192,204480,5,0,0:0:0:0:
256,192,204549,5,8,0:0:0:0:
256,192,204813,5,8,0:0:0:0:
256,192,204881,5,0,0:0:0:0:
256,192,204949,5,0,0:0:0:0:
256,192,205017,5,0,0:0:0:0:
256,192,205085,5,8,0:0:0:0:
256,192,205153,5,8,0:0:0:0:
256,192,205222,5,0,0:0:0:0:
256,192,205290,5,0,0:0:0:0:
256,192,205358,5,0,0:0:0:0:
256,192,205426,5,0,0:0:0:0:
256,192,205494,5,0,0:0:0:0:
256,192,205563,5,0,0:0:0:0:
256,192,205631,5,8,0:0:0:0:
256,192,205881,5,8,0:0:0:0:
256,192,205971,5,0,0:0:0:0:
256,192,206062,5,0,0:0:0:0:
256,192,206153,5,8,0:0:0:0:
256,192,206244,5,8,0:0:0:0:
256,192,206335,5,0,0:0:0:0:
256,192,206426,5,8,0:0:0:0:
256,192,206517,5,8,0:0:0:0:
256,192,206608,5,0,0:0:0:0:
256,192,206699,5,8,0:0:0:0:
256,192,206790,5,0,0:0:0:0:
256,192,206881,5,0,0:0:0:0:
256,192,206971,5,8,0:0:0:0:
256,192,207062,5,8,0:0:0:0:
256,192,207153,5,0,0:0:0:0:
256,192,207244,5,0,0:0:0:0:
256,192,207335,5,0,0:0:0:0:
256,192,207426,5,0,0:0:0:0:
256,192,207517,5,8,0:0:0:0:
256,192,207608,5,8,0:0:0:0:
256,192,207699,5,0,0:0:0:0:
256,192,207790,5,8,0:0:0:0:
256,192,207881,5,0,0:0:0:0:
256,192,207971,5,0,0:0:0:0:
256,192,208062,5,8,0:0:0:0:
256,192,208153,5,0,0:0:0:0:
256,192,208244,5,0,0:0:0:0:
256,192,208335,5,8,0:0:0:0:
256,192,208426,5,8,0:0:0:0:
256,192,208517,5,0,0:0:0:0:
256,192,208608,5,8,0:0:0:0:
256,192,208699,5,8,0:0:0:0:
256,192,208790,5,8,0:0:0:0:
256,192,208881,5,0,0:0:0:0:
256,192,208971,5,0,0:0:0:0:
256,192,209062,5,0,0:0:0:0:
256,192,209153,5,8,0:0:0:0:
256,192,209244,5,8,0:0:0:0:
256,192,209335,5,8,0:0:0:0:
256,192,209426,5,8,0:0:0:0:
256,192,209517,5,0,0:0:0:0:
256,192,209608,5,0,0:0:0:0:
256,192,209699,5,8,0:0:0:0:
256,192,209790,5,0,0:0:0:0:
256,192,209881,5,0,0:0:0:0:
256,192,209971,5,8,0:0:0:0:
256,192,210062,5,0,0:0:0:0:
256,192,210153,5,0,0:0:0:0:
256,192,210244,5,8,0:0:0:0:
256,192,210335,5,8,0:0:0:0:
256,192,210426,5,8,0:0:0:0:
256,192,210517,5,8,0:0:0:0:
256,192,210608,5,0,0:0:0:0:
256,192,210699,5,0,0:0:0:0:
256,192,210790,5,8,0:0:0:0:
256,192,210881,5,0,0:0:0:0:
256,192,210971,5,0,0:0:0:0:
256,192,211062,5,8,0:0:0:0:
256,192,211153,5,8,0:0:0:0:
256,192,211244,5,0,0:0:0:0:
256,192,211335,5,8,0:0:0:0:
256,192,211426,5,8,0:0:0:0:
256,192,211517,5,0,0:0:0:0:
256,192,211608,5,8,0:0:0:0:
256,192,211699,5,0,0:0:0:0:
256,192,211790,5,0,0:0:0:0:
256,192,211881,5,8,0:0:0:0:
256,192,211971,5,0,0:0:0:0:
256,192,212062,5,0,0:0:0:0:
256,192,212153,5,8,0:0:0:0:
256,192,212244,5,8,0:0:0:0:
256,192,212335,5,0,0:0:0:0:
256,192,212449,5,8,0:0:0:0:
256,192,212595,12,0,215961,0:0:0:0:
256,192,216253,5,8,0:0:0:0:
256,192,216546,5,8,0:0:0:0:
256,192,216692,5,0,0:0:0:0:
256,192,216839,5,0,0:0:0:0:
256,192,217131,5,4,0:0:0:0:
256,192,217424,5,8,0:0:0:0:
256,192,217570,5,0,0:0:0:0:
256,192,217717,5,0,0:0:0:0:
256,192,218009,5,8,0:0:0:0:
256,192,218302,5,8,0:0:0:0:
256,192,218449,5,0,0:0:0:0:
256,192,218595,5,0,0:0:0:0:
256,192,218888,5,8,0:0:0:0:
256,192,219473,5,0,0:0:0:0:
256,192,219766,5,8,0:0:0:0:
256,192,219912,5,8,0:0:0:0:
256,192,220058,5,0,0:0:0:0:
256,192,220351,5,8,0:0:0:0:
256,192,220644,5,8,0:0:0:0:
256,192,220790,5,8,0:0:0:0:
256,192,220936,5,0,0:0:0:0:
256,192,221083,5,0,0:0:0:0:
256,192,221156,5,0,0:0:0:0:
256,192,221229,5,8,0:0:0:0:
256,192,221522,5,8,0:0:0:0:
256,192,221814,5,0,0:0:0:0:
256,192,222107,5,8,0:0:0:0:
256,192,222253,5,8,0:0:0:0:
256,192,222400,5,0,0:0:0:0:
256,192,222692,5,8,0:0:0:0:
256,192,222985,5,8,0:0:0:0:
256,192,223131,5,0,0:0:0:0:
256,192,223278,5,0,0:0:0:0:
256,192,223570,5,8,0:0:0:0:
256,192,224156,5,0,0:0:0:0:
256,192,224449,5,8,0:0:0:0:
256,192,224595,5,8,0:0:0:0:
256,192,224741,5,0,0:0:0:0:
256,192,225034,5,8,0:0:0:0:
256,192,225327,5,8,0:0:0:0:
256,192,225473,5,8,0:0:0:0:
256,192,225619,5,0,0:0:0:0:
256,192,225912,5,8,0:0:0:0:
256,192,226205,5,8,0:0:0:0:
256,192,226351,5,8,0:0:0:0:
256,192,226497,5,0,0:0:0:0:
256,192,226790,5,8,0:0:0:0:
256,192,226936,5,8,0:0:0:0:
256,192,227083,5,0,0:0:0:0:
256,192,227375,5,8,0:0:0:0:
256,192,227668,5,8,0:0:0:0:
256,192,227814,5,0,0:0:0:0:
256,192,227961,5,0,0:0:0:0:
256,192,228253,5,12,0:0:0:0:
256,192,228839,5,0,0:0:0:0:
256,192,229131,5,8,0:0:0:0:
256,192,229278,5,8,0:0:0:0:
256,192,229424,5,0,0:0:0:0:
256,192,229717,5,8,0:0:0:0:
256,192,230009,5,8,0:0:0:0:
256,192,230156,5,0,0:0:0:0:
256,192,230302,5,0,0:0:0:0:
256,192,230448,5,0,0:0:0:0:
256,192,230522,5,0,0:0:0:0:
256,192,230595,5,8,0:0:0:0:
256,192,230888,5,8,0:0:0:0:
256,192,231180,5,0,0:0:0:0:
256,192,231473,5,8,0:0:0:0:
256,192,231619,5,8,0:0:0:0:
256,192,231766,5,0,0:0:0:0:
256,192,232058,5,8,0:0:0:0:
256,192,232351,5,8,0:0:0:0:
256,192,232497,5,8,0:0:0:0:
256,192,232644,5,0,0:0:0:0:
256,192,232936,5,8,0:0:0:0:
256,192,233522,5,0,0:0:0:0:
256,192,233814,5,8,0:0:0:0:
256,192,233961,5,8,0:0:0:0:
256,192,234107,5,0,0:0:0:0:
256,192,234400,5,8,0:0:0:0:
256,192,234546,5,8,0:0:0:0:
256,192,234692,5,8,0:0:0:0:
256,192,234839,5,0,0:0:0:0:
256,192,234985,5,0,0:0:0:0:
256,192,235022,5,0,0:0:0:0:
256,192,235131,5,0,0:0:0:0:
256,192,235168,5,0,0:0:0:0:
256,192,235278,5,8,0:0:0:0:
256,192,235424,5,8,0:0:0:0:
256,192,235570,5,0,0:0:0:0:
256,192,235717,5,0,0:0:0:0:
256,192,235856,5,4,0:0:0:0:
256,192,236002,5,0,0:0:0:0:
256,192,236148,5,0,0:0:0:0:
256,192,236294,5,0,0:0:0:0:
256,192,236440,5,8,0:0:0:0:
256,192,236587,5,0,0:0:0:0:
256,192,236733,5,8,0:0:0:0:
256,192,236879,5,0,0:0:0:0:
256,192,237025,5,8,0:0:0:0:
256,192,237172,5,0,0:0:0:0:
256,192,237318,5,0,0:0:0:0:
256,192,237464,5,0,0:0:0:0:
256,192,237610,5,8,0:0:0:0:
256,192,237757,5,8,0:0:0:0:
256,192,237903,5,0,0:0:0:0:
256,192,238049,5,0,0:0:0:0:
256,192,238195,5,8,0:0:0:0:
256,192,238341,5,0,0:0:0:0:
256,192,238488,5,0,0:0:0:0:
256,192,238634,5,0,0:0:0:0:
256,192,238780,5,8,0:0:0:0:
256,192,238926,5,8,0:0:0:0:
256,192,239073,5,8,0:0:0:0:
256,192,239219,5,0,0:0:0:0:
256,192,239365,5,8,0:0:0:0:
256,192,239511,5,8,0:0:0:0:
256,192,239658,5,8,0:0:0:0:
256,192,239804,5,8,0:0:0:0:
256,192,239950,5,12,0:0:0:0:
256,192,240096,5,0,0:0:0:0:
256,192,240243,5,12,0:0:0:0:
256,192,240389,5,0,0:0:0:0:
256,192,240535,5,8,0:0:0:0:
256,192,240681,5,0,0:0:0:0:
256,192,240827,5,0,0:0:0:0:
256,192,240974,5,0,0:0:0:0:
256,192,241120,5,8,0:0:0:0:
256,192,241266,5,8,0:0:0:0:
256,192,241412,5,0,0:0:0:0:
256,192,241559,5,0,0:0:0:0:
256,192,241705,5,8,0:0:0:0:
256,192,241851,5,0,0:0:0:0:
256,192,241997,5,0,0:0:0:0:
256,192,242144,5,0,0:0:0:0:
256,192,242290,5,8,0:0:0:0:
256,192,242436,5,0,0:0:0:0:
256,192,242582,5,0,0:0:0:0:
256,192,242729,5,0,0:0:0:0:
256,192,242875,5,8,0:0:0:0:
256,192,243021,5,0,0:0:0:0:
256,192,243167,5,8,0:0:0:0:
256,192,243313,5,0,0:0:0:0:
256,192,243460,5,8,0:0:0:0:
256,192,243606,5,0,0:0:0:0:
256,192,243752,5,8,0:0:0:0:
256,192,243898,5,0,0:0:0:0:
256,192,244045,5,0,0:0:0:0:
256,192,244191,5,0,0:0:0:0:
256,192,244337,5,8,0:0:0:0:
256,192,244483,5,8,0:0:0:0:
256,192,244630,5,0,0:0:0:0:
256,192,244703,5,0,0:0:0:0:
256,192,244776,5,0,0:0:0:0:
256,192,244922,5,0,0:0:0:0:
256,192,245068,5,8,0:0:0:0:
256,192,245215,5,12,0:0:0:0:
256,192,245361,5,0,0:0:0:0:
256,192,245507,5,0,0:0:0:0:
256,192,245653,5,0,0:0:0:0:
256,192,245799,5,8,0:0:0:0:
256,192,245946,5,0,0:0:0:0:
256,192,246092,5,8,0:0:0:0:
256,192,246238,5,0,0:0:0:0:
256,192,246384,5,8,0:0:0:0:
256,192,246531,5,0,0:0:0:0:
256,192,246677,5,0,0:0:0:0:
256,192,246823,5,0,0:0:0:0:
256,192,246969,5,8,0:0:0:0:
256,192,247116,5,0,0:0:0:0:
256,192,247262,5,0,0:0:0:0:
256,192,247408,5,0,0:0:0:0:
256,192,247554,5,8,0:0:0:0:
256,192,247700,5,0,0:0:0:0:
256,192,247847,5,0,0:0:0:0:
256,192,247993,5,0,0:0:0:0:
256,192,248139,5,8,0:0:0:0:
256,192,248285,5,8,0:0:0:0:
256,192,248432,5,0,0:0:0:0:
256,192,248578,5,0,0:0:0:0:
256,192,248724,5,8,0:0:0:0:
256,192,248870,5,8,0:0:0:0:
256,192,249017,5,8,0:0:0:0:
256,192,249163,5,0,0:0:0:0:
256,192,249309,5,12,0:0:0:0:
256,192,249455,5,0,0:0:0:0:
256,192,249602,5,12,0:0:0:0:
256,192,249748,5,0,0:0:0:0:
256,192,249894,5,8,0:0:0:0:
256,192,250040,5,8,0:0:0:0:
256,192,250186,5,0,0:0:0:0:
256,192,250333,5,0,0:0:0:0:
256,192,250479,5,8,0:0:0:0:
256,192,250625,5,0,0:0:0:0:
256,192,250771,5,0,0:0:0:0:
256,192,250918,5,0,0:0:0:0:
256,192,251064,5,8,0:0:0:0:
256,192,251210,5,8,0:0:0:0:
256,192,251356,5,0,0:0:0:0:
256,192,251503,5,0,0:0:0:0:
256,192,251649,5,8,0:0:0:0:
256,192,251795,5,0,0:0:0:0:
256,192,251941,5,0,0:0:0:0:
256,192,252088,5,0,0:0:0:0:
256,192,252234,5,8,0:0:0:0:
256,192,252380,5,0,0:0:0:0:
256,192,252526,5,8,0:0:0:0:
256,192,252672,5,8,0:0:0:0:
256,192,252819,5,12,0:0:0:0:
256,192,252965,5,0,0:0:0:0:
256,192,253111,5,12,0:0:0:0:
256,192,253257,5,0,0:0:0:0:
256,192,253404,5,12,0:0:0:0:
256,192,253550,5,8,0:0:0:0:
256,192,253696,5,0,0:0:0:0:
256,192,253842,5,8,0:0:0:0:
256,192,253989,5,8,0:0:0:0:
256,192,254135,5,8,0:0:0:0:
256,192,254281,5,0,0:0:0:0:
256,192,254427,5,8,0:0:0:0:
256,192,254574,5,4,0:0:0:0:
256,192,254869,5,0,0:0:0:0:
256,192,255017,5,0,0:0:0:0:
256,192,255165,5,8,0:0:0:0:
256,192,255313,5,0,0:0:0:0:
256,192,255461,5,0,0:0:0:0:
256,192,255608,5,0,0:0:0:0:
256,192,255756,5,8,0:0:0:0:
256,192,256052,5,0,0:0:0:0:
256,192,256200,5,0,0:0:0:0:
256,192,256348,5,8,0:0:0:0:
256,192,256643,5,0,0:0:0:0:
256,192,256791,5,0,0:0:0:0:
256,192,256939,5,8,0:0:0:0:
256,192,257231,5,0,0:0:0:0:
256,192,257378,5,0,0:0:0:0:
256,192,257524,5,8,0:0:0:0:
256,192,257670,5,8,0:0:0:0:
256,192,257817,5,0,0:0:0:0:
256,192,257963,5,0,0:0:0:0:
256,192,258109,5,8,0:0:0:0:
256,192,258402,5,0,0:0:0:0:
256,192,258548,5,0,0:0:0:0:
256,192,258695,5,8,0:0:0:0:
256,192,258987,5,0,0:0:0:0:
256,192,259134,5,0,0:0:0:0:
256,192,259280,5,8,0:0:0:0:
256,192,259573,5,0,0:0:0:0:
256,192,259719,5,8,0:0:0:0:
256,192,259865,5,8,0:0:0:0:
256,192,260012,5,0,0:0:0:0:
256,192,260158,5,0,0:0:0:0:
256,192,260304,5,0,0:0:0:0:
256,192,260451,5,8,0:0:0:0:
256,192,260743,5,0,0:0:0:0:
256,192,260890,5,0,0:0:0:0:
256,192,261036,5,8,0:0:0:0:
256,192,261329,5,0,0:0:0:0:
256,192,261475,5,0,0:0:0:0:
256,192,261621,5,8,0:0:0:0:
256,192,261912,5,0,0:0:0:0:
256,192,262058,5,0,0:0:0:0:
256,192,262204,5,8,0:0:0:0:
256,192,262350,5,0,0:0:0:0:
256,192,262496,5,0,0:0:0:0:
256,192,262642,5,0,0:0:0:0:
256,192,262788,5,8,0:0:0:0:
256,192,263080,5,0,0:0:0:0:
256,192,263226,5,0,0:0:0:0:
256,192,263372,5,12,0:0:0:0:
256,192,263664,5,0,0:0:0:0:
256,192,263810,5,0,0:0:0:0:
256,192,263956,5,8,0:0:0:0:
256,192,264248,5,0,0:0:0:0:
256,192,264395,5,0,0:0:0:0:
256,192,264541,5,8,0:0:0:0:
256,192,264687,5,8,0:0:0:0:
256,192,264834,5,8,0:0:0:0:
256,192,264980,5,0,0:0:0:0:
256,192,265126,5,8,0:0:0:0:
256,192,265419,5,0,0:0:0:0:
256,192,265565,5,8,0:0:0:0:
256,192,265712,5,0,0:0:0:0:
256,192,266004,5,0,0:0:0:0:
256,192,266151,5,8,0:0:0:0:
256,192,266297,5,8,0:0:0:0:
256,192,266590,5,0,0:0:0:0:
256,192,266736,5,0,0:0:0:0:
256,192,266882,5,8,0:0:0:0:
256,192,267029,5,0,0:0:0:0:
256,192,267175,5,8,0:0:0:0:
256,192,267321,5,8,0:0:0:0:
256,192,267468,5,0,0:0:0:0:
256,192,267760,5,0,0:0:0:0:
256,192,267907,5,0,0:0:0:0:
256,192,268053,5,8,0:0:0:0:
256,192,268346,5,0,0:0:0:0:
256,192,268492,5,8,0:0:0:0:
256,192,268638,5,8,0:0:0:0:
256,192,268931,5,0,0:0:0:0:
256,192,269077,5,8,0:0:0:0:
256,192,269224,5,0,0:0:0:0:
256,192,269370,5,0,0:0:0:0:
256,192,269516,5,8,0:0:0:0:
256,192,269663,5,0,0:0:0:0:
256,192,269809,5,8,0:0:0:0:
256,192,270102,5,8,0:0:0:0:
256,192,270248,5,8,0:0:0:0:
256,192,270395,5,0,0:0:0:0:
256,192,270687,5,8,0:0:0:0:
256,192,270834,5,0,0:0:0:0:
256,192,270980,5,12,0:0:0:0:
256,192,271273,5,8,0:0:0:0:
256,192,271419,5,8,0:0:0:0:
256,192,271565,5,4,0:0:0:0:
256,192,271858,5,12,0:0:0:0:
256,192,272151,5,4,0:0:0:0:
256,192,272443,5,8,0:0:0:0:
256,192,272590,5,8,0:0:0:0:
256,192,272736,5,8,0:0:0:0:
256,192,272882,5,0,0:0:0:0:
256,192,273029,5,0,0:0:0:0:
256,192,273175,5,0,0:0:0:0:
256,192,273324,5,4,0:0:0:0:
256,192,273616,5,0,0:0:0:0:
256,192,273763,5,0,0:0:0:0:
256,192,273909,5,8,0:0:0:0:
256,192,274202,5,0,0:0:0:0:
256,192,274348,5,0,0:0:0:0:
256,192,274494,5,0,0:0:0:0:
256,192,274787,5,0,0:0:0:0:
256,192,274933,5,0,0:0:0:0:
256,192,275080,5,8,0:0:0:0:
256,192,275372,5,8,0:0:0:0:
256,192,275519,5,0,0:0:0:0:
256,192,275665,5,8,0:0:0:0:
256,192,275958,5,0,0:0:0:0:
256,192,276104,5,8,0:0:0:0:
256,192,276250,5,8,0:0:0:0:
256,192,276397,5,8,0:0:0:0:
256,192,276543,5,0,0:0:0:0:
256,192,276689,5,0,0:0:0:0:
256,192,276836,5,8,0:0:0:0:
256,192,277128,5,0,0:0:0:0:
256,192,277275,5,8,0:0:0:0:
256,192,277421,5,8,0:0:0:0:
256,192,277714,5,0,0:0:0:0:
256,192,278006,5,8,0:0:0:0:
256,192,278299,5,0,0:0:0:0:
256,192,278445,5,0,0:0:0:0:
256,192,278592,5,8,0:0:0:0:
256,192,278738,5,8,0:0:0:0:
256,192,278884,5,0,0:0:0:0:
256,192,279031,5,0,0:0:0:0:
256,192,279177,5,8,0:0:0:0:
256,192,279470,5,0,0:0:0:0:
256,192,279616,5,0,0:0:0:0:
256,192,279763,5,8,0:0:0:0:
256,192,280055,5,8,0:0:0:0:
256,192,280202,5,0,0:0:0:0:
256,192,280348,5,8,0:0:0:0:
256,192,280641,5,0,0:0:0:0:
256,192,280787,5,8,0:0:0:0:
256,192,280933,5,8,0:0:0:0:
256,192,281226,5,0,0:0:0:0:
256,192,281372,5,0,0:0:0:0:
256,192,281519,5,12,0:0:0:0:
256,192,281811,5,8,0:0:0:0:
256,192,281958,5,8,0:0:0:0:
256,192,282104,5,8,0:0:0:0:
256,192,282250,5,0,0:0:0:0:
256,192,282397,5,0,0:0:0:0:
256,192,282543,5,0,0:0:0:0:
256,192,282689,5,12,0:0:0:0:
256,192,282982,5,0,0:0:0:0:
256,192,283128,5,0,0:0:0:0:
256,192,283275,5,8,0:0:0:0:
256,192,283567,5,0,0:0:0:0:
256,192,283714,5,0,0:0:0:0:
256,192,283860,5,0,0:0:0:0:
256,192,284153,5,0,0:0:0:0:
256,192,284299,5,0,0:0:0:0:
256,192,284445,5,8,0:0:0:0:
256,192,284738,5,8,0:0:0:0:
256,192,284884,5,0,0:0:0:0:
256,192,285031,5,8,0:0:0:0:
256,192,285324,5,0,0:0:0:0:
256,192,285470,5,8,0:0:0:0:
256,192,285616,5,8,0:0:0:0:
256,192,285763,5,8,0:0:0:0:
256,192,285909,5,0,0:0:0:0:
256,192,286055,5,0,0:0:0:0:
256,192,286202,5,8,0:0:0:0:
256,192,286494,5,0,0:0:0:0:
256,192,286641,5,8,0:0:0:0:
256,192,286787,5,8,0:0:0:0:
256,192,287080,5,0,0:0:0:0:
256,192,287372,5,8,0:0:0:0:
256,192,287665,5,0,0:0:0:0:
256,192,287811,5,0,0:0:0:0:
256,192,287958,5,8,0:0:0:0:
256,192,288104,5,8,0:0:0:0:
256,192,288250,5,0,0:0:0:0:
256,192,288397,5,0,0:0:0:0:
256,192,288543,5,8,0:0:0:0:
256,192,288836,5,0,0:0:0:0:
256,192,288982,5,0,0:0:0:0:
256,192,289128,5,8,0:0:0:0:
256,192,289421,5,8,0:0:0:0:
256,192,289567,5,0,0:0:0:0:
256,192,289714,5,8,0:0:0:0:
256,192,290006,5,0,0:0:0:0:
256,192,290153,5,8,0:0:0:0:
256,192,290299,5,8,0:0:0:0:
256,192,290592,5,0,0:0:0:0:
256,192,290738,5,0,0:0:0:0:
256,192,290884,5,12,0:0:0:0:
256,192,291177,5,8,0:0:0:0:
256,192,291250,5,8,0:0:0:0:
256,192,291324,5,8,0:0:0:0:
256,192,291470,5,8,0:0:0:0:
256,192,291616,5,0,0:0:0:0:
256,192,291763,5,0,0:0:0:0:
256,192,291909,5,8,0:0:0:0:
256,192,292055,5,4,0:0:0:0:
256,192,292348,5,0,0:0:0:0:
256,192,292494,5,0,0:0:0:0:
256,192,292641,5,8,0:0:0:0:
256,192,292933,5,0,0:0:0:0:
256,192,293080,5,0,0:0:0:0:
256,192,293226,5,0,0:0:0:0:
256,192,293519,5,0,0:0:0:0:
256,192,293665,5,0,0:0:0:0:
256,192,293811,5,8,0:0:0:0:
256,192,294104,5,8,0:0:0:0:
256,192,294250,5,0,0:0:0:0:
256,192,294397,5,8,0:0:0:0:
256,192,294689,5,0,0:0:0:0:
256,192,294836,5,8,0:0:0:0:
256,192,294982,5,8,0:0:0:0:
256,192,295128,5,8,0:0:0:0:
256,192,295275,5,0,0:0:0:0:
256,192,295421,5,0,0:0:0:0:
256,192,295567,5,8,0:0:0:0:
256,192,295860,5,0,0:0:0:0:
256,192,296006,5,8,0:0:0:0:
256,192,296153,5,8,0:0:0:0:
256,192,296445,5,0,0:0:0:0:
256,192,296738,5,8,0:0:0:0:
256,192,297031,5,0,0:0:0:0:
256,192,297177,5,0,0:0:0:0:
256,192,297324,5,8,0:0:0:0:
256,192,297470,5,8,0:0:0:0:
256,192,297616,5,0,0:0:0:0:
256,192,297763,5,0,0:0:0:0:
256,192,297909,5,8,0:0:0:0:
256,192,298202,5,0,0:0:0:0:
256,192,298348,5,0,0:0:0:0:
256,192,298494,5,8,0:0:0:0:
256,192,298787,5,8,0:0:0:0:
256,192,298933,5,0,0:0:0:0:
256,192,299080,5,8,0:0:0:0:
256,192,299372,5,0,0:0:0:0:
256,192,299519,5,8,0:0:0:0:
256,192,299665,5,8,0:0:0:0:
256,192,299958,5,0,0:0:0:0:
256,192,300104,5,0,0:0:0:0:
256,192,300250,5,12,0:0:0:0:
256,192,300543,5,8,0:0:0:0:
256,192,300689,5,0,0:0:0:0:
256,192,300836,5,8,0:0:0:0:
256,192,300982,5,8,0:0:0:0:
256,192,301128,5,0,0:0:0:0:
256,192,301275,5,0,0:0:0:0:
256,192,301421,5,12,0:0:0:0:
256,192,301714,5,0,0:0:0:0:
256,192,301860,5,0,0:0:0:0:
256,192,302006,5,8,0:0:0:0:
256,192,302299,5,0,0:0:0:0:
256,192,302445,5,0,0:0:0:0:
256,192,302592,5,0,0:0:0:0:
256,192,302884,5,0,0:0:0:0:
256,192,303031,5,0,0:0:0:0:
256,192,303177,5,8,0:0:0:0:
256,192,303470,5,8,0:0:0:0:
256,192,303616,5,0,0:0:0:0:
256,192,303763,5,8,0:0:0:0:
256,192,304055,5,0,0:0:0:0:
256,192,304202,5,8,0:0:0:0:
256,192,304348,5,8,0:0:0:0:
256,192,304494,5,8,0:0:0:0:
256,192,304641,5,0,0:0:0:0:
256,192,304787,5,0,0:0:0:0:
256,192,304933,5,8,0:0:0:0:
256,192,305226,5,0,0:0:0:0:
256,192,305372,5,8,0:0:0:0:
256,192,305519,5,8,0:0:0:0:
256,192,305811,5,0,0:0:0:0:
256,192,306104,5,8,0:0:0:0:
256,192,306397,5,0,0:0:0:0:
256,192,306543,5,0,0:0:0:0:
256,192,306689,5,8,0:0:0:0:
256,192,306836,5,8,0:0:0:0:
256,192,306982,5,0,0:0:0:0:
256,192,307128,5,0,0:0:0:0:
256,192,307275,5,8,0:0:0:0:
256,192,307567,5,0,0:0:0:0:
256,192,307714,5,0,0:0:0:0:
256,192,307860,5,8,0:0:0:0:
256,192,308153,5,8,0:0:0:0:
256,192,308299,5,0,0:0:0:0:
256,192,308445,5,8,0:0:0:0:
256,192,308738,5,0,0:0:0:0:
256,192,308884,5,8,0:0:0:0:
256,192,309031,5,8,0:0:0:0:
256,192,309323,5,0,0:0:0:0:
256,192,309470,5,0,0:0:0:0:
256,192,309616,5,4,0:0:0:0:
256,192,310202,5,4,0:0:0:0:
256,192,313455,5,8,0:0:0:0:
256,192,313523,5,8,0:0:0:0:
256,192,313591,5,8,0:0:0:0:
256,192,313659,5,8,0:0:0:0:
256,192,313728,5,0,0:0:0:0:
256,192,313796,5,0,0:0:0:0:
256,192,313864,5,0,0:0:0:0:
256,192,313933,5,0,0:0:0:0:
256,192,314001,5,8,0:0:0:0:
256,192,314069,5,8,0:0:0:0:
256,192,314138,5,8,0:0:0:0:
256,192,314206,5,8,0:0:0:0:
256,192,314274,5,0,0:0:0:0:
256,192,314342,5,0,0:0:0:0:
256,192,314411,5,0,0:0:0:0:
256,192,314479,5,0,0:0:0:0:
256,192,314547,5,12,0:0:0:0:
256,192,314684,5,8,0:0:0:0:
256,192,314821,5,0,0:0:0:0:
256,192,314889,5,0,0:0:0:0:
256,192,314957,5,0,0:0:0:0:
256,192,315094,5,8,0:0:0:0:
256,192,315162,5,8,0:0:0:0:
256,192,315230,5,0,0:0:0:0:
256,192,315299,5,0,0:0:0:0:
256,192,315367,5,8,0:0:0:0:
256,192,315504,5,8,0:0:0:0:
256,192,315640,5,0,0:0:0:0:
256,192,315709,5,8,0:0:0:0:
256,192,315777,5,0,0:0:0:0:
256,192,315914,5,0,0:0:0:0:
256,192,316050,5,8,0:0:0:0:
256,192,316118,5,8,0:0:0:0:
256,192,316187,5,8,0:0:0:0:
256,192,316255,5,8,0:0:0:0:
256,192,316323,5,0,0:0:0:0:
256,192,316460,5,0,0:0:0:0:
256,192,316597,5,0,0:0:0:0:
256,192,316733,5,8,0:0:0:0:
256,192,316869,5,0,0:0:0:0:
256,192,316938,5,0,0:0:0:0:
256,192,317006,5,8,0:0:0:0:
256,192,317143,5,8,0:0:0:0:
256,192,317280,5,0,0:0:0:0:
256,192,317417,5,8,0:0:0:0:
256,192,317486,5,8,0:0:0:0:
256,192,317554,5,0,0:0:0:0:
256,192,317623,5,0,0:0:0:0:
256,192,317691,5,8,0:0:0:0:
256,192,317828,5,0,0:0:0:0:
256,192,317965,5,8,0:0:0:0:
256,192,318102,5,0,0:0:0:0:
256,192,318171,5,8,0:0:0:0:
256,192,318239,5,0,0:0:0:0:
256,192,318308,5,0,0:0:0:0:
256,192,318376,5,8,0:0:0:0:
256,192,318513,5,0,0:0:0:0:
256,192,318650,5,12,0:0:0:0:
256,192,318787,5,0,0:0:0:0:
256,192,318924,5,12,0:0:0:0:
256,192,319060,5,0,0:0:0:0:
256,192,319128,5,0,0:0:0:0:
256,192,319196,5,0,0:0:0:0:
256,192,319333,5,8,0:0:0:0:
256,192,319469,5,8,0:0:0:0:
256,192,319605,5,0,0:0:0:0:
256,192,319674,5,8,0:0:0:0:
256,192,319742,5,8,0:0:0:0:
256,192,319810,5,8,0:0:0:0:
256,192,319878,5,0,0:0:0:0:
256,192,320014,5,8,0:0:0:0:
256,192,320151,5,8,0:0:0:0:
256,192,320287,5,0,0:0:0:0:
256,192,320355,5,8,0:0:0:0:
256,192,320424,5,0,0:0:0:0:
256,192,320560,5,8,0:0:0:0:
256,192,320628,5,8,0:0:0:0:
256,192,320696,5,0,0:0:0:0:
256,192,320764,5,0,0:0:0:0:
256,192,320833,5,8,0:0:0:0:
256,192,320901,5,0,0:0:0:0:
256,192,320969,5,8,0:0:0:0:
256,192,321037,5,8,0:0:0:0:
256,192,321105,5,0,0:0:0:0:
256,192,321174,5,8,0:0:0:0:
256,192,321242,5,0,0:0:0:0:
256,192,321310,5,0,0:0:0:0:
256,192,321378,5,8,0:0:0:0:
256,192,321446,5,0,0:0:0:0:
256,192,321514,5,8,0:0:0:0:
256,192,321651,5,0,0:0:0:0:
256,192,321719,5,8,0:0:0:0:
256,192,321787,5,8,0:0:0:0:
256,192,321855,5,0,0:0:0:0:
256,192,321924,5,8,0:0:0:0:
256,192,321992,5,8,0:0:0:0:
256,192,322060,5,0,0:0:0:0:
256,192,322128,5,0,0:0:0:0:
256,192,322196,5,8,0:0:0:0:
256,192,322333,5,8,0:0:0:0:
256,192,322469,5,0,0:0:0:0:
256,192,322605,5,0,0:0:0:0:
256,192,322674,5,0,0:0:0:0:
256,192,322742,5,8,0:0:0:0:
256,192,322878,5,0,0:0:0:0:
256,192,323014,5,0,0:0:0:0:
256,192,323151,5,8,0:0:0:0:
256,192,323287,5,12,0:0:0:0:
256,192,323424,5,0,0:0:0:0:
256,192,323492,5,0,0:0:0:0:
256,192,323560,5,8,0:0:0:0:
256,192,323696,5,12,0:0:0:0:
256,192,323833,5,0,0:0:0:0:
256,192,323901,5,0,0:0:0:0:
256,192,323969,5,0,0:0:0:0:
256,192,324105,5,12,0:0:0:0:
256,192,324242,5,0,0:0:0:0:
256,192,324310,5,0,0:0:0:0:
256,192,324378,5,0,0:0:0:0:
256,192,324514,5,12,0:0:0:0:
256,192,324651,5,8,0:0:0:0:
256,192,324719,5,8,0:0:0:0:
256,192,324787,5,0,0:0:0:0:
256,192,324924,5,12,0:0:0:0:
256,192,325060,5,0,0:0:0:0:
256,192,325196,5,12,0:0:0:0:
256,192,325333,5,0,0:0:0:0:
256,192,325469,5,12,0:0:0:0:
256,192,325605,5,8,0:0:0:0:
256,192,325674,5,8,0:0:0:0:
256,192,325742,5,0,0:0:0:0:
256,192,325810,5,0,0:0:0:0:
256,192,325878,5,8,0:0:0:0:
256,192,326014,5,0,0:0:0:0:
256,192,326151,5,0,0:0:0:0:
256,192,326219,5,0,0:0:0:0:
256,192,326287,5,8,0:0:0:0:
256,192,326424,5,8,0:0:0:0:
256,192,326560,5,8,0:0:0:0:
256,192,326628,5,8,0:0:0:0:
256,192,326696,5,0,0:0:0:0:
256,192,326764,5,0,0:0:0:0:
256,192,326833,5,8,0:0:0:0:
256,192,326901,5,0,0:0:0:0:
256,192,326969,5,8,0:0:0:0:
256,192,327037,5,8,0:0:0:0:
256,192,327105,5,8,0:0:0:0:
256,192,327174,5,8,0:0:0:0:
256,192,327242,5,0,0:0:0:0:
256,192,327310,5,0,0:0:0:0:
256,192,327378,5,8,0:0:0:0:
256,192,327651,5,8,0:0:0:0:
256,192,327719,5,8,0:0:0:0:
256,192,327787,5,0,0:0:0:0:
256,192,327855,5,0,0:0:0:0:
256,192,327924,5,8,0:0:0:0:
256,192,327992,5,0,0:0:0:0:
256,192,328060,5,0,0:0:0:0:
256,192,328128,5,0,0:0:0:0:
256,192,328196,5,8,0:0:0:0:
256,192,328264,5,8,0:0:0:0:
256,192,328333,5,0,0:0:0:0:
256,192,328401,5,0,0:0:0:0:
256,192,328469,5,8,0:0:0:0:
256,192,328537,5,0,0:0:0:0:
256,192,328605,5,0,0:0:0:0:
256,192,328674,5,0,0:0:0:0:
256,192,328742,5,8,0:0:0:0:
256,192,328810,5,8,0:0:0:0:
256,192,328878,5,0,0:0:0:0:
256,192,328946,5,0,0:0:0:0:
256,192,329014,5,8,0:0:0:0:
256,192,329083,5,0,0:0:0:0:
256,192,329151,5,0,0:0:0:0:
256,192,329219,5,0,0:0:0:0:
256,192,329287,5,8,0:0:0:0:
256,192,329355,5,0,0:0:0:0:
256,192,329424,5,0,0:0:0:0:
256,192,329492,5,0,0:0:0:0:
256,192,329560,5,8,0:0:0:0:
256,192,329628,5,8,0:0:0:0:
256,192,329696,5,0,0:0:0:0:
256,192,329764,5,0,0:0:0:0:
256,192,329833,5,8,0:0:0:0:
256,192,329901,5,8,0:0:0:0:
256,192,329969,5,8,0:0:0:0:
256,192,330037,5,8,0:0:0:0:
256,192,330105,5,0,0:0:0:0:
256,192,330174,5,0,0:0:0:0:
256,192,330242,5,0,0:0:0:0:
256,192,330310,5,0,0:0:0:0:
256,192,330378,5,8,0:0:0:0:
256,192,330446,5,8,0:0:0:0:
256,192,330514,5,8,0:0:0:0:
256,192,330583,5,0,0:0:0:0:
256,192,330651,5,8,0:0:0:0:
256,192,330719,5,8,0:0:0:0:
256,192,330787,5,0,0:0:0:0:
256,192,330855,5,0,0:0:0:0:
256,192,330924,5,8,0:0:0:0:
256,192,330992,5,8,0:0:0:0:
256,192,331060,5,8,0:0:0:0:
256,192,331128,5,8,0:0:0:0:
256,192,331196,5,0,0:0:0:0:
256,192,331264,5,0,0:0:0:0:
256,192,331333,5,0,0:0:0:0:
256,192,331401,5,0,0:0:0:0:
256,192,331469,5,8,0:0:0:0:
256,192,331537,5,0,0:0:0:0:
256,192,331605,5,0,0:0:0:0:
256,192,331674,5,0,0:0:0:0:
256,192,331742,5,8,0:0:0:0:
256,192,331810,5,0,0:0:0:0:
256,192,331878,5,0,0:0:0:0:
256,192,331946,5,0,0:0:0:0:
256,192,332014,5,8,0:0:0:0:
256,192,332083,5,8,0:0:0:0:
256,192,332151,5,0,0:0:0:0:
256,192,332219,5,0,0:0:0:0:
256,192,332287,5,8,0:0:0:0:
256,192,332355,5,0,0:0:0:0:
256,192,332424,5,0,0:0:0:0:
256,192,332492,5,0,0:0:0:0:
256,192,332560,5,8,0:0:0:0:
256,192,332628,5,8,0:0:0:0:
256,192,332696,5,8,0:0:0:0:
256,192,332764,5,0,0:0:0:0:
256,192,332833,5,8,0:0:0:0:
256,192,332901,5,0,0:0:0:0:
256,192,332969,5,0,0:0:0:0:
256,192,333037,5,0,0:0:0:0:
256,192,333105,5,8,0:0:0:0:
256,192,333174,5,8,0:0:0:0:
256,192,333242,5,8,0:0:0:0:
256,192,333310,5,8,0:0:0:0:
256,192,333378,5,0,0:0:0:0:
256,192,333446,5,0,0:0:0:0:
256,192,333514,5,0,0:0:0:0:
256,192,333583,5,0,0:0:0:0:
256,192,333651,5,8,0:0:0:0:
256,192,333719,5,8,0:0:0:0:
256,192,333787,5,0,0:0:0:0:
256,192,333855,5,0,0:0:0:0:
256,192,333924,5,8,0:0:0:0:
256,192,333992,5,8,0:0:0:0:
256,192,334060,5,8,0:0:0:0:
256,192,334128,5,0,0:0:0:0:
256,192,334196,5,8,0:0:0:0:
256,192,334264,5,8,0:0:0:0:
256,192,334333,5,0,0:0:0:0:
256,192,334401,5,0,0:0:0:0:
256,192,334469,5,8,0:0:0:0:
256,192,334537,5,8,0:0:0:0:
256,192,334605,5,8,0:0:0:0:
256,192,334674,5,0,0:0:0:0:
256,192,334742,5,8,0:0:0:0:
256,192,334810,5,0,0:0:0:0:
256,192,334878,5,0,0:0:0:0:
256,192,334946,5,0,0:0:0:0:
256,192,335014,5,8,0:0:0:0:
256,192,335083,5,8,0:0:0:0:
256,192,335151,5,0,0:0:0:0:
256,192,335219,5,0,0:0:0:0:
256,192,335287,5,8,0:0:0:0:
256,192,335355,5,8,0:0:0:0:
256,192,335424,5,0,0:0:0:0:
256,192,335492,5,0,0:0:0:0:
256,192,335560,5,0,0:0:0:0:
256,192,335628,5,0,0:0:0:0:
256,192,335696,5,0,0:0:0:0:
256,192,335764,5,0,0:0:0:0:
256,192,335833,5,8,0:0:0:0:
256,192,335901,5,8,0:0:0:0:
256,192,335969,5,8,0:0:0:0:
256,192,336037,5,8,0:0:0:0:
256,192,336105,5,0,0:0:0:0:
256,192,336174,5,0,0:0:0:0:
256,192,336242,5,0,0:0:0:0:
256,192,336310,5,0,0:0:0:0:
256,192,336378,5,8,0:0:0:0:
256,192,336446,5,8,0:0:0:0:
256,192,336514,5,0,0:0:0:0:
256,192,336583,5,0,0:0:0:0:
256,192,336651,5,8,0:0:0:0:
256,192,336719,5,0,0:0:0:0:
256,192,336787,5,0,0:0:0:0:
256,192,336855,5,0,0:0:0:0:
256,192,336924,5,8,0:0:0:0:
256,192,336992,5,0,0:0:0:0:
256,192,337060,5,0,0:0:0:0:
256,192,337128,5,0,0:0:0:0:
256,192,337196,5,8,0:0:0:0:
256,192,337264,5,8,0:0:0:0:
256,192,337333,5,0,0:0:0:0:
256,192,337401,5,0,0:0:0:0:
256,192,337469,5,8,0:0:0:0:
256,192,337537,5,8,0:0:0:0:
256,192,337605,5,8,0:0:0:0:
256,192,337674,5,8,0:0:0:0:
256,192,337742,5,0,0:0:0:0:
256,192,337810,5,0,0:0:0:0:
256,192,337878,5,0,0:0:0:0:
256,192,337946,5,0,0:0:0:0:
256,192,338014,5,8,0:0:0:0:
256,192,338083,5,8,0:0:0:0:
256,192,338151,5,0,0:0:0:0:
256,192,338219,5,0,0:0:0:0:
256,192,338287,5,8,0:0:0:0:
256,192,338355,5,0,0:0:0:0:
256,192,338424,5,0,0:0:0:0:
256,192,338492,5,0,0:0:0:0:
256,192,338560,5,8,0:0:0:0:
256,192,338628,5,8,0:0:0:0:
256,192,338696,5,8,0:0:0:0:
256,192,338764,5,8,0:0:0:0:
256,192,338833,5,0,0:0:0:0:
256,192,338901,5,0,0:0:0:0:
256,192,338969,5,8,0:0:0:0:
256,192,339037,5,8,0:0:0:0:
256,192,339105,5,0,0:0:0:0:
256,192,339174,5,0,0:0:0:0:
256,192,339242,5,0,0:0:0:0:
256,192,339310,5,0,0:0:0:0:
256,192,339378,5,8,0:0:0:0:
256,192,339446,5,0,0:0:0:0:
256,192,339514,5,0,0:0:0:0:
256,192,339583,5,0,0:0:0:0:
256,192,339651,5,8,0:0:0:0:
256,192,339719,5,8,0:0:0:0:
256,192,339787,5,8,0:0:0:0:
256,192,339855,5,8,0:0:0:0:
256,192,339924,5,0,0:0:0:0:
256,192,339992,5,0,0:0:0:0:
256,192,340060,5,0,0:0:0:0:
256,192,340128,5,0,0:0:0:0:
256,192,340196,5,8,0:0:0:0:
256,192,340264,5,8,0:0:0:0:
256,192,340333,5,0,0:0:0:0:
256,192,340401,5,0,0:0:0:0:
256,192,340469,5,8,0:0:0:0:
256,192,340537,5,8,0:0:0:0:
256,192,340605,5,8,0:0:0:0:
256,192,340674,5,0,0:0:0:0:
256,192,340742,5,8,0:0:0:0:
256,192,340810,5,8,0:0:0:0:
256,192,340878,5,8,0:0:0:0:
256,192,340946,5,8,0:0:0:0:
256,192,341014,5,8,0:0:0:0:
256,192,341083,5,8,0:0:0:0:
256,192,341151,5,0,0:0:0:0:
256,192,341219,5,0,0:0:0:0:
256,192,341287,5,8,0:0:0:0:
256,192,341355,5,8,0:0:0:0:
256,192,341424,5,0,0:0:0:0:
256,192,341492,5,0,0:0:0:0:
256,192,341560,5,8,0:0:0:0:
256,192,341628,5,0,0:0:0:0:
256,192,341696,5,0,0:0:0:0:
256,192,341764,5,0,0:0:0:0:
256,192,341833,5,8,0:0:0:0:
256,192,341901,5,8,0:0:0:0:
256,192,341969,5,0,0:0:0:0:
256,192,342037,5,0,0:0:0:0:
256,192,342105,5,8,0:0:0:0:
256,192,342174,5,8,0:0:0:0:
256,192,342242,5,0,0:0:0:0:
256,192,342310,5,0,0:0:0:0:
256,192,342378,5,8,0:0:0:0:
256,192,342446,5,8,0:0:0:0:
256,192,342514,5,8,0:0:0:0:
256,192,342583,5,8,0:0:0:0:
256,192,342651,5,0,0:0:0:0:
256,192,342924,5,8,0:0:0:0:
256,192,342992,5,0,0:0:0:0:
256,192,343060,5,0,0:0:0:0:
256,192,343128,5,0,0:0:0:0:
256,192,343196,5,8,0:0:0:0:
256,192,343264,5,8,0:0:0:0:
256,192,343333,5,8,0:0:0:0:
256,192,343401,5,8,0:0:0:0:
256,192,343469,5,0,0:0:0:0:
256,192,343537,5,0,0:0:0:0:
256,192,343605,5,0,0:0:0:0:
256,192,343674,5,0,0:0:0:0:
256,192,343742,5,8,0:0:0:0:
256,192,343810,5,8,0:0:0:0:
256,192,343878,5,8,0:0:0:0:
256,192,343946,5,8,0:0:0:0:
256,192,344014,5,0,0:0:0:0:
256,192,344083,5,0,0:0:0:0:
256,192,344151,5,0,0:0:0:0:
256,192,344219,5,0,0:0:0:0:
256,192,344287,5,8,0:0:0:0:
256,192,344355,5,8,0:0:0:0:
256,192,344424,5,0,0:0:0:0:
256,192,344492,5,0,0:0:0:0:
256,192,344560,5,8,0:0:0:0:
256,192,344628,5,8,0:0:0:0:
256,192,344696,5,0,0:0:0:0:
256,192,344764,5,0,0:0:0:0:
256,192,344833,5,8,0:0:0:0:
256,192,345105,5,0,0:0:0:0:
256,192,345242,5,8,0:0:0:0:
256,192,345310,5,8,0:0:0:0:
256,192,345378,5,0,0:0:0:0:
256,192,345514,5,8,0:0:0:0:
256,192,345651,5,8,0:0:0:0:
256,192,345719,5,8,0:0:0:0:
256,192,345787,5,0,0:0:0:0:
256,192,345855,5,0,0:0:0:0:
256,192,345924,5,8,0:0:0:0:
256,192,346060,5,0,0:0:0:0:
256,192,346196,5,0,0:0:0:0:
256,192,346333,5,8,0:0:0:0:
256,192,346401,5,0,0:0:0:0:
256,192,346469,5,8,0:0:0:0:
256,192,346605,5,0,0:0:0:0:
256,192,346742,5,8,0:0:0:0:
256,192,346810,5,0,0:0:0:0:
256,192,346878,5,0,0:0:0:0:
256,192,346946,5,0,0:0:0:0:
256,192,347014,5,8,0:0:0:0:
256,192,347151,5,8,0:0:0:0:
256,192,347287,5,0,0:0:0:0:
256,192,347355,5,0,0:0:0:0:
256,192,347424,5,0,0:0:0:0:
256,192,347560,5,8,0:0:0:0:
256,192,347696,5,0,0:0:0:0:
256,192,347833,5,8,0:0:0:0:
256,192,347901,5,8,0:0:0:0:
256,192,347969,5,0,0:0:0:0:
256,192,348037,5,0,0:0:0:0:
256,192,348105,5,8,0:0:0:0:
256,192,348242,5,8,0:0:0:0:
256,192,348378,5,0,0:0:0:0:
256,192,348514,5,0,0:0:0:0:
256,192,348583,5,0,0:0:0:0:
256,192,348651,5,8,0:0:0:0:
256,192,348787,5,8,0:0:0:0:
256,192,348924,5,12,0:0:0:0:
256,192,349060,5,0,0:0:0:0:
256,192,349196,5,12,0:0:0:0:
256,192,349333,5,0,0:0:0:0:
256,192,349469,5,12,0:0:0:0:
256,192,349605,5,8,0:0:0:0:
256,192,349674,5,8,0:0:0:0:
256,192,349742,5,0,0:0:0:0:
256,192,349878,5,0,0:0:0:0:
256,192,350014,5,8,0:0:0:0:
256,192,350083,5,0,0:0:0:0:
256,192,350151,5,0,0:0:0:0:
256,192,350219,5,0,0:0:0:0:
256,192,350287,5,8,0:0:0:0:
256,192,350424,5,0,0:0:0:0:
256,192,350560,5,8,0:0:0:0:
256,192,350628,5,0,0:0:0:0:
256,192,350696,5,0,0:0:0:0:
256,192,350833,5,8,0:0:0:0:
256,192,350969,5,0,0:0:0:0:
256,192,351105,5,8,0:0:0:0:
256,192,351174,5,8,0:0:0:0:
256,192,351242,5,0,0:0:0:0:
256,192,351310,5,0,0:0:0:0:
256,192,351378,5,8,0:0:0:0:
256,192,351514,5,8,0:0:0:0:
256,192,351651,5,8,0:0:0:0:
256,192,351719,5,8,0:0:0:0:
256,192,351787,5,0,0:0:0:0:
256,192,351924,5,8,0:0:0:0:
256,192,352060,5,0,0:0:0:0:
256,192,352196,5,8,0:0:0:0:
256,192,352264,5,8,0:0:0:0:
256,192,352333,5,0,0:0:0:0:
256,192,352469,5,8,0:0:0:0:
256,192,352537,5,8,0:0:0:0:
256,192,352605,5,8,0:0:0:0:
256,192,352742,5,0,0:0:0:0:
256,192,352878,5,8,0:0:0:0:
256,192,353014,5,0,0:0:0:0:
256,192,353083,5,0,0:0:0:0:
256,192,353151,5,0,0:0:0:0:
256,192,353287,5,12,0:0:0:0:
256,192,353424,5,0,0:0:0:0:
256,192,353560,5,12,0:0:0:0:
256,192,353696,5,0,0:0:0:0:
256,192,353833,5,12,0:0:0:0:
256,192,353969,5,0,0:0:0:0:
256,192,354037,5,0,0:0:0:0:
256,192,354105,5,8,0:0:0:0:
256,192,354242,5,0,0:0:0:0:
256,192,354378,5,8,0:0:0:0:
256,192,354514,5,0,0:0:0:0:
256,192,354583,5,0,0:0:0:0:
256,192,354651,5,8,0:0:0:0:
256,192,354719,5,8,0:0:0:0:
256,192,354787,5,0,0:0:0:0:
256,192,354924,5,8,0:0:0:0:
256,192,355060,5,0,0:0:0:0:
256,192,355196,5,8,0:0:0:0:
256,192,355333,5,0,0:0:0:0:
256,192,355401,5,0,0:0:0:0:
256,192,355469,5,8,0:0:0:0:
256,192,355605,5,0,0:0:0:0:
256,192,355742,5,8,0:0:0:0:
256,192,355810,5,8,0:0:0:0:
256,192,355878,5,0,0:0:0:0:
256,192,356014,5,8,0:0:0:0:
256,192,356151,5,8,0:0:0:0:
256,192,356287,5,0,0:0:0:0:
256,192,356355,5,0,0:0:0:0:
256,192,356424,5,0,0:0:0:0:
256,192,356560,5,8,0:0:0:0:
256,192,356696,5,0,0:0:0:0:
256,192,356764,5,0,0:0:0:0:
256,192,356833,5,8,0:0:0:0:
256,192,356969,5,8,0:0:0:0:
256,192,357105,5,0,0:0:0:0:
256,192,357242,5,0,0:0:0:0:
256,192,357378,5,8,0:0:0:0:
256,192,357514,5,0,0:0:0:0:
256,192,357651,5,8,0:0:0:0:
256,192,357719,5,8,0:0:0:0:
256,192,357787,5,8,0:0:0:0:
256,192,357924,5,12,0:0:0:0:
256,192,358060,5,0,0:0:0:0:
256,192,358196,5,8,0:0:0:0:
256,192,358264,5,0,0:0:0:0:
256,192,358333,5,8,0:0:0:0:
256,192,358401,5,8,0:0:0:0:
256,192,358469,5,0,0:0:0:0:
256,192,358537,5,0,0:0:0:0:
256,192,358605,5,0,0:0:0:0:
256,192,358674,5,0,0:0:0:0:
256,192,358742,5,8,0:0:0:0:
256,192,358810,5,8,0:0:0:0:
256,192,358878,5,0,0:0:0:0:
256,192,358946,5,0,0:0:0:0:
256,192,359014,5,8,0:0:0:0:
256,192,359083,5,8,0:0:0:0:
256,192,359151,5,0,0:0:0:0:
256,192,359219,5,0,0:0:0:0:
256,192,359287,5,8,0:0:0:0:
256,192,359355,5,0,0:0:0:0:
256,192,359424,5,8,0:0:0:0:
256,192,359492,5,8,0:0:0:0:
256,192,359560,5,0,0:0:0:0:
256,192,359628,5,0,0:0:0:0:
256,192,359696,5,0,0:0:0:0:
256,192,359764,5,0,0:0:0:0:
256,192,359833,5,8,0:0:0:0:
256,192,359901,5,0,0:0:0:0:
256,192,359969,5,0,0:0:0:0:
256,192,360037,5,0,0:0:0:0:
256,192,360105,5,8,0:0:0:0:
256,192,360174,5,8,0:0:0:0:
256,192,360242,5,0,0:0:0:0:
256,192,360310,5,0,0:0:0:0:
256,192,360379,5,12,0:0:0:0:
256,192,360652,5,0,0:0:0:0:
256,192,360789,5,0,0:0:0:0:
256,192,360926,5,12,0:0:0:0:
256,192,361200,5,12,0:0:0:0:
256,192,361474,5,4,0:0:0:0:
256,192,362022,5,12,0:0:0:0:
