osu file format v14

[General]
AudioFilename: ensiferum_-_march_of_war_axe_of_judg-G2QbDxFc7nw_fmt137.mp3
AudioLeadIn: 0
PreviewTime: 127694
Countdown: 0
SampleSet: Soft
StackLeniency: 0.7
Mode: 0
LetterboxInBreaks: 0
EpilepsyWarning: 1
WidescreenStoryboard: 1

[Editor]
DistanceSpacing: 0.7
BeatDivisor: 4
GridSize: 8
TimelineZoom: 2.5

[Metadata]
Title:March of War / Axe of Judgement
TitleUnicode:March of War / Axe of Judgement
Artist:Ensiferum
ArtistUnicode:Ensiferum
Creator:Maakkeli
Version:Relentless Brutality
Source:
Tags:one man army marathon deathstream ComfyWolf folk melodic death viking war metal mkl
BeatmapID:861180
BeatmapSetID:395739

[Difficulty]
HPDrainRate:6
CircleSize:4.4
OverallDifficulty:9
ApproachRate:9.6
SliderMultiplier:1.88
SliderTickRate:2

[Events]
//Background and Video events
0,0,"SLAY-THEM.jpg",0,0
//Break Periods
2,214069,217177
//Storyboard Layer 0 (Background)
//Storyboard Layer 1 (Fail)
//Storyboard Layer 2 (Pass)
//Storyboard Layer 3 (Foreground)
//Storyboard Sound Samples

[TimingPoints]
1550,645.161290322581,4,2,4,30,1,0
2196,645.161290322581,4,2,4,30,1,0
2196,-133.333333333333,4,2,4,30,0,0
12518,-111.111111111111,4,2,4,35,0,0
34454,645.161290322581,4,2,4,40,1,0
34454,-111.111111111111,4,2,4,40,0,0
65421,-111.111111111111,4,2,4,50,0,0
79937,-111.111111111111,4,1,4,40,0,0
80260,-111.111111111111,4,2,4,40,0,0
87449,769.230769230769,4,2,4,40,1,0
87833,810.810810810811,4,2,4,40,1,0
88238,-100,4,2,4,40,0,0
89114,638.297872340426,4,2,4,40,1,0
93582,-100,4,2,4,5,0,0
93896,270.27027027027,4,1,5,70,1,1
96058,272.727272727273,4,1,5,70,1,1
108876,-100,4,1,5,70,0,0
109148,-100,4,1,6,70,0,1
111058,-100,4,1,5,60,0,0
111330,-100,4,1,6,60,0,0
111467,-100,4,1,5,60,0,0
115148,-83.3333333333333,4,1,6,60,0,0
115694,-100,4,1,5,60,0,0
120058,-100,4,1,6,60,0,0
120194,-100,4,1,5,60,0,0
124421,-100,4,1,6,60,0,0
124558,-100,4,1,5,70,0,0
128512,-125,4,1,6,60,0,0
128648,-125,4,1,6,30,0,0
128785,-100,4,1,5,70,0,1
136421,-100,4,1,5,70,0,0
137239,-125,4,1,8,70,0,0
137512,-100,4,1,6,70,0,1
137603,-100,4,1,9,70,0,1
145148,-100,4,1,6,70,0,1
146232,272.727272727273,4,1,5,60,1,0
146368,-100,4,1,5,60,0,0
154959,-100,4,1,6,60,0,0
155095,-100,4,1,5,60,0,0
162595,275.355667737494,4,1,6,60,1,0
163696,272.727272727273,4,1,6,50,1,0
163696,-125,4,1,6,50,0,0
163832,-125,4,1,5,50,0,0
164241,-100,4,1,5,50,0,0
164786,-125,4,1,5,50,0,0
165332,-100,4,1,5,50,0,0
165877,-125,4,1,5,50,0,0
166423,-100,4,1,5,50,0,0
166968,-125,4,1,5,50,0,0
167786,-125,4,1,6,50,0,0
168196,-125,4,1,5,50,0,0
168605,-100,4,1,5,50,0,0
169150,-125,4,1,5,50,0,0
169696,-100,4,1,5,50,0,0
170241,-125,4,1,5,50,0,0
170786,-100,4,1,5,50,0,0
172423,-100,4,1,6,50,0,0
172559,-100,4,1,5,60,0,0
176786,-100,4,1,6,60,0,0
176923,-100,4,1,5,60,0,0
180059,-125,4,1,6,40,0,0
180332,-125,4,1,5,50,0,0
180605,-125,4,1,5,60,0,0
180877,-125,4,1,5,70,0,0
181150,-100,4,1,6,70,0,0
181286,-100,4,1,5,70,0,0
183400,-100,4,1,5,5,0,0
183536,-100,4,1,5,70,0,0
184491,-100,4,1,5,5,0,0
184627,-100,4,1,5,70,0,0
185514,-100,4,1,6,70,0,0
185582,-100,4,1,5,70,0,0
187764,-100,4,1,5,5,0,0
187900,-100,4,1,5,70,0,0
188786,271.0027100271,4,1,6,70,1,0
188853,-100,4,1,5,5,0,0
188989,-100,4,1,5,70,0,0
189870,272.727272727273,4,1,6,70,1,0
189870,-100,4,1,6,70,0,0
189938,-100,4,1,5,5,0,0
190074,-100,4,1,5,70,0,0
191574,-100,4,1,5,5,0,0
191710,-100,4,1,5,20,0,0
191779,-100,4,1,5,70,0,0
192051,-100,4,1,6,70,0,0
192120,-100,4,1,5,5,0,0
192256,-100,4,1,5,70,0,0
193210,-100,4,1,5,5,0,0
193347,-100,4,1,5,20,0,0
193415,-100,4,1,5,70,0,0
194233,-100,4,1,6,70,0,0
194301,-100,4,1,5,5,0,0
194438,-100,4,1,5,70,0,0
195938,-100,4,1,5,5,0,0
196074,-100,4,1,5,20,0,0
196142,-100,4,1,5,70,0,0
196415,-100,4,1,6,70,0,0
196482,-100,4,1,5,70,0,0
198324,-125,4,1,6,70,0,0
198460,-125,4,1,6,30,0,0
198615,270.27027027027,4,1,5,70,1,1
198615,-100,4,1,5,70,0,1
200777,273.972602739726,4,1,5,70,1,1
206246,272.727272727273,4,1,5,70,1,0
206246,-100,4,1,5,70,0,0
207064,-125,4,1,6,70,0,0
207200,-125,4,1,6,70,0,0
207324,272.727272727273,4,1,6,70,1,1
207324,-100,4,1,6,70,0,1
207414,-100,4,1,9,70,0,1
213869,-100,4,1,6,70,0,0
213882,292.682926829268,4,1,6,50,1,0
217686,-125,4,1,6,50,0,0
218418,-125,4,1,6,30,0,0
218564,-125,4,1,6,50,0,0
218711,-125,4,1,6,30,0,0
218857,-125,4,1,6,50,0,0
219296,-125,4,1,6,30,0,0
219442,-125,4,1,6,50,0,0
219589,-125,4,1,6,30,0,0
219735,-125,4,1,6,50,0,0
221052,-125,4,1,6,30,0,0
221199,-125,4,1,6,50,0,0
221638,-125,4,1,6,30,0,0
221784,-125,4,1,6,50,0,0
221930,-125,4,1,6,30,0,0
222077,-125,4,1,6,50,0,0
222662,-100,4,1,6,50,0,0
222808,-100,4,1,6,30,0,0
222955,-100,4,1,6,50,0,0
223101,-100,4,1,6,30,0,0
223247,-125,4,1,6,50,0,0
223394,-125,4,1,6,30,0,0
223540,-125,4,1,6,50,0,0
223979,-125,4,1,6,30,0,0
224125,-125,4,1,6,50,0,0
224272,-125,4,1,6,30,0,0
224418,-125,4,1,6,50,0,0
225735,-125,4,1,6,30,0,0
225882,-125,4,1,6,50,0,0
226321,-125,4,1,6,30,0,0
226467,-125,4,1,6,50,0,0
226613,-125,4,1,6,30,0,0
226760,-125,4,1,6,50,0,0
227345,-100,4,1,6,50,0,0
227491,-100,4,1,6,30,0,0
227638,-100,4,1,6,50,0,0
227930,-125,4,1,6,50,0,0
228077,-125,4,1,6,30,0,0
228223,-125,4,1,6,50,0,0
228662,-125,4,1,6,30,0,0
228808,-125,4,1,6,50,0,0
228955,-125,4,1,6,30,0,0
229101,-125,4,1,6,50,0,0
230418,-125,4,1,6,30,0,0
230564,-125,4,1,6,50,0,0
231003,-125,4,1,6,30,0,0
231150,-125,4,1,6,50,0,0
231296,-125,4,1,6,30,0,0
231442,-125,4,1,6,50,0,0
232028,-100,4,1,6,50,0,0
232174,-100,4,1,6,30,0,0
232321,-100,4,1,6,50,0,0
232467,-100,4,1,6,30,0,0
232613,-125,4,1,6,50,0,0
232760,-125,4,1,6,30,0,0
232906,-125,4,1,6,50,0,0
233345,-125,4,1,6,30,0,0
233491,-125,4,1,6,50,0,0
233638,-125,4,1,6,30,0,0
233784,-125,4,1,6,50,0,0
234955,291.828793774319,4,1,6,50,1,0
234955,-125,4,1,6,50,0,0
235100,-125,4,1,6,30,0,0
235246,-125,4,1,6,50,0,0
235685,-125,4,1,6,30,0,0
235830,-125,4,1,6,50,0,0
237289,292.682926829268,4,1,6,60,1,0
237289,-125,4,1,6,60,0,0
241386,-100,4,1,6,60,0,0
241971,-125,4,1,6,60,0,0
250752,-100,4,1,6,60,0,0
251337,-125,4,1,6,60,0,0
256020,294.117647058824,4,1,6,50,1,0
256020,-125,4,1,6,50,0,0
256167,-125,4,1,6,30,0,0
256314,-125,4,1,6,60,0,0
257343,-125,4,1,6,30,0,0
257490,-125,4,1,6,60,0,0
257931,-125,4,1,6,30,0,0
258078,-125,4,1,6,60,0,0
258372,292.682926829268,4,1,6,50,1,0
258372,-125,4,1,6,50,0,0
258518,-125,4,1,6,30,0,0
258664,-125,4,1,6,60,0,0
259689,-125,4,1,6,30,0,0
259835,-125,4,1,6,60,0,0
260274,-125,4,1,6,30,0,0
260420,-125,4,1,6,60,0,0
260859,-125,4,1,6,30,0,0
261006,-125,4,1,6,60,0,0
262030,-125,4,1,6,30,0,0
262176,-125,4,1,6,60,0,0
262615,-125,4,1,6,30,0,0
262762,-125,4,1,6,60,0,0
263054,291.970802919708,4,1,6,50,1,0
263054,-125,4,1,6,50,0,0
263199,-125,4,1,6,30,0,0
263345,-125,4,1,6,60,0,0
264367,-125,4,1,6,30,0,0
264513,-125,4,1,6,60,0,0
264805,-100,4,1,6,60,0,0
265389,292.682926829268,4,1,6,60,1,0
265389,-125,4,1,6,60,0,0
265462,-125,4,1,6,5,0,0
265608,-125,4,1,6,60,0,0
267218,-125,4,1,6,5,0,0
267364,-125,4,1,6,60,0,0
267803,-125,4,1,6,5,0,0
267950,-125,4,1,6,60,0,0
268974,-125,4,1,6,5,0,0
269120,-125,4,1,6,60,0,0
269559,-125,4,1,6,5,0,0
269706,-125,4,1,6,60,0,0
270145,-125,4,1,6,5,0,0
270291,-125,4,1,6,60,0,0
271901,-125,4,1,6,5,0,0
272047,-125,4,1,6,60,0,0
272413,-100,4,1,6,60,0,0
273145,-100,4,1,6,30,0,0
273291,-100,4,1,6,60,0,0
273584,-100,4,1,6,60,0,0
273657,-100,4,1,6,5,0,0
273803,-100,4,1,6,10,0,0
273876,-100,4,1,6,60,0,0
274757,292.682926829268,4,1,6,60,1,0
274757,-125,4,1,6,60,0,0
274830,-125,4,1,6,5,0,0
274976,-125,4,1,6,60,0,0
276000,-125,4,1,6,5,0,0
276147,-125,4,1,6,60,0,0
277171,-125,4,1,6,5,0,0
277318,-125,4,1,6,60,0,0
278342,-125,4,1,6,5,0,0
278488,-125,4,1,6,60,0,0
279513,-125,4,1,6,5,0,0
279659,-125,4,1,6,60,0,0
280683,-125,4,1,6,5,0,0
280830,-125,4,1,6,60,0,0
281854,-125,4,1,6,5,0,0
282000,-125,4,1,6,60,0,0
283025,-125,4,1,6,5,0,0
283171,-125,4,1,6,10,0,0
283244,-125,4,1,6,60,0,0
284196,-125,4,1,6,5,0,0
284342,-125,4,1,6,60,0,0
285366,-125,4,1,6,5,0,0
285513,-125,4,1,6,60,0,0
286537,-125,4,1,6,5,0,0
286683,-125,4,1,6,60,0,0
287708,-125,4,1,6,5,0,0
287854,-125,4,1,6,60,0,0
288878,-125,4,1,6,5,0,0
289025,-125,4,1,6,60,0,0
290049,-125,4,1,6,5,0,0
290196,-125,4,1,6,60,0,0
291220,-125,4,1,6,5,0,0
291366,-125,4,1,6,60,0,0
293561,-125,4,1,6,5,0,0
293708,-125,4,1,6,60,0,0
294732,-125,4,1,6,5,0,0
294878,-125,4,1,6,60,0,0
295903,-125,4,1,6,5,0,0
296049,-125,4,1,6,60,0,0
297074,-125,4,1,6,5,0,0
297220,-125,4,1,6,60,0,0
298244,-125,4,1,6,5,0,0
298391,-125,4,1,6,60,0,0
299415,-125,4,1,6,5,0,0
299561,-125,4,1,6,60,0,0
300586,-125,4,1,6,5,0,0
300732,-125,4,1,6,60,0,0
302927,-125,4,1,6,5,0,0
303074,-125,4,1,6,60,0,0
304098,-125,4,1,6,5,0,0
304244,-125,4,1,6,60,0,0
305269,-125,4,1,6,5,0,0
305415,-125,4,1,6,60,0,0
306439,-125,4,1,6,5,0,0
306586,-125,4,1,6,60,0,0
307610,-125,4,1,6,5,0,0
307757,-125,4,1,6,60,0,0
308781,-125,4,1,6,5,0,0
308927,-125,4,1,6,60,0,0
309952,-125,4,1,6,5,0,0
310098,-125,4,1,6,60,0,0
311049,-200,4,1,6,60,0,0
311122,-200,4,2,6,60,0,0
311561,-200,4,1,6,5,0,0
311635,-200,4,1,6,60,0,0
311708,-100,4,1,6,20,0,0
312952,-100,4,1,6,25,0,0
313244,-100,4,1,6,30,0,0
313537,-100,4,1,6,35,0,0
313798,272.727272727273,4,1,6,40,1,0
313798,-100,4,1,6,40,0,0
314070,-100,4,1,6,45,0,0
314343,-100,4,1,6,50,0,0
314616,-100,4,1,6,55,0,0
314752,-100,4,2,6,5,0,0
314888,-100,4,1,5,70,0,0
315979,-83.3333333333333,4,1,5,70,0,1
316116,-100,4,1,69,70,0,1
316252,-100,4,1,99,70,0,1
316388,-100,4,1,5,70,0,1
316934,-100,4,1,69,70,0,1
317002,-100,4,1,69,10,0,1
317070,-100,4,1,5,70,0,1
318176,272.727272727273,4,1,6,60,1,1
318721,-100,4,1,99,70,0,1
318789,-100,4,1,99,10,0,1
318858,-100,4,1,5,70,0,1
319267,-100,4,1,99,70,0,1
319334,-100,4,1,99,10,0,1
319403,-100,4,1,5,70,0,1
319949,-100,4,1,69,70,0,1
320016,-100,4,1,69,10,0,1
320085,-100,4,1,5,70,0,1
324312,-100,4,1,69,70,0,1
324449,-100,4,1,99,70,0,1
324585,-100,4,1,5,70,0,1
326766,-100,4,1,69,70,0,1
326835,-100,4,1,69,10,0,1
326903,-100,4,1,5,70,0,1
327448,-100,4,1,99,70,0,1
327516,-100,4,1,99,10,0,1
327585,-100,4,1,5,70,0,1
327721,-100,4,1,6,70,0,1
328812,-125,4,1,6,70,0,0
329085,-100,4,1,5,70,0,1
337812,-100,4,1,9,70,0,1
344357,-100,4,1,9,70,0,1
346266,-125,4,1,6,70,0,0
346539,-100,4,1,6,70,0,1
346676,-100,4,1,5,70,0,1
350357,-83.3333333333333,4,1,6,70,0,1
350903,-100,4,1,5,70,0,1
355266,-100,4,1,6,70,0,1
355403,-100,4,1,5,70,0,1
361539,-125,4,1,6,70,0,1
361676,-125,4,1,6,70,0,1
361812,273.972602739726,4,1,89,70,1,1
361812,-100,4,1,89,70,0,1
362907,-117.647058823529,4,1,89,70,0,1
362976,-117.647058823529,4,2,89,70,0,1
363318,-117.647058823529,4,1,89,20,0,1
363455,-117.647058823529,4,1,89,70,0,0

[Colours]
Combo1 : 255,112,43
Combo2 : 177,177,177
Combo3 : 70,130,180
Combo4 : 124,124,124
Combo5 : 176,196,222
Combo6 : 255,0,0

[HitObjects]
359,87,1872,5,0,0:0:0:0:
359,87,2033,1,0,0:0:0:0:
359,87,2196,22,0,L|364:162,1,70.5000026893617,6|0,0:0|0:0,0:0:0:0:
276,217,2841,2,0,L|271:292,1,70.5000026893617,2|0,0:0|0:0,0:0:0:0:
214,340,3325,1,0,0:0:0:0:
154,290,3486,2,0,P|141:287|109:286,2,35.2500013446808
132,174,4131,1,0,0:0:0:0:
21,86,4454,1,0,0:0:0:0:
21,86,4615,1,0,0:0:0:0:
21,86,4776,54,0,P|57:81|107:87,1,70.5000026893617,6|0,0:0|0:0,0:0:0:0:
182,135,5421,2,0,P|216:138|255:130,1,70.5000026893617,2|0,0:0|0:0,0:0:0:0:
315,84,5905,1,0,0:0:0:0:
359,147,6066,2,0,L|356:202,2,35.2500013446808,0|0|0,0:0|0:0|0:0,0:0:0:0:
350,302,6712,1,0,0:0:0:0:
202,287,7034,1,0,0:0:0:0:
202,287,7196,1,0,0:0:0:0:
202,287,7357,22,0,L|296:278,1,70.5000026893617,6|0,0:0|0:0,0:0:0:0:
345,203,8002,2,0,L|438:212,1,70.5000026893617,2|0,0:0|0:0,0:0:0:0:
486,177,8486,1,0,0:0:0:0:
482,254,8647,2,0,P|479:271|478:311,2,35.2500013446808
353,276,9292,1,0,0:0:0:0:
219,356,9615,1,0,0:0:0:0:
219,356,9776,1,0,0:0:0:0:
219,356,9937,54,0,L|214:272,1,70.5000026893617,6|0,0:0|0:0,0:0:0:0:
295,216,10583,2,0,L|300:132,1,70.5000026893617,2|0,0:0|0:0,0:0:0:0:
304,68,11066,1,0,0:0:0:0:
234,103,11228,2,0,P|214:105|181:106,2,35.2500013446808
386,75,11873,1,0,0:0:0:0:
357,227,12196,1,0,0:0:0:0:
357,227,12357,1,0,0:0:0:0:
357,227,12518,22,0,P|315:233|254:225,1,84.599997418213,6|0,0:0|0:0,0:0:0:0:
169,156,13163,2,0,P|127:150|66:158,1,84.599997418213,2|0,0:0|0:0,0:0:0:0:
3,199,13647,1,0,0:0:0:0:
19,107,13808,2,0,P|22:84|24:45,1,42.2999987091065,2|0,0:0|0:0,0:0:0:0:
85,153,14131,2,0,P|86:174|89:195,1,42.2999987091065,2|0,0:0|0:0,0:0:0:0:
156,232,14454,2,0,B|129:227|129:227|46:237,1,84.599997418213,2|0,0:0|0:0,0:0:0:0:
165,306,14937,1,0,0:0:0:0:
165,306,15099,54,0,P|211:284|229:239,1,84.599997418213,6|0,0:0|0:0,0:0:0:0:
213,161,15583,1,0,0:0:0:0:
298,196,15744,2,0,L|344:200,2,28.1999991394043,2|2|2,0:0|0:0|0:0,0:0:0:0:
213,161,16066,2,0,L|151:157,1,42.2999987091065,2|0,0:0|0:0,0:0:0:0:
112,207,16389,2,0,P|134:146|93:40,1,169.199994836426,2|0,0:0|0:0,0:0:0:0:
221,77,17357,1,0,0:0:0:0:
221,77,17518,1,0,0:0:0:0:
221,77,17679,22,0,L|316:85,1,84.599997418213,6|0,0:0|0:0,0:0:0:0:
477,168,18325,2,0,L|393:176,1,84.599997418213,2|0,0:0|0:0,0:0:0:0:
342,244,18808,1,0,0:0:0:0:
388,314,18970,2,0,L|387:356,1,42.2999987091065,2|0,0:0|0:0,0:0:0:0:
456,280,19292,2,0,L|456:222,1,42.2999987091065,2|0,0:0|0:0,0:0:0:0:
393,176,19615,2,0,P|352:170|295:172,1,84.599997418213,2|0,0:0|0:0,0:0:0:0:
232,223,20099,1,0,0:0:0:0:
232,223,20260,54,0,P|191:229|134:227,1,84.599997418213,6|0,0:0|0:0,0:0:0:0:
57,206,20744,1,0,0:0:0:0:
82,295,20905,2,0,L|96:336,2,28.1999991394043,2|2|2,0:0|0:0|0:0,0:0:0:0:
57,206,21228,1,2,0:0:0:0:
231,270,21550,2,0,B|275:287|275:287|309:283|309:283|371:303,1,126.899996127319,2|0,0:0|0:0,0:0:0:0:
438,335,22196,1,2,0:0:0:0:
348,172,22518,1,0,0:0:0:0:
348,172,22679,1,0,0:0:0:0:
348,172,22841,22,0,L|355:274,1,84.599997418213,6|0,0:0|0:0,0:0:0:0:
426,197,23325,1,0,0:0:0:0:
274,184,23486,2,0,L|220:180,1,42.2999987091065,2|0,0:0|0:0,0:0:0:0:
158,237,23808,2,0,L|104:241,1,42.2999987091065,2|0,0:0|0:0,0:0:0:0:
36,191,24131,1,2,0:0:0:0:
52,282,24292,1,2,0:0:0:0:
45,188,24454,1,2,0:0:0:0:
44,280,24615,1,2,0:0:0:0:
54,187,24776,2,0,L|110:195,1,42.2999987091065,2|0,0:0|0:0,0:0:0:0:
225,260,25099,1,0,0:0:0:0:
225,260,25260,1,0,0:0:0:0:
225,260,25421,54,0,P|267:266|321:260,1,84.599997418213,6|0,0:0|0:0,0:0:0:0:
388,213,25905,1,0,0:0:0:0:
383,305,26066,2,0,L|381:358,1,42.2999987091065,2|0,0:0|0:0,0:0:0:0:
454,288,26308,1,0,0:0:0:0:
454,288,26389,2,0,L|455:245,1,42.2999987091065,2|0,0:0|0:0,0:0:0:0:
337,170,26712,2,0,B|325:140|328:101|340:120|348:81|328:29,1,126.899996127319,2|0,0:0|0:0,0:0:0:0:
244,83,27357,1,2,0:0:0:0:
424,137,27679,1,0,0:0:0:0:
424,137,27841,1,0,0:0:0:0:
424,137,28002,22,0,P|435:181|430:237,1,84.599997418213,6|0,0:0|0:0,0:0:0:0:
372,290,28486,1,0,0:0:0:0:
464,287,28647,2,0,L|515:285,1,42.2999987091065,2|0,0:0|0:0,0:0:0:0:
426,215,28889,1,0,0:0:0:0:
426,215,28970,2,0,L|375:217,1,42.2999987091065,2|0,0:0|0:0,0:0:0:0:
291,223,29292,1,2,0:0:0:0:
338,303,29454,1,2,0:0:0:0:
283,228,29615,1,2,0:0:0:0:
345,296,29776,1,2,0:0:0:0:
276,233,29937,2,0,L|268:305,1,42.2999987091065,2|0,0:0|0:0,0:0:0:0:
138,358,30260,1,0,0:0:0:0:
138,358,30421,1,0,0:0:0:0:
138,358,30583,54,0,L|134:305,1,42.2999987091065,6|0,0:0|0:0,0:0:0:0:
224,238,30905,2,0,P|200:247|176:261,1,42.2999987091065,2|0,0:0|0:0,0:0:0:0:
279,327,31228,2,0,P|304:331|332:331,1,42.2999987091065,2|0,0:0|0:0,0:0:0:0:
435,304,31550,1,0,0:0:0:0:
435,304,31712,1,0,0:0:0:0:
435,304,31873,22,0,L|441:217,1,84.599997418213,6|0,0:2|0:0,0:0:0:0:
339,142,32518,2,0,L|333:55,1,84.599997418213,2|0,0:3|0:0,0:0:0:0:
240,219,33163,2,0,P|200:225|146:222,1,84.599997418213,2|0,0:3|0:0,0:0:0:0:
317,276,33808,2,0,P|325:317|322:360,1,84.599997418213,2|0,0:3|0:0,0:0:0:0:
238,320,34292,1,0,0:0:0:0:
160,372,34454,54,0,P|116:378|73:374,1,84.599997418213,6|0,0:0|0:0,0:0:0:0:
23,249,35099,2,0,P|67:243|110:247,1,84.599997418213,2|0,0:0|0:0,0:0:0:0:
190,287,35583,1,0,0:0:0:0:
277,255,35744,2,0,L|322:253,2,42.2999987091065,2|2|2,0:0|0:0|0:0,0:0:0:0:
107,178,36389,1,2,0:0:0:0:
191,343,36712,1,0,0:0:0:0:
191,343,36873,1,0,0:0:0:0:
191,343,37034,22,0,L|201:249,1,84.599997418213,6|0,0:0|0:0,0:0:0:0:
306,190,37679,2,0,L|296:96,1,84.599997418213,2|0,0:0|0:0,0:0:0:0:
219,158,38163,1,0,0:0:0:0:
309,193,38324,2,0,P|325:196|356:197,2,42.2999987091065,2|2|2,0:0|0:0|0:0,0:0:0:0:
130,124,38970,1,2,0:0:0:0:
11,267,39292,1,0,0:0:0:0:
11,267,39454,1,0,0:0:0:0:
11,267,39615,54,0,P|51:277|112:267,1,84.599997418213,6|0,0:0|0:0,0:0:0:0:
194,196,40260,2,0,P|234:186|295:196,1,84.599997418213,2|0,0:0|0:0,0:0:0:0:
356,237,40744,1,0,0:0:0:0:
347,144,40905,2,0,L|343:81,2,42.2999987091065,2|2|2,0:0|0:0|0:0,0:0:0:0:
363,329,41550,1,2,0:0:0:0:
195,247,41873,1,0,0:0:0:0:
195,247,42034,1,0,0:0:0:0:
195,247,42195,22,0,L|292:238,1,84.599997418213,6|0,0:0|0:0,0:0:0:0:
378,159,42841,2,0,L|462:166,1,84.599997418213,2|0,0:0|0:0,0:0:0:0:
401,237,43324,1,2,0:0:0:0:
312,207,43486,1,2,0:0:0:0:
268,124,43647,1,2,0:0:0:0:
175,110,43808,1,2,0:0:0:0:
96,159,43970,1,2,0:0:0:0:
89,251,44131,2,0,L|102:354,1,84.599997418213,2|0,0:0|0:0,0:0:0:0:
176,225,44615,1,0,0:0:0:0:
176,225,44776,54,0,L|165:141,1,84.599997418213,6|0,0:0|0:0,0:0:0:0:
278,83,45421,2,0,L|288:0,1,84.599997418213,2|0,0:0|0:0,0:0:0:0:
365,51,45905,1,0,0:0:0:0:
275,86,46066,2,0,L|225:78,2,42.2999987091065,2|2|2,0:0|0:0|0:0,0:0:0:0:
461,117,46712,1,2,0:0:0:0:
338,256,47034,1,0,0:0:0:0:
338,256,47195,1,0,0:0:0:0:
338,256,47357,22,0,P|328:218|331:169,1,84.599997418213,6|0,0:0|0:0,0:0:0:0:
427,91,48002,2,0,P|437:50|434:8,1,84.599997418213,2|0,0:0|0:0,0:0:0:0:
346,40,48486,1,0,0:0:0:0:
258,8,48647,2,0,L|209:6,2,42.2999987091065,2|2|2,0:0|0:0|0:0,0:0:0:0:
438,10,49292,1,2,0:0:0:0:
315,150,49615,1,0,0:0:0:0:
315,150,49776,1,0,0:0:0:0:
315,150,49937,54,0,L|323:245,1,84.599997418213,6|0,0:0|0:0,0:0:0:0:
199,270,50583,2,0,L|191:365,1,84.599997418213,2|0,0:0|0:0,0:0:0:0:
113,304,51066,1,0,0:0:0:0:
125,211,51228,2,0,L|131:145,1,42.2999987091065,2|0,0:0|0:0,0:0:0:0:
230,244,51550,2,0,P|209:252|166:261,1,42.2999987091065,2|0,0:0|0:0,0:0:0:0:
275,163,51873,2,0,P|296:162|374:179,1,84.599997418213,2|0,0:0|0:0,0:0:0:0:
448,228,52357,1,0,0:0:0:0:
448,228,52518,22,0,P|456:194|455:129,1,84.599997418213,6|0,0:0|0:0,0:0:0:0:
258,205,53163,2,0,P|258:247|267:288,1,84.599997418213,2|0,0:0|0:0,0:0:0:0:
341,232,53647,1,0,0:0:0:0:
325,140,53808,2,0,L|324:84,2,42.2999987091065,2|2|2,0:0|0:0|0:0,0:0:0:0:
333,326,54454,1,2,0:0:0:0:
167,240,54776,1,0,0:0:0:0:
167,240,54937,1,0,0:0:0:0:
167,240,55099,54,0,L|260:232,1,84.599997418213,6|0,0:0|0:0,0:0:0:0:
346,148,55744,2,0,L|430:155,1,84.599997418213,2|0,0:0|0:0,0:0:0:0:
374,230,56228,1,0,0:0:0:0:
282,217,56389,2,0,P|251:220|225:228,2,42.2999987091065,2|2|0,0:0|0:0|0:0,0:0:0:0:
256,72,57034,2,0,P|264:32|264:24,1,42.2999987091065,2|0,0:0|0:0,0:0:0:0:
376,118,57357,1,0,0:0:0:0:
376,118,57518,1,0,0:0:0:0:
376,118,57679,22,0,P|381:160|382:203,1,84.599997418213,6|0,0:0|0:0,0:0:0:0:
251,206,58324,2,0,P|245:247|245:290,1,84.599997418213,2|0,0:0|0:0,0:0:0:0:
258,382,58808,1,0,0:0:0:0:
173,343,58970,2,0,P|151:338|116:337,2,42.2999987091065,2|2|2,0:0|0:0|0:0,0:0:0:0:
355,382,59615,2,0,L|346:286,1,84.599997418213,2|0,0:0|0:0,0:0:0:0:
273,214,60099,1,0,0:0:0:0:
273,214,60260,54,0,P|234:206|177:211,1,84.599997418213,6|0,0:0|0:0,0:0:0:0:
90,288,60905,2,0,P|51:296|-6:291,1,84.599997418213,2|0,0:0|0:0,0:0:0:0:
44,208,61389,1,0,0:0:0:0:
93,291,61550,2,0,P|97:321|97:343,2,42.2999987091065,2|2|2,0:0|0:0|0:0,0:0:0:0:
33,114,62195,1,2,0:0:0:0:
210,171,62518,1,0,0:0:0:0:
210,171,62679,1,0,0:0:0:0:
210,171,62841,22,0,B|167:169|167:169|100:185,1,84.599997418213,6|0,0:0|0:0,0:0:0:0:
206,306,63486,2,0,B|250:311|250:311|316:296,1,84.599997418213,2|0,0:0|0:0,0:0:0:0:
346,225,63970,1,0,0:0:0:0:
436,204,64131,2,0,L|484:196,2,42.2999987091065,2|2|2,0:0|0:0|0:0,0:0:0:0:
253,242,64776,1,2,0:0:0:0:
321,68,65099,1,0,0:0:0:0:
321,68,65260,1,0,0:0:0:0:
321,68,65421,54,0,P|329:116|329:172,1,84.599997418213,6|0,0:0|0:0,0:0:0:0:
246,247,66066,2,0,P|238:295|238:351,1,84.599997418213,2|0,0:0|0:0,0:0:0:0:
313,383,66550,1,0,0:0:0:0:
389,329,66712,2,0,P|413:324|440:321,2,42.2999987091065,2|2|2,0:0|0:0|0:0,0:0:0:0:
209,378,67357,1,0,0:0:0:0:
233,193,67679,1,0,0:0:0:0:
233,193,67841,1,0,0:0:0:0:
233,193,68002,22,0,L|241:105,1,84.599997418213,6|0,0:0|0:0,0:0:0:0:
114,95,68647,2,0,L|106:7,1,84.599997418213,2|0,0:0|0:0,0:0:0:0:
35,83,69131,1,0,0:0:0:0:
43,178,69292,2,0,L|47:220,2,42.2999987091065,2|2|0,0:0|0:0|0:0,0:0:0:0:
165,69,69937,1,2,0:0:0:0:
327,159,70260,1,0,0:0:0:0:
327,159,70421,1,0,0:0:0:0:
327,159,70583,54,0,P|286:169|232:163,1,84.599997418213,6|0,0:0|0:0,0:0:0:0:
364,86,71228,2,0,P|405:76|459:82,1,84.599997418213,2|0,0:0|0:0,0:0:0:0:
412,165,71712,1,0,0:0:0:0:
412,165,71873,2,0,L|416:224,2,42.2999987091065,2|2|2,0:0|0:0|0:0,0:0:0:0:
307,11,72518,2,0,L|315:109,1,84.599997418213,2|0,0:0|0:0,0:0:0:0:
179,146,73002,1,0,0:0:0:0:
179,146,73163,22,0,L|171:250,1,84.599997418213,6|0,0:0|0:0,0:0:0:0:
295,147,73647,1,0,0:0:0:0:
295,147,73808,2,0,P|273:138|249:132,1,42.2999987091065,2|0,0:0|0:0,0:0:0:0:
343,236,74131,2,0,P|383:244|391:244,1,42.2999987091065,2|0,0:0|0:0,0:0:0:0:
447,193,74454,2,0,B|422:242|435:294|446:271|472:317|440:366,1,169.199994836426,2|0,0:0|0:0,0:0:0:0:
289,290,75421,1,0,0:0:0:0:
289,290,75583,1,0,0:0:0:0:
289,290,75744,54,0,P|248:282|191:286,1,84.599997418213,6|0,0:0|0:0,0:0:0:0:
95,347,76389,2,0,P|54:355|-3:351,1,84.599997418213,2|0,0:0|0:0,0:0:0:0:
51,269,76873,1,0,0:0:0:0:
51,269,77034,2,0,L|45:204,2,42.2999987091065,2|2|2,0:0|0:0|0:0,0:0:0:0:
215,357,77679,1,2,0:0:0:0:
308,195,78002,1,0,0:0:0:0:
308,195,78163,1,0,0:0:0:0:
308,195,78324,22,0,P|352:186|410:191,1,84.599997418213,6|0,0:0|0:0,0:0:0:0:
479,219,78808,1,0,0:0:0:0:
465,126,78970,2,0,P|461:107|462:65,1,42.2999987091065,2|0,0:0|0:0,0:0:0:0:
394,190,79292,2,0,P|393:211|388:231,1,42.2999987091065,2|0,0:0|0:0,0:0:0:0:
328,278,79615,2,0,B|376:270|376:270|512:286,1,169.199994836426,2|2,0:0|0:0,0:0:0:0:
339,182,80583,1,0,0:0:0:0:
339,182,80744,1,0,0:0:0:0:
339,182,80905,54,0,P|331:150|323:86,1,84.599997418213,6|0,0:0|0:0,0:0:0:0:
240,265,81550,2,0,P|184:281|128:281,1,84.599997418213,2|0,0:0|0:0,0:0:0:0:
71,247,82034,1,0,0:0:0:0:
87,338,82195,2,0,P|92:362|99:383,2,42.2999987091065,2|2|2,0:0|0:0|0:0,0:0:0:0:
58,153,82841,1,0,0:0:0:0:
220,243,83163,2,0,L|276:241,1,42.2999987091065,2|0,0:0|0:0,0:0:0:0:
379,259,83486,22,0,P|367:219|372:151,1,84.599997418213,6|0,0:0|0:0,0:0:0:0:
400,89,83970,1,0,0:0:0:0:
309,111,84131,2,0,P|289:114|249:114,1,42.2999987091065,2|0,0:0|0:0,0:0:0:0:
369,179,84454,2,0,P|390:179|411:182,1,42.2999987091065,2|0,0:0|0:0,0:0:0:0:
467,234,84776,2,0,P|447:181|466:110,1,126.899996127319,2|0,0:0|0:0,0:0:0:0:
507,32,85421,2,0,L|443:24,1,42.2999987091065,2|0,0:0|0:0,0:0:0:0:
388,79,85744,2,0,L|346:84,1,42.2999987091065,2|0,0:0|0:0,0:0:0:0:
289,41,86066,54,0,B|305:89|305:89|294:197,1,126.899996127319,6|0,0:0|0:0,0:0:0:0:
143,117,86712,2,0,P|188:105|247:100,1,84.599997418213
422,154,87449,22,0,L|350:162,1,47,6|0,0:0|0:0,0:0:0:0:
304,227,87833,54,0,L|232:219,1,47,6|0,0:0|0:0,0:0:0:0:
176,171,88238,22,0,P|171:142|170:121,2,47,6|0|0,0:0|0:0|0:0,0:0:0:0:
249,54,89114,53,6,0:0:0:0:
256,192,89273,12,0,93582,2:0:0:0:
162,55,93896,6,0,P|156:24|156:-8,3,47,14|2|2|2,0:0|0:0|0:0|0:0,0:0:0:0:
253,149,94166,2,0,P|251:172|246:195,3,47,10|2|2|2,0:0|0:0|0:0|0:0,0:0:0:0:
357,89,94436,1,10,0:0:0:0:
389,89,94504,1,2,0:0:0:0:
419,101,94571,1,2,0:0:0:0:
445,121,94639,1,2,0:0:0:0:
461,149,94706,1,10,0:0:0:0:
466,181,94774,1,2,0:0:0:0:
463,213,94841,1,2,0:0:0:0:
449,242,94909,1,2,0:0:0:0:
424,263,94977,5,10,0:0:0:0:
395,279,95044,1,2,0:0:0:0:
362,280,95112,1,2,0:0:0:0:
329,273,95179,1,2,0:0:0:0:
300,256,95247,1,10,0:0:0:0:
267,255,95314,1,2,0:0:0:0:
236,268,95382,1,2,0:0:0:0:
212,290,95450,1,2,0:0:0:0:
188,314,95517,1,10,0:0:0:0:
160,331,95585,1,2,0:0:0:0:
127,336,95652,1,2,0:0:0:0:
95,328,95720,1,2,0:0:0:0:
68,307,95787,1,10,0:0:0:0:
53,277,95855,1,2,0:0:0:0:
52,244,95923,1,2,0:0:0:0:
63,213,95990,1,2,0:0:0:0:
84,188,96058,6,0,P|111:178|141:175,3,47,14|2|2|2,0:0|0:0|0:0|0:0,0:0:0:0:
240,201,96330,1,10,0:0:0:0:
269,215,96398,1,2,0:0:0:0:
301,218,96467,1,2,0:0:0:0:
334,216,96535,1,2,0:0:0:0:
364,204,96603,1,10,0:0:0:0:
389,183,96671,1,2,0:0:0:0:
404,154,96739,1,2,0:0:0:0:
406,121,96808,1,2,0:0:0:0:
394,89,96876,2,0,P|390:64|390:42,3,47,14|2|2|2,0:0|0:0|0:0|0:0,0:0:0:0:
322,133,97148,38,0,P|326:158|326:180,3,47,14|2|2|2,0:0|0:0|0:0|0:0,0:0:0:0:
321,303,97421,1,10,0:0:0:0:
294,284,97489,1,2,0:0:0:0:
262,275,97558,1,2,0:0:0:0:
228,279,97626,1,2,0:0:0:0:
199,295,97694,1,10,0:0:0:0:
174,316,97762,1,2,0:0:0:0:
143,327,97830,1,2,0:0:0:0:
110,324,97898,1,2,0:0:0:0:
79,312,97967,1,10,0:0:0:0:
56,287,98035,1,2,0:0:0:0:
42,257,98103,1,2,0:0:0:0:
41,224,98171,1,2,0:0:0:0:
49,192,98239,6,0,P|54:166|57:127,3,47,14|2|2|2,0:0|0:0|0:0|0:0,0:0:0:0:
57,51,98512,1,10,0:0:0:0:
85,66,98580,1,2,0:0:0:0:
116,74,98648,1,2,0:0:0:0:
148,72,98717,1,2,0:0:0:0:
179,61,98785,1,10,0:0:0:0:
208,46,98853,1,2,0:0:0:0:
240,44,98921,1,2,0:0:0:0:
268,60,98989,1,2,0:0:0:0:
288,85,99058,1,10,0:0:0:0:
295,117,99126,1,2,0:0:0:0:
285,148,99194,1,2,0:0:0:0:
261,172,99262,1,2,0:0:0:0:
233,190,99330,5,10,0:0:0:0:
202,202,99398,1,2,0:0:0:0:
170,204,99467,1,2,0:0:0:0:
138,194,99535,1,2,0:0:0:0:
108,179,99603,1,10,0:0:0:0:
75,178,99671,1,2,0:0:0:0:
44,190,99739,1,2,0:0:0:0:
22,214,99808,1,2,0:0:0:0:
11,245,99876,1,14,0:0:0:0:
13,277,99944,1,2,0:0:0:0:
26,307,100012,1,2,0:0:0:0:
50,328,100080,1,2,0:0:0:0:
81,338,100148,1,10,0:0:0:0:
113,335,100217,1,2,0:0:0:0:
142,319,100285,1,2,0:0:0:0:
162,293,100353,1,2,0:0:0:0:
169,261,100421,6,0,P|170:236|167:206,3,47,14|2|2|2,0:0|0:0|0:0|0:0,0:0:0:0:
82,100,100694,2,0,P|58:90|29:83,3,47,14|2|2|2,0:0|0:0|0:0|0:0,0:0:0:0:
221,120,100967,2,0,P|243:109|269:94,3,47,14|2|2|2,0:0|0:0|0:0|0:0,0:0:0:0:
86,180,101239,2,0,P|62:182|39:186,3,47,14|2|2|2,0:0|0:0|0:0|0:0,0:0:0:0:
228,209,101512,37,14,0:0:0:0:
260,212,101580,1,2,0:0:0:0:
289,227,101648,1,2,0:0:0:0:
308,253,101717,1,2,0:0:0:0:
318,284,101785,1,10,0:0:0:0:
312,316,101853,1,2,0:0:0:0:
296,345,101921,1,2,0:0:0:0:
268,363,101989,1,2,0:0:0:0:
236,370,102058,2,0,L|177:375,3,47,14|2|2|2,0:0|0:0|0:0|0:0,0:0:0:0:
318,284,102330,2,0,L|377:279,3,47,10|2|2|2,0:0|0:0|0:0|0:0,0:0:0:0:
228,209,102603,5,14,0:0:0:0:
198,222,102671,1,2,0:0:0:0:
165,222,102739,1,2,0:0:0:0:
134,208,102808,1,2,0:0:0:0:
111,183,102876,1,10,0:0:0:0:
100,151,102944,1,2,0:0:0:0:
102,118,103012,1,2,0:0:0:0:
118,89,103080,1,2,0:0:0:0:
143,68,103148,1,10,0:0:0:0:
174,59,103217,1,2,0:0:0:0:
206,63,103285,1,2,0:0:0:0:
234,79,103353,1,2,0:0:0:0:
261,97,103421,1,10,0:0:0:0:
290,110,103489,1,2,0:0:0:0:
322,113,103558,1,2,0:0:0:0:
354,106,103626,1,2,0:0:0:0:
382,90,103694,6,0,P|401:72|415:43,3,47,10|2|2|2,0:0|0:0|0:0|0:0,0:0:0:0:
315,3,103967,1,10,0:0:0:0:
292,27,104035,1,2,0:0:0:0:
278,56,104103,1,2,0:0:0:0:
272,88,104171,1,2,0:0:0:0:
276,120,104239,1,10,0:0:0:0:
288,150,104308,1,2,0:0:0:0:
308,176,104376,1,2,0:0:0:0:
320,206,104444,1,2,0:0:0:0:
322,238,104512,2,0,P|315:267|298:301,3,47,14|2|2|2,0:0|0:0|0:0|0:0,0:0:0:0:
199,205,104785,6,0,P|190:183|185:160,3,47,14|2|2|2,0:0|0:0|0:0|0:0,0:0:0:0:
189,47,105058,1,10,0:0:0:0:
159,62,105126,1,2,0:0:0:0:
126,66,105194,1,2,0:0:0:0:
94,57,105262,1,2,0:0:0:0:
64,42,105330,2,0,P|40:39|2:38,3,47,14|2|2|2,0:0|0:0|0:0|0:0,0:0:0:0:
138,164,105603,2,0,P|161:162|184:159,3,47,14|2|2|2,0:0|0:0|0:0|0:0,0:0:0:0:
48,247,105876,37,14,0:0:0:0:
38,278,105944,1,2,0:0:0:0:
41,310,106012,1,2,0:0:0:0:
53,340,106080,1,2,0:0:0:0:
75,363,106148,1,10,0:0:0:0:
103,378,106217,1,2,0:0:0:0:
136,381,106285,1,2,0:0:0:0:
167,373,106353,1,2,0:0:0:0:
194,354,106421,1,10,0:0:0:0:
213,327,106489,1,2,0:0:0:0:
235,303,106558,1,2,0:0:0:0:
265,289,106626,1,2,0:0:0:0:
296,285,106694,2,0,P|319:291|340:302,3,47,14|2|2|2,0:0|0:0|0:0|0:0,0:0:0:0:
432,365,106967,5,14,0:0:0:0:
412,338,107035,1,2,0:0:0:0:
405,305,107103,1,2,0:0:0:0:
409,272,107171,1,2,0:0:0:0:
425,243,107239,1,10,0:0:0:0:
443,216,107308,1,2,0:0:0:0:
450,183,107376,1,2,0:0:0:0:
446,150,107444,1,2,0:0:0:0:
430,121,107512,1,10,0:0:0:0:
405,99,107580,1,2,0:0:0:0:
374,86,107648,1,2,0:0:0:0:
341,86,107717,1,2,0:0:0:0:
310,99,107785,1,10,0:0:0:0:
286,121,107853,1,2,0:0:0:0:
270,150,107921,1,2,0:0:0:0:
267,182,107989,1,2,0:0:0:0:
273,214,108058,6,0,P|277:242|277:274,3,47,14|2|2|2,0:0|0:0|0:0|0:0,0:0:0:0:
181,118,108330,2,0,P|160:107|138:98,3,47,14|2|2|2,0:0|0:0|0:0|0:0,0:0:0:0:
310,99,108603,2,0,P|329:86|348:71,3,47,14|2|2|2,0:0|0:0|0:0|0:0,0:0:0:0:
250,147,108876,1,14,0:0:0:0:
67,187,109148,5,10,0:0:0:0:
68,196,109217,1,2,0:0:0:0:
69,205,109285,1,2,0:0:0:0:
70,214,109353,1,2,0:0:0:0:
71,223,109421,2,0,L|66:278,1,47,10|2,0:0|0:0,0:0:0:0:
145,321,109558,2,0,L|140:376,1,47,10|2,0:0|0:0,0:0:0:0:
236,225,109694,1,2,0:0:0:0:
237,234,109762,1,2,0:0:0:0:
238,243,109830,2,0,L|233:298,1,47,10|2,0:0|0:0,0:0:0:0:
314,337,109967,2,0,L|309:392,1,47,10|2,0:0|0:0,0:0:0:0:
409,250,110103,1,2,0:0:0:0:
410,259,110171,1,2,0:0:0:0:
411,268,110239,38,0,L|406:323,1,47,10|2,0:0|0:0,0:0:0:0:
317,164,110376,1,2,0:0:0:0:
318,173,110444,1,2,0:0:0:0:
319,182,110512,1,2,0:0:0:0:
320,191,110580,1,2,0:0:0:0:
321,200,110648,1,2,0:0:0:0:
322,209,110717,1,2,0:0:0:0:
323,218,110785,1,2,0:0:0:0:
324,227,110853,1,2,0:0:0:0:
325,236,110921,1,2,0:0:0:0:
191,132,111058,1,12,0:0:0:0:
191,132,111330,6,0,L|203:240,1,94,6|8,0:0|0:0,0:0:0:0:
287,152,111603,1,2,0:0:0:0:
103,111,111739,1,8,0:0:0:0:
290,157,111876,2,0,L|388:152,1,94,2|8,0:0|0:0,0:0:0:0:
248,307,112148,2,0,L|150:312,1,94,2|8,0:0|0:0,0:0:0:0:
226,117,112421,5,2,0:0:0:0:
323,254,112558,1,8,0:0:0:0:
193,229,112694,1,2,0:0:0:0:
341,114,112830,1,8,0:0:0:0:
308,308,112967,2,0,L|296:197,1,94,2|8,0:0|0:0,0:0:0:0:
424,132,113239,2,0,L|434:38,1,94,2|8,0:0|0:0,0:0:0:0:
200,184,113512,6,0,P|244:201|290:207,1,94,2|8,0:0|0:0,0:0:0:0:
297,25,113785,1,2,0:0:0:0:
139,126,113921,1,8,0:0:0:0:
335,147,114058,2,0,L|430:153,1,94,2|8,0:0|0:0,0:0:0:0:
241,279,114330,2,0,L|334:273,1,94,2|8,0:0|0:0,0:0:0:0:
141,129,114603,38,0,P|127:177|129:230,1,94,2|8,0:0|0:0,0:0:0:0:
213,96,114876,1,2,0:0:0:0:
19,167,115012,1,8,0:0:0:0:
237,273,115148,6,0,B|236:303|233:324|233:324|239:338|239:338|236:363|237:390,1,112.799996557617,6|8,0:0|0:0,0:0:0:0:
351,188,115421,2,0,B|352:218|355:239|355:239|349:253|349:253|352:278|351:305,1,112.799996557617,6|8,0:0|0:0,0:0:0:0:
421,104,115694,6,0,P|464:88|524:87,1,94,6|8,0:0|0:0,0:0:0:0:
355,191,115967,1,2,0:0:0:0:
389,5,116103,1,8,0:0:0:0:
203,70,116239,2,0,P|245:79|303:80,1,94,2|8,0:0|0:0,0:0:0:0:
111,123,116512,2,0,P|102:165|101:223,1,94,2|8,0:0|0:0,0:0:0:0:
299,157,116785,5,2,0:0:0:0:
167,22,116921,1,8,0:0:0:0:
180,171,117058,1,2,0:0:0:0:
336,64,117194,1,8,0:0:0:0:
130,89,117330,2,0,L|33:101,1,94,2|8,0:0|0:0,0:0:0:0:
169,267,117603,2,0,P|181:219|182:164,1,94,2|8,0:0|0:0,0:0:0:0:
26,280,117876,38,0,P|28:326|39:372,1,94,2|8,0:0|0:0,0:0:0:0:
172,270,118148,1,2,0:0:0:0:
3,185,118285,1,8,0:0:0:0:
176,275,118421,2,0,P|217:281|270:277,1,94,2|8,0:0|0:0,0:0:0:0:
117,163,118694,2,0,P|114:137|114:111,2,47,2|0|8,0:0|0:0|0:0,0:0:0:0:
195,353,118967,5,2,0:0:0:0:
296,193,119103,1,8,0:0:0:0:
151,232,119239,1,2,0:0:0:0:
328,295,119376,1,8,0:0:0:0:
147,229,119512,2,0,P|106:223|44:226,1,94,2|8,0:0|0:0,0:0:0:0:
203,304,119785,1,10,0:0:0:0:
229,271,119853,1,8,0:0:0:0:
240,230,119921,1,8,0:0:0:0:
230,188,119989,1,8,0:0:0:0:
205,153,120058,6,0,P|198:114|199:50,1,94,14|8,0:0|0:0,0:0:0:0:
313,123,120330,1,2,0:0:0:0:
136,186,120467,1,8,0:0:0:0:
317,127,120603,2,0,L|427:122,1,94,2|8,0:0|0:0,0:0:0:0:
212,250,120876,2,0,L|305:254,1,94,2|8,0:0|0:0,0:0:0:0:
205,73,121148,5,2,0:0:0:0:
72,207,121285,1,8,0:0:0:0:
215,253,121421,1,2,0:0:0:0:
129,86,121558,1,8,0:0:0:0:
116,283,121694,2,0,L|108:388,1,94,2|8,0:0|0:0,0:0:0:0:
283,298,121967,2,0,L|336:296,2,47,2|0|8,0:0|0:0|0:0,0:0:0:0:
190,133,122239,38,0,P|194:189|210:238,1,94,2|8,0:0|0:0,0:0:0:0:
259,84,122512,1,2,0:0:0:0:
84,151,122648,1,8,0:0:0:0:
263,81,122785,2,0,P|310:76|368:82,1,94,2|8,0:0|0:0,0:0:0:0:
209,229,123058,2,0,P|196:183|194:136,1,94,2|8,0:0|0:0,0:0:0:0:
341,283,123330,5,2,0:0:0:0:
159,331,123467,1,8,0:0:0:0:
197,184,123603,1,2,0:0:0:0:
290,346,123739,1,8,0:0:0:0:
194,181,123876,2,0,L|197:78,1,94,2|8,0:0|0:0,0:0:0:0:
376,222,124148,1,2,0:0:0:0:
232,270,124285,1,8,0:0:0:0:
285,51,124421,5,6,0:0:0:0:
303,237,124558,1,8,0:0:0:0:
196,130,124694,1,2,0:0:0:0:
382,147,124830,1,8,0:0:0:0:
309,330,124967,2,0,L|301:211,1,94,2|8,0:0|0:0,0:0:0:0:
165,172,125239,2,0,L|173:53,1,94,2|8,0:0|0:0,0:0:0:0:
306,239,125512,5,2,0:0:0:0:
138,323,125648,1,8,0:0:0:0:
168,175,125785,1,2,0:0:0:0:
275,328,125921,1,8,0:0:0:0:
82,254,126058,2,0,L|200:246,1,94,2|8,0:0|0:0,0:0:0:0:
307,140,126330,2,0,L|400:146,1,94,2|8,0:0|0:0,0:0:0:0:
219,94,126603,38,0,P|205:46|203:1,1,94,2|8,0:0|0:0,0:0:0:0:
311,143,126876,1,2,0:0:0:0:
124,157,127012,1,8,0:0:0:0:
315,146,127148,2,0,L|436:137,1,94,2|8,0:0|0:0,0:0:0:0:
260,310,127421,2,0,P|244:262|236:206,1,94,2|0,0:0|0:0,0:0:0:0:
197,87,127694,5,2,0:0:0:0:
174,79,127762,1,2,0:0:0:0:
150,80,127830,1,2,0:0:0:0:
127,85,127898,1,2,0:0:0:0:
108,99,127967,1,2,0:0:0:0:
93,117,128035,1,2,0:0:0:0:
85,139,128103,1,2,0:0:0:0:
82,162,128171,1,2,0:0:0:0:
86,185,128239,1,2,0:0:0:0:
93,207,128308,1,2,0:0:0:0:
93,230,128376,1,2,0:0:0:0:
86,252,128444,1,2,0:0:0:0:
72,271,128512,2,0,L|-8:266,1,75.2,6|0,0:0|0:0,0:0:0:0:
209,318,128785,5,14,0:0:0:0:
226,290,128853,1,2,0:0:0:0:
233,258,128921,1,2,0:0:0:0:
231,225,128989,1,2,0:0:0:0:
215,196,129058,1,10,0:0:0:0:
198,167,129126,1,2,0:0:0:0:
192,134,129194,1,2,0:0:0:0:
199,102,129262,1,2,0:0:0:0:
214,73,129330,2,0,P|222:52|226:21,3,47,14|2|2|2,0:0|0:0|0:0|0:0,0:0:0:0:
99,112,129603,2,0,P|77:119|51:136,3,47,10|2|2|2,0:0|0:0|0:0|0:0,0:0:0:0:
198,167,129876,5,14,0:0:0:0:
226,184,129944,1,2,0:0:0:0:
258,189,130012,1,2,0:0:0:0:
290,185,130080,1,2,0:0:0:0:
319,170,130148,1,10,0:0:0:0:
343,148,130217,1,2,0:0:0:0:
373,134,130285,1,2,0:0:0:0:
405,131,130353,1,2,0:0:0:0:
437,137,130421,1,14,0:0:0:0:
464,154,130489,1,2,0:0:0:0:
486,177,130558,1,2,0:0:0:0:
499,207,130626,1,2,0:0:0:0:
503,239,130694,1,10,0:0:0:0:
497,271,130762,1,2,0:0:0:0:
481,300,130830,1,2,0:0:0:0:
456,322,130898,1,2,0:0:0:0:
426,336,130967,38,0,P|400:339|364:334,3,47,14|2|2|2,0:0|0:0|0:0|0:0,0:0:0:0:
296,211,131239,2,0,P|306:186|328:158,3,47,10|2|2|2,0:0|0:0|0:0|0:0,0:0:0:0:
209,262,131512,1,14,0:0:0:0:
183,282,131580,1,2,0:0:0:0:
151,291,131648,1,2,0:0:0:0:
118,289,131717,1,2,0:0:0:0:
87,275,131785,1,10,0:0:0:0:
65,250,131853,1,2,0:0:0:0:
54,219,131921,1,2,0:0:0:0:
52,186,131989,1,2,0:0:0:0:
63,155,132058,6,0,P|68:130|68:103,3,47,14|2|2|2,0:0|0:0|0:0|0:0,0:0:0:0:
47,6,132330,1,10,0:0:0:0:
73,25,132398,1,2,0:0:0:0:
103,37,132467,1,2,0:0:0:0:
136,36,132535,1,2,0:0:0:0:
167,26,132603,1,14,0:0:0:0:
199,22,132671,1,2,0:0:0:0:
230,30,132739,1,2,0:0:0:0:
257,47,132808,1,2,0:0:0:0:
278,72,132876,1,10,0:0:0:0:
290,102,132944,1,2,0:0:0:0:
292,134,133012,1,2,0:0:0:0:
286,166,133080,1,2,0:0:0:0:
268,193,133148,6,0,P|263:217|265:249,3,47,14|2|2|2,0:0|0:0|0:0|0:0,0:0:0:0:
189,127,133421,1,10,0:0:0:0:
160,110,133489,1,2,0:0:0:0:
127,105,133558,1,2,0:0:0:0:
94,113,133626,1,2,0:0:0:0:
66,130,133694,2,0,P|46:148|31:173,3,47,14|2|2|2,0:0|0:0|0:0|0:0,0:0:0:0:
86,305,133967,2,0,P|70:322|51:335,3,47,10|2|2|2,0:0|0:0|0:0|0:0,0:0:0:0:
181,258,134239,5,14,0:0:0:0:
208,240,134308,1,2,0:0:0:0:
241,236,134376,1,2,0:0:0:0:
272,244,134444,1,2,0:0:0:0:
297,264,134512,1,10,0:0:0:0:
325,280,134580,1,2,0:0:0:0:
357,283,134648,1,2,0:0:0:0:
388,273,134717,1,2,0:0:0:0:
412,251,134785,1,14,0:0:0:0:
428,222,134853,1,2,0:0:0:0:
429,189,134921,1,2,0:0:0:0:
418,157,134989,1,2,0:0:0:0:
395,132,135058,1,10,0:0:0:0:
375,105,135126,1,2,0:0:0:0:
369,72,135194,1,2,0:0:0:0:
376,39,135262,1,2,0:0:0:0:
396,13,135330,38,0,P|418:6|446:4,3,47,14|2|2|2,0:0|0:0|0:0|0:0,0:0:0:0:
292,105,135603,2,0,P|269:100|244:87,3,47,14|2|2|2,0:0|0:0|0:0|0:0,0:0:0:0:
418,157,135876,2,0,P|435:172|450:195,3,47,14|2|2|2,0:0|0:0|0:0|0:0,0:0:0:0:
339,50,136148,1,14,0:0:0:0:
347,200,136421,5,14,0:0:0:0:
346,209,136489,1,2,0:0:0:0:
345,218,136558,1,2,0:0:0:0:
344,228,136626,1,2,0:0:0:0:
343,237,136694,1,2,0:0:0:0:
342,246,136762,1,2,0:0:0:0:
341,256,136830,1,2,0:0:0:0:
341,265,136898,1,2,0:0:0:0:
340,274,136967,1,6,0:0:0:0:
460,116,137103,1,2,0:0:0:0:
459,126,137171,1,2,0:0:0:0:
458,135,137239,2,0,L|450:228,1,75.2,10|0,0:0|0:0,0:0:0:0:
296,80,137512,38,0,P|288:48|288:-8,2,62.6666666666667,14|2|2,0:0|0:0|0:0,0:0:0:0:
193,155,137785,2,0,P|161:145|112:117,2,62.6666666666667,14|2|2,0:0|0:0|0:0,0:0:0:0:
317,167,138058,1,14,0:0:0:0:
356,148,138148,1,2,0:0:0:0:
398,157,138239,1,2,0:0:0:0:
428,188,138330,1,14,0:0:0:0:
433,231,138421,1,2,0:0:0:0:
414,270,138512,1,2,0:0:0:0:
387,304,138603,6,0,P|382:339|363:372,2,62.6666666666667,14|2|2,0:0|0:0|0:0,0:0:0:0:
263,239,138876,2,0,P|235:217|216:184,2,62.6666666666667,14|2|2,0:0|0:0|0:0,0:0:0:0:
398,157,139148,2,0,P|430:143|468:143,2,62.6666666666667,14|2|2,0:0|0:0|0:0,0:0:0:0:
387,304,139421,2,0,P|382:339|363:372,2,62.6666666666667,14|2|2,0:0|0:0|0:0,0:0:0:0:
280,157,139694,69,14,0:0:0:0:
254,120,139785,1,2,0:0:0:0:
212,104,139876,1,2,0:0:0:0:
169,114,139967,1,14,0:0:0:0:
138,145,140058,1,2,0:0:0:0:
129,188,140148,1,2,0:0:0:0:
143,229,140239,1,14,0:0:0:0:
176,256,140330,1,2,0:0:0:0:
219,261,140421,1,2,0:0:0:0:
259,243,140512,1,14,0:0:0:0:
301,232,140603,1,2,0:0:0:0:
342,244,140694,1,2,0:0:0:0:
371,276,140785,5,14,0:0:0:0:
356,234,140876,1,2,0:0:0:0:
362,191,140967,1,2,0:0:0:0:
388,156,141058,1,14,0:0:0:0:
400,113,141148,1,2,0:0:0:0:
389,70,141239,1,2,0:0:0:0:
357,39,141330,1,14,0:0:0:0:
357,39,141421,2,0,L|428:32,1,62.6666666666667,2|2,0:0|0:0,0:0:0:0:
234,102,141603,1,14,0:0:0:0:
234,102,141694,2,0,L|305:109,1,62.6666666666667,2|2,0:0|0:0,0:0:0:0:
273,187,141876,70,0,P|293:212|312:252,2,62.6666666666667,14|2|2,0:0|0:0|0:0,0:0:0:0:
122,180,142148,2,0,P|94:165|69:145,2,62.6666666666667,14|2|2,0:0|0:0|0:0,0:0:0:0:
230,286,142421,2,0,P|215:313|195:338,2,62.6666666666667,14|2|2,0:0|0:0|0:0,0:0:0:0:
194,138,142694,2,0,P|192:106|197:75,2,62.6666666666667,14|2|2,0:0|0:0|0:0,0:0:0:0:
324,212,142967,5,14,0:0:0:0:
363,232,143058,1,2,0:0:0:0:
406,232,143148,1,2,0:0:0:0:
443,209,143239,1,14,0:0:0:0:
464,170,143330,1,2,0:0:0:0:
464,126,143421,1,2,0:0:0:0:
441,88,143512,1,14,0:0:0:0:
402,66,143603,1,2,0:0:0:0:
358,68,143694,1,2,0:0:0:0:
320,90,143785,1,14,0:0:0:0:
286,117,143876,1,2,0:0:0:0:
243,123,143967,1,2,0:0:0:0:
202,106,144058,69,14,0:0:0:0:
175,71,144148,1,2,0:0:0:0:
136,50,144239,1,2,0:0:0:0:
92,51,144330,1,14,0:0:0:0:
55,75,144421,1,2,0:0:0:0:
34,114,144512,1,2,0:0:0:0:
36,157,144603,1,14,0:0:0:0:
57,195,144694,1,2,0:0:0:0:
95,216,144785,1,2,0:0:0:0:
138,216,144876,1,14,0:0:0:0:
175,194,144967,1,2,0:0:0:0:
215,177,145058,1,2,0:0:0:0:
258,183,145148,5,14,0:0:0:0:
410,293,145421,21,8,0:0:0:0:
387,144,145558,1,8,0:0:0:0:
413,296,145694,1,8,0:0:0:0:
384,141,145830,1,8,0:0:0:0:
416,299,145967,1,8,0:0:0:0:
381,138,146103,1,8,0:0:0:0:
222,252,146232,6,0,L|111:257,1,94,4|8,0:0|0:0,0:0:0:0:
201,159,146504,1,0,0:0:0:0:
287,305,146641,1,8,0:0:0:0:
86,258,146777,5,2,0:0:0:0:
305,209,146913,1,8,0:0:0:0:
80,264,147050,1,2,0:0:0:0:
311,203,147186,1,8,0:0:0:0:
139,127,147322,38,0,P|131:95|123:31,1,94,2|8,0:0|0:0,0:0:0:0:
314,206,147595,2,0,P|258:222|202:230,1,94,2|8,0:0|0:0,0:0:0:0:
408,261,147868,2,0,P|432:309|448:381,1,94,2|8,0:0|0:0,0:0:0:0:
383,168,148141,1,2,0:0:0:0:
383,168,148209,1,2,0:0:0:0:
383,168,148277,1,10,0:0:0:0:
307,297,148413,38,0,L|195:305,1,94,6|8,0:0|0:0,0:0:0:0:
373,360,148686,1,2,0:0:0:0:
386,171,148822,1,8,0:0:0:0:
216,306,148959,37,2,0:0:0:0:
436,263,149095,1,8,0:0:0:0:
210,312,149232,1,2,0:0:0:0:
442,257,149368,1,8,0:0:0:0:
310,123,149504,38,0,L|318:235,1,94,2|8,0:0|0:0,0:0:0:0:
425,62,149777,1,2,0:0:0:0:
428,65,149913,1,8,0:0:0:0:
280,183,150050,2,0,L|288:295,1,94,2|8,0:0|0:0,0:0:0:0:
347,129,150322,1,2,0:0:0:0:
189,233,150459,1,8,0:0:0:0:
359,348,150595,38,0,P|391:356|455:364,1,94,6|8,0:0|0:0,0:0:0:0:
361,242,150868,1,2,0:0:0:0:
234,380,151004,1,8,0:0:0:0:
219,172,151141,5,2,0:0:0:0:
359,348,151277,1,8,0:0:0:0:
213,166,151413,1,2,0:0:0:0:
365,354,151550,1,8,0:0:0:0:
195,272,151686,6,0,P|166:264|91:256,1,94,2|8,0:0|0:0,0:0:0:0:
308,228,151959,2,0,P|329:206|373:145,1,94,2|8,0:0|0:0,0:0:0:0:
255,330,152232,2,0,L|247:386,2,47,2|2|10,0:0|0:0|0:0,0:0:0:0:
207,160,152504,2,0,L|200:113,2,47,2|2|10,0:0|0:0|0:0,0:0:0:0:
342,291,152777,6,0,L|438:299,1,94,6|8,0:0|0:0,0:0:0:0:
255,330,153050,1,2,0:0:0:0:
343,164,153186,1,8,0:0:0:0:
177,251,153322,2,0,P|137:259|57:251,1,94,2|8,0:0|0:0,0:0:0:0:
150,100,153595,2,0,P|190:92|270:100,1,94,2|8,0:0|0:0,0:0:0:0:
343,164,153868,37,8,0:0:0:0:
343,164,153936,1,8,0:0:0:0:
343,164,154004,2,0,L|352:216,1,47,8|2,0:0|0:0,0:0:0:0:
365,304,154141,1,8,0:0:0:0:
332,284,154209,1,8,0:0:0:0:
294,277,154277,1,8,0:0:0:0:
257,286,154345,1,8,0:0:0:0:
225,306,154413,1,8,0:0:0:0:
190,321,154482,1,8,0:0:0:0:
152,319,154550,1,8,0:0:0:0:
116,307,154618,1,8,0:0:0:0:
88,281,154686,2,0,L|40:224,1,47,8|2,0:0|0:0,0:0:0:0:
96,109,154822,2,0,L|144:166,1,47,8|2,0:0|0:0,0:0:0:0:
211,227,154959,38,0,L|315:235,1,94,4|8,0:0|0:0,0:0:0:0:
140,52,155232,2,0,P|132:92|124:164,1,94,2|8,0:0|0:0,0:0:0:0:
224,303,155504,37,2,0:0:0:0:
36,175,155641,1,8,0:0:0:0:
230,309,155777,1,2,0:0:0:0:
30,169,155913,1,8,0:0:0:0:
218,152,156050,6,0,L|314:144,1,94,2|8,0:0|0:0,0:0:0:0:
473,238,156322,2,0,P|489:278|497:342,1,94,2|8,0:0|0:0,0:0:0:0:
290,233,156595,2,0,P|322:217|386:201,1,94,2|8,0:0|0:0,0:0:0:0:
218,302,156868,1,2,0:0:0:0:
218,302,156936,1,2,0:0:0:0:
218,302,157004,1,10,0:0:0:0:
146,127,157141,6,0,L|138:31,1,94,6|8,0:0|0:0,0:0:0:0:
33,112,157413,1,2,0:0:0:0:
196,206,157550,1,8,0:0:0:0:
137,18,157686,5,2,0:0:0:0:
17,208,157822,1,8,0:0:0:0:
143,12,157959,1,2,0:0:0:0:
11,214,158095,1,8,0:0:0:0:
168,120,158232,38,0,P|208:104|288:96,1,94,2|8,0:0|0:0,0:0:0:0:
116,217,158504,1,2,0:0:0:0:
119,220,158641,1,8,0:0:0:0:
206,64,158777,2,0,P|247:52|328:54,1,94,2|8,0:0|0:0,0:0:0:0:
265,190,159050,1,2,0:0:0:0:
95,109,159186,1,8,0:0:0:0:
180,296,159322,38,0,L|188:200,1,94,6|8,0:0|0:0,0:0:0:0:
112,29,159595,2,0,P|56:13|8:5,1,94,2|8,0:0|0:0,0:0:0:0:
169,123,159868,37,2,0:0:0:0:
366,14,160004,1,8,0:0:0:0:
163,129,160141,1,2,0:0:0:0:
372,8,160277,1,8,0:0:0:0:
293,178,160413,6,0,L|301:290,1,94,2|8,0:0|0:0,0:0:0:0:
166,132,160686,2,0,P|134:124|54:116,1,94,2|8,0:0|0:0,0:0:0:0:
210,290,160959,2,0,P|256:284|302:274,1,94,2|8,0:0|0:0,0:0:0:0:
456,165,161232,1,2,0:0:0:0:
456,165,161300,1,2,0:0:0:0:
456,165,161368,1,10,0:0:0:0:
305,277,161504,6,0,L|303:374,1,94,6|8,0:0|0:0,0:0:0:0:
304,160,161777,1,2,0:0:0:0:
414,302,161913,1,8,0:0:0:0:
166,236,162050,2,0,P|114:238|64:253,1,94,2|8,0:0|0:0,0:0:0:0:
216,142,162322,2,0,P|231:109|235:38,1,94,2|8,0:0|0:0,0:0:0:0:
166,236,162595,5,8,0:0:0:0:
115,93,162732,1,8,0:0:0:0:
164,240,162870,1,8,0:0:0:0:
116,89,163008,1,8,0:0:0:0:
163,244,163145,1,8,0:0:0:0:
117,85,163283,1,8,0:0:0:0:
162,248,163421,1,8,0:0:0:0:
118,81,163558,1,8,0:0:0:0:
352,188,163696,38,0,L|272:180,1,75.2,4|2,0:0|0:0,0:0:0:0:
167,263,163968,2,0,L|87:271,1,75.2,2|2,0:0|0:0,0:0:0:0:
280,287,164241,6,0,P|288:319|296:383,1,94,12|2,0:0|0:0,0:0:0:0:
95,273,164514,2,0,P|87:241|79:177,1,94,4|2,0:0|0:0,0:0:0:0:
120,66,164786,5,8,0:0:0:0:
123,69,164923,1,2,0:0:0:0:
219,140,165059,2,0,P|291:148|307:148,1,75.2,2|2,0:0|0:0,0:0:0:0:
79,180,165332,6,0,P|55:212|31:268,1,94,12|2,0:0|0:0,0:0:0:0:
178,381,165605,2,0,L|170:269,1,94,4|2,0:0|0:0,0:0:0:0:
253,160,165877,38,0,P|277:152|349:144,1,75.2,8|2,0:0|0:0,0:0:0:0:
192,214,166150,1,2,0:0:0:0:
195,217,166286,1,2,0:0:0:0:
105,52,166423,6,0,P|73:44|1:36,1,94,12|2,0:0|0:0,0:0:0:0:
198,220,166696,2,0,P|244:214|290:204,1,94,4|2,0:0|0:0,0:0:0:0:
434,157,166968,6,0,P|426:213|426:261,1,75.2,8|2,0:0|0:0,0:0:0:0:
305,95,167241,2,0,P|281:87|217:79,1,75.2,2|2,0:0|0:0,0:0:0:0:
358,159,167514,1,8,0:0:0:0:
361,162,167650,1,8,0:0:0:0:
333,14,167786,1,12,0:0:0:0:
142,135,168059,5,4,0:0:0:0:
145,138,168196,1,2,0:0:0:0:
254,162,168332,1,2,0:0:0:0:
257,165,168468,1,2,0:0:0:0:
119,294,168605,38,0,P|63:302|15:302,1,94,12|2,0:0|0:0,0:0:0:0:
260,168,168877,2,0,P|306:160|353:159,1,94,4|2,0:0|0:0,0:0:0:0:
148,141,169150,6,0,P|140:117|132:61,1,75.2,8|2,0:0|0:0,0:0:0:0:
263,171,169423,1,2,0:0:0:0:
266,174,169559,1,2,0:0:0:0:
119,294,169696,6,0,P|103:342|95:398,1,94,12|2,0:0|0:0,0:0:0:0:
292,267,169968,2,0,P|284:220|268:176,1,94,4|2,0:0|0:0,0:0:0:0:
135,70,170241,6,0,P|111:62|55:54,1,75.2,8|2,0:0|0:0,0:0:0:0:
200,112,170514,1,2,0:0:0:0:
203,115,170650,1,2,0:0:0:0:
368,27,170786,38,0,P|400:19|472:11,1,94,12|2,0:0|0:0,0:0:0:0:
310,180,171059,2,0,P|286:132|270:84,1,94,4|2,0:0|0:0,0:0:0:0:
433,189,171332,5,8,0:0:0:0:
241,240,171468,1,8,0:0:0:0:
436,192,171605,1,8,0:0:0:0:
238,237,171741,1,8,0:0:0:0:
439,195,171877,1,8,0:0:0:0:
235,234,172014,1,8,0:0:0:0:
442,198,172150,1,8,0:0:0:0:
232,231,172286,1,8,0:0:0:0:
320,65,172423,6,0,L|328:169,1,94,4|8,0:0|0:0,0:0:0:0:
208,99,172696,1,2,0:0:0:0:
378,22,172832,1,8,0:0:0:0:
270,200,172968,2,0,P|230:232|174:256,1,94,2|8,0:0|0:0,0:0:0:0:
399,241,173241,2,0,P|415:297|415:369,1,94,2|8,0:0|0:0,0:0:0:0:
445,166,173514,5,2,0:0:0:0:
298,285,173650,1,8,0:0:0:0:
424,365,173786,1,2,0:0:0:0:
358,189,173923,1,8,0:0:0:0:
227,350,174059,2,0,P|203:358|123:366,1,94,2|8,0:0|0:0,0:0:0:0:
301,288,174332,1,2,0:0:0:0:
301,288,174400,1,0,0:0:0:0:
301,288,174468,1,8,0:0:0:0:
111,206,174605,37,2,0:0:0:0:
230,353,174741,1,8,0:0:0:0:
283,189,174877,1,2,0:0:0:0:
119,294,175014,1,8,0:0:0:0:
286,192,175150,2,0,L|398:200,1,94,2|8,0:0|0:0,0:0:0:0:
200,97,175423,2,0,L|312:89,1,94,2|8,0:0|0:0,0:0:0:0:
67,89,175696,6,0,P|51:57|35:-15,1,94,2|8,0:0|0:0,0:0:0:0:
203,100,175968,1,2,0:0:0:0:
9,172,176105,1,8,0:0:0:0:
155,319,176241,2,0,L|147:215,1,94,2|8,0:0|0:0,0:0:0:0:
11,379,176514,1,2,0:0:0:0:
199,381,176650,1,8,0:0:0:0:
98,179,176786,5,6,0:0:0:0:
94,366,176923,1,8,0:0:0:0:
228,298,177059,1,2,0:0:0:0:
47,247,177196,1,8,0:0:0:0:
214,143,177332,2,0,P|222:111|230:39,1,94,2|8,0:0|0:0,0:0:0:0:
231,301,177605,2,0,P|263:325|327:349,1,94,2|8,0:0|0:0,0:0:0:0:
140,239,177877,6,0,L|44:247,1,94,2|8,0:0|0:0,0:0:0:0:
126,142,178150,1,2,0:0:0:0:
97,327,178286,1,8,0:0:0:0:
271,236,178423,2,0,L|327:228,2,47,2|0|8,0:0|0:0|0:0,0:0:0:0:
129,145,178696,2,0,L|73:137,2,47,2|0|8,0:0|0:0|0:0,0:0:0:0:
318,59,178968,37,2,0:0:0:0:
197,202,179105,1,8,0:0:0:0:
126,68,179241,1,2,0:0:0:0:
298,140,179377,1,8,0:0:0:0:
123,65,179514,2,0,L|11:57,1,94,2|8,0:0|0:0,0:0:0:0:
197,202,179786,2,0,P|205:186|229:90,1,94,2|8,0:0|0:0,0:0:0:0:
38,240,180059,6,0,P|70:248|142:256,1,75.2
200,205,180332,2,0,P|232:197|304:189,1,75.2,2|0,0:0|0:0,0:0:0:0:
359,237,180605,1,2,0:0:0:0:
421,161,180741,1,2,0:0:0:0:
385,70,180877,1,2,0:0:0:0:
290,47,181014,1,2,0:0:0:0:
227,276,181150,6,0,P|219:300|203:380,1,94,4|2,0:0|0:0,0:0:0:0:
317,260,181423,1,8,0:0:0:0:
161,221,181559,1,2,0:0:0:0:
312,110,181696,2,0,P|344:102|416:94,1,94,2|2,0:0|0:0,0:0:0:0:
320,263,181968,1,8,0:0:0:0:
213,144,182105,1,2,0:0:0:0:
416,185,182241,5,2,0:0:0:0:
222,255,182377,1,2,0:0:0:0:
422,179,182514,2,0,P|430:163|446:83,1,94,8|2,0:0|0:0,0:0:0:0:
320,263,182786,1,2,0:0:0:0:
478,247,182923,1,2,0:0:0:0:
366,94,183059,1,8,0:0:0:0:
404,258,183196,1,2,0:0:0:0:
230,167,183332,38,0,B|124:132|140:217|22:165,1,188,2|8,0:0|0:0,0:0:0:0:
182,237,183741,1,2,0:0:0:0:
90,101,183877,2,0,P|74:61|66:-3,1,94,2|2,0:0|0:0,0:0:0:0:
256,79,184150,2,0,P|249:125|232:169,1,94,8|2,0:0|0:0,0:0:0:0:
96,232,184423,6,0,P|191:203|272:249,1,188,2|8,0:0|0:0,0:0:0:0:
176,325,184832,1,2,0:0:0:0:
149,138,184968,1,2,0:0:0:0:
268,244,185105,1,2,0:0:0:0:
45,287,185241,1,8,0:0:0:0:
179,202,185377,1,2,0:0:0:0:
280,359,185514,6,0,P|312:367|392:367,1,94,6|2,0:0|0:0,0:0:0:0:
183,374,185786,1,8,0:0:0:0:
294,259,185923,1,2,0:0:0:0:
166,119,186059,2,0,P|142:111|62:103,1,94,2|2,0:0|0:0,0:0:0:0:
227,209,186332,1,8,0:0:0:0:
209,49,186468,1,2,0:0:0:0:
66,198,186605,5,2,0:0:0:0:
257,118,186741,1,2,0:0:0:0:
60,204,186877,2,0,P|52:236|44:308,1,94,8|2,0:0|0:0,0:0:0:0:
174,134,187150,1,2,0:0:0:0:
15,114,187286,1,2,0:0:0:0:
47,299,187423,1,8,0:0:0:0:
94,125,187559,1,2,0:0:0:0:
244,263,187696,38,0,B|316:271|316:271|340:303|340:303|436:311,1,188,2|8,0:0|0:0,0:0:0:0:
270,352,188105,1,2,0:0:0:0:
390,221,188241,2,0,P|398:197|406:125,1,94,2|2,0:0|0:0,0:0:0:0:
230,174,188514,2,0,P|233:220|246:265,1,94,8|2,0:0|0:0,0:0:0:0:
342,103,188786,6,0,P|289:130|169:72,1,188,2|8,0:0|0:0,0:0:0:0:
267,23,189192,1,2,0:0:0:0:
395,159,189328,1,8,0:0:0:0:
218,227,189463,1,8,0:0:0:0:
401,153,189599,1,8,0:0:0:0:
212,233,189734,1,8,0:0:0:0:
270,26,189870,6,0,P|286:106|302:234,1,188,4|8,0:0|0:0,0:0:0:0:
364,74,190279,1,2,0:0:0:0:
177,94,190415,2,0,L|81:102,1,94,2|2,0:0|0:0,0:0:0:0:
209,222,190688,2,0,L|305:214,1,94,8|2,0:0|0:0,0:0:0:0:
116,185,190960,5,2,0:0:0:0:
227,358,191097,1,2,0:0:0:0:
110,179,191233,1,8,0:0:0:0:
233,364,191370,1,2,0:0:0:0:
390,208,191506,2,0,L|246:216,1,141
227,220,191779,1,8,0:0:0:0:
400,331,191915,1,2,0:0:0:0:
194,298,192051,38,0,P|148:250|190:143,1,188,6|8,0:0|0:0,0:0:0:0:
227,220,192460,1,2,0:0:0:0:
48,163,192597,2,0,P|32:123|24:67,1,94,2|2,0:0|0:0,0:0:0:0:
253,132,192870,2,0,P|246:178|229:222,1,94,10|2,0:0|0:0,0:0:0:0:
166,43,193142,6,0,P|223:78|307:71,1,141,2|0,0:0|0:0,0:0:0:0:
315,66,193415,1,8,0:0:0:0:
144,174,193551,1,0,0:0:0:0:
306,266,193688,2,0,P|338:274|402:282,1,94,2|2,0:0|0:0,0:0:0:0:
174,318,193960,1,8,0:0:0:0:
241,123,194097,1,2,0:0:0:0:
61,228,194233,6,0,P|181:220|253:212,1,188,6|8,0:0|0:0,0:0:0:0:
168,324,194642,1,2,0:0:0:0:
97,150,194779,2,0,P|89:118|81:54,1,94,2|2,0:0|0:0,0:0:0:0:
267,123,195051,2,0,P|261:169|251:215,1,94,8|2,0:0|0:0,0:0:0:0:
181,41,195324,5,2,0:0:0:0:
365,136,195460,1,2,0:0:0:0:
175,35,195597,1,8,0:0:0:0:
371,142,195733,1,2,0:0:0:0:
233,295,195870,2,0,P|269:240|236:152,1,141,2|0,0:0|0:0,0:0:0:0:
241,156,196142,1,8,0:0:0:0:
383,267,196279,1,2,0:0:0:0:
181,223,196415,38,0,P|117:215|77:215,1,94,6|2,0:0|0:0,0:0:0:0:
292,261,196688,2,0,P|338:267|385:269,1,94,8|2,0:0|0:0,0:0:0:0:
235,150,196960,2,0,P|219:118|203:54,1,94,2|2,0:0|0:0,0:0:0:0:
360,168,197233,1,8,0:0:0:0:
181,223,197370,1,2,0:0:0:0:
213,51,197506,5,6,0:0:0:0:
231,36,197574,1,2,0:0:0:0:
253,26,197642,1,2,0:0:0:0:
276,25,197710,1,2,0:0:0:0:
299,28,197779,1,2,0:0:0:0:
320,37,197847,1,2,0:0:0:0:
336,53,197915,1,2,0:0:0:0:
348,73,197983,1,2,0:0:0:0:
355,95,198051,1,2,0:0:0:0:
355,118,198120,1,2,0:0:0:0:
349,140,198188,1,2,0:0:0:0:
338,160,198256,1,2,0:0:0:0:
321,176,198324,2,0,L|411:168,1,75.2,6|0,0:0|0:0,0:0:0:0:
322,370,198615,5,12,0:0:0:0:
294,351,198682,1,2,0:0:0:0:
261,342,198750,1,2,0:0:0:0:
228,347,198817,1,2,0:0:0:0:
198,362,198885,1,10,0:0:0:0:
169,378,198952,1,2,0:0:0:0:
136,382,199020,1,2,0:0:0:0:
103,375,199087,1,2,0:0:0:0:
75,355,199155,2,0,P|50:349|21:348,3,47,14|2|2|2,0:0|0:0|0:0|0:0,0:0:0:0:
143,250,199425,2,0,P|149:225|150:196,3,47,10|2|2|2,0:0|0:0|0:0|0:0,0:0:0:0:
97,92,199696,5,14,0:0:0:0:
125,107,199763,1,2,0:0:0:0:
157,112,199831,1,2,0:0:0:0:
189,106,199898,1,2,0:0:0:0:
217,89,199966,1,10,0:0:0:0:
244,71,200033,1,2,0:0:0:0:
276,69,200101,1,2,0:0:0:0:
307,77,200169,1,2,0:0:0:0:
332,98,200236,1,14,0:0:0:0:
347,126,200304,1,2,0:0:0:0:
350,158,200371,1,2,0:0:0:0:
343,190,200439,1,2,0:0:0:0:
326,218,200506,2,0,P|318:258|318:282,3,47,10|2|2|2,0:0|0:0|0:0|0:0,0:0:0:0:
269,151,200777,37,14,0:0:0:0:
265,118,200845,1,2,0:0:0:0:
274,86,200913,1,2,0:0:0:0:
296,61,200982,1,2,0:0:0:0:
325,45,201050,1,10,0:0:0:0:
357,43,201119,1,2,0:0:0:0:
388,53,201187,1,2,0:0:0:0:
412,75,201256,1,2,0:0:0:0:
433,100,201324,2,0,P|449:108|489:116,3,47,14|2|2|2,0:0|0:0|0:0|0:0,0:0:0:0:
322,42,201598,2,0,P|306:34|266:26,3,47,10|2|2|2,0:0|0:0|0:0|0:0,0:0:0:0:
343,184,201872,5,14,0:0:0:0:
350,215,201941,1,2,0:0:0:0:
345,247,202009,1,2,0:0:0:0:
331,276,202078,1,2,0:0:0:0:
307,299,202146,1,10,0:0:0:0:
277,313,202215,1,2,0:0:0:0:
244,314,202283,1,2,0:0:0:0:
212,305,202352,1,2,0:0:0:0:
186,283,202420,1,14,0:0:0:0:
165,256,202489,1,2,0:0:0:0:
136,240,202557,1,2,0:0:0:0:
103,234,202626,1,2,0:0:0:0:
71,241,202694,1,10,0:0:0:0:
42,257,202763,1,2,0:0:0:0:
21,282,202831,1,2,0:0:0:0:
10,313,202900,1,2,0:0:0:0:
10,345,202968,6,0,P|22:364|45:383,3,47,14|2|2|2,0:0|0:0|0:0|0:0,0:0:0:0:
139,237,203242,2,0,P|146:214|147:191,3,47,10|2|2|2,0:0|0:0|0:0|0:0,0:0:0:0:
239,332,203516,1,14,0:0:0:0:
269,343,203585,1,2,0:0:0:0:
302,340,203653,1,2,0:0:0:0:
330,323,203722,1,2,0:0:0:0:
352,298,203790,1,10,0:0:0:0:
360,266,203859,1,2,0:0:0:0:
354,233,203927,1,2,0:0:0:0:
338,203,203996,1,2,0:0:0:0:
311,184,204064,6,0,P|286:179|250:176,3,47,14|2|2|2,0:0|0:0|0:0|0:0,0:0:0:0:
424,121,204338,2,0,P|449:126|485:129,3,47,10|2|2|2,0:0|0:0|0:0|0:0,0:0:0:0:
316,52,204612,1,14,0:0:0:0:
286,38,204681,1,2,0:0:0:0:
252,38,204749,1,2,0:0:0:0:
221,51,204818,1,2,0:0:0:0:
198,74,204886,1,10,0:0:0:0:
174,97,204955,1,2,0:0:0:0:
143,108,205023,1,2,0:0:0:0:
110,105,205092,1,2,0:0:0:0:
80,88,205160,38,0,P|64:71|52:41,3,47,14|2|2|2,0:0|0:0|0:0|0:0,0:0:0:0:
179,201,205434,2,0,P|184:223|179:255,3,47,14|2|2|2,0:0|0:0|0:0|0:0,0:0:0:0:
221,51,205708,2,0,P|238:35|268:23,3,47,14|2|2|2,0:0|0:0|0:0|0:0,0:0:0:0:
110,158,205982,1,14,0:0:0:0:
258,133,206246,5,0,0:0:0:0:
267,132,206314,1,2,0:0:0:0:
276,131,206382,1,2,0:0:0:0:
286,130,206450,1,2,0:0:0:0:
295,129,206518,1,2,0:0:0:0:
304,128,206586,1,2,0:0:0:0:
314,127,206655,1,2,0:0:0:0:
323,126,206723,1,2,0:0:0:0:
332,125,206791,1,2,0:0:0:0:
342,124,206859,1,2,0:0:0:0:
351,123,206927,1,2,0:0:0:0:
361,122,206996,1,2,0:0:0:0:
371,121,207064,2,0,L|466:111,1,75.2,4|0,0:0|0:0,0:0:0:0:
315,249,207324,38,0,P|326:269|354:298,2,62.6666666666667,14|2|2,0:0|0:0|0:0,0:0:0:0:
188,257,207596,2,0,P|176:276|165:315,2,62.6666666666667,14|2|2,0:0|0:0|0:0,0:0:0:0:
260,152,207869,1,14,0:0:0:0:
257,108,207960,1,2,0:0:0:0:
235,68,208051,1,2,0:0:0:0:
196,46,208142,1,14,0:0:0:0:
152,40,208233,1,2,0:0:0:0:
110,52,208324,1,2,0:0:0:0:
78,82,208414,6,0,L|68:13,2,62.6666666666667,14|2|2,0:0|0:0|0:0,0:0:0:0:
198,155,208687,2,0,P|228:157|271:147,2,62.6666666666667,14|2|2,0:0|0:0|0:0,0:0:0:0:
48,206,208960,2,0,P|30:231|17:273,2,62.6666666666667,14|2|2,0:0|0:0|0:0,0:0:0:0:
78,82,209233,2,0,L|68:13,2,62.6666666666667,14|2|2,0:0|0:0|0:0,0:0:0:0:
137,229,209505,69,14,0:0:0:0:
154,269,209596,1,2,0:0:0:0:
186,298,209687,1,2,0:0:0:0:
227,311,209778,1,14,0:0:0:0:
270,305,209869,1,2,0:0:0:0:
307,282,209960,1,2,0:0:0:0:
332,246,210051,1,14,0:0:0:0:
340,202,210142,1,2,0:0:0:0:
331,158,210233,1,2,0:0:0:0:
303,124,210324,1,14,0:0:0:0:
275,89,210414,1,2,0:0:0:0:
267,45,210505,1,2,0:0:0:0:
282,3,210596,5,14,0:0:0:0:
242,21,210687,1,2,0:0:0:0:
198,24,210778,1,2,0:0:0:0:
154,16,210869,1,14,0:0:0:0:
110,11,210960,1,2,0:0:0:0:
69,29,211051,1,2,0:0:0:0:
44,65,211142,1,14,0:0:0:0:
44,65,211233,2,0,L|40:-1,1,62.6666666666667,2|2,0:0|0:0,0:0:0:0:
135,114,211414,1,14,0:0:0:0:
135,114,211505,2,0,L|131:176,1,62.6666666666667,2|2,0:0|0:0,0:0:0:0:
106,293,211687,70,0,P|86:313|36:330,2,62.6666666666667,14|2|2,0:0|0:0|0:0,0:0:0:0:
200,158,211960,2,0,P|207:130|242:90,2,62.6666666666667,14|2|2,0:0|0:0|0:0,0:0:0:0:
236,318,212233,2,0,P|243:345|233:397,2,62.6666666666667,14|2|2,0:0|0:0|0:0,0:0:0:0:
114,209,212505,2,0,P|86:201|34:211,2,62.6666666666667,14|2|2,0:0|0:0|0:0,0:0:0:0:
275,243,212778,5,14,0:0:0:0:
317,254,212869,1,2,0:0:0:0:
359,244,212960,1,2,0:0:0:0:
392,215,213051,1,14,0:0:0:0:
405,173,213142,1,2,0:0:0:0:
396,129,213233,1,2,0:0:0:0:
367,96,213324,1,14,0:0:0:0:
325,82,213414,1,2,0:0:0:0:
281,90,213505,1,2,0:0:0:0:
245,115,213596,1,14,0:0:0:0:
201,118,213687,1,2,0:0:0:0:
161,98,213778,1,2,0:0:0:0:
137,64,213869,69,14,0:0:0:0:
184,138,217686,21,8,0:0:0:0:
187,141,217979,1,8,0:0:0:0:
272,207,218125,1,2,0:0:0:0:
320,104,218272,2,0,L|408:96,1,75.2,2|0,0:0|0:0,0:0:0:0:
190,144,218564,6,0,P|182:120|174:56,1,75.2,4|0,0:0|0:0,0:0:0:0:
275,210,218857,1,0,0:0:0:0:
95,192,219003,1,0,0:0:0:0:
278,213,219150,2,0,P|302:213|374:197,1,75.2,8|0,0:0|0:0,0:0:0:0:
184,270,219442,2,0,P|171:290|149:361,1,75.2
281,216,219735,5,2,0:0:0:0:
121,129,219882,1,0,0:0:0:0:
287,222,220028,1,0,0:0:0:0:
355,22,220321,1,8,0:0:0:0:
361,28,220906,6,0,L|369:132,1,75.2,4|0,0:0|0:0,0:0:0:0:
380,253,221199,1,0,0:0:0:0:
204,152,221345,1,0,0:0:0:0:
383,256,221491,2,0,P|407:264|479:272,1,75.2,8|0,0:0|0:0,0:0:0:0:
280,133,221784,2,0,P|242:137|206:148,1,75.2
386,259,222077,37,2,0:0:0:0:
370,79,222223,1,0,0:0:0:0:
392,265,222369,1,0,0:0:0:0:
201,244,222516,1,2,0:0:0:0:
201,244,222589,1,2,0:0:0:0:
201,244,222662,6,0,L|305:228,1,94,12|0,0:0|0:0,0:0:0:0:
119,354,222955,2,0,L|223:370,1,94,12|0,0:0|0:0,0:0:0:0:
65,211,223247,6,0,P|57:187|49:123,1,75.2,4|0,0:0|0:0,0:0:0:0:
185,203,223540,1,0,0:0:0:0:
46,317,223686,1,0,0:0:0:0:
191,197,223833,2,0,P|223:189|271:181,1,75.2,8|0,0:0|0:0,0:0:0:0:
119,150,224125,2,0,P|81:143|45:134,1,75.2
147,22,224418,5,2,0:0:0:0:
191,197,224564,1,0,0:0:0:0:
141,16,224711,1,0,0:0:0:0:
344,68,225003,1,8,0:0:0:0:
338,74,225589,38,0,L|242:82,1,75.2,4|0,0:0|0:0,0:0:0:0:
137,163,225882,1,0,0:0:0:0:
56,2,226028,1,0,0:0:0:0:
140,166,226174,2,0,P|148:198|156:262,1,75.2,8|0,0:0|0:0,0:0:0:0:
326,150,226467,2,0,P|331:112|340:76,1,75.2
370,224,226760,5,2,0:0:0:0:
215,131,226906,1,0,0:0:0:0:
376,230,227052,1,0,0:0:0:0:
137,341,227345,6,0,L|145:237,1,94,4|0,0:0|0:0,0:0:0:0:
230,79,227638,1,8,0:0:0:0:
21,163,227784,1,8,0:0:0:0:
147,250,227930,6,0,P|179:258|243:258,1,75.2,4|0,0:0|0:0,0:0:0:0:
361,205,228223,1,0,0:0:0:0:
308,377,228369,1,0,0:0:0:0:
367,199,228516,2,0,P|375:175|375:103,1,75.2,8|0,0:0|0:0,0:0:0:0:
410,302,228808,2,0,P|443:319|479:328,1,75.2
320,279,229101,37,2,0:0:0:0:
482,201,229247,1,0,0:0:0:0:
314,285,229394,1,0,0:0:0:0:
364,81,229686,1,8,0:0:0:0:
370,87,230272,6,0,L|378:183,1,75.2,4|0,0:0|0:0,0:0:0:0:
272,53,230564,1,0,0:0:0:0:
444,109,230711,1,0,0:0:0:0:
266,47,230857,2,0,P|218:39|178:39,1,75.2,8|0,0:0|0:0,0:0:0:0:
81,141,231150,2,0,P|33:149|-7:149,1,75.2
143,89,231442,5,2,0:0:0:0:
98,264,231589,1,0,0:0:0:0:
149,83,231735,1,0,0:0:0:0:
272,168,231881,1,2,0:0:0:0:
272,168,231955,1,2,0:0:0:0:
272,168,232028,6,0,L|168:176,1,94,12|0,0:0|0:0,0:0:0:0:
376,65,232321,2,0,L|272:57,1,94,12|0,0:0|0:0,0:0:0:0:
452,181,232613,38,0,P|460:205|468:269,1,75.2,4|0,0:0|0:0,0:0:0:0:
328,195,232906,1,0,0:0:0:0:
465,79,233052,1,0,0:0:0:0:
322,201,233199,2,0,P|282:209|234:209,1,75.2,8|0,0:0|0:0,0:0:0:0:
379,68,233491,2,0,P|391:103|395:140,1,75.2
348,284,233784,5,2,0:0:0:0:
506,199,233930,1,0,0:0:0:0:
342,290,234077,1,0,0:0:0:0:
201,133,234369,1,8,0:0:0:0:
195,139,234955,6,0,L|187:235,1,75.2,4|0,0:0|0:0,0:0:0:0:
278,93,235246,1,0,0:0:0:0:
111,164,235392,1,0,0:0:0:0:
284,87,235538,2,0,P|316:79|380:71,1,75.2,8|0,0:0|0:0,0:0:0:0:
195,139,235830,1,8,0:0:0:0:
117,10,235976,1,8,0:0:0:0:
31,151,236122,5,0,0:0:0:0:
185,56,236268,1,0,0:0:0:0:
152,228,236414,1,8,0:0:0:0:
71,84,236560,1,8,0:0:0:0:
158,234,236705,2,0,P|198:242|238:242,1,75.2,4|2,0:0|0:0,0:0:0:0:
322,184,236997,2,0,P|362:176|402:176,1,75.2,4|2,0:0|0:0,0:0:0:0:
468,270,237289,38,0,P|435:218|468:129,1,150.4,4|2,0:0|0:0,0:0:0:0:
512,200,237728,1,2,0:0:0:0:
362,217,237874,2,0,L|274:225,1,75.2,8|2,0:0|0:0,0:0:0:0:
205,96,238167,2,0,L|117:88,1,75.2,8|2,0:0|0:0,0:0:0:0:
241,167,238459,5,8,0:0:0:0:
327,9,238606,1,2,0:0:0:0:
235,173,238752,2,0,P|227:197|223:263,1,75.2,2|2,0:0|0:0,0:0:0:0:
320,335,239045,2,0,P|276:295|167:317,1,150.4,8|2,0:0|0:0,0:0:0:0:
237,384,239484,1,2,0:0:0:0:
384,278,239630,6,0,P|392:262|400:190,1,75.2,8|2,0:0|0:0,0:0:0:0:
341,68,239923,1,2,0:0:0:0:
507,139,240069,1,2,0:0:0:0:
335,62,240215,2,0,P|295:54|239:54,1,75.2,8|0,0:0|0:0,0:0:0:0:
185,147,240508,2,0,P|148:154|111:156,1,75.2,2|2,0:0|0:0,0:0:0:0:
356,146,240801,6,0,P|382:176|410:225,1,75.2,8|2,0:0|0:0,0:0:0:0:
271,128,241093,1,2,0:0:0:0:
419,26,241240,1,8,0:0:0:0:
265,134,241386,38,0,P|249:174|241:238,1,94,12|2,0:0|0:0,0:0:0:0:
445,119,241679,2,0,P|438:72|421:28,1,94,12|2,0:0|0:0,0:0:0:0:
346,194,241971,6,0,P|401:163|489:193,1,150.4,4|2,0:0|0:0,0:0:0:0:
419,259,242410,1,2,0:0:0:0:
279,144,242557,2,0,P|239:136|191:136,1,75.2,8|2,0:0|0:0,0:0:0:0:
94,238,242849,2,0,P|54:246|6:246,1,75.2,2|2,0:0|0:0,0:0:0:0:
160,192,243142,5,8,0:0:0:0:
88,357,243289,1,2,0:0:0:0:
166,186,243435,2,0,P|174:154|174:98,1,75.2,2|2,0:0|0:0,0:0:0:0:
65,46,243728,2,0,P|160:73|206:42,1,150.4,8|2,0:0|0:0,0:0:0:0:
134,0,244167,1,2,0:0:0:0:
33,150,244313,6,0,P|25:174|17:246,1,75.2,8|2,0:0|0:0,0:0:0:0:
165,198,244606,1,2,0:0:0:0:
65,46,244752,1,2,0:0:0:0:
171,204,244898,2,0,P|203:212|267:220,1,75.2,8|2,0:0|0:0,0:0:0:0:
330,133,245191,2,0,P|362:125|426:117,1,75.2,2|2,0:0|0:0,0:0:0:0:
330,249,245484,37,8,0:0:0:0:
240,91,245630,1,2,0:0:0:0:
336,255,245776,1,2,0:0:0:0:
234,85,245923,1,2,0:0:0:0:
170,221,246069,1,10,0:0:0:0:
165,231,246142,1,2,0:0:0:0:
160,241,246215,1,2,0:0:0:0:
271,164,246362,1,10,0:0:0:0:
276,174,246435,1,2,0:0:0:0:
281,184,246508,1,2,0:0:0:0:
152,78,246654,6,0,P|112:105|5:85,1,150.4,4|2,0:0|0:0,0:0:0:0:
75,0,247093,1,2,0:0:0:0:
206,144,247240,2,0,P|214:184|214:224,1,75.2,8|2,0:0|0:0,0:0:0:0:
175,364,247532,2,0,P|167:324|167:284,1,75.2,2|2,0:0|0:0,0:0:0:0:
290,181,247825,5,8,0:0:0:0:
132,104,247971,1,2,0:0:0:0:
296,187,248118,2,0,P|328:195|390:196,1,75.2,2|2,0:0|0:0,0:0:0:0:
446,108,248410,2,0,P|415:150|436:253,1,150.4,8|2,0:0|0:0,0:0:0:0:
506,185,248849,1,2,0:0:0:0:
360,79,248996,6,0,P|328:71|280:63,1,75.2,8|2,0:0|0:0,0:0:0:0:
155,139,249289,1,2,0:0:0:0:
31,7,249435,1,2,0:0:0:0:
161,145,249581,2,0,P|169:185|169:241,1,75.2,8|2,0:0|0:0,0:0:0:0:
169,54,249874,2,0,P|201:38|257:22,1,75.2,2|2,0:0|0:0,0:0:0:0:
161,145,250167,37,8,0:0:0:0:
164,148,250313,1,2,0:0:0:0:
296,219,250459,1,2,0:0:0:0:
299,222,250606,1,2,0:0:0:0:
147,333,250752,6,0,B|99:345|99:345|43:342,1,94,12|0,0:0|0:0,0:0:0:0:
209,234,251045,2,0,B|256:221|256:221|312:224,1,94,12|0,0:0|0:0,0:0:0:0:
371,332,251337,6,0,P|347:288|383:191,1,150.4,4|2,0:0|0:0,0:0:0:0:
442,267,251776,1,2,0:0:0:0:
280,347,251923,2,0,P|240:355|184:355,1,75.2,8|2,0:0|0:0,0:0:0:0:
298,203,252215,2,0,P|334:195|372:193,1,75.2,2|2,0:0|0:0,0:0:0:0:
222,176,252508,5,8,0:0:0:0:
205,356,252654,1,2,0:0:0:0:
228,170,252801,2,0,L|236:74,1,75.2,2|2,0:0|0:0,0:0:0:0:
280,223,253093,2,0,B|244:203|207:217|218:228|172:245|124:210,1,150.4,8|2,0:0|0:0,0:0:0:0:
246,295,253532,1,2,0:0:0:0:
180,146,253679,38,0,P|172:106|172:66,1,75.2,8|2,0:0|0:0,0:0:0:0:
135,217,253971,1,2,0:0:0:0:
293,132,254118,1,2,0:0:0:0:
129,223,254264,2,0,P|89:231|41:231,1,75.2,8|2,0:0|0:0,0:0:0:0:
157,122,254557,1,8,0:0:0:0:
208,295,254703,1,2,0:0:0:0:
151,116,254849,5,2,0:0:0:0:
309,201,254996,1,2,0:0:0:0:
145,110,255142,1,8,0:0:0:0:
116,287,255288,1,8,0:0:0:0:
139,104,255435,2,0,P|139:72|131:24,1,75.2,8|8,0:0|0:0,0:0:0:0:
237,181,255728,2,0,P|262:193|312:201,1,75.2,2|2,0:0|0:0,0:0:0:0:
469,239,256020,6,0,P|477:279|477:335,1,75.2,4|0,0:0|0:0,0:0:0:0:
389,190,256314,1,2,0:0:0:0:
497,115,256461,1,2,0:0:0:0:
384,196,256608,2,0,P|352:204|296:204,2,75.2,2|2|2,0:0|0:0|0:0,0:0:0:0:
277,302,257049,1,2,0:0:0:0:
256,137,257196,6,0,L|248:57,1,75.2,4|0,0:0|0:0,0:0:0:0:
309,205,257490,1,2,0:0:0:0:
158,190,257637,1,2,0:0:0:0:
315,211,257784,2,0,L|403:219,1,75.2,2|0,0:0|0:0,0:0:0:0:
247,267,258078,1,2,0:0:0:0:
201,124,258225,1,2,0:0:0:0:
87,222,258372,38,0,P|124:222|183:214,1,75.2,4|0,0:0|0:0,0:0:0:0:
300,155,258664,1,2,0:0:0:0:
259,299,258811,1,2,0:0:0:0:
306,149,258957,2,0,P|314:93|314:61,2,75.2,2|2|2,0:0|0:0|0:0,0:0:0:0:
164,220,259396,1,2,0:0:0:0:
312,238,259542,6,0,L|400:246,1,75.2,4|0,0:0|0:0,0:0:0:0:
244,193,259835,1,2,0:0:0:0:
261,341,259981,1,2,0:0:0:0:
238,187,260128,2,0,P|244:146|263:94,1,75.2,2|0,0:0|0:0,0:0:0:0:
226,262,260420,1,2,0:0:0:0:
160,127,260567,1,2,0:0:0:0:
74,251,260713,6,0,P|42:259|-6:259,1,75.2,4|0,0:0|0:0,0:0:0:0:
139,203,261006,1,2,0:0:0:0:
93,347,261152,1,2,0:0:0:0:
145,197,261298,2,0,P|153:133|153:109,2,75.2,2|2|2,0:0|0:0|0:0,0:0:0:0:
3,262,261737,1,2,0:0:0:0:
152,279,261884,6,0,L|256:287,1,75.2,4|0,0:0|0:0,0:0:0:0:
374,251,262176,1,2,0:0:0:0:
275,365,262323,1,2,0:0:0:0:
149,276,262469,2,0,P|141:236|141:188,1,75.2,2|0,0:0|0:0,0:0:0:0:
188,344,262762,1,2,0:0:0:0:
68,253,262908,1,2,0:0:0:0:
217,236,263054,38,0,L|305:228,1,75.2,4|0,0:0|0:0,0:0:0:0:
139,201,263345,1,2,0:0:0:0:
188,344,263491,1,2,0:0:0:0:
294,226,263637,2,0,P|302:202|310:138,2,75.2,2|2|2,0:0|0:0|0:0,0:0:0:0:
188,344,264075,1,2,0:0:0:0:
139,201,264221,6,0,P|115:193|51:185,1,75.2,4|0,0:0|0:0,0:0:0:0:
195,262,264513,1,2,0:0:0:0:
265,129,264659,1,2,0:0:0:0:
341,300,264805,6,0,P|365:308|437:316,1,94,12|0,0:0|0:0,0:0:0:0:
272,217,265097,1,2,0:0:0:0:
275,220,265243,1,2,0:0:0:0:
181,338,265389,6,0,P|173:285|165:186,1,150.4,4|2,0:0|0:0,0:0:0:0:
98,289,265828,1,2,0:0:0:0:
272,217,265974,2,0,P|304:209|360:201,1,75.2,8|2,0:0|0:0,0:0:0:0:
165,188,266267,2,0,P|157:164|149:100,1,75.2,2|2,0:0|0:0,0:0:0:0:
345,202,266559,38,0,P|340:239|329:275,1,75.2,8|0,0:0|0:0,0:0:0:0:
365,128,266852,1,2,0:0:0:0:
422,266,266998,1,2,0:0:0:0:
264,176,267145,2,0,B|232:160|182:175|202:193|157:198|104:176,1,150.4,8|2,0:0|0:0,0:0:0:0:
236,255,267584,1,2,0:0:0:0:
274,170,267730,6,0,L|282:2,1,150.4,8|2,0:0|0:0,0:0:0:0:
377,213,268169,1,2,0:0:0:0:
224,263,268315,2,0,P|176:271|120:271,1,75.2,8|2,0:0|0:0,0:0:0:0:
302,222,268608,2,0,P|350:214|406:214,1,75.2,2|2,0:0|0:0,0:0:0:0:
453,315,268901,6,0,P|414:252|442:182,1,150.4,8|2,0:0|0:0,0:0:0:0:
498,245,269340,1,2,0:0:0:0:
328,304,269486,2,0,P|200:312|152:312,1,150.4,8|2,0:0|0:0,0:0:0:0:
313,379,269925,1,2,0:0:0:0:
346,200,270071,6,0,B|354:152|354:152|378:108|378:108|389:45,1,150.4,8|2,0:0|0:0,0:0:0:0:
429,178,270510,1,2,0:0:0:0:
304,81,270657,2,0,P|248:73|216:73,1,75.2,8|2,0:0|0:0,0:0:0:0:
271,208,270949,2,0,P|308:206|345:199,1,75.2,2|2,0:0|0:0,0:0:0:0:
193,239,271242,38,0,P|185:263|177:335,1,75.2,8|0,0:0|0:0,0:0:0:0:
208,164,271535,1,2,0:0:0:0:
91,258,271681,1,2,0:0:0:0:
265,307,271828,2,0,B|308:323|355:315|355:315|388:269|430:277,1,150.4,8|2,0:0|0:0,0:0:0:0:
446,378,272267,1,2,0:0:0:0:
279,226,272413,6,0,P|263:186|255:130,1,94,12|0,0:0|0:0,0:0:0:0:
402,282,272706,1,8,0:0:0:0:
221,334,272852,1,8,0:0:0:0:
390,184,272998,2,0,P|406:144|414:88,1,94,12|0,0:0|0:0,0:0:0:0:
194,240,273291,2,0,P|200:286|217:330,1,94,12|0,0:0|0:0,0:0:0:0:
268,167,273584,6,0,P|215:195|119:179,1,141,12|0,0:0|0:0,0:0:0:0:
122,175,273876,1,8,0:0:0:0:
226,339,274023,1,8,0:0:0:0:
111,162,274169,1,8,0:0:0:0:
237,354,274315,1,10,0:0:0:0:
102,148,274462,1,10,0:0:0:0:
248,367,274608,1,10,0:0:0:0:
56,237,274757,6,0,P|109:262|214:208,1,150.4,4|0,0:0|0:0,0:0:0:0:
266,130,275196,1,0,0:0:0:0:
353,270,275342,2,0,P|361:302|369:358,1,75.2,8|0,0:0|0:0,0:0:0:0:
271,226,275635,1,2,0:0:0:0:
412,177,275781,1,0,0:0:0:0:
265,232,275927,38,0,L|273:64,1,150.4,4|0,0:0|0:0,0:0:0:0:
341,180,276366,1,0,0:0:0:0:
160,198,276513,2,0,L|64:206,1,75.2,8|0,0:0|0:0,0:0:0:0:
197,88,276805,2,0,L|293:80,1,75.2,8|0,0:0|0:0,0:0:0:0:
341,180,277098,6,0,P|316:127|352:37,1,150.4,4|0,0:0|0:0,0:0:0:0:
413,114,277537,1,0,0:0:0:0:
262,212,277683,2,0,P|214:220|174:220,1,75.2,8|0,0:0|0:0,0:0:0:0:
344,183,277976,1,0,0:0:0:0:
347,186,278122,1,0,0:0:0:0:
244,59,278269,6,0,L|260:227,1,150.4,4|0,0:0|0:0,0:0:0:0:
155,144,278708,1,2,0:0:0:0:
323,80,278854,2,0,P|387:72|411:72,1,75.2,8|0,0:0|0:0,0:0:0:0:
335,219,279147,2,0,P|297:216|260:210,1,75.2,8|0,0:0|0:0,0:0:0:0:
399,155,279439,6,0,P|376:202|433:309,1,150.4,4|0,0:0|0:0,0:0:0:0:
472,219,279878,1,0,0:0:0:0:
318,122,280025,2,0,P|286:114|230:114,1,75.2,8|0,0:0|0:0,0:0:0:0:
113,189,280317,1,0,0:0:0:0:
116,192,280464,1,0,0:0:0:0:
218,340,280610,38,0,L|226:188,1,150.4,4|0,0:0|0:0,0:0:0:0:
306,279,281049,1,0,0:0:0:0:
137,344,281196,2,0,P|97:352|49:352,1,75.2,8|0,0:0|0:0,0:0:0:0:
148,177,281488,2,0,P|185:178|222:186,1,75.2,8|0,0:0|0:0,0:0:0:0:
306,279,281781,6,0,P|273:237|291:134,1,150.4,4|0,0:0|0:0,0:0:0:0:
363,200,282220,1,0,0:0:0:0:
235,327,282366,2,0,P|211:335|147:343,1,75.2,8|0,0:0|0:0,0:0:0:0:
309,282,282659,1,0,0:0:0:0:
312,285,282805,1,0,0:0:0:0:
161,213,282952,6,0,P|153:189|145:85,1,112.8,4|0,0:0|0:0,0:0:0:0:
155,83,283244,1,8,0:0:0:0:
57,208,283391,1,8,0:0:0:0:
235,236,283537,1,8,0:0:0:0:
120,332,283683,1,10,0:0:0:0:
241,236,283830,1,10,0:0:0:0:
109,157,283976,1,10,0:0:0:0:
247,236,284122,6,0,P|327:218|389:261,1,150.4,4|0,0:0|0:0,0:0:0:0:
306,314,284561,1,0,0:0:0:0:
200,166,284708,2,0,P|192:142|184:78,1,75.2,8|0,0:0|0:0,0:0:0:0:
250,239,285000,1,0,0:0:0:0:
253,242,285147,1,0,0:0:0:0:
134,333,285293,38,0,L|126:173,1,150.4,4|0,0:0|0:0,0:0:0:0:
60,284,285732,1,0,0:0:0:0:
218,215,285878,2,0,P|250:207|306:199,1,75.2,8|0,0:0|0:0,0:0:0:0:
439,232,286171,2,0,P|407:240|351:248,1,75.2,8|0,0:0|0:0,0:0:0:0:
321,333,286464,6,0,P|330:252|290:198,1,150.4,4|0,0:0|0:0,0:0:0:0:
163,153,286903,1,0,0:0:0:0:
322,69,287049,2,0,P|370:61|410:61,1,75.2,8|0,0:0|0:0,0:0:0:0:
256,117,287342,1,0,0:0:0:0:
259,120,287488,1,0,0:0:0:0:
122,55,287635,6,0,B|106:103|106:103|122:223,1,150.4,4|0,0:0|0:0,0:0:0:0:
29,120,288074,1,2,0:0:0:0:
192,45,288220,2,0,P|256:37|288:37,1,75.2,8|0,0:0|0:0,0:0:0:0:
373,120,288513,2,0,P|437:128|469:128,1,75.2,8|0,0:0|0:0,0:0:0:0:
333,31,288805,6,0,L|341:199,1,150.4,4|0,0:0|0:0,0:0:0:0:
447,128,289244,1,0,0:0:0:0:
270,85,289391,2,0,P|198:77|182:77,1,75.2,8|0,0:0|0:0,0:0:0:0:
333,31,289683,1,0,0:0:0:0:
336,34,289830,1,0,0:0:0:0:
236,183,289976,38,0,P|246:254|276:330,1,150.4,4|0,0:0|0:0,0:0:0:0:
323,216,290415,1,0,0:0:0:0:
154,151,290561,2,0,P|122:143|74:135,1,75.2,8|0,0:0|0:0,0:0:0:0:
260,113,290854,2,0,P|268:89|276:17,1,75.2,8|0,0:0|0:0,0:0:0:0:
237,216,291147,6,0,P|245:296|261:376,1,150.4,4|0,0:0|0:0,0:0:0:0:
162,291,291586,1,0,0:0:0:0:
302,177,291732,2,0,P|326:169|382:161,1,75.2,8|0,0:0|0:0,0:0:0:0:
237,216,292025,1,0,0:0:0:0:
240,219,292171,1,0,0:0:0:0:
161,89,292317,6,0,P|121:81|81:81,1,75.2,4|0,0:0|0:0,0:0:0:0:
198,156,292610,2,0,L|202:203,2,37.6,8|8|8,0:0|0:0|0:0,0:0:0:0:
301,53,292903,1,8,0:0:0:0:
327,241,293049,1,8,0:0:0:0:
255,111,293196,1,8,0:0:0:0:
420,175,293342,1,8,0:0:0:0:
250,245,293488,6,0,P|194:222|96:258,1,150.4,4|0,0:0|0:0,0:0:0:0:
180,334,293927,1,0,0:0:0:0:
78,175,294074,2,0,P|70:151|62:79,1,75.2,8|0,0:0|0:0,0:0:0:0:
26,247,294366,1,0,0:0:0:0:
29,250,294513,1,0,0:0:0:0:
192,176,294659,38,0,B|230:159|277:165|259:185|306:197|352:176,1,150.4,4|0,0:0|0:0,0:0:0:0:
231,250,295098,1,0,0:0:0:0:
310,104,295244,2,0,P|318:72|318:16,1,75.2,8|0,0:0|0:0,0:0:0:0:
179,98,295537,2,0,P|179:135|188:172,1,75.2,8|0,0:0|0:0,0:0:0:0:
292,320,295830,6,0,P|243:289|141:326,1,150.4,4|0,0:0|0:0,0:0:0:0:
219,382,296269,1,0,0:0:0:0:
365,277,296415,2,0,P|373:253|381:197,1,75.2,8|0,0:0|0:0,0:0:0:0:
333,60,296708,1,0,0:0:0:0:
336,63,296854,1,0,0:0:0:0:
451,148,297000,6,0,B|409:166|409:166|283:148,1,150.4,4|0,0:0|0:0,0:0:0:0:
196,50,297439,1,2,0:0:0:0:
134,220,297586,2,0,L|126:316,1,75.2,8|0,0:0|0:0,0:0:0:0:
313,227,297878,2,0,L|306:152,1,75.2,8|0,0:0|0:0,0:0:0:0:
215,291,298171,6,0,P|266:264|366:308,1,150.4,4|0,0:0|0:0,0:0:0:0:
284,359,298610,1,0,0:0:0:0:
155,231,298757,2,0,P|147:207|139:151,1,75.2,8|0,0:0|0:0,0:0:0:0:
85,297,299049,1,0,0:0:0:0:
88,300,299196,1,0,0:0:0:0:
240,192,299342,38,0,B|346:178|346:178|389:197,1,150.4,4|0,0:0|0:0,0:0:0:0:
280,265,299781,1,0,0:0:0:0:
353,106,299927,2,0,P|361:82|369:26,1,75.2,8|0,0:0|0:0,0:0:0:0:
221,115,300220,2,0,P|225:152|236:188,1,75.2,8|0,0:0|0:0,0:0:0:0:
317,350,300513,6,0,L|149:342,1,150.4,4|0,0:0|0:0,0:0:0:0:
15,336,300952,1,0,0:0:0:0:
146,212,301098,2,0,P|154:180|154:124,1,75.2,8|0,0:0|0:0,0:0:0:0:
83,270,301391,1,0,0:0:0:0:
86,273,301537,1,0,0:0:0:0:
265,254,301683,6,0,L|369:246,1,75.2,4|0,0:0|0:0,0:0:0:0:
177,66,301976,2,0,P|161:106|153:162,1,75.2,8|0,0:0|0:0,0:0:0:0:
202,280,302269,1,8,0:0:0:0:
52,268,302415,1,10,0:0:0:0:
215,192,302561,1,10,0:0:0:0:
325,316,302708,1,10,0:0:0:0:
422,155,302854,6,0,P|358:177|278:136,1,150.4,4|0,0:0|0:0,0:0:0:0:
359,78,303293,1,0,0:0:0:0:
484,207,303439,2,0,P|492:255|492:287,1,75.2,8|0,0:0|0:0,0:0:0:0:
503,130,303732,1,0,0:0:0:0:
506,133,303878,1,0,0:0:0:0:
365,247,304025,38,0,P|317:225|221:266,1,150.4,4|0,0:0|0:0,0:0:0:0:
302,323,304464,1,0,0:0:0:0:
384,162,304610,2,0,P|392:138|400:82,1,75.2,8|0,0:0|0:0,0:0:0:0:
213,182,304903,2,0,P|217:219|228:255,1,75.2,8|0,0:0|0:0,0:0:0:0:
307,117,305196,6,0,P|256:145|164:119,1,150.4,4|0,0:0|0:0,0:0:0:0:
67,34,305635,1,0,0:0:0:0:
82,213,305781,2,0,L|90:309,1,75.2,8|0,0:0|0:0,0:0:0:0:
51,141,306074,1,0,0:0:0:0:
54,144,306220,1,0,0:0:0:0:
207,237,306366,6,0,B|263:237|263:237|295:253|295:253|359:253,1,150.4,4|0,0:0|0:0,0:0:0:0:
243,321,306805,1,2,0:0:0:0:
320,169,306952,2,0,P|328:145|336:81,1,75.2,8|0,0:0|0:0,0:0:0:0:
188,160,307244,2,0,P|192:197|203:233,1,75.2,8|0,0:0|0:0,0:0:0:0:
243,321,307537,6,0,P|209:277|105:286,1,150.4,4|0,0:0|0:0,0:0:0:0:
163,347,307976,1,0,0:0:0:0:
333,288,308122,2,0,P|341:264|349:200,1,75.2,8|0,0:0|0:0,0:0:0:0:
375,363,308415,1,0,0:0:0:0:
378,366,308561,1,0,0:0:0:0:
255,232,308708,38,0,L|247:64,1,150.4,4|0,0:0|0:0,0:0:0:0:
335,164,309147,1,0,0:0:0:0:
183,260,309293,2,0,P|159:268|103:276,1,75.2,8|0,0:0|0:0,0:0:0:0:
290,293,309586,2,0,P|314:333|330:381,1,75.2,8|0,0:0|0:0,0:0:0:0:
253,193,309878,6,0,L|245:25,1,150.4,4|0,0:0|0:0,0:0:0:0:
168,136,310317,1,0,0:0:0:0:
325,222,310464,2,0,P|357:230|421:238,1,75.2,8|0,0:0|0:0,0:0:0:0:
249,260,310756,1,0,0:0:0:0:
252,263,310903,1,0,0:0:0:0:
334,99,311049,6,0,P|332:60|291:115,1,164.5,4|0,0:0|0:0,0:0:0:0:
347,245,311635,1,4,0:0:0:0:
256,192,311708,12,0,314752,0:0:0:0:
88,109,314888,5,8,0:0:0:0:
88,113,314957,1,8,0:0:0:0:
89,118,315025,1,8,0:0:0:0:
90,122,315093,1,8,0:0:0:0:
91,127,315161,1,10,0:0:0:0:
92,132,315229,1,10,0:0:0:0:
93,136,315298,1,10,0:0:0:0:
94,141,315366,1,10,0:0:0:0:
131,119,315434,37,8,0:0:0:0:
171,108,315502,1,8,0:0:0:0:
211,118,315570,1,8,0:0:0:0:
243,144,315638,1,8,0:0:0:0:
261,181,315707,1,10,0:0:0:0:
262,223,315775,1,10,0:0:0:0:
246,262,315843,1,10,0:0:0:0:
214,289,315911,1,10,0:0:0:0:
174,302,315979,6,0,B|109:263|49:301|49:301|76:246|76:246|16:167|94:79,1,338.399989672852,6|8,0:0|0:0,0:0:0:0:
262,223,316525,2,0,P|326:239|358:239,1,94,2|8,0:0|0:0,0:0:0:0:
463,126,316798,2,0,P|437:170|475:277,1,141
476,279,317070,5,2,0:0:0:0:
240,312,317207,1,8,0:0:0:0:
316,160,317343,1,2,0:0:0:0:
396,350,317479,1,8,0:0:0:0:
264,242,317616,1,2,0:0:0:0:
394,72,317752,1,8,0:0:0:0:
158,107,317888,1,2,0:0:0:0:
158,107,317957,1,2,0:0:0:0:
158,107,318025,1,8,0:0:0:0:
340,149,318176,5,2,0:0:0:0:
192,232,318312,1,8,0:0:0:0:
188,24,318448,1,2,0:0:0:0:
261,196,318585,2,0,P|265:259|196:310,1,141,8|0,0:0|0:0,0:0:0:0:
179,310,318857,1,8,0:0:0:0:
385,243,318994,1,2,0:0:0:0:
192,232,319130,38,0,B|156:232|132:225|132:225|113:232|113:232|87:224|46:228,1,141,8|0,0:0|0:0,0:0:0:0:
26,237,319403,1,8,0:0:0:0:
172,136,319539,1,2,0:0:0:0:
71,316,319676,1,8,0:0:0:0:
270,264,319812,2,0,B|299:250|328:245|328:245|352:261|352:261|384:268|423:253,1,141,2|0,0:0|0:0,0:0:0:0:
379,191,320085,2,0,P|371:151|371:87,1,94,2|8,0:0|0:0,0:0:0:0:
273,267,320357,5,2,0:0:0:0:
451,209,320494,1,8,0:0:0:0:
310,82,320630,1,2,0:0:0:0:
313,85,320766,1,8,0:0:0:0:
265,278,320903,5,2,0:0:0:0:
463,214,321039,1,8,0:0:0:0:
307,73,321176,1,2,0:0:0:0:
310,76,321312,1,8,0:0:0:0:
378,262,321448,5,2,0:0:0:0:
438,64,321585,1,8,0:0:0:0:
234,97,321721,1,6,0:0:0:0:
198,109,321789,1,0,0:0:0:0:
160,111,321857,1,8,0:0:0:0:
124,98,321926,1,0,0:0:0:0:
95,73,321994,37,6,0:0:0:0:
109,112,322062,1,0,0:0:0:0:
115,154,322130,1,8,0:0:0:0:
100,193,322198,1,0,0:0:0:0:
78,229,322266,5,6,0:0:0:0:
76,271,322335,1,0,0:0:0:0:
91,310,322403,1,8,0:0:0:0:
125,334,322471,1,0,0:0:0:0:
162,340,322539,5,6,0:0:0:0:
197,329,322607,1,0,0:0:0:0:
225,304,322676,1,8,0:0:0:0:
238,268,322744,1,0,0:0:0:0:
235,235,322812,5,6,0:0:0:0:
245,203,322880,1,0,0:0:0:0:
266,177,322948,1,8,0:0:0:0:
296,163,323016,1,0,0:0:0:0:
324,161,323085,37,6,0:0:0:0:
351,168,323153,1,0,0:0:0:0:
374,183,323221,1,8,0:0:0:0:
390,206,323289,1,0,0:0:0:0:
398,228,323357,37,6,0:0:0:0:
399,251,323426,1,0,0:0:0:0:
394,274,323494,1,8,0:0:0:0:
383,294,323562,1,0,0:0:0:0:
370,308,323630,37,6,0:0:0:0:
353,317,323698,1,0,0:0:0:0:
336,325,323766,1,8,0:0:0:0:
317,328,323835,1,0,0:0:0:0:
302,326,323903,5,6,0:0:0:0:
288,323,323971,1,0,0:0:0:0:
275,316,324039,1,8,0:0:0:0:
263,308,324107,1,0,0:0:0:0:
253,297,324176,2,0,B|202:264|149:296|149:296|182:248|144:206|144:206|149:163|200:136,1,282,6|8,0:0|0:0,0:0:0:0:
340,83,324721,5,6,0:0:0:0:
381,73,324789,1,0,0:0:0:0:
419,91,324857,1,8,0:0:0:0:
440,126,324926,1,0,0:0:0:0:
436,168,324994,1,2,0:0:0:0:
404,195,325062,1,0,0:0:0:0:
386,234,325130,6,0,P|380:273|379:294,1,47,12|0,0:0|0:0,0:0:0:0:
407,378,325266,1,2,0:0:0:0:
371,354,325335,1,0,0:0:0:0:
330,341,325403,1,8,0:0:0:0:
289,353,325471,1,0,0:0:0:0:
253,376,325539,38,0,L|245:322,1,47,6|0,0:0|0:0,0:0:0:0:
211,234,325676,1,8,0:0:0:0:
180,204,325744,1,0,0:0:0:0:
137,200,325812,1,2,0:0:0:0:
97,216,325880,1,0,0:0:0:0:
80,254,325948,6,0,P|113:254|133:250,1,47,12|0,0:0|0:0,0:0:0:0:
217,130,326085,1,2,0:0:0:0:
217,87,326153,1,0,0:0:0:0:
195,49,326221,1,8,0:0:0:0:
154,36,326289,1,0,0:0:0:0:
113,47,326357,6,0,P|131:66|153:78,1,47,6|0,0:0|0:0,0:0:0:0:
289,127,326494,1,8,0:0:0:0:
300,140,326562,1,0,0:0:0:0:
311,152,326630,2,0,B|336:156|359:145|359:145|388:144|409:178|455:160,1,141,6|0,0:0|0:0,0:0:0:0:
430,95,326903,5,2,0:0:0:0:
350,266,327039,1,8,0:0:0:0:
497,240,327176,1,2,0:0:0:0:
311,152,327312,2,0,B|267:140|267:140|245:155|245:155|209:135|156:154,1,141,8|0,0:0|0:0,0:0:0:0:
203,215,327585,1,8,0:0:0:0:
321,69,327721,1,4,0:0:0:0:
131,153,327857,1,4,0:0:0:0:
285,221,327994,37,2,0:0:0:0:
297,240,328062,1,2,0:0:0:0:
301,263,328130,1,2,0:0:0:0:
298,286,328198,1,2,0:0:0:0:
288,307,328266,1,2,0:0:0:0:
272,325,328335,1,2,0:0:0:0:
251,336,328403,1,2,0:0:0:0:
227,339,328471,1,2,0:0:0:0:
203,334,328539,1,2,0:0:0:0:
182,322,328607,1,2,0:0:0:0:
167,303,328676,1,2,0:0:0:0:
159,280,328744,1,2,0:0:0:0:
158,256,328812,2,0,L|166:160,1,75.2,6|0,0:0|0:0,0:0:0:0:
144,31,329085,37,14,0:0:0:0:
164,56,329153,1,2,0:0:0:0:
193,70,329221,1,2,0:0:0:0:
226,71,329289,1,2,0:0:0:0:
257,60,329357,1,10,0:0:0:0:
286,44,329426,1,2,0:0:0:0:
318,44,329494,1,2,0:0:0:0:
348,56,329562,1,2,0:0:0:0:
375,74,329630,2,0,P|394:79|431:82,3,47,14|2|2|2,0:0|0:0|0:0|0:0,0:0:0:0:
267,156,329903,2,0,P|243:158|220:164,3,47,10|2|2|2,0:0|0:0|0:0|0:0,0:0:0:0:
375,225,330176,37,14,0:0:0:0:
400,245,330244,1,2,0:0:0:0:
413,274,330312,1,2,0:0:0:0:
415,307,330380,1,2,0:0:0:0:
405,338,330448,1,10,0:0:0:0:
383,363,330516,1,2,0:0:0:0:
353,376,330585,1,2,0:0:0:0:
320,377,330653,1,2,0:0:0:0:
288,366,330721,1,14,0:0:0:0:
265,341,330789,1,2,0:0:0:0:
243,316,330857,1,2,0:0:0:0:
213,302,330926,1,2,0:0:0:0:
180,302,330994,2,0,P|147:314|130:326,3,47,10|2|2|2,0:0|0:0|0:0|0:0,0:0:0:0:
281,258,331266,5,14,0:0:0:0:
296,228,331335,1,2,0:0:0:0:
300,195,331403,1,2,0:0:0:0:
292,163,331471,1,2,0:0:0:0:
273,135,331539,1,10,0:0:0:0:
262,103,331607,1,2,0:0:0:0:
262,70,331676,1,2,0:0:0:0:
273,39,331744,1,2,0:0:0:0:
294,13,331812,2,0,L|226:18,3,47,14|2|2|2,0:0|0:0|0:0|0:0,0:0:0:0:
369,89,332085,2,0,L|437:84,3,47,10|2|2|2,0:0|0:0|0:0|0:0,0:0:0:0:
292,163,332357,5,14,0:0:0:0:
264,180,332426,1,2,0:0:0:0:
231,186,332494,1,2,0:0:0:0:
199,177,332562,1,2,0:0:0:0:
172,156,332630,1,10,0:0:0:0:
140,148,332698,1,2,0:0:0:0:
107,153,332766,1,2,0:0:0:0:
79,171,332835,1,2,0:0:0:0:
61,198,332903,1,14,0:0:0:0:
54,230,332971,1,2,0:0:0:0:
60,262,333039,1,2,0:0:0:0:
77,289,333107,1,2,0:0:0:0:
104,307,333176,1,10,0:0:0:0:
135,315,333244,1,2,0:0:0:0:
167,309,333312,1,2,0:0:0:0:
194,290,333380,1,2,0:0:0:0:
212,262,333448,6,0,P|216:243|214:209,3,47,14|2|2|2,0:0|0:0|0:0|0:0,0:0:0:0:
182,107,333721,1,10,0:0:0:0:
211,123,333789,1,2,0:0:0:0:
243,128,333857,1,2,0:0:0:0:
275,125,333926,1,2,0:0:0:0:
305,112,333994,1,14,0:0:0:0:
335,100,334062,1,2,0:0:0:0:
367,95,334130,1,2,0:0:0:0:
398,103,334198,1,2,0:0:0:0:
424,122,334266,1,8,0:0:0:0:
439,151,334335,1,2,0:0:0:0:
441,183,334403,1,2,0:0:0:0:
433,214,334471,1,2,0:0:0:0:
413,240,334539,38,0,P|402:264|396:299,3,47,14|2|2|2,0:0|0:0|0:0|0:0,0:0:0:0:
266,171,334812,2,0,P|260:148|250:126,3,47,10|2|2|2,0:0|0:0|0:0|0:0,0:0:0:0:
116,242,335085,1,14,0:0:0:0:
98,269,335153,1,2,0:0:0:0:
94,301,335221,1,2,0:0:0:0:
100,333,335289,1,2,0:0:0:0:
118,360,335357,1,10,0:0:0:0:
145,377,335426,1,2,0:0:0:0:
177,382,335494,1,2,0:0:0:0:
209,376,335562,1,2,0:0:0:0:
236,356,335630,6,0,P|260:352|290:353,3,47,14|2|2|2,0:0|0:0|0:0|0:0,0:0:0:0:
178,225,335903,2,0,P|162:206|148:179,3,47,14|2|2|2,0:0|0:0|0:0|0:0,0:0:0:0:
60,326,336176,2,0,P|40:332|6:335,3,47,14|2|2|2,0:0|0:0|0:0|0:0,0:0:0:0:
176,298,336448,2,0,P|196:292|230:289,3,47,14|2|2|2,0:0|0:0|0:0|0:0,0:0:0:0:
68,230,336721,5,14,0:0:0:0:
56,198,336789,1,2,0:0:0:0:
58,165,336857,1,2,0:0:0:0:
70,134,336926,1,2,0:0:0:0:
92,110,336994,1,10,0:0:0:0:
120,94,337062,1,2,0:0:0:0:
153,89,337130,1,2,0:0:0:0:
185,95,337198,1,2,0:0:0:0:
212,112,337266,2,0,P|239:115|274:109,3,47,14|2|2|2,0:0|0:0|0:0|0:0,0:0:0:0:
151,186,337539,2,0,P|127:184|104:187,3,47,10|2|2|2,0:0|0:0|0:0|0:0,0:0:0:0:
211,256,337812,5,14,0:0:0:0:
241,269,337880,1,2,0:0:0:0:
274,269,337948,1,2,0:0:0:0:
304,258,338016,1,2,0:0:0:0:
327,235,338085,1,14,0:0:0:0:
340,205,338153,1,2,0:0:0:0:
340,171,338221,1,2,0:0:0:0:
327,140,338289,1,2,0:0:0:0:
302,117,338357,1,14,0:0:0:0:
271,105,338426,1,2,0:0:0:0:
237,108,338494,1,2,0:0:0:0:
207,123,338562,1,2,0:0:0:0:
182,145,338630,1,14,0:0:0:0:
150,154,338698,1,2,0:0:0:0:
117,151,338766,1,2,0:0:0:0:
87,134,338835,1,2,0:0:0:0:
69,106,338903,38,0,P|64:85|63:55,3,47,14|2|2|2,0:0|0:0|0:0|0:0,0:0:0:0:
155,193,339176,2,0,P|160:215|161:244,3,47,14|2|2|2,0:0|0:0|0:0|0:0,0:0:0:0:
252,106,339448,1,14,0:0:0:0:
278,85,339516,1,2,0:0:0:0:
309,77,339585,1,2,0:0:0:0:
341,78,339653,1,2,0:0:0:0:
371,91,339721,1,14,0:0:0:0:
395,113,339789,1,2,0:0:0:0:
412,141,339857,1,2,0:0:0:0:
417,173,339926,1,2,0:0:0:0:
411,206,339994,6,0,L|465:200,3,47,14|2|2|2,0:0|0:0|0:0|0:0,0:0:0:0:
356,301,340266,1,14,0:0:0:0:
332,324,340335,1,2,0:0:0:0:
304,341,340403,1,2,0:0:0:0:
270,345,340471,1,2,0:0:0:0:
237,338,340539,2,0,L|243:392,3,47,14|2|2|2,0:0|0:0|0:0|0:0,0:0:0:0:
165,268,340812,2,0,L|159:334,3,47,14|2|2|2,0:0|0:0|0:0|0:0,0:0:0:0:
152,179,341085,5,14,0:0:0:0:
145,146,341153,1,2,0:0:0:0:
147,112,341221,1,2,0:0:0:0:
161,82,341289,1,2,0:0:0:0:
184,59,341357,1,14,0:0:0:0:
212,42,341426,1,2,0:0:0:0:
244,36,341494,1,2,0:0:0:0:
276,39,341562,1,2,0:0:0:0:
307,50,341630,2,0,L|302:0,3,47,14|2|2|2,0:0|0:0|0:0|0:0,0:0:0:0:
379,118,341903,2,0,L|384:68,3,47,14|2|2|2,0:0|0:0|0:0|0:0,0:0:0:0:
413,210,342176,5,14,0:0:0:0:
440,227,342244,1,2,0:0:0:0:
459,253,342312,1,2,0:0:0:0:
467,285,342380,1,2,0:0:0:0:
461,317,342448,1,14,0:0:0:0:
444,346,342516,1,2,0:0:0:0:
418,366,342585,1,2,0:0:0:0:
384,372,342653,1,2,0:0:0:0:
351,366,342721,1,14,0:0:0:0:
324,346,342789,1,2,0:0:0:0:
307,316,342857,1,2,0:0:0:0:
301,283,342926,1,2,0:0:0:0:
309,251,342994,1,14,0:0:0:0:
323,221,343062,1,2,0:0:0:0:
324,186,343130,1,2,0:0:0:0:
311,155,343198,1,2,0:0:0:0:
292,128,343266,38,0,P|284:109|279:74,3,47,14|2|2|2,0:0|0:0|0:0|0:0,0:0:0:0:
404,186,343539,2,0,P|399:210|390:231,3,47,14|2|2|2,0:0|0:0|0:0|0:0,0:0:0:0:
300,327,343812,1,14,0:0:0:0:
274,349,343880,1,2,0:0:0:0:
241,357,343948,1,2,0:0:0:0:
208,353,344016,1,2,0:0:0:0:
180,334,344085,1,14,0:0:0:0:
155,311,344153,1,2,0:0:0:0:
123,301,344221,1,2,0:0:0:0:
88,305,344289,1,2,0:0:0:0:
57,326,344357,6,0,P|41:350|34:369,3,47,2|2|2|2,0:0|0:0|0:0|0:0,0:0:0:0:
115,193,344630,2,0,P|103:167|90:152,3,47,2|2|2|2,0:0|0:0|0:0|0:0,0:0:0:0:
236,272,344903,1,2,0:0:0:0:
249,277,344971,1,2,0:0:0:0:
263,278,345039,1,2,0:0:0:0:
276,275,345107,1,2,0:0:0:0:
289,270,345176,1,2,0:0:0:0:
302,267,345244,1,2,0:0:0:0:
316,265,345312,1,2,0:0:0:0:
330,267,345380,1,2,0:0:0:0:
343,271,345448,5,2,0:0:0:0:
334,254,345516,1,2,0:0:0:0:
330,235,345585,1,2,0:0:0:0:
329,216,345653,1,2,0:0:0:0:
333,197,345721,1,2,0:0:0:0:
341,180,345789,1,2,0:0:0:0:
353,166,345857,1,2,0:0:0:0:
361,149,345926,1,2,0:0:0:0:
367,131,345994,1,2,0:0:0:0:
367,112,346062,1,2,0:0:0:0:
361,93,346130,1,2,0:0:0:0:
352,76,346198,1,2,0:0:0:0:
342,64,346266,1,6,0:0:0:0:
246,266,346539,5,4,0:0:0:0:
126,121,346676,1,8,0:0:0:0:
276,142,346812,1,2,0:0:0:0:
89,246,346948,1,8,0:0:0:0:
279,139,347085,2,0,L|375:131,1,94,2|8,0:0|0:0,0:0:0:0:
212,263,347357,2,0,L|308:271,1,94,2|8,0:0|0:0,0:0:0:0:
92,249,347630,38,0,P|76:281|60:345,1,94,2|8,0:0|0:0,0:0:0:0:
176,154,347903,1,2,0:0:0:0:
0,225,348039,1,8,0:0:0:0:
183,296,348176,2,0,P|199:328|215:392,1,94,2|8,0:0|0:0,0:0:0:0:
92,249,348448,1,2,0:0:0:0:
92,249,348516,1,2,0:0:0:0:
92,249,348585,1,8,0:0:0:0:
300,148,348721,5,2,0:0:0:0:
183,296,348857,1,8,0:0:0:0:
325,343,348994,1,2,0:0:0:0:
214,189,349130,1,8,0:0:0:0:
396,91,349266,2,0,P|444:83|500:91,1,94,2|8,0:0|0:0,0:0:0:0:
306,192,349539,2,0,P|259:196|213:188,1,94,2|8,0:0|0:0,0:0:0:0:
407,258,349812,6,0,P|431:290|455:362,1,94,2|8,0:0|0:0,0:0:0:0:
276,266,350085,1,2,0:0:0:0:
456,158,350221,1,8,0:0:0:0:
273,269,350357,6,0,B|225:273|225:273|218:281|209:274|209:274|153:279,1,112.799996557617,6|8,0:0|0:0,0:0:0:0:
342,140,350630,2,0,B|294:135|294:135|286:127|278:134|278:134|222:129,1,112.799996557617,6|8,0:0|0:0,0:0:0:0:
459,155,350903,38,0,P|475:123|483:51,1,94,6|8,0:0|0:0,0:0:0:0:
345,143,351176,1,2,0:0:0:0:
483,269,351312,1,8,0:0:0:0:
342,140,351448,2,0,L|350:44,1,94,2|8,0:0|0:0,0:0:0:0:
169,181,351721,2,0,L|161:85,1,94,2|8,0:0|0:0,0:0:0:0:
272,262,351994,5,2,0:0:0:0:
67,310,352130,1,8,0:0:0:0:
172,184,352266,1,2,0:0:0:0:
290,348,352403,1,8,0:0:0:0:
104,227,352539,2,0,P|64:211|8:203,1,94,2|8,0:0|0:0,0:0:0:0:
183,321,352812,2,0,P|191:377|191:385,2,47,2|2|8,0:0|0:0|0:0,0:0:0:0:
231,118,353085,6,0,P|271:102|335:94,1,94,2|8,0:0|0:0,0:0:0:0:
254,229,353357,1,2,0:0:0:0:
129,63,353494,1,8,0:0:0:0:
257,232,353630,2,0,P|265:280|257:344,1,94,2|8,0:0|0:0,0:0:0:0:
121,158,353903,2,0,P|117:111|125:65,1,94,2|8,0:0|0:0,0:0:0:0:
182,286,354176,5,2,0:0:0:0:
21,188,354312,1,8,0:0:0:0:
132,60,354448,1,2,0:0:0:0:
92,268,354585,1,8,0:0:0:0:
272,167,354721,2,0,P|312:159|376:159,1,94,2|8,0:0|0:0,0:0:0:0:
222,249,354994,1,8,0:0:0:0:
192,219,355062,1,8,0:0:0:0:
177,178,355130,1,8,0:0:0:0:
181,136,355198,1,8,0:0:0:0:
203,100,355266,38,0,L|91:108,1,94,4|8,0:0|0:0,0:0:0:0:
244,38,355539,1,2,0:0:0:0:
192,219,355676,1,8,0:0:0:0:
383,142,355812,2,0,L|289:134,1,94,2|8,0:0|0:0,0:0:0:0:
95,229,356085,2,0,L|189:222,1,94,2|8,0:0|0:0,0:0:0:0:
275,331,356357,5,2,0:0:0:0:
224,132,356494,1,8,0:0:0:0:
92,226,356630,1,2,0:0:0:0:
295,259,356766,1,8,0:0:0:0:
89,223,356903,2,0,P|73:183|65:127,1,94,2|8,0:0|0:0,0:0:0:0:
179,282,357176,1,2,0:0:0:0:
179,282,357244,1,2,0:0:0:0:
179,282,357312,1,8,0:0:0:0:
290,106,357448,6,0,P|314:98|394:90,1,94,2|8,0:0|0:0,0:0:0:0:
274,193,357721,1,2,0:0:0:0:
206,6,357857,1,8,0:0:0:0:
277,196,357994,2,0,L|285:300,1,94,2|8,0:0|0:0,0:0:0:0:
137,117,358266,2,0,L|129:221,1,94,2|8,0:0|0:0,0:0:0:0:
210,19,358539,6,0,P|242:11|314:11,1,94,2|8,0:0|0:0,0:0:0:0:
238,149,358812,1,2,0:0:0:0:
99,0,358948,1,8,0:0:0:0:
0,119,359085,1,2,0:0:0:0:
190,90,359221,1,8,0:0:0:0:
104,275,359357,2,0,L|96:179,1,94,2|8,0:0|0:0,0:0:0:0:
210,334,359630,37,2,0:0:0:0:
243,351,359698,1,2,0:0:0:0:
280,351,359766,1,2,0:0:0:0:
314,335,359835,1,2,0:0:0:0:
337,305,359903,1,10,0:0:0:0:
343,267,359971,1,2,0:0:0:0:
328,232,360039,1,2,0:0:0:0:
296,211,360107,1,2,0:0:0:0:
269,183,360176,1,10,0:0:0:0:
255,148,360244,1,2,0:0:0:0:
259,110,360312,1,2,0:0:0:0:
280,79,360380,1,2,0:0:0:0:
313,61,360448,1,10,0:0:0:0:
350,56,360516,1,2,0:0:0:0:
387,64,360585,1,2,0:0:0:0:
418,84,360653,1,2,0:0:0:0:
437,116,360721,5,10,0:0:0:0:
440,153,360789,1,2,0:0:0:0:
427,188,360857,1,2,0:0:0:0:
402,217,360926,1,2,0:0:0:0:
367,231,360994,1,10,0:0:0:0:
329,231,361062,1,2,0:0:0:0:
293,219,361130,1,2,0:0:0:0:
262,197,361198,1,2,0:0:0:0:
235,170,361266,1,10,0:0:0:0:
201,152,361335,1,2,0:0:0:0:
163,147,361403,1,2,0:0:0:0:
126,157,361471,1,2,0:0:0:0:
101,174,361539,2,0,L|98:90,1,75.2,6|0,0:0|0:0,0:0:0:0:
177,290,361812,6,0,P|225:298|297:290,1,94,6|0,0:0|0:0,0:0:0:0:
489,160,362085,1,2,0:0:0:0:
419,370,362222,1,2,0:0:0:0:
294,147,362359,2,0,L|286:51,1,94,6|0,0:0|0:0,0:0:0:0:
104,256,362633,2,0,L|112:160,1,94,6|0,0:0|0:0,0:0:0:0:
225,315,362907,6,0,B|189:298|189:298|172:280|172:280|132:284|104:303|104:303|72:279|26:277|-26:293,1,239.700004571915,6|0,0:0|0:0,0:0:0:0:
307,370,363455,37,6,0:0:0:0:
