osu file format v14

[General]
AudioFilename: audio.mp3
AudioLeadIn: 0
PreviewTime: 30836
Countdown: 0
SampleSet: Soft
StackLeniency: 0.7
Mode: 3
LetterboxInBreaks: 0
SpecialStyle: 0
WidescreenStoryboard: 1

[Editor]
DistanceSpacing: 1
BeatDivisor: 4
GridSize: 32
TimelineZoom: 2.500001

[Metadata]
Title:I'll Wait (succducc Remix)
TitleUnicode:I'll Wait (succducc Remix)
Artist:Enschway & sumthin sumthin
ArtistUnicode:Enschway & sumthin sumthin
Creator:NotiiJohn0
Version:Mono's Hard
Source:
Tags:Monoseul english vocaloid remix thing awawaawawa future bass club dnb d'n'b electronic hatsune miku 初音ミク ボーカロイド sweat it out friendschway SV
BeatmapID:3882101
BeatmapSetID:1885424

[Difficulty]
HPDrainRate:7.3
CircleSize:4
OverallDifficulty:7.3
ApproachRate:5
SliderMultiplier:1.4
SliderTickRate:1

[Events]
//Background and Video events
0,0,"792513.jpg",0,0
//Break Periods
//Storyboard Layer 0 (Background)
//Storyboard Layer 1 (Fail)
//Storyboard Layer 2 (Pass)
//Storyboard Layer 3 (Foreground)
//Storyboard Layer 4 (Overlay)
//Storyboard Sound Samples
Sample,16478,0,"LR_NBell_D7.wav",30
Sample,17335,0,"LR_NBell_A#6.wav",50
Sample,18621,0,"LR_NBell_G6.wav",50
Sample,19478,0,"LR_NBell_A5.wav",50
Sample,20764,0,"LR_NBell_G6.wav",50
Sample,22050,0,"LR_NBell_A#5.wav",50
Sample,24193,0,"LR_NBell_D7.wav",70
Sample,24621,0,"LR_NBell_D7.wav",70
Sample,24835,0,"LR_NBell_A#6.wav",50
Sample,25264,0,"LR_NBell_A#6.wav",50
Sample,25478,0,"Hihat_Open.wav",70
Sample,25478,0,"LR_NBell_F6.wav",50
Sample,25907,0,"Hihat_Open.wav",70
Sample,25907,0,"LR_NBell_F6.wav",50
Sample,26121,0,"LR_NBell_A6.wav",50
Sample,26335,0,"LR_NBell_A#6.wav",50
Sample,26550,0,"LR_NBell_C7.wav",70
Sample,26978,0,"LR_NBell_D7.wav",70
Sample,27193,0,"Hihat_Open.wav",70
Sample,27193,0,"LR_NBell_C7.wav",70
Sample,27621,0,"Hihat_Open.wav",70
Sample,27621,0,"LR_NBell_C6.wav",50
Sample,27835,0,"LR_NBell_C6.wav",50
Sample,28050,0,"LR_NBell_C6.wav",50
Sample,28264,0,"LR_NBell_F6.wav",50
Sample,28478,0,"LR_NBell_D6.wav",50
Sample,28693,0,"LR_NBell_D6.wav",50
Sample,28907,0,"LR_NBell_D6.wav",50
Sample,29121,0,"LR_NBell_F6.wav",50
Sample,29550,0,"LR_NBell_F6.wav",50
Sample,29764,0,"LR_NBell_D6.wav",50
Sample,29978,0,"LR_NBell_A6.wav",50
Sample,30621,0,"LR_NBell_B6.wav",50
Sample,34532,0,"LR_NBell_A#6.wav",30
Sample,34639,0,"LR_NBell_A#6.wav",30

[TimingPoints]
193,428.571428571429,4,2,1,60,1,0
31050,-100.0,4,2,1,70,0,1
34050,-100.0,4,2,1,70,0,0
34907,-100.0,4,2,1,70,0,1
37907,-100.0,4,2,1,70,0,0
38764,-100.0,4,2,1,70,0,1
39835,-100.0,4,2,1,70,0,0
40478,-100.0,4,2,1,70,0,1
44764,-100.0,4,2,1,70,0,0
45621,-100.0,4,2,1,70,0,1
51621,-100.0,4,2,1,70,0,0
52478,-100.0,4,2,1,70,0,1
58264,-100.0,4,2,1,70,0,0

[HitObjects]
448,192,3193,1,0,0:0:0:0:
448,192,3407,128,0,3621:0:0:0:0:
192,192,3621,1,0,0:0:0:50:Hihat_Open.wav
320,192,3621,1,0,0:0:0:0:
320,192,3835,128,0,4050:0:0:0:50:Hihat_Open.wav
64,192,4050,1,0,0:0:0:50:Hihat_Open.wav
448,192,4050,1,0,0:0:0:0:
192,192,4264,128,0,4693:0:0:0:0:
64,192,4478,128,0,4693:0:0:0:50:Hihat_Open.wav
448,192,4478,1,0,0:0:0:0:
320,192,4693,1,0,0:0:0:0:
64,192,4907,1,0,0:0:0:50:Hihat_Open.wav
192,192,4907,1,0,0:0:0:0:
448,192,5121,128,0,5550:0:0:0:50:Hihat_Open.wav
192,192,5335,1,0,0:0:0:50:Hihat_Open.wav
320,192,5335,1,0,0:0:0:0:
64,192,5550,128,0,5978:0:0:0:0:
320,192,5764,1,0,0:0:0:50:Hihat_Open.wav
448,192,5764,1,0,0:0:0:0:
192,192,5978,1,0,0:0:0:50:Hihat_Open.wav
64,192,6193,1,0,0:0:0:50:Hihat_Open.wav
448,192,6193,1,0,0:0:0:0:
320,192,6407,128,0,6835:0:0:0:0:
64,192,6621,1,0,0:0:0:50:Hihat_Open.wav
192,192,6621,128,0,6835:0:0:0:0:
448,192,6835,128,0,7050:0:0:0:50:Hihat_Open.wav
192,192,7050,1,0,0:0:0:50:Hihat_Open.wav
320,192,7050,1,0,0:0:0:0:
64,192,7264,128,0,7478:0:0:0:0:
192,192,7478,1,0,0:0:0:50:Hihat_Open.wav
448,192,7478,1,0,0:0:0:0:
320,192,7693,128,0,8121:0:0:0:50:Hihat_Open.wav
64,192,7907,1,0,0:0:0:50:Hihat_Open.wav
448,192,7907,128,0,8121:0:0:0:50:LR_NBell_F6.wav
192,192,8121,1,0,0:0:0:0:
320,192,8335,1,0,0:0:0:50:Hihat_Open.wav
448,192,8335,1,0,0:0:0:0:
192,192,8550,128,0,8764:0:0:0:50:Hihat_Open.wav
64,192,8764,1,0,0:0:0:50:Hihat_Open.wav
448,192,8764,1,0,0:0:0:50:LR_NBell_C6.wav
320,192,8978,128,0,9193:0:0:0:0:
64,192,9193,1,0,0:0:0:50:Hihat_Open.wav
192,192,9193,1,0,0:0:0:0:
448,192,9407,1,0,0:0:0:50:Hihat_Open.wav
64,192,9621,1,0,0:0:0:50:Hihat_Open.wav
320,192,9621,1,0,0:0:0:50:LR_NBell_D6.wav
64,192,9835,1,0,0:0:0:0:
320,192,10050,128,0,10264:0:0:0:50:Hihat_Open.wav
448,192,10050,128,0,10907:0:0:0:0:
64,192,10264,1,0,0:0:0:50:Hihat_Open.wav
192,192,10478,1,0,0:0:0:50:Hihat_Open.wav
320,192,10478,1,0,0:0:0:50:LR_NBell_A#6.wav
320,192,10693,1,0,0:0:0:0:
64,192,10907,1,0,0:0:0:50:Hihat_Open.wav
192,192,10907,1,0,0:0:0:50:LR_NBell_D6.wav
64,192,11121,1,0,0:0:0:0:
320,192,11335,1,0,0:0:0:50:Hihat_Open.wav
448,192,11335,1,0,0:0:0:50:LR_NBell_A#6.wav
448,192,11550,1,0,0:0:0:0:
64,192,11764,1,0,0:0:0:50:Hihat_Open.wav
192,192,11764,1,0,0:0:0:50:LR_NBell_A6.wav
192,192,11978,1,0,0:0:0:0:
320,192,12193,1,0,0:0:0:50:Hihat_Open.wav
448,192,12193,1,0,0:0:0:50:LR_NBell_F6.wav
320,192,12407,1,0,0:0:0:0:
64,192,12621,1,0,0:0:0:50:Hihat_Open.wav
448,192,12621,1,0,0:0:0:50:LR_NBell_D6.wav
64,192,12835,1,0,0:0:0:0:
192,192,13050,1,0,0:0:0:50:Hihat_Open.wav
448,192,13050,1,0,0:0:0:70:LR_NBell_D7.wav
448,192,13264,1,0,0:0:0:0:
64,192,13478,1,0,0:0:0:50:Hihat_Open.wav
320,192,13478,1,0,0:0:0:50:LR_NBell_A6.wav
64,192,13693,128,0,14121:0:0:0:0:
192,192,13907,128,0,14121:0:0:0:50:Hihat_Open.wav
448,192,13907,1,0,0:0:0:50:LR_NBell_A#6.wav
320,192,14121,1,0,0:0:0:0:
64,192,14335,1,0,0:0:0:50:Hihat_Open.wav
320,192,14335,128,0,14764:0:0:0:50:LR_NBell_D6.wav
448,192,14550,128,0,14764:0:0:0:0:
64,192,14764,1,0,0:0:0:50:Hihat_Open.wav
192,192,14764,1,0,0:0:0:50:LR_NBell_F6.wav
320,192,14978,128,0,15407:0:0:0:0:
192,192,15193,128,0,15407:0:0:0:50:Hihat_Open.wav
448,192,15193,1,0,0:0:0:50:LR_NBell_D6.wav
64,192,15407,1,0,0:0:0:0:
192,192,15621,1,0,0:0:0:50:Hihat_Open.wav
320,192,15621,1,0,0:0:0:50:LR_NBell_A#6.wav
320,192,15835,1,0,0:0:0:0:
64,192,16050,1,0,0:0:0:50:Hihat_Open.wav
448,192,16050,128,0,16693:0:0:0:30:LR_NBell_D7.wav
192,192,16264,1,0,0:0:0:0:
64,192,16478,128,0,17121:0:0:0:50:Hihat_Open.wav
320,192,16693,1,0,0:0:0:0:
448,192,16907,128,0,17335:0:0:0:50:Hihat_Open.wav
192,192,17121,1,0,0:0:0:0:
64,192,17335,1,0,0:0:0:100:Kick_N.wav
320,192,17335,1,0,0:0:0:100:Clap.wav
192,192,17550,128,0,17978:0:0:0:0:
64,192,17764,128,0,17978:0:0:0:100:Clap.wav
448,192,17764,1,0,0:0:0:0:
320,192,17978,1,0,0:0:0:100:Kick_N.wav
448,192,17978,128,0,18407:0:0:0:70:LR_NBell_D7.wav
64,192,18193,1,0,0:0:0:100:Clap.wav
192,192,18193,1,0,0:0:0:0:
192,192,18407,1,0,0:0:0:70:LR_NBell_D7.wav
320,192,18621,128,0,19050:0:0:0:100:Kick_N.wav
448,192,18621,128,0,18835:0:0:0:100:Clap.wav
192,192,18835,1,0,0:0:0:0:
64,192,19050,1,0,0:0:0:100:Clap.wav
448,192,19050,1,0,0:0:0:50:LR_NBell_F5.wav
64,192,19264,1,0,0:0:0:50:LR_NBell_A5.wav
320,192,19478,128,0,19693:0:0:0:100:Kick_N.wav
448,192,19478,1,0,0:0:0:100:Clap.wav
192,192,19693,1,0,0:0:0:50:LR_NBell_A#5.wav
64,192,19907,128,0,20121:0:0:0:100:Kick_N.wav
448,192,19907,128,0,20335:0:0:0:100:Clap.wav
320,192,20121,1,0,0:0:0:50:LR_NBell_C6.wav
64,192,20335,1,0,0:0:0:100:Clap.wav
192,192,20335,1,0,0:0:0:0:
320,192,20550,1,0,0:0:0:100:Kick_N.wav
448,192,20550,1,0,0:0:0:50:LR_NBell_C6.wav
192,192,20657,1,0,0:0:0:100:Kick_N.wav
64,192,20764,1,0,0:0:0:100:Kick_N.wav
320,192,20764,1,0,0:0:0:100:Clap.wav
192,192,20978,1,0,0:0:0:0:
320,192,21193,1,0,0:0:0:100:Clap.wav
448,192,21193,1,0,0:0:0:50:LR_NBell_G6.wav
64,192,21407,1,0,0:0:0:100:Kick_N.wav
320,192,21407,1,0,0:0:0:50:LR_NBell_C6.wav
64,192,21621,128,0,21835:0:0:0:100:Clap.wav
192,192,21621,1,0,0:0:0:0:
320,192,21835,1,0,0:0:0:100:Kick_N.wav
448,192,21835,128,0,22050:0:0:0:50:LR_NBell_C6.wav
64,192,22050,1,0,0:0:0:100:Kick_N.wav
192,192,22050,1,0,0:0:0:100:Clap.wav
320,192,22157,1,0,0:0:0:0:
192,192,22264,128,0,22478:0:0:0:0:
64,192,22478,1,0,0:0:0:100:Clap.wav
448,192,22478,128,0,22907:0:0:0:50:LR_NBell_F6.wav
192,192,22693,1,0,0:0:0:100:Kick_N.wav
320,192,22693,1,0,0:0:0:50:LR_NBell_A5.wav
64,192,22907,1,0,0:0:0:100:Clap.wav
192,192,22907,1,0,0:0:0:50:LR_NBell_A#5.wav
448,192,23121,1,0,0:0:0:50:LR_NBell_C6.wav
192,192,23228,1,0,0:0:0:0:
64,192,23335,128,0,23764:0:0:0:100:Kick_N.wav
320,192,23335,128,0,23550:0:0:0:100:Clap.wav
448,192,23550,1,0,0:0:0:50:LR_NBell_C6.wav
192,192,23764,1,0,0:0:0:100:Clap.wav
320,192,23764,1,0,0:0:0:50:LR_NBell_F5.wav
192,192,23978,1,0,0:0:0:100:Kick_N.wav
320,192,23978,1,0,0:0:0:0:
64,192,24193,1,0,0:0:0:100:Kick_N.wav
192,192,24193,1,0,0:0:0:100:Clap.wav
448,192,24193,1,0,0:0:0:70:Hihat_Open.wav
320,192,24407,1,0,0:0:0:70:Hihat_Open.wav
64,192,24621,1,0,0:0:0:100:Clap.wav
192,192,24621,128,0,25050:0:0:0:70:Hihat_Open.wav
320,192,24835,1,0,0:0:0:100:Kick_N.wav
448,192,24835,1,0,0:0:0:70:Hihat_Open.wav
64,192,25050,1,0,0:0:0:100:Clap.wav
448,192,25050,128,0,25693:0:0:0:70:Hihat_Open.wav
320,192,25264,128,0,25693:0:0:0:70:Hihat_Open.wav
64,192,25478,1,0,0:0:0:100:Kick_N.wav
192,192,25478,1,0,0:0:0:100:Clap.wav
192,192,25693,1,0,0:0:0:70:Hihat_Open.wav
64,192,25907,1,0,0:0:0:100:Kick_N.wav
448,192,25907,1,0,0:0:0:100:Clap.wav
320,192,26121,1,0,0:0:0:70:Hihat_Open.wav
64,192,26335,128,0,26764:0:0:0:100:Clap.wav
192,192,26335,1,0,0:0:0:70:Hihat_Open.wav
192,192,26550,128,0,26764:0:0:0:100:Kick_N.wav
448,192,26550,1,0,0:0:0:70:Hihat_Open.wav
320,192,26764,1,0,0:0:0:100:Clap.wav
448,192,26764,128,0,27193:0:0:0:70:Hihat_Open.wav
320,192,26978,128,0,27193:0:0:0:70:Hihat_Open.wav
64,192,27193,128,0,27621:0:0:0:100:Kick_N.wav
192,192,27193,1,0,0:0:0:100:Clap.wav
192,192,27407,128,0,27621:0:0:0:70:Hihat_Open.wav
320,192,27621,128,0,28050:0:0:0:100:Kick_N.wav
448,192,27621,128,0,27835:0:0:0:100:Clap.wav
64,192,27835,1,0,0:0:0:100:Clap.wav
192,192,28050,1,0,0:0:0:100:Kick_N.wav
448,192,28050,1,0,0:0:0:100:Clap.wav
320,192,28264,1,0,0:0:0:100:Clap.wav
64,192,28478,128,0,28693:0:0:0:100:Kick_N.wav
192,192,28478,128,0,28907:0:0:0:100:Clap.wav
448,192,28693,1,0,0:0:0:100:Clap.wav
64,192,28907,1,0,0:0:0:100:Kick_N.wav
320,192,28907,1,0,0:0:0:100:Clap.wav
192,192,29121,1,0,0:0:0:100:Clap.wav
64,192,29228,1,0,0:0:0:50:LR_NBell_D#6.wav
320,192,29335,128,0,29764:0:0:0:100:Clap.wav
448,192,29335,128,0,29550:0:0:0:50:LR_NBell_D6.wav
192,192,29550,1,0,0:0:0:100:Clap.wav
448,192,29657,1,0,0:0:0:50:LR_NBell_D#6.wav
64,192,29764,1,0,0:0:0:100:Kick_N.wav
192,192,29764,1,0,0:0:0:100:Clap.wav
64,192,29978,1,0,0:0:0:100:Clap.wav
320,192,30193,1,0,0:0:0:100:Kick_N.wav
448,192,30193,1,0,0:0:0:100:Clap.wav
64,192,30407,1,0,0:0:0:100:Clap.wav
320,192,30407,1,0,0:0:0:50:LR_NBell_A6.wav
64,192,30621,1,0,0:0:0:100:Kick_N.wav
192,192,30621,1,0,0:0:0:100:Clap.wav
192,192,30835,1,0,0:0:0:100:Clap.wav
448,192,30835,1,0,0:0:0:0:
64,192,31050,128,0,31478:0:0:0:50:Kick_Bass.wav
320,192,31050,128,0,31264:0:0:0:0:
448,192,31050,128,0,31693:0:0:0:0:
64,192,31693,1,0,0:0:0:50:Kick_Bass.wav
192,192,31693,1,0,0:0:0:0:
320,192,31800,1,0,0:0:0:0:
192,192,31907,1,0,0:0:0:100:Clap.wav
448,192,31907,128,0,32014:0:0:0:70:Clap_2.wav
448,192,32121,128,0,32228:0:0:0:0:
64,192,32335,128,0,32443:0:0:0:0:
448,192,32335,128,0,32550:0:0:0:0:
192,192,32550,1,0,0:0:0:0:
320,192,32657,1,0,0:0:0:0:
64,192,32764,128,0,32978:0:0:0:0:
192,192,32764,128,0,32871:0:0:0:0:
320,192,32978,1,0,0:0:0:50:Kick_Bass.wav
448,192,32978,1,0,0:0:0:0:
192,192,33085,1,0,0:0:0:0:
448,192,33193,1,0,0:0:0:0:
192,192,33300,1,0,0:0:0:0:
320,192,33407,128,0,33514:0:0:0:0:
448,192,33407,128,0,33621:0:0:0:0:
64,192,33621,1,0,0:0:0:100:Clap.wav
192,192,33621,1,0,0:0:0:70:Clap_2.wav
320,192,33728,1,0,0:0:0:0:
64,192,33835,1,0,0:0:0:0:
320,192,33943,1,0,0:0:0:0:
192,192,34050,128,0,34478:0:0:0:0:
64,192,34264,128,0,34478:0:0:0:0:
448,192,34371,128,0,34478:0:0:0:0:
320,192,34478,1,0,0:0:0:30:LR_NBell_A#6.wav
192,192,34585,1,0,0:0:0:30:LR_NBell_A#6.wav
64,192,34693,1,0,0:0:0:30:LR_NBell_F6.wav
320,192,34907,1,0,0:0:0:50:Kick_Bass.wav
448,192,34907,1,0,0:0:0:0:
192,192,35014,1,0,0:0:0:0:
64,192,35121,1,0,0:0:0:50:Kick_Bass.wav
448,192,35121,1,0,0:0:0:0:
320,192,35228,1,0,0:0:0:0:
64,192,35335,1,0,0:0:0:100:Clap.wav
192,192,35335,1,0,0:0:0:70:Clap_2.wav
448,192,35443,1,0,0:0:0:0:
192,192,35550,1,0,0:0:0:0:
448,192,35657,1,0,0:0:0:0:
320,192,35764,1,0,0:0:0:0:
64,192,35871,1,0,0:0:0:0:
320,192,35978,1,0,0:0:0:0:
64,192,36085,1,0,0:0:0:0:
448,192,36193,1,0,0:0:0:0:
192,192,36300,1,0,0:0:0:0:
320,192,36407,1,0,0:0:0:50:Kick_Bass.wav
448,192,36407,1,0,0:0:0:0:
192,192,36514,1,0,0:0:0:0:
64,192,36621,1,0,0:0:0:50:Kick_Bass.wav
320,192,36621,1,0,0:0:0:0:
192,192,36835,1,0,0:0:0:0:
320,192,36943,1,0,0:0:0:0:
64,192,37050,1,0,0:0:0:100:Clap.wav
192,192,37050,1,0,0:0:0:70:Clap_2.wav
320,192,37157,1,0,0:0:0:0:
64,192,37264,1,0,0:0:0:0:
192,192,37371,1,0,0:0:0:0:
320,192,37478,128,0,37693:0:0:0:0:
448,192,37478,128,0,37585:0:0:0:0:
192,192,37693,1,0,0:0:0:0:
448,192,37800,1,0,0:0:0:0:
64,192,37907,1,0,0:0:0:50:Kick_Bass.wav
192,192,37907,1,0,0:0:0:0:
320,192,38014,1,0,0:0:0:0:
448,192,38121,1,0,0:0:0:0:
192,192,38228,1,0,0:0:0:0:
64,192,38335,1,0,0:0:0:0:
192,192,38443,1,0,0:0:0:0:
320,192,38550,128,0,39193:0:0:0:50:Kick_Bass.wav
448,192,38550,128,0,39193:0:0:0:0:
64,192,38764,128,0,39835:0:0:0:100:Clap.wav
192,192,38764,128,0,39835:0:0:0:70:Clap_2.wav
320,192,39407,128,0,40050:0:0:0:50:Kick_Bass.wav
448,192,39407,128,0,40050:0:0:0:0:
64,192,40050,1,0,0:0:0:0:
192,192,40050,1,0,0:0:0:0:
192,192,40264,1,0,0:0:0:50:Kick_Bass.wav
320,192,40264,1,0,0:0:0:0:
64,192,40478,128,0,40907:0:0:0:100:Clap.wav
320,192,40478,1,0,0:0:0:70:Clap_2.wav
448,192,40478,128,0,41335:0:0:0:0:
192,192,40693,128,0,40907:0:0:0:0:
320,192,40907,128,0,41335:0:0:0:0:
64,192,41335,128,0,41764:0:0:0:50:Kick_Bass.wav
192,192,41335,128,0,41550:0:0:0:0:
320,192,41550,128,0,41978:0:0:0:0:
448,192,41764,128,0,41978:0:0:0:0:
64,192,41978,128,0,42193:0:0:0:50:Kick_Bass.wav
192,192,41978,128,0,42621:0:0:0:0:
448,192,42193,128,0,42621:0:0:0:0:
64,192,42621,128,0,42835:0:0:0:50:Kick_Bass.wav
320,192,42621,128,0,43264:0:0:0:0:
448,192,42835,128,0,43264:0:0:0:0:
64,192,43264,128,0,43478:0:0:0:50:Kick_Bass.wav
192,192,43264,128,0,43478:0:0:0:0:
64,192,43693,128,0,44335:0:0:0:50:Kick_Bass.wav
192,192,43693,128,0,44764:0:0:0:0:
320,192,43907,1,0,0:0:0:100:Clap.wav
448,192,43907,128,0,44121:0:0:0:70:Clap_2.wav
448,192,44335,128,0,44764:0:0:0:0:
64,192,44764,1,0,0:0:0:50:Kick_Bass.wav
320,192,44764,1,0,0:0:0:0:
192,192,44978,1,0,0:0:0:0:
320,192,45085,1,0,0:0:0:0:
64,192,45193,1,0,0:0:0:0:
192,192,45193,1,0,0:0:0:0:
320,192,45407,1,0,0:0:0:50:Kick_Bass.wav
448,192,45407,1,0,0:0:0:0:
192,192,45514,1,0,0:0:0:0:
64,192,45621,128,0,46050:0:0:0:100:Clap.wav
448,192,45621,128,0,46050:0:0:0:70:Clap_2.wav
320,192,45835,128,0,46050:0:0:0:0:
192,192,46050,1,0,0:0:0:0:
320,192,46157,1,0,0:0:0:0:
64,192,46264,1,0,0:0:0:100:Clap.wav
192,192,46264,1,0,0:0:0:70:Clap_2.wav
320,192,46371,1,0,0:0:0:0:
192,192,46478,128,0,46585:0:0:0:0:
448,192,46478,128,0,46693:0:0:0:0:
192,192,46693,1,0,0:0:0:0:
448,192,46800,1,0,0:0:0:0:
64,192,46907,128,0,47121:0:0:0:0:
320,192,46907,128,0,47014:0:0:0:0:
320,192,47121,1,0,0:0:0:50:Kick_Bass.wav
448,192,47121,1,0,0:0:0:0:
64,192,47228,1,0,0:0:0:0:
192,192,47335,1,0,0:0:0:100:Clap.wav
448,192,47335,128,0,47443:0:0:0:70:Clap_2.wav
448,192,47550,128,0,47657:0:0:0:0:
64,192,47764,1,0,0:0:0:0:
320,192,47871,1,0,0:0:0:0:
64,192,47978,1,0,0:0:0:0:
448,192,48085,1,0,0:0:0:0:
64,192,48193,1,0,0:0:0:50:Kick_Bass.wav
192,192,48193,1,0,0:0:0:0:
448,192,48300,1,0,0:0:0:0:
192,192,48407,1,0,0:0:0:0:
320,192,48514,1,0,0:0:0:0:
64,192,48621,1,0,0:0:0:0:
192,192,48728,1,0,0:0:0:0:
64,192,48835,1,0,0:0:0:0:
192,192,48943,1,0,0:0:0:0:
320,192,49050,1,0,0:0:0:100:Clap.wav
448,192,49050,1,0,0:0:0:70:Clap_2.wav
64,192,49157,1,0,0:0:0:0:
448,192,49264,1,0,0:0:0:0:
64,192,49371,1,0,0:0:0:0:
192,192,49478,1,0,0:0:0:50:Kick_Bass.wav
320,192,49478,1,0,0:0:0:0:
64,192,49693,1,0,0:0:0:100:Clap.wav
448,192,49693,1,0,0:0:0:70:Clap_2.wav
320,192,49907,128,0,50014:0:0:0:0:
320,192,50121,128,0,50228:0:0:0:100:Clap.wav
448,192,50121,1,0,0:0:0:70:Clap_2.wav
64,192,50335,128,0,50443:0:0:0:0:
64,192,50550,1,0,0:0:0:50:Kick_Bass.wav
192,192,50550,1,0,0:0:0:0:
320,192,50657,1,0,0:0:0:0:
64,192,50764,1,0,0:0:0:100:Clap.wav
448,192,50764,1,0,0:0:0:70:Clap_2.wav
192,192,50871,1,0,0:0:0:0:
320,192,50978,1,0,0:0:0:0:
192,192,51085,1,0,0:0:0:0:
320,192,51193,128,0,51300:0:0:0:0:
448,192,51193,128,0,51407:0:0:0:0:
64,192,51407,1,0,0:0:0:50:Kick_Bass.wav
192,192,51407,1,0,0:0:0:0:
320,192,51514,1,0,0:0:0:0:
64,192,51621,1,0,0:0:0:50:Kick_Bass.wav
192,192,51621,128,0,51728:0:0:0:0:
448,192,51835,1,0,0:0:0:0:
64,192,52050,128,0,52264:0:0:0:0:
192,192,52264,1,0,0:0:0:50:Kick_Bass.wav
448,192,52264,1,0,0:0:0:0:
320,192,52371,1,0,0:0:0:0:
64,192,52478,128,0,52693:0:0:0:100:Clap.wav
192,192,52478,1,0,0:0:0:70:Clap_2.wav
448,192,52585,128,0,52800:0:0:0:0:
64,192,52907,128,0,53121:0:0:0:50:Kick_Bass.wav
192,192,52907,1,0,0:0:0:0:
448,192,53014,128,0,53228:0:0:0:0:
64,192,53335,128,0,53550:0:0:0:0:
448,192,53443,128,0,53657:0:0:0:0:
64,192,53764,128,0,53978:0:0:0:0:
448,192,53871,128,0,54085:0:0:0:0:
320,192,53978,1,0,0:0:0:50:Kick_Bass.wav
64,192,54193,128,0,54407:0:0:0:100:Clap.wav
192,192,54193,1,0,0:0:0:70:Clap_2.wav
448,192,54300,128,0,54514:0:0:0:0:
64,192,54621,128,0,54835:0:0:0:0:
448,192,54728,128,0,54943:0:0:0:0:
64,192,55050,128,0,55264:0:0:0:50:Kick_Bass.wav
192,192,55050,1,0,0:0:0:0:
448,192,55157,128,0,55371:0:0:0:0:
64,192,55478,128,0,55693:0:0:0:0:
448,192,55585,128,0,55800:0:0:0:0:
320,192,55693,1,0,0:0:0:50:Kick_Bass.wav
64,192,55907,128,0,56121:0:0:0:100:Clap.wav
192,192,55907,1,0,0:0:0:70:Clap_2.wav
448,192,56014,128,0,56228:0:0:0:0:
64,192,56335,1,0,0:0:0:50:Kick_Bass.wav
192,192,56335,128,0,56550:0:0:0:0:
320,192,56443,128,0,56657:0:0:0:0:
192,192,56764,128,0,56978:0:0:0:0:
320,192,56871,128,0,57085:0:0:0:0:
192,192,57193,128,0,57407:0:0:0:0:
320,192,57300,128,0,57514:0:0:0:0:
448,192,57407,1,0,0:0:0:50:Kick_Bass.wav
64,192,57621,1,0,0:0:0:100:Clap.wav
192,192,57621,128,0,57835:0:0:0:70:Clap_2.wav
320,192,57728,128,0,57943:0:0:0:0:
192,192,58050,128,0,58478:0:0:0:0:
320,192,58157,128,0,58478:0:0:0:0:
64,192,58264,128,0,58478:0:0:0:0:
448,192,58478,1,0,0:0:0:0:
