osu file format v14

[General]
AudioFilename: audio.mp3
AudioLeadIn: 0
PreviewTime: 104109
Countdown: 1
SampleSet: Normal
StackLeniency: 0.7
Mode: 0
LetterboxInBreaks: 0
WidescreenStoryboard: 1

[Editor]
Bookmarks: 10776,20151,21443,32109,42776,53443,56109,64109,74776,85443,96109,107443,115776,118109,128776
DistanceSpacing: 0.7
BeatDivisor: 4
GridSize: 16
TimelineZoom: 1.8

[Metadata]
Title:ZABANIYA
TitleUnicode:ZABANIYA
Artist:Enritsu
ArtistUnicode:Enritsu
Creator:110
Version:AR9
Source:
Tags:g2r2018 bofu bof
BeatmapID:2133546
BeatmapSetID:1019264

[Difficulty]
HPDrainRate:7
CircleSize:4
OverallDifficulty:8.5
ApproachRate:9
SliderMultiplier:1.5
SliderTickRate:1

[Events]
//Background and Video events
0,0,"ZABANIYA.jpg",0,0
Video,0,"ZABANIYA.mp4"
//Break Periods
2,2976,7509
//Storyboard Layer 0 (Background)
//Storyboard Layer 1 (Fail)
//Storyboard Layer 2 (Pass)
//Storyboard Layer 3 (Foreground)
//Storyboard Layer 4 (Overlay)
//Storyboard Sound Samples

[TimingPoints]
110,333.333333333333,4,1,0,60,1,0
110,-166.666666666667,4,1,0,60,0,0
10776,-100,4,1,0,60,0,0
21443,-50,4,1,0,60,0,1
30776,-500,4,1,0,60,0,1
31443,-50,4,1,0,60,0,1
41443,-500,4,1,0,60,0,1
42026,-500,4,1,0,5,0,1
42276,-45.4545454545455,4,1,0,60,0,1
42359,-45.4545454545455,4,1,0,5,0,1
42443,-62.5,4,1,0,60,0,1
42526,-45.4545454545455,4,1,0,5,0,1
42609,-90.9090909090909,4,1,0,60,0,1
42693,-45.4545454545455,4,1,0,5,0,1
42776,-222.222222222222,4,1,0,60,0,0
44526,-222.222222222222,4,1,0,5,0,0
44609,-50,4,1,0,60,0,0
44859,-50,4,1,0,5,0,0
44943,-40,4,1,0,60,0,0
45026,-40,4,1,0,5,0,0
45443,-200,4,1,0,60,0,0
46693,-200,4,1,0,5,0,0
46776,-125,4,1,0,60,0,0
47526,-125,4,1,0,5,0,0
47609,-83.3333333333333,4,1,0,60,0,0
48026,-83.3333333333333,4,1,0,5,0,0
48109,-250,4,1,0,60,0,0
49859,-250,4,1,0,5,0,0
49943,-50,4,1,0,60,0,0
50193,-50,4,1,0,5,0,0
50276,-37.037037037037,4,1,0,60,0,0
50359,-37.037037037037,4,1,0,5,0,0
50776,-250,4,1,0,60,0,0
52026,-250,4,1,0,5,0,0
52109,-76.9230769230769,4,1,0,60,0,0
52193,-76.9230769230769,4,1,0,5,0,0
52276,-62.5,4,1,0,60,0,0
52359,-62.5,4,1,0,5,0,0
52443,-50,4,1,0,60,0,0
52526,-50,4,1,0,5,0,0
52609,-41.6666666666667,4,1,0,60,0,0
52693,-41.6666666666667,4,1,0,5,0,0
52776,-34.4827586206897,4,1,0,60,0,0
52859,-34.4827586206897,4,1,0,5,0,0
52943,-142.857142857143,4,1,0,60,0,0
53359,-142.857142857143,4,1,0,5,0,0
53443,-142.857142857143,4,1,0,60,0,0
55943,-142.857142857143,4,1,0,5,0,0
56109,-142.857142857143,4,1,0,60,0,0
58693,-142.857142857143,4,1,0,5,0,0
58776,-142.857142857143,4,1,0,80,0,0
61443,-66.6666666666667,4,1,0,80,0,0
63776,-133.333333333333,4,1,0,80,0,0
63943,-133.333333333333,4,1,0,5,0,0
64109,-133.333333333333,4,1,0,70,0,0
65943,-76.9230769230769,4,1,0,70,0,0
66776,-133.333333333333,4,1,0,70,0,0
68943,-76.9230769230769,4,1,0,70,0,0
69776,-133.333333333333,4,1,0,70,0,0
71234,-76.9230769230769,4,1,0,5,0,0
71276,-76.9230769230769,4,1,0,70,0,0
77443,-66.6666666666667,4,1,0,70,0,0
78776,-58.8235294117647,4,1,0,70,0,0
80109,-50,4,1,0,70,0,0
86276,-76.9230769230769,4,1,0,70,0,0
88109,-153.846153846154,4,1,0,70,0,0
88943,-76.9230769230769,4,1,0,70,0,0
90776,-153.846153846154,4,1,0,70,0,0
91609,-66.6666666666667,4,1,0,70,0,0
96109,-133.333333333333,4,1,0,70,0,0
97693,-133.333333333333,4,1,0,5,0,0
97776,-133.333333333333,4,1,0,70,0,0
98193,-133.333333333333,4,1,0,5,0,0
98276,-133.333333333333,4,1,0,70,0,0
100359,-133.333333333333,4,1,0,5,0,0
100443,-133.333333333333,4,1,0,70,0,0
100859,-133.333333333333,4,1,0,5,0,0
100943,-133.333333333333,4,1,0,70,0,0
102443,-285.714285714284,4,1,0,70,0,0
104109,-62.5,4,1,0,70,0,0
107443,333.333333333333,4,1,0,60,1,0
107443,-50,4,1,0,80,0,1
128109,-40,4,1,0,80,0,1
128192,-40,4,1,0,5,0,1
128276,-52.6315789473684,4,1,0,80,0,1
128359,-52.6315789473684,4,1,0,5,0,1
128442,-71.4285714285714,4,1,0,80,0,1
128526,-71.4285714285714,4,1,0,5,0,1
128609,-100,4,1,0,80,0,1
128692,-100,4,1,0,5,0,1
128776,-285.714285714286,4,1,0,30,0,0
133359,-285.714285714286,4,1,0,5,0,0

[Colours]
Combo1 : 120,103,241
Combo2 : 214,196,154
Combo3 : 235,228,97

[HitObjects]
99,184,110,6,0,B|132:105|41:70|-15:114|-36:169|-17:229|52:270|129:270|231:198|272:159|362:135|437:172|511:266,1,719.999978027344
256,192,8109,12,0,9776,0:0:0:0:
152,23,10109,5,0,0:0:0:0:
161,101,10443,5,0,0:0:0:0:
174,175,10776,6,0,L|257:167,1,75
400,192,11109,1,0,0:0:0:0:
402,214,11276,2,0,L|327:221,1,75
261,330,11609,1,0,0:0:0:0:
240,329,11776,2,0,L|248:255,1,75
329,135,12109,6,0,L|313:12,1,112.5
236,81,12443,2,0,L|229:26,1,37.5
420,192,12609,2,0,L|396:-2,1,187.5
511,245,13109,1,0,0:0:0:0:
511,245,13443,6,0,P|492:300|476:321,1,75
302,332,13776,1,0,0:0:0:0:
327,343,13943,2,0,P|363:333|396:315,1,75
223,273,14276,1,0,0:0:0:0:
97,350,14443,2,0,P|137:353|170:335,1,75
238,253,14776,6,0,L|227:129,1,112.5
147,158,15109,2,0,L|150:195,1,37.5
325,306,15276,2,0,L|307:112,1,187.5
303,28,15776,2,0,L|415:44,1,112.5
512,66,16109,5,0,0:0:0:0:
512,66,16276,1,0,0:0:0:0:
440,137,16443,5,0,0:0:0:0:
440,137,16610,1,0,0:0:0:0:
475,225,16776,5,0,0:0:0:0:
475,225,16943,1,0,0:0:0:0:
418,301,17110,5,0,0:0:0:0:
418,301,17277,1,0,0:0:0:0:
323,288,17443,5,0,0:0:0:0:
164,258,17609,1,0,0:0:0:0:
208,337,17776,5,0,0:0:0:0:
232,142,17943,1,0,0:0:0:0:
125,176,18109,5,0,0:0:0:0:
380,213,18276,1,0,0:0:0:0:
274,5,18443,5,0,0:0:0:0:
253,73,18526,1,0,0:0:0:0:
232,142,18609,1,0,0:0:0:0:
331,364,18776,5,0,0:0:0:0:
405,363,18859,1,0,0:0:0:0:
463,314,18943,1,0,0:0:0:0:
479,241,19026,1,0,0:0:0:0:
447,173,19109,1,0,0:0:0:0:
379,139,19193,1,0,0:0:0:0:
305,154,19276,1,0,0:0:0:0:
255,210,19359,1,0,0:0:0:0:
181,225,19442,5,0,0:0:0:0:
113,191,19526,1,0,0:0:0:0:
81,123,19609,1,0,0:0:0:0:
97,50,19692,1,0,0:0:0:0:
155,1,19776,1,0,0:0:0:0:
229,0,19859,1,0,0:0:0:0:
292,41,19943,1,0,0:0:0:0:
315,111,20026,1,0,0:0:0:0:
303,186,20109,5,0,0:0:0:0:
315,206,20193,1,0,0:0:0:0:
330,221,20276,1,0,0:0:0:0:
351,227,20359,1,0,0:0:0:0:
373,223,20443,5,0,0:0:0:0:
426,171,20526,1,0,0:0:0:0:
396,102,20609,1,0,0:0:0:0:
322,113,20692,1,0,0:0:0:0:
303,186,20776,5,0,0:0:0:0:
237,222,20859,1,0,0:0:0:0:
167,251,20943,1,0,0:0:0:0:
98,277,21025,1,0,0:0:0:0:
42,225,21109,5,0,0:0:0:0:
59,151,21193,1,0,0:3:0:0:
78,77,21277,1,0,0:3:0:0:
99,6,21359,1,0,0:3:0:0:
171,33,21443,6,0,B|115:49|115:49|29:16,1,150
227,113,21776,2,0,B|283:129|283:129|369:96,1,150
496,7,22109,1,0,0:0:0:0:
304,10,22276,1,0,0:0:0:0:
450,117,22443,2,0,B|423:276,1,150
385,377,22776,6,0,B|465:392|465:392|508:330,1,150
423,280,23109,1,0,0:0:0:0:
242,374,23276,1,0,0:0:0:0:
322,218,23443,6,0,L|332:292,1,75
150,370,23609,2,0,L|163:296,1,75
307,201,23776,2,0,L|317:275,1,75
135,353,23942,2,0,L|148:279,1,75
205,182,24109,6,0,B|172:160|172:160|46:180,1,150
2,46,24443,2,0,B|35:68|35:68|161:48,1,150
285,12,24776,1,0,0:0:0:0:
204,156,24943,1,0,0:0:0:0:
360,100,25109,2,0,L|508:81,1,150
382,196,25443,6,0,B|454:226|454:226|513:183,1,150
443,129,25776,1,0,0:0:0:0:
512,288,25943,1,0,0:0:0:0:
386,347,26109,6,0,B|351:360|351:360|315:349,1,75
283,208,26276,2,0,B|318:195|318:195|354:206,1,75
233,354,26443,2,0,B|198:367|198:367|162:356,1,75
130,215,26610,2,0,B|165:202|165:202|201:213,1,75
47,367,26776,6,0,B|61:323|61:323|45:219,1,150
128,68,27109,2,0,B|114:112|114:112|130:216,1,150
8,61,27443,1,0,0:0:0:0:
38,198,27609,1,0,0:0:0:0:
205,119,27776,2,0,L|362:130,1,150
512,156,28109,6,0,B|477:193|477:193|468:305,1,150
438,113,28443,1,0,0:0:0:0:
488,282,28609,1,0,0:0:0:0:
353,158,28776,6,0,L|347:235,1,75
387,318,28943,2,0,L|310:312,1,75
227,352,29109,2,0,L|233:275,1,75
193,192,29276,2,0,L|270:198,1,75
352,67,29443,6,0,B|309:49|309:49|194:57,1,150
0,104,29776,2,0,B|43:122|43:122|158:114,1,150
142,1,30109,1,0,0:0:0:0:
0,87,30276,1,0,0:0:0:0:
193,192,30443,2,0,L|34:203,1,150
307,70,30776,6,0,L|353:66,1,45
351,47,31443,5,0,0:0:0:0:
357,121,31526,1,0,0:0:0:0:
365,195,31609,1,0,0:0:0:0:
371,269,31692,1,0,0:0:0:0:
440,294,31776,5,0,0:0:0:0:
365,299,31859,1,0,0:0:0:0:
291,307,31942,1,0,0:0:0:0:
217,314,32025,1,0,0:0:0:0:
186,383,32109,6,0,B|201:331|201:331|190:225,1,150
64,247,32443,1,0,0:0:0:0:
44,360,32609,1,0,0:0:0:0:
171,207,32776,1,0,0:0:0:0:
93,52,32942,1,0,0:0:0:0:
243,14,33109,2,0,B|228:66|228:66|239:172,1,150
462,88,33443,6,0,P|410:59|314:71,1,150
512,157,33776,1,0,0:0:0:0:
171,207,33943,2,0,P|218:157|298:151,1,150
162,287,34276,1,0,0:0:0:0:
403,345,34443,1,0,0:0:0:0:
354,215,34609,1,0,0:0:0:0:
237,321,34776,6,0,B|189:307|189:307|76:330,1,150
0,364,35109,1,0,0:0:0:0:
79,243,35276,1,0,0:0:0:0:
0,113,35443,1,0,0:0:0:0:
80,331,35609,1,0,0:0:0:0:
221,194,35776,2,0,B|269:180|269:180|382:203,1,150
483,282,36109,6,0,P|408:278|353:220,1,150
345,79,36443,1,0,0:0:0:0:
208,384,36609,2,0,P|263:350|279:271,1,150
181,112,36943,1,0,0:0:0:0:
48,329,37109,1,0,0:0:0:0:
189,292,37276,1,0,0:0:0:0:
68,217,37443,6,0,L|87:68,1,150
161,0,37776,1,0,0:0:0:0:
181,112,37943,1,0,0:0:0:0:
334,2,38109,1,0,0:0:0:0:
289,207,38276,1,0,0:0:0:0:
197,92,38443,2,0,B|265:82|265:82|354:109,1,150
504,0,38776,6,0,P|447:49|437:128,1,150
470,279,39109,1,0,0:0:0:0:
176,293,39276,2,0,P|231:246|312:234,1,150
470,279,39609,1,0,0:0:0:0:
240,202,39776,1,0,0:0:0:0:
292,384,39943,1,0,0:0:0:0:
454,267,40109,6,0,B|444:161|444:161|466:115,1,150
512,34,40443,1,0,0:0:0:0:
363,137,40609,1,0,0:0:0:0:
149,16,40776,1,0,0:0:0:0:
285,0,40943,1,0,0:0:0:0:
239,122,41109,2,0,L|253:282,1,150
149,16,41443,5,0,0:0:0:0:
149,16,41609,2,0,L|152:55,1,37.5
155,72,42109,1,0,0:0:0:0:
372,30,42276,6,0,P|386:71|379:117,1,82.5000025177003
161,171,42443,6,0,P|152:205|155:240,1,60
335,297,42609,6,0,P|343:329|341:353,1,41.2500012588501
236,330,42776,6,0,B|137:275|0:334|0:334|27:279|99:287,1,354.374989185334
75,335,44609,6,0,L|56:104,1,225.000008583069
211,6,44943,6,0,L|201:103,1,93.75
183,97,45443,6,0,P|249:128|216:4,1,281.25
159,113,46776,6,0,P|98:137|202:200,1,270
223,224,47609,6,0,P|267:221|209:304,1,224.999993133545
179,320,48109,6,0,B|293:302|293:302|333:328|333:328|424:307|424:307|371:274,1,315
470,372,49943,6,0,B|409:251|500:160,1,225
322,139,50276,6,0,B|343:89|322:38,1,101.250000386238
308,23,50776,6,0,B|235:48|235:48|84:32,1,225
9,46,52109,6,0,P|24:82|38:95,1,48.7499977684022
24,166,52276,6,0,P|59:189|99:194,1,60
106,268,52443,6,0,P|150:273|188:264,1,75
237,322,52610,6,0,P|287:308|322:279,1,89.9999972534181
393,304,52776,6,0,P|418:248|424:200,1,108.750003318787
498,170,52943,6,0,P|492:107|464:42,1,131.249995994568
398,0,53443,5,0,0:0:0:0:
326,7,53776,1,0,0:0:0:0:
254,14,54109,1,0,0:0:0:0:
182,22,54443,1,0,0:0:0:0:
110,31,54776,1,0,0:0:0:0:
38,40,55109,1,0,0:0:0:0:
502,7,55276,6,0,L|391:-1,2,104.999996795654
398,0,56109,5,0,0:0:0:0:
326,7,56442,1,0,0:0:0:0:
254,14,56775,1,0,0:0:0:0:
182,22,57109,1,0,0:0:0:0:
0,159,57443,6,0,L|109:169,1,104.999996795654
104,168,58109,1,0,0:0:0:0:
512,240,58276,2,0,L|370:248,1,131.249995994568
99,256,58776,5,0,0:0:0:0:
137,275,58943,1,0,0:0:0:0:
161,311,59109,1,0,0:0:0:0:
172,352,59276,1,0,0:0:0:0:
363,156,59443,5,0,0:0:0:0:
322,163,59609,1,0,0:0:0:0:
291,191,59776,1,0,0:0:0:0:
277,231,59943,1,0,0:0:0:0:
138,24,60109,5,0,0:0:0:0:
158,61,60276,1,0,0:0:0:0:
167,102,60443,1,0,0:0:0:0:
167,144,60609,1,0,0:0:0:0:
482,18,60776,5,0,0:0:0:0:
382,28,60943,1,0,0:0:0:0:
284,38,61109,1,0,0:0:0:0:
284,38,61443,6,0,L|277:100,3,56.2500021457673
320,166,61776,2,0,L|328:227,3,56.2500021457673
430,317,62109,5,0,0:0:0:0:
359,293,62193,1,0,0:0:0:0:
285,288,62276,1,0,0:0:0:0:
212,300,62359,1,0,0:0:0:0:
151,343,62443,1,0,0:0:0:0:
77,340,62526,1,0,0:0:0:0:
19,293,62609,1,0,0:0:0:0:
3,219,62693,1,0,0:0:0:0:
32,152,62775,5,0,0:0:0:0:
98,116,62859,1,0,0:0:0:0:
171,126,62942,1,0,0:0:0:0:
228,171,63025,1,0,0:0:0:0:
298,195,63109,1,0,0:0:0:0:
372,187,63193,1,0,0:0:0:0:
428,138,63276,1,0,0:0:0:0:
466,75,63359,1,0,0:0:0:0:
469,0,63443,5,0,0:0:0:0:
372,11,63609,2,0,L|304:17,1,56.2500021457673
108,34,63776,6,0,L|40:40,1,56.2500021457673
30,31,64109,5,0,0:0:0:0:
38,109,64276,1,0,0:0:0:0:
49,186,64443,2,0,L|115:179,1,56.2500021457673
125,185,64776,5,0,0:0:0:0:
142,190,64859,5,0,0:0:0:0:
224,209,64984,1,0,0:0:0:0:
304,184,65109,1,0,0:0:0:0:
221,166,65276,5,0,0:0:0:0:
195,89,65443,2,0,L|192:21,1,56.2500021457673
279,69,65776,2,0,L|333:74,1,42.1875016093255
354,67,65943,6,0,L|351:39,1,24.3749988842011
389,60,66026,2,0,L|386:32,1,24.3749988842011
424,53,66109,1,0,0:0:0:0:
388,169,66276,6,0,L|385:141,1,24.3749988842011
423,162,66359,2,0,L|420:134,1,24.3749988842011
458,155,66442,1,0,0:0:0:0:
424,276,66609,6,0,L|421:248,1,24.3749988842011
459,269,66692,2,0,L|456:241,1,24.3749988842011
494,262,66776,5,0,0:0:0:0:
412,259,66943,1,0,0:0:0:0:
330,257,67109,2,0,L|338:315,1,56.2500021457673
342,333,67443,1,0,0:0:0:0:
346,354,67526,5,0,0:0:0:0:
239,384,67651,1,0,0:0:0:0:
261,290,67776,1,0,0:0:0:0:
140,253,67943,5,0,0:0:0:0:
155,354,68109,1,0,0:0:0:0:
109,349,68193,1,0,0:0:0:0:
71,324,68276,1,0,0:0:0:0:
46,286,68359,1,0,0:0:0:0:
42,240,68443,1,0,0:0:0:0:
57,197,68526,1,0,0:0:0:0:
90,167,68609,1,0,0:0:0:0:
133,154,68693,1,0,0:0:0:0:
177,160,68776,5,0,0:0:0:0:
213,185,68859,1,0,0:0:0:0:
258,185,68943,2,0,L|261:152,1,24.3749988842011
295,159,69026,2,0,L|298:130,1,24.3749988842011
322,115,69109,5,0,0:0:0:0:
358,90,69192,1,0,0:0:0:0:
403,90,69276,2,0,L|407:119,1,24.3749988842011
440,116,69359,2,0,L|445:142,1,24.3749988842011
460,154,69443,5,0,0:0:0:0:
442,231,69609,1,0,0:0:0:0:
422,308,69776,2,0,L|358:304,1,56.2500021457673
344,302,70109,5,0,0:0:0:0:
322,300,70193,5,0,0:0:0:0:
229,291,70318,1,0,0:0:0:0:
157,347,70443,1,0,0:0:0:0:
201,243,70609,5,0,0:0:0:0:
309,203,70776,2,0,L|372:209,1,56.2500021457673
500,78,71109,2,0,L|445:83,1,42.1875016093255
412,73,71276,6,0,L|418:44,1,24.3749988842011
364,67,71359,2,0,L|370:38,1,24.3749988842011
315,61,71443,1,0,0:0:0:0:
246,140,71609,6,0,L|252:111,1,24.3749988842011
198,134,71692,2,0,L|204:105,1,24.3749988842011
149,128,71776,1,0,0:0:0:0:
103,39,71943,6,0,L|109:10,1,24.3749988842011
55,33,72026,2,0,L|61:4,1,24.3749988842011
6,27,72110,5,0,0:0:0:0:
6,27,73443,5,0,0:0:0:0:
19,101,73609,5,0,0:0:0:0:
1,174,73776,5,0,0:0:0:0:
14,248,73942,5,0,0:0:0:0:
2,328,74109,5,0,0:0:0:0:
2,328,74193,1,0,0:0:0:0:
2,328,74276,2,0,L|9:364,4,24.3749988842011
89,335,74526,1,0,0:0:0:0:
89,335,74609,2,0,L|88:376,3,24.3749988842011
168,361,74776,6,0,P|206:340|281:338,1,97.4999955368044
391,349,75109,1,0,0:0:0:0:
391,349,75443,1,0,0:0:0:0:
473,331,75609,1,0,0:0:0:0:
505,251,75776,1,0,0:0:0:0:
482,166,75943,1,0,0:0:0:0:
402,142,76109,6,0,L|299:154,1,97.4999955368044
193,169,76443,2,0,L|90:181,1,97.4999955368044
5,19,76693,1,0,0:0:0:0:
5,19,76776,6,0,L|116:24,1,97.4999955368044
214,30,77109,2,0,L|332:38,1,97.4999955368044
463,74,77443,6,0,L|472:-14,2,75.000002861023
389,182,77776,2,0,L|379:95,2,75.000002861023
472,275,78109,2,0,L|488:186,2,75.000002861023
390,362,78443,2,0,L|377:278,2,75.000002861023
212,339,78776,6,0,P|254:333|305:334,2,85.0000016212464
109,269,79109,2,0,P|69:265|16:267,2,85.0000016212464
211,185,79443,2,0,P|253:179|304:180,2,85.0000016212464
108,115,79776,2,0,P|68:111|15:113,2,85.0000016212464
265,6,80109,6,0,P|260:52|268:85,1,75
395,123,80276,2,0,P|400:77|392:44,1,75
253,12,80443,6,0,P|248:58|256:91,1,75
383,129,80610,2,0,P|388:83|380:50,1,75
245,89,80776,6,0,P|238:52|244:16,1,75
372,59,80943,2,0,P|379:96|374:133,1,75
233,95,81110,6,0,P|226:58|232:22,1,75
360,65,81277,2,0,P|367:102|362:139,1,75
249,286,81443,6,0,P|254:240|246:207,1,75
119,169,81610,2,0,P|114:215|122:248,1,75
261,280,81777,6,0,P|266:234|258:201,1,75
131,163,81944,2,0,P|126:209|134:242,1,75
268,202,82110,6,0,P|274:238|269:275,1,75
141,232,82277,2,0,P|134:195|139:158,1,75
280,196,82444,6,0,P|286:232|281:269,1,75
153,226,82609,2,0,P|146:189|151:152,1,75
258,63,82776,5,0,0:0:0:0:
268,62,82832,1,0,0:0:0:0:
277,61,82887,1,0,0:0:0:0:
287,60,82943,1,0,0:0:0:0:
296,59,82998,1,0,0:0:0:0:
306,58,83054,1,0,0:0:0:0:
315,57,83109,5,0,0:0:0:0:
325,56,83151,1,0,0:0:0:0:
335,55,83221,1,0,0:0:0:0:
344,54,83276,1,0,0:0:0:0:
354,53,83332,1,0,0:0:0:0:
363,52,83387,1,0,0:0:0:0:
373,51,83443,5,0,0:0:0:0:
382,50,83498,1,0,0:0:0:0:
392,49,83554,1,0,0:0:0:0:
402,48,83610,1,0,0:0:0:0:
411,47,83665,1,0,0:0:0:0:
421,46,83721,1,0,0:0:0:0:
430,45,83776,5,0,0:0:0:0:
440,44,83832,1,0,0:0:0:0:
450,43,83888,1,0,0:0:0:0:
459,42,83943,1,0,0:0:0:0:
469,41,83999,1,0,0:0:0:0:
478,40,84054,1,0,0:0:0:0:
488,39,84109,6,0,L|495:93,15,37.5
497,114,84776,1,0,0:0:0:0:
185,92,84943,1,0,0:0:0:0:
241,27,85276,1,0,0:0:0:0:
214,363,85443,5,0,0:0:0:0:
214,363,85776,1,0,0:0:0:0:
214,363,86109,1,0,0:0:0:0:
307,326,86276,2,0,P|359:317|409:325,1,97.4999955368044
156,279,86609,2,0,P|113:256|61:246,1,97.4999955368044
308,231,86943,2,0,P|323:185|352:142,1,97.4999955368044
218,207,87276,2,0,P|228:157|225:101,1,97.4999955368044
4,191,87609,2,0,P|-2:115|23:0,1,194.999991073609
29,0,88109,6,0,P|19:34|34:97,1,97.4999955368044
264,192,88776,1,0,0:0:0:0:
383,59,88943,2,0,P|369:106|337:152,1,97.4999955368044
145,325,89276,2,0,P|158:278|185:237,1,97.4999955368044
295,373,89609,2,0,P|279:332|270:276,1,97.4999955368044
242,12,89943,2,0,P|258:53|267:109,1,97.4999955368044
435,280,90276,2,0,P|385:265|348:236,1,97.4999955368044
177,147,90609,1,0,0:0:0:0:
177,147,90776,2,0,P|133:112|81:94,1,97.4999955368044
266,105,91443,5,0,0:0:0:0:
282,331,91609,2,0,L|165:338,1,112.500004291535
54,344,91943,2,0,L|47:227,1,112.500004291535
43,119,92276,2,0,L|155:112,1,112.500004291535
266,105,92610,2,0,L|272:217,1,112.500004291535
169,337,92943,2,0,L|155:103,1,225.000008583069
273,217,93443,2,0,L|48:230,1,225.000008583069
142,82,94109,5,0,0:0:0:0:
324,114,94276,2,0,P|330:58|322:3,1,112.500004291535
268,272,94609,2,0,P|262:328|271:384,1,112.500004291535
378,180,94943,2,0,P|430:157|474:123,1,112.500004291535
209,216,95276,2,0,P|157:239|114:274,1,112.500004291535
353,259,95609,2,0,P|398:292|451:313,1,112.500004291535
239,135,95943,1,0,0:0:0:0:
239,135,96109,6,0,P|194:102|142:82,1,112.500004291535
141,80,96776,1,0,0:0:0:0:
141,80,96943,1,0,0:0:0:0:
383,24,97109,1,0,0:0:0:0:
295,196,97276,1,0,0:0:0:0:
412,144,97443,6,0,P|445:136|505:137,1,84.3750032186509
315,320,97776,1,0,0:0:0:0:
315,320,97943,2,0,P|271:319|231:304,1,84.3750032186509
431,301,98276,2,0,L|423:361,1,56.2500021457673
295,196,98526,1,0,0:0:0:0:
295,196,98609,1,0,0:0:0:0:
295,196,98776,6,0,L|173:204,1,112.500004291535
182,203,99443,1,0,0:0:0:0:
106,162,99776,5,0,0:0:0:0:
215,320,99943,1,0,0:0:0:0:
390,246,100109,6,0,B|402:201|402:201|396:152,1,84.3750032186509
275,21,100443,1,0,0:0:0:0:
275,21,100609,2,0,B|263:66|263:66|269:115,1,84.3750032186509
392,147,100943,1,0,0:0:0:0:
137,177,101109,1,0,0:0:0:0:
265,213,101276,1,0,0:0:0:0:
246,7,101443,6,0,L|152:22,1,84.3750032186509
74,34,101776,1,0,0:0:0:0:
357,354,101943,2,0,L|439:341,1,84.3750032186509
267,367,102276,1,0,0:0:0:0:
478,1,102443,6,0,P|452:52|430:154,1,157.499995193482
237,47,103609,1,0,0:0:0:0:
212,119,103693,1,0,0:0:0:0:
219,194,103776,1,0,0:0:0:0:
267,367,103943,1,0,0:0:0:0:
467,340,104109,6,0,L|401:332,1,60
332,322,104276,1,0,0:0:0:0:
27,271,104443,2,0,L|93:263,1,60
162,253,104610,1,0,0:0:0:0:
464,143,104776,2,0,L|398:135,1,60
329,125,104943,1,0,0:0:0:0:
24,74,105110,2,0,L|90:66,1,60
159,56,105277,1,0,0:0:0:0:
476,59,105443,5,0,0:0:0:0:
489,130,105526,1,0,0:0:0:0:
473,200,105609,1,0,0:0:0:0:
420,253,105693,1,0,0:0:0:0:
421,265,105776,5,0,0:0:0:0:
350,278,105859,1,0,0:0:0:0:
280,262,105942,1,0,0:0:0:0:
227,210,106026,1,0,0:0:0:0:
232,193,106109,5,0,0:0:0:0:
240,120,106193,1,0,0:0:0:0:
204,57,106276,1,0,0:0:0:0:
142,19,106359,1,0,0:0:0:0:
135,5,106443,5,0,0:0:0:0:
120,99,106526,1,0,0:0:0:0:
106,193,106609,1,0,0:0:0:0:
92,288,106693,1,0,0:0:0:0:
77,382,106776,1,0,0:0:0:0:
77,382,107443,6,0,B|129:357|129:357|230:363,1,150
440,284,107776,2,0,B|347:278|347:278|295:303,1,150
24,238,108109,1,0,0:0:0:0:
12,84,108276,1,0,0:0:0:0:
26,33,108359,1,0,0:0:0:0:
67,0,108443,1,0,0:0:0:0:
209,277,108609,1,0,0:0:0:0:
446,76,108776,6,0,P|359:65|289:77,1,150
61,313,109109,2,0,P|63:231|99:153,1,150
237,0,109443,1,0,0:0:0:0:
512,149,109609,1,0,0:0:0:0:
467,177,109693,1,0,0:0:0:0:
414,172,109776,1,0,0:0:0:0:
315,202,109943,1,0,0:0:0:0:
94,142,110109,6,0,L|261:131,1,150
508,324,110443,2,0,L|340:301,1,150
72,378,110776,1,0,0:0:0:0:
81,124,110943,1,0,0:0:0:0:
92,72,111026,1,0,0:0:0:0:
105,21,111109,1,0,0:0:0:0:
0,244,111276,1,0,0:0:0:0:
328,212,111443,6,0,B|369:148|369:148|344:74,1,150
485,5,111776,2,0,B|444:69|444:69|469:143,1,150
293,0,112109,1,0,0:0:0:0:
201,188,112276,2,0,P|204:239|220:267,1,75
309,204,112443,1,0,0:0:0:0:
188,58,112609,1,0,0:0:0:0:
2,184,112776,6,0,P|-3:104|16:31,1,150
66,357,113109,2,0,P|93:280|97:194,1,150
392,363,113443,1,0,0:0:0:0:
291,250,113609,1,0,0:0:0:0:
316,203,113693,1,0,0:0:0:0:
317,150,113776,1,0,0:0:0:0:
117,106,113943,1,0,0:0:0:0:
351,4,114109,6,0,B|379:57|379:57|361:156,1,150
132,131,114443,2,0,B|104:184|104:184|122:283,1,150
348,250,114776,1,0,0:0:0:0:
295,72,114942,1,0,0:0:0:0:
243,58,115026,1,0,0:0:0:0:
193,75,115109,1,0,0:0:0:0:
351,4,115276,1,0,0:0:0:0:
477,277,115442,6,0,L|321:268,1,150
512,10,115776,2,0,L|362:18,1,150
43,123,116109,1,0,0:0:0:0:
241,264,116276,1,0,0:0:0:0:
236,316,116359,1,0,0:0:0:0:
213,363,116442,1,0,0:0:0:0:
0,313,116609,1,0,0:0:0:0:
2,50,116776,6,0,B|55:2|55:2|134:16,1,150
215,48,117109,2,0,B|268:0|268:0|347:14,1,150
345,13,117442,5,0,0:0:0:0:
425,24,117526,1,0,0:0:0:0:
416,98,117609,1,0,0:0:0:0:
340,89,117693,1,0,0:0:0:0:
331,163,117776,1,0,0:0:0:0:
407,172,117859,1,0,0:0:0:0:
398,246,117943,1,0,0:0:0:0:
322,237,118026,1,0,0:0:0:0:
350,311,118109,6,0,P|436:318|476:263,1,150
177,331,118442,2,0,P|124:381|53:367,1,150
0,48,118776,1,0,0:0:0:0:
167,177,118942,1,0,0:0:0:0:
219,180,119025,1,0,0:0:0:0:
271,186,119109,1,0,0:0:0:0:
102,300,119276,1,0,0:0:0:0:
18,61,119442,6,0,B|60:31|60:31|166:37,1,150
464,59,119776,2,0,B|425:23|425:23|315:16,1,150
34,165,120109,1,0,0:0:0:0:
380,127,120276,1,0,0:0:0:0:
405,172,120359,1,0,0:0:0:0:
402,224,120442,1,0,0:0:0:0:
304,384,120609,1,0,0:0:0:0:
15,296,120776,6,0,L|-2:136,1,150
236,0,121109,2,0,L|212:153,1,150
62,384,121442,1,0,0:0:0:0:
27,153,121609,1,0,0:0:0:0:
76,135,121692,1,0,0:0:0:0:
127,147,121776,1,0,0:0:0:0:
265,222,121942,1,0,0:0:0:0:
472,134,122109,6,0,B|497:59|497:59|440:3,1,150
322,148,122442,2,0,B|297:223|297:223|354:279,1,150
389,88,122776,1,0,0:0:0:0:
235,29,122942,2,0,L|243:111,1,75
355,3,123109,1,0,0:0:0:0:
340,163,123276,1,0,0:0:0:0:
113,148,123442,6,0,P|110:73|125:0,1,150
42,372,123776,2,0,P|18:279|20:216,1,150
262,40,124109,1,0,0:0:0:0:
270,281,124276,1,0,0:0:0:0:
253,330,124359,1,0,0:0:0:0:
236,379,124442,1,0,0:0:0:0:
0,95,124609,1,0,0:0:0:0:
368,213,124776,6,0,B|425:235|425:235|530:216,1,150
121,233,125109,2,0,B|208:217|208:217|265:239,1,150
18,225,125442,1,0,0:0:0:0:
345,133,125609,1,0,0:0:0:0:
357,82,125692,1,0,0:0:0:0:
370,30,125776,1,0,0:0:0:0:
113,0,125942,1,0,0:0:0:0:
23,236,126109,5,0,0:0:0:0:
57,302,126192,1,0,0:0:0:0:
122,331,126276,1,0,0:0:0:0:
195,316,126359,1,0,0:0:0:0:
242,258,126442,1,0,0:0:0:0:
313,233,126526,1,0,0:0:0:0:
387,242,126609,1,0,0:0:0:0:
451,280,126692,1,0,0:0:0:0:
386,324,126776,5,0,0:0:0:0:
371,250,126859,1,0,0:0:0:0:
357,176,126942,1,0,0:0:0:0:
342,101,127026,1,0,0:0:0:0:
365,24,127109,5,0,0:0:0:0:
290,39,127193,1,0,0:0:0:0:
216,53,127276,1,0,0:0:0:0:
142,68,127359,1,0,0:0:0:0:
68,57,127442,5,0,0:0:0:0:
92,128,127526,1,0,0:0:0:0:
83,202,127609,1,0,0:0:0:0:
36,260,127692,1,0,0:0:0:0:
51,274,127776,5,0,0:0:0:0:
161,228,127859,1,0,0:0:0:0:
280,228,127942,1,0,0:0:0:0:
384,288,128026,1,0,0:0:0:0:
454,375,128109,6,0,P|428:327|431:280,1,93.75
323,20,128276,6,0,P|299:53|287:85,1,71.2499980974198
142,358,128442,6,0,P|140:338|148:302,1,52.4999983978272
69,49,128609,6,0,P|64:69|63:87,1,37.5
501,254,128776,6,0,B|437:172|362:135|272:159|231:198|129:270|52:270|-17:229|-36:169|-15:114|41:70|132:105|96:185,1,721.874977970124
256,192,133443,12,0,134109,0:0:0:0:
