osu file format v14

[General]
AudioFilename: 05. Heart Attack - Papa.PK.mp3
AudioLeadIn: 0
PreviewTime: 115646
Countdown: 0
SampleSet: Soft
StackLeniency: 0.8
Mode: 0
LetterboxInBreaks: 1
SkinPreference:- YUGEN SD -
WidescreenStoryboard: 1

[Editor]
Bookmarks: 6469,7843,8092,41523,42356,43938,44770,52750,58594,66169,66336,66586,66752,76910,92314,93647,94563,95229,96061,97060,114867,115646,117983,120321,121490,124996,127334,135945,136611
DistanceSpacing: 3
BeatDivisor: 8
GridSize: 4
TimelineZoom: 2.999999

[Metadata]
Title:Heart Attack
TitleUnicode:Heart Attack
Artist:Enrique Iglesias
ArtistUnicode:Enrique Iglesias
Creator:Prospettiva
Version:Perspective
Source:
Tags:Electropop
BeatmapID:860824
BeatmapSetID:385092

[Difficulty]
HPDrainRate:6
CircleSize:4
OverallDifficulty:8
ApproachRate:9
SliderMultiplier:2.49999990463257
SliderTickRate:1

[Events]
//Background and Video events
0,0,"ws_City_life_at_night_1366x768.jpg",0,0
//Break Periods
2,28600,31306
2,78470,81566
2,103403,115046
//Storyboard Layer 0 (Background)
//Storyboard Layer 1 (Fail)
//Storyboard Layer 2 (Pass)
//Storyboard Layer 3 (Foreground)
//Storyboard Sound Samples

[TimingPoints]
3465,779.220779220779,4,2,0,50,1,0
3465,-100,4,2,0,50,0,0
8724,-66.6666666666667,4,2,0,50,0,0
40867,-50,4,2,0,80,0,1
53335,-100,4,2,0,50,0,0
65413,-66.6666666666667,4,2,0,50,0,0
90737,779.220779220779,4,2,0,80,1,1
90737,-50,4,2,0,80,0,1
103958,779.220779220779,4,2,0,50,1,0
128113,-50,4,2,0,80,0,1
153048,-100,4,2,0,50,0,0

[Colours]
Combo1 : 255,128,0
Combo2 : 0,128,0
Combo3 : 0,0,255
Combo4 : 64,0,0

[HitObjects]
59,78,3465,6,0,L|92:136,1,62.4999976158142
132,40,3854,2,0,L|172:108,1,62.4999976158142
226,176,4244,1,0,0:0:0:0:
328,216,4439,2,0,B|332:265|273:320|212:264|239:292,1,124.999995231628
139,81,5023,1,0,0:0:0:0:
324,108,5218,2,0,L|365:160,2,62.4999976158143
153,84,5802,5,0,0:0:0:0:
301,60,5997,1,0,0:0:0:0:
259,204,6192,1,0,0:0:0:0:
255,204,6581,2,0,P|284:258|340:248,1,124.999995231628
387,129,7166,5,0,0:0:0:0:
318,262,7361,1,0,0:0:0:0:
232,138,7555,1,0,0:0:0:0:
165,168,7750,2,0,L|104:192,1,62.4999976158142
301,109,8140,2,0,L|386:75,1,62.4999976158142
320,236,8529,1,0,0:0:0:0:
320,236,8724,2,0,L|320:336,1,93.75
75,58,9309,6,0,L|76:160,1,93.75
287,57,9698,2,0,L|168:60,1,93.75
72,128,10088,1,0,0:0:0:0:
232,168,10283,1,0,0:0:0:0:
80,296,10477,2,0,P|111:316|168:312,1,93.7500000000001
324,312,10867,5,0,0:0:0:0:
380,136,11062,1,0,0:0:0:0:
352,224,11257,1,0,0:0:0:0:
280,192,11452,2,0,L|192:160,2,93.75
428,252,12036,2,0,L|520:284,2,93.7500000000001
218,155,12620,1,0,0:0:0:0:
218,155,12815,6,0,P|221:229|243:252,2,93.75
343,46,13400,1,0,0:0:0:0:
447,193,13594,1,0,0:0:0:0:
343,338,13789,1,0,0:0:0:0:
256,192,13984,2,0,L|324:128,2,93.75
144,255,14568,6,0,P|204:306|220:296,2,93.75
144,255,15153,1,0,0:0:0:0:
127,77,15542,6,0,L|96:168,1,93.75
300,36,15932,2,0,L|376:96,1,93.75
351,205,16322,1,0,0:0:0:0:
240,288,16516,1,0,0:0:0:0:
240,288,16711,2,0,L|203:199,2,93.75
234,278,17296,5,0,0:0:0:0:
301,235,17490,2,0,L|384:184,1,93.75
175,320,17880,2,0,L|88:376,1,93.75
332,260,18270,1,0,0:0:0:0:
212,147,18464,1,0,0:0:0:0:
328,256,18659,1,0,0:0:0:0:
388,42,18854,6,0,L|360:144,1,93.75
148,140,19244,2,0,L|124:42,2,93.75
366,83,19828,1,0,0:0:0:0:
330,235,20023,1,0,0:0:0:0:
176,96,20218,2,0,L|82:70,2,93.75
368,56,20802,6,0,L|322:141,1,93.75
460,192,21192,2,0,L|361:192,1,93.75
384,332,21581,2,0,L|326:247,1,93.75
107,75,22166,5,0,0:0:0:0:
107,75,22361,2,0,L|180:144,1,93.75
325,129,22750,2,0,L|395:59,1,93.75
111,65,23140,1,0,0:0:0:0:
111,65,23335,6,0,L|88:160,1,93.75
192,89,23724,2,0,L|168:184,1,93.75
283,192,24503,1,0,0:0:0:0:
105,97,24893,1,0,0:0:0:0:
105,97,25088,2,0,P|121:220|344:96,1,468.75
208,120,26257,1,0,0:0:0:0:
208,120,26452,2,0,P|343:54|412:292,1,468.75
253,229,27620,5,0,0:0:0:0:
254,210,27815,1,0,0:0:0:0:
255,195,28010,1,0,0:0:0:0:
388,196,28205,5,0,0:0:0:0:
120,192,28400,1,0,0:0:0:0:
254,31,31906,5,0,0:0:0:0:
256,192,32296,6,0,L|369:193,2,93.75
249,264,32880,2,0,P|171:198|234:118,1,187.5
409,68,33464,2,0,L|392:164,1,93.75
325,48,33854,2,0,L|300:144,1,93.75
201,250,34244,1,0,0:0:0:0:
422,233,34439,1,0,0:0:0:0:
232,331,34633,1,0,0:0:0:0:
421,234,34828,1,0,0:0:0:0:
422,233,35023,6,0,L|377:145,1,93.75
316,193,35413,2,0,L|360:276,1,93.75
280,300,35802,2,0,L|236:216,1,93.75
175,277,36192,2,0,L|224:360,1,93.75
176,272,36581,2,0,L|224:188,1,93.75
141,162,36971,2,0,L|88:248,1,93.75
36,188,37361,2,0,L|84:100,1,93.75
165,89,37750,5,0,0:0:0:0:
77,296,37945,1,0,0:0:0:0:
79,70,38140,1,0,0:0:0:0:
156,280,38335,1,0,0:0:0:0:
165,89,38529,1,0,0:0:0:0:
77,296,38724,1,0,0:0:0:0:
80,72,38919,1,0,0:0:0:0:
80,72,39114,1,0,0:0:0:0:
80,72,39309,6,0,P|166:95|127:203,1,187.5
163,179,40088,2,0,P|147:267|260:270,2,187.5
84,184,41646,6,0,L|213:185,1,124.999995231628
256,8,42036,2,0,L|255:135,1,124.999995231628
388,208,42426,1,0,0:0:0:0:
388,208,42620,6,0,P|355:317|259:240,1,249.999990463257
154,210,43205,6,0,P|146:284|192:297,2,124.999995231628
384,224,43789,2,0,P|340:280|320:272,2,62.4999976158143
202,255,44179,1,0,0:0:0:0:
292,206,44374,1,0,0:0:0:0:
380,148,44568,1,0,0:0:0:0:
380,148,44763,6,0,L|268:223,1,124.999995231628
368,372,45153,2,0,L|272:283,1,124.999995231629
380,148,45542,2,0,L|268:223,1,124.999995231628
99,292,45932,2,0,P|52:210|105:131,2,187.499992847443
125,211,46711,2,0,L|255:212,1,124.999995231628
271,55,47101,2,0,L|270:185,2,124.999995231628
54,266,47880,6,0,P|89:316|137:322,2,62.4999976158142
55,142,48270,2,0,L|140:78,2,62.4999976158142,0|4|0,0:0|0:0|0:0,0:0:0:0:
144,220,48659,1,0,0:0:0:0:
272,104,48854,1,0,0:0:0:0:
272,104,49049,2,0,L|315:153,2,62.4999976158142
208,232,49439,1,0,0:0:0:0:
403,190,49633,1,0,0:0:0:0:
403,190,49828,2,0,L|434:252,2,62.4999976158142
164,68,50218,6,0,P|146:116|200:152,1,124.999995231629
307,37,50607,2,0,P|341:89|304:128,1,124.999995231629
304,127,50997,1,0,0:0:0:0:
196,252,51192,1,0,0:0:0:0:
320,328,51387,1,0,0:0:0:0:
136,208,51581,5,0,0:0:0:0:
136,208,51776,6,0,P|168:280|312:192,1,249.999990463257
400,216,52555,2,0,P|318:110|223:203,1,249.999990463257
116,244,53335,5,0,0:0:0:0:
256,192,53529,1,0,0:0:0:0:
116,136,53724,1,0,0:0:0:0:
256,76,53919,1,0,0:0:0:0:
256,76,54114,2,0,L|256:156,1,62.4999976158142
256,312,54503,2,0,L|256:228,1,62.4999976158142
112,216,54893,5,0,0:0:0:0:
136,68,55088,1,0,0:0:0:0:
68,140,55283,1,0,0:0:0:0:
204,204,55477,1,0,0:0:0:0:
216,120,55672,2,0,L|296:104,1,62.4999976158142
296,264,56062,2,0,L|216:280,1,62.4999976158142
396,288,56452,5,0,0:0:0:0:
240,276,56646,1,0,0:0:0:0:
104,152,56841,1,0,0:0:0:0:
252,128,57036,1,0,0:0:0:0:
104,152,57231,2,0,L|172:176,1,62.4999976158142
292,216,57620,2,0,L|224:196,1,62.4999976158142
108,104,58010,5,0,0:0:0:0:
100,252,58205,1,0,0:0:0:0:
404,104,58400,1,0,0:0:0:0:
412,252,58789,1,0,0:0:0:0:
68,28,59374,5,0,0:0:0:0:
84,108,59568,1,0,0:0:0:0:
156,16,59763,1,0,0:0:0:0:
80,208,59958,1,0,0:0:0:0:
176,92,60153,1,0,0:0:0:0:
176,92,60348,2,0,L|160:32,1,62.4999976158143
80,60,60737,2,0,L|96:128,1,62.4999976158142
396,64,61127,1,0,0:0:0:0:
252,112,61322,5,0,0:0:0:0:
256,272,61516,1,0,0:0:0:0:
392,212,61711,1,0,0:0:0:0:
392,212,61906,2,0,L|336:172,1,62.4999976158142
396,64,62296,2,0,L|340:96,1,62.4999976158142
132,200,62685,1,0,0:0:0:0:
204,68,62880,5,0,0:0:0:0:
344,128,63075,1,0,0:0:0:0:
272,260,63270,1,0,0:0:0:0:
204,76,63464,2,0,L|164:136,1,62.4999976158142
132,200,63854,2,0,L|192:232,1,62.4999976158142
328,208,64244,1,0,0:0:0:0:
328,56,64439,1,0,0:0:0:0:
56,156,64633,1,0,0:0:0:0:
204,128,64828,1,0,0:0:0:0:
68,300,65023,5,0,0:0:0:0:
380,60,65413,2,0,P|424:104|420:144,1,93.75
344,132,65802,2,0,P|352:168|404:192,1,93.75
412,284,66192,1,0,0:0:0:0:
304,288,66387,1,0,0:0:0:0:
44,124,66581,6,0,L|128:176,1,93.7500000000001
100,40,66971,2,0,L|184:84,1,93.7500000000001
240,120,67361,2,0,L|188:200,1,93.7500000000001
48,120,67750,6,0,L|128:168,1,93.7500000000001
100,40,68140,2,0,L|180:88,1,93.7500000000001
392,76,68529,1,0,0:0:0:0:
308,284,68724,1,0,0:0:0:0:
356,176,68919,1,0,0:0:0:0:
276,144,69114,2,0,L|180:100,1,93.7500000000001
436,208,69503,2,0,L|536:256,1,93.7500000000001
220,272,69893,1,0,0:0:0:0:
360,320,70088,5,0,0:0:0:0:
360,320,70283,1,0,0:0:0:0:
360,320,70477,2,0,L|440:264,1,93.7500000000001
312,192,70867,2,0,L|408:192,1,93.75
360,64,71257,2,0,L|448:128,1,93.7500000000001
156,112,71646,1,0,0:0:0:0:
104,240,71841,1,0,0:0:0:0:
104,240,72036,6,0,P|152:272|184:264,1,93.7500000000001
156,112,72426,2,0,L|236:168,1,93.7500000000001
368,256,72815,2,0,L|288:204,1,93.7500000000001
316,320,73205,1,0,0:0:0:0:
148,128,73400,1,0,0:0:0:0:
160,264,73594,1,0,0:0:0:0:
148,128,73789,6,0,L|48:128,1,93.7500000000001
152,208,74179,2,0,L|48:208,2,93.7500000000001
272,216,74763,1,0,0:0:0:0:
272,216,74958,6,0,P|184:272|104:76,1,375
172,164,75932,1,0,0:0:0:0:
171,164,76127,6,0,P|334:129|350:294,1,375
160,136,77101,1,0,0:0:0:0:
184,152,77296,1,0,0:0:0:0:
208,168,77490,1,0,0:0:0:0:
232,184,77685,1,0,0:0:0:0:
256,200,77880,1,0,0:0:0:0:
192,288,78075,5,0,0:0:0:0:
328,132,78270,1,0,0:0:0:0:
84,180,82166,5,0,0:0:0:0:
40,108,82361,2,0,P|168:192|156:220,1,187.5
296,96,82945,2,0,L|248:180,1,93.7500000000001
372,128,83335,2,0,L|320:216,1,93.7500000000001
148,72,83724,5,0,0:0:0:0:
236,192,83919,1,0,0:0:0:0:
60,192,84114,1,0,0:0:0:0:
144,304,84309,1,0,0:0:0:0:
68,52,84503,6,0,L|40:144,1,93.7500000000001
160,68,84893,2,0,L|136:160,1,93.7500000000001
232,176,85283,2,0,L|251:83,2,93.7500000000001
68,332,85867,1,0,0:0:0:0:
68,332,86062,6,0,L|48:240,1,93.7500000000001
160,316,86452,2,0,L|140:224,1,93.7500000000001
241,222,86841,2,0,L|260:316,2,93.7500000000001
240,80,87426,5,0,0:0:0:0:
148,200,87620,1,0,0:0:0:0:
144,76,87815,1,0,0:0:0:0:
244,216,88010,1,0,0:0:0:0:
240,52,88205,1,0,0:0:0:0:
148,236,88400,1,0,0:0:0:0:
144,104,88594,1,0,0:0:0:0:
244,244,88789,1,0,0:0:0:0:
240,36,88984,1,0,0:0:0:0:
144,256,89179,1,0,0:0:0:0:
84,68,89374,1,0,0:0:0:0:
84,68,89568,6,0,P|48:136|192:256,1,281.25
171,260,90348,2,0,P|168:195|272:196,1,187.5
120,112,91126,6,0,P|104:192|180:184,1,124.999995231628
256,200,91516,2,0,L|204:344,1,124.999995231628
132,312,91905,2,0,L|192:160,1,124.999995231628
344,52,92295,1,0,0:0:0:0:
396,164,92490,5,0,0:0:0:0:
396,164,92685,2,0,L|356:240,2,62.4999976158142
248,184,93074,1,0,0:0:0:0:
208,56,93269,1,0,0:0:0:0:
114,159,93464,1,0,0:0:0:0:
114,159,93659,2,0,L|136:88,2,62.4999976158142
112,240,94048,5,0,0:0:0:0:
208,140,94243,1,0,0:0:0:0:
92,256,94438,1,0,0:0:0:0:
224,120,94633,1,0,0:0:0:0:
72,276,94827,1,0,0:0:0:0:
72,276,95022,2,0,P|160:316|208:280,1,124.999995231628
140,240,95412,2,0,P|220:216|260:288,1,124.999995231629
376,296,95801,5,0,0:0:0:0:
376,296,95996,1,0,0:0:0:0:
376,296,96191,2,0,P|440:140|240:248,1,499.999980926514
176,304,97165,1,0,0:0:0:0:
184,92,97360,1,0,0:0:0:0:
84,196,97555,1,0,0:0:0:0:
212,200,97749,6,0,P|284:160|336:200,1,124.999995231628
317,175,98139,2,0,P|245:215|193:175,1,124.999995231628
72,68,98529,2,4,P|24:136|64:208,1,124.999995231628
152,264,98918,1,0,0:0:0:0:
152,264,99016,6,0,L|256:316,3,62.4999976158143
72,80,99503,1,0,0:0:0:0:
152,264,99698,6,0,L|244:304,4,62.4999976158142
112,132,100282,1,0,0:0:0:0:
260,200,100477,1,0,0:0:0:0:
124,272,100672,1,0,0:0:0:0:
216,116,100866,2,0,P|296:96|356:152,1,124.999995231628
400,296,101256,1,0,0:0:0:0:
272,184,101451,2,0,P|208:264|168:232,1,124.999995231629
48,140,101840,1,0,0:0:0:0:
248,160,102035,2,0,B|296:120|480:204|536:356|300:212|376:56,2,374.999985694885
64,60,115646,5,0,0:0:0:0:
56,140,115841,1,0,0:0:0:0:
152,68,116035,1,0,0:0:0:0:
144,148,116230,1,0,0:0:0:0:
236,76,116425,2,0,L|224:156,1,62.4999976158143
152,64,116815,2,0,L|140:136,1,62.4999976158143
76,300,117204,6,0,P|104:332|132:316,1,62.4999976158143
216,136,117594,2,0,P|256:148|248:188,1,62.4999976158143
72,168,117983,1,0,0:0:0:0:
220,52,118178,1,0,0:0:0:0:
276,232,118373,1,0,0:0:0:0:
108,148,118568,2,0,L|44:204,1,62.4999976158143
220,52,118958,2,0,L|276:0,1,62.4999976158143
444,64,119347,5,0,0:0:0:0:
288,168,119542,1,0,0:0:0:0:
476,176,119737,1,0,0:0:0:0:
312,84,119932,1,0,0:0:0:0:
420,236,120126,2,0,L|376:304,1,62.4999976158143
356,196,120516,2,0,L|312:260,1,62.4999976158143
160,120,120906,5,0,0:0:0:0:
200,156,121100,1,0,0:0:0:0:
244,188,121295,1,0,0:0:0:0:
396,200,121490,5,0,0:0:0:0:
264,348,121685,1,0,0:0:0:0:
256,192,121880,12,0,128113,0:0:0:0:
116,76,128308,5,0,0:0:0:0:
88,240,128503,1,0,0:0:0:0:
240,144,128698,1,0,0:0:0:0:
368,248,128893,2,0,L|432:312,2,62.4999976158143
240,144,129282,5,0,0:0:0:0:
368,248,129477,2,0,L|432:312,2,62.4999976158143
188,292,129867,1,0,0:0:0:0:
72,160,130061,1,0,0:0:0:0:
236,48,130256,1,0,0:0:0:0:
232,192,130451,2,0,P|252:256|264:244,2,124.999995231629
348,100,131035,2,0,L|384:156,2,62.4999976158143
364,280,131425,5,0,0:0:0:0:
192,284,131620,1,0,0:0:0:0:
280,156,131815,1,0,0:0:0:0:
148,64,132009,2,0,L|84:176,1,124.999995231629
224,92,132399,2,0,L|164:204,1,124.999995231629
312,128,132789,1,0,0:0:0:0:
264,240,132983,1,0,0:0:0:0:
264,240,133178,6,0,P|328:224|344:160,2,124.999995231629
272,160,133763,2,0,B|200:140|112:212|168:340|296:348|360:288,1,374.999985694885
408,156,134542,1,0,0:0:0:0:
408,156,134737,6,0,P|252:112|244:108,2,124.999995231629
352,272,135321,1,0,0:0:0:0:
176,184,135516,1,0,0:0:0:0:
368,192,135711,1,0,0:0:0:0:
186,122,135906,2,0,L|170:218,2,62.4999976158143
256,76,136295,6,0,P|348:80|356:224,1,249.999990463257
366,214,136880,1,0,0:0:0:0:
180,148,137074,2,0,L|156:232,4,62.4999976158143
76,224,137659,5,0,0:0:0:0:
236,332,137854,1,0,0:0:0:0:
64,320,138048,1,0,0:0:0:0:
292,152,138243,1,0,0:0:0:0:
288,64,138438,2,0,P|364:92|376:136,1,124.999995231629
212,136,138828,2,0,P|216:200|304:224,2,124.999995231629
308,48,139412,5,0,0:0:0:0:
364,184,139607,1,0,0:0:0:0:
156,64,139802,1,0,0:0:0:0:
224,232,139996,1,0,0:0:0:0:
156,64,140191,1,0,0:0:0:0:
364,184,140386,1,0,0:0:0:0:
304,48,140581,1,0,0:0:0:0:
88,104,140776,6,0,L|48:228,1,124.999995231629
180,116,141165,2,0,L|136:252,1,124.999995231629
272,128,141555,2,0,L|232:264,1,124.999995231629
384,312,141945,1,0,0:0:0:0:
248,192,142139,1,0,0:0:0:0:
416,224,142334,1,0,0:0:0:0:
248,192,142529,1,0,0:0:0:0:
408,144,142724,6,0,P|336:132|360:64,1,124.999995231629
192,92,143113,2,0,P|188:160|112:140,1,124.999995231629
80,264,143503,1,0,0:0:0:0:
80,264,143600,1,0,0:0:0:0:
80,264,143698,1,0,0:0:0:0:
192,208,143893,6,0,P|220:268|312:264,1,124.999995231629
352,216,144282,1,0,0:0:0:0:
416,132,144477,2,0,P|400:60|328:60,1,124.999995231629
72,224,144867,1,0,0:0:0:0:
204,64,145061,1,0,0:0:0:0:
264,248,145256,1,0,0:0:0:0:
64,80,145451,2,0,L|176:172,1,124.999995231629
304,72,145841,5,0,0:0:0:0:
336,200,146035,1,0,0:0:0:0:
268,304,146230,1,0,0:0:0:0:
172,136,146425,2,0,L|116:256,1,124.999995231629
256,160,146815,2,0,L|184:308,1,124.999995231629
88,316,147204,5,0,0:0:0:0:
232,244,147399,1,0,0:0:0:0:
0,272,147594,1,0,0:0:0:0:
248,156,147789,1,0,0:0:0:0:
304,68,147983,6,0,P|384:96|376:160,1,124.999995231629
400,216,148373,1,0,0:0:0:0:
308,344,148568,2,0,P|388:316|380:252,1,124.999995231629
280,108,148958,1,0,0:0:0:0:
200,264,149152,1,0,0:0:0:0:
96,100,149347,1,0,0:0:0:0:
52,224,149542,2,0,P|64:296|128:312,1,124.999995231629
106,314,149834,1,0,0:0:0:0:
106,314,149932,1,0,0:0:0:0:
256,284,150126,5,0,0:0:0:0:
56,224,150321,1,0,0:0:0:0:
200,88,150516,1,0,0:0:0:0:
328,160,150711,2,0,L|196:200,1,124.999995231629
360,240,151100,2,0,L|216:288,1,124.999995231629
148,128,151490,1,0,0:0:0:0:
64,296,151685,1,0,0:0:0:0:
148,128,151880,1,0,0:0:0:0:
64,296,152074,1,0,0:0:0:0:
64,296,152269,6,0,P|136:304|172:240,1,124.999995231629
104,228,152659,2,0,P|176:184|236:224,1,124.999995231629
209,194,152951,1,0,0:0:0:0:
209,194,153048,1,0,0:0:0:0:
112,48,154607,6,0,P|112:184|200:156,1,249.999990463257
140,116,156165,2,0,P|228:72|268:196,1,249.999990463257
400,72,157724,2,0,P|440:160|316:188,1,249.999990463257
96,92,159282,2,0,P|72:204|192:200,1,249.999990463257
80,260,160841,2,0,P|88:316|212:260,1,249.999990463257
460,192,162399,6,0,P|432:284|320:208,1,249.999990463257
64,48,163958,1,0,0:0:0:0:
256,192,165516,1,0,0:0:0:0:
256,192,165613,12,0,168438,0:0:0:0:
