osu file format v14

[General]
AudioFilename: audio.mp3
AudioLeadIn: 0
PreviewTime: 38448
Countdown: 0
SampleSet: Normal
StackLeniency: 0.7
Mode: 0
LetterboxInBreaks: 0
WidescreenStoryboard: 0

[Editor]
DistanceSpacing: 0.8
BeatDivisor: 4
GridSize: 32
TimelineZoom: 1

[Metadata]
Title:Duele El Corazon (Solo Version)
TitleUnicode:Duele El Corazon (Solo Version)
Artist:Enrique Iglesias
ArtistUnicode:Enrique Iglesias
Creator:IMkoley
Version:Hard
Source:
Tags:
BeatmapID:1093677
BeatmapSetID:514990

[Difficulty]
HPDrainRate:5
CircleSize:4
OverallDifficulty:6
ApproachRate:8
SliderMultiplier:1.9
SliderTickRate:1

[Events]
//Background and Video events
0,0,"2.jpg",0,0
//Break Periods
//Storyboard Layer 0 (Background)
//Storyboard Layer 1 (Fail)
//Storyboard Layer 2 (Pass)
//Storyboard Layer 3 (Foreground)
//Storyboard Sound Samples

[TimingPoints]
4162.99858273556,659.340659340659,4,1,0,100,1,0
10426,-100,4,1,0,56,0,0
28888,-100,4,1,0,56,0,0
32020,-100,4,1,0,56,0,0
39767,-100,4,1,0,81,0,1
70921,-100,4,1,0,68,0,0
95481,-100,4,1,0,68,0,0
100426,-100,4,1,0,77,0,1
121360,-100,4,1,0,77,0,1
132075,-100,4,1,0,75,0,0
171305,-133.333333333333,4,1,0,75,0,0
172130,-100,4,1,0,75,0,0

[HitObjects]
288,192,10426,5,0,0:0:0:0:
288,160,10591,2,0,P|282:114|241:93,1,95
98,75,11250,1,0,0:0:0:0:
93,278,11745,2,0,B|110:331|164:344|162:298|207:297|259:476|301:384|272:296|263:274|150:240|193:237|238:171|276:219|282:159,1,380
247,126,13228,5,0,0:0:0:0:
224,64,13393,2,0,L|128:128,1,95
128,263,13888,2,0,B|159:289|194:281|280:250|280:250|277:209|322:185,1,237.5
192,160,15042,1,0,0:0:0:0:
320,96,15371,1,0,0:0:0:0:
384,256,15701,5,0,0:0:0:0:
384,256,15866,1,0,0:0:0:0:
384,256,16031,2,0,P|448:224|446:180,1,95
416,64,16690,2,0,B|352:32|288:64,1,95
224,151,17349,2,0,L|320:215,1,95
256,320,18009,6,0,L|160:352,1,95
96,352,18503,1,0,0:0:0:0:
64,288,18668,1,0,0:0:0:0:
32,224,18833,1,0,0:0:0:0:
96,64,19162,2,0,B|160:32|160:32|192:64|224:64,1,142.5
351,102,19987,5,0,0:0:0:0:
413,218,20316,1,0,0:0:0:0:
288,288,20646,1,0,0:0:0:0:
192,192,20976,2,0,L|224:128,1,47.5
256,96,21305,1,0,0:0:0:0:
320,64,21470,6,0,L|416:96,1,95
416,256,22130,2,0,L|256:288,1,142.5
128,224,22954,2,0,B|222:195|222:195|127:186,1,190
128,128,23778,1,0,0:0:0:0:
160,96,23943,1,0,0:0:0:0:
210,72,24108,2,0,B|233:91|251:97|330:103,1,95
448,160,24932,5,0,0:0:0:0:
352,288,25261,1,0,0:0:0:0:
192,320,25591,1,0,0:0:0:0:
64,224,25921,1,0,0:0:0:0:
160,96,26250,2,0,L|224:64,1,47.5
297,69,26580,1,0,0:0:0:0:
326,164,26745,2,0,P|326:228|294:260,1,95
128,288,27404,6,0,P|64:256|64:160,1,142.5
64,57,28228,2,0,B|89:20|112:33|130:24|146:79,1,95
128,192,28888,1,0,0:0:0:0:
128,224,29053,1,0,0:0:0:0:
150,261,29217,1,0,0:0:0:0:
192,288,29382,1,0,0:0:0:0:
320,320,29712,6,0,B|291:249,1,47.5
320,160,30042,2,0,L|358:187,2,47.5
207,108,30536,1,0,0:0:0:0:
288,32,30701,2,0,L|384:32,1,95
384,128,31195,1,0,0:0:0:0:
288,256,31525,2,0,L|246:278,1,47.5
64,224,32020,5,0,0:0:0:0:
96,96,32184,2,0,P|141:78|210:90,1,95
343,162,32679,2,0,P|374:168|374:232,2,95
245,204,33503,2,0,L|203:226,1,47.5
128,96,33998,6,0,L|256:64,1,95
256,128,34492,1,0,0:0:0:0:
288,192,34657,1,0,0:0:0:0:
320,256,34822,2,0,L|448:224,1,95
384,96,35316,2,0,L|224:128,1,142.5
96,160,35976,2,0,L|64:96,2,47.5
160,288,36635,6,0,L|224:288,1,47.5
320,224,37130,1,0,0:0:0:0:
416,128,37459,2,0,L|288:128,1,95
208,128,37954,2,0,L|252:152,3,47.5
384,256,38778,2,0,B|342:227|320:320|322:266|311:272|299:260|320:224|256:256|224:320|256:320|288:288|256:192|256:256|224:224|192:224|160:288|192:288|128:192,1,285
128,128,39932,1,0,0:0:0:0:
224,96,40097,6,0,B|296:101|321:56|342:41|358:50,1,142.5
448,64,40756,1,0,0:0:0:0:
480,160,40921,2,0,L|448:224,1,47.5
364,233,41250,1,0,0:0:0:0:
288,288,41415,2,0,B|347:312|347:280|384:288|411:344,2,142.5
224,288,42569,1,0,0:0:0:0:
160,256,42734,1,0,0:0:0:0:
128,96,43393,1,0,0:0:0:0:
167,114,43558,1,0,0:0:0:0:
201,129,43723,1,0,0:0:0:0:
233,161,43888,1,0,0:0:0:0:
248,199,44053,6,0,B|280:237|294:243|325:264|361:253|417:235,1,190
416,64,45042,2,0,P|352:96|302:149,1,142.5
224,288,45866,1,0,0:0:0:0:
192,128,46195,1,0,0:0:0:0:
192,128,46360,6,0,P|232:120|290:124,1,95
351,251,47020,1,0,0:0:0:0:
230,320,47349,2,0,B|181:294|139:272|157:191,1,142.5
192,64,48173,1,0,0:0:0:0:
327,64,48503,1,0,0:0:0:0:
495,77,48833,6,0,L|446:97,1,47.5
288,179,49327,2,0,B|288:128|320:128|352:128,2,95
204,314,50316,2,0,L|157:314,2,47.5
384,224,51269,1,0,0:0:0:0:
416,192,51434,1,0,0:0:0:0:
416,160,51599,1,0,0:0:0:0:
397,138,51764,1,0,0:0:0:0:
378,125,51965,2,0,B|344:74|344:74|280:42|248:42|248:106|209:72|132:122,1,285
106,151,53119,1,0,0:0:0:0:
96,184,53283,2,0,B|160:184|192:280|192:280|256:256,1,190
261,242,54108,1,0,0:0:0:0:
288,224,54272,1,0,0:0:0:0:
316,201,54437,1,0,0:0:0:0:
334,183,54602,2,0,B|367:152|369:88|369:88|337:87|273:81,1,190
128,64,55591,1,0,0:0:0:0:
128,224,56086,6,0,L|256:224,2,95
0,224,56910,1,0,0:0:0:0:
32,96,57239,1,0,0:0:0:0:
160,64,57569,1,0,0:0:0:0:
288,128,57899,6,0,B|334:171|352:224|286:271,1,142.5
118,220,58723,1,0,0:0:0:0:
224,128,59053,1,0,0:0:0:0:
352,256,59382,1,0,0:0:0:0:
352,224,59547,6,0,L|346:101,3,95
320,128,60701,5,0,0:0:0:0:
288,128,60866,1,0,0:0:0:0:
256,128,61031,1,0,0:0:0:0:
224,128,61195,2,0,B|224:256|244:246|320:224,1,142.5
448,160,62020,1,0,0:0:0:0:
425,126,62184,2,0,B|412:93|397:84|349:52|314:65|314:65|285:124,1,190
221,257,63173,5,0,0:0:0:0:
211,277,63338,1,0,0:0:0:0:
202,299,63503,1,0,0:0:0:0:
192,320,63668,1,0,0:0:0:0:
180,331,63833,2,0,B|97:327|97:327|131:246|131:246,1,142.5
205,171,64657,1,0,0:0:0:0:
205,171,64822,2,0,B|225:207|288:228|301:267|397:267,1,190
282,297,65976,6,0,B|192:256|153:234|121:202|89:138|174:27|217:74|272:156|272:156,1,380
260,141,67459,2,0,B|288:160|288:160|320:96|352:64|458:96|445:170|393:203|416:224|346:269|275:295,1,427.5
192,320,69108,1,0,0:0:0:0:
160,128,69437,5,0,0:0:0:0:
224,96,69602,2,0,B|288:128|288:128|320:160,1,95
384,192,70097,2,0,L|429:136,2,47.5
256,320,70756,1,0,0:0:0:0:
142,143,71086,5,0,0:0:0:0:
129,141,71250,1,0,0:0:0:0:
114,140,71415,1,0,0:0:0:0:
103,138,71580,2,0,B|71:138|35:180|39:202,2,95
320,160,72734,5,0,0:0:0:0:
160,224,73064,1,0,0:0:0:0:
160,64,73393,1,0,0:0:0:0:
320,96,73723,1,0,0:0:0:0:
352,128,73888,1,0,0:0:0:0:
384,160,74053,1,0,0:0:0:0:
416,192,74217,1,0,0:0:0:0:
384,320,74547,6,0,B|320:352|288:288|224:288|192:352|126:286,1,237.5
128,160,75701,2,0,B|192:128|192:128|243:122|288:128,1,142.5
288,128,76360,1,0,0:0:0:0:
320,128,76525,1,0,0:0:0:0:
352,128,76690,1,0,0:0:0:0:
384,128,76855,1,0,0:0:0:0:
439,249,77184,5,0,0:0:0:0:
344,337,77514,2,0,B|184:305|184:305|272:269|307:249|328:186,1,332.5
224,128,78998,1,0,0:0:0:0:
192,128,79162,1,0,0:0:0:0:
160,144,79327,1,0,0:0:0:0:
132,165,79492,1,0,0:0:0:0:
115,327,79822,6,0,B|179:327|179:327|243:295|275:231|275:231|307:295|351:297|351:297|403:231|377:182,1,427.5
192,160,81635,2,0,L|256:96,1,47.5
274,99,81965,1,0,0:0:0:0:
320,96,82130,2,0,B|416:96|416:128|416:160,2,95
96,192,83283,5,0,0:0:0:0:
96,192,83613,2,0,L|256:96,1,142.5
218,118,84272,1,0,0:0:0:0:
218,118,84437,1,0,0:0:0:0:
218,118,84602,1,0,0:0:0:0:
224,128,84767,2,0,L|224:192,1,47.5
168,269,85097,6,0,B|143:268|125:259|99:217|99:217|83:215|35:217|67:153|67:153|67:89,1,237.5
196,49,86250,2,0,L|338:49,1,142.5
352,64,86910,1,0,0:0:0:0:
352,64,87075,1,0,0:0:0:0:
352,64,87239,1,0,0:0:0:0:
352,64,87404,1,0,0:0:0:0:
416,192,87734,6,0,P|423:234|406:283,1,95
256,288,88558,1,0,0:0:0:0:
256,288,88888,2,0,B|192:288|192:288|160:288|224:224|224:224|160:192|160:192|128:192|96:256|96:256,1,285
112,229,90042,1,0,0:0:0:0:
160,64,90371,2,0,B|178:38|127:0|59:59|59:59|49:67|7:111|68:148,1,237.5
160,224,91360,1,0,0:0:0:0:
256,64,91690,6,0,L|330:54,1,47.5
320,160,92184,1,0,0:0:0:0:
256,256,92349,2,0,L|288:192,2,47.5
160,352,92844,2,0,B|88:374|91:308|76:287,1,95
31,178,93338,2,0,B|-2:127|27:108|43:88|72:87|112:121,1,142.5
256,256,94162,1,0,0:0:0:0:
256,256,94327,2,0,L|256:192,1,47.5
256,96,94657,1,0,0:0:0:0:
384,64,94987,6,0,L|337:64,2,47.5
448,224,95481,2,0,B|416:160|416:160|320:160,1,142.5
107,202,96635,1,0,0:0:0:0:
117,264,96800,1,0,0:0:0:0:
175,293,96965,1,0,0:0:0:0:
352,224,97294,2,0,L|416:160,1,47.5
448,64,97789,5,0,0:0:0:0:
384,224,98119,2,0,P|288:256|224:256,2,142.5
382,64,99437,2,0,B|328:77|328:82|320:96|320:96|286:64|265:95|221:76|160:132,1,237.5
182,196,100426,1,0,0:0:0:0:
214,260,100591,1,0,0:0:0:0:
246,324,100756,6,0,P|342:356|434:297,2,190
288,160,102569,2,0,L|383:144,1,95
384,108,103063,1,0,0:0:0:0:
385,86,103228,1,0,0:0:0:0:
384,64,103393,2,0,P|288:32|160:64,1,190
82,108,104217,6,0,L|78:60,2,47.5
96,224,104712,2,0,B|160:320|192:320|224:320|224:320,1,142.5
341,331,105371,1,0,0:0:0:0:
416,128,105701,2,0,L|256:160,1,142.5
128,256,106525,1,0,0:0:0:0:
96,96,106855,5,0,0:0:0:0:
96,96,107020,1,0,0:0:0:0:
254,93,107349,2,0,P|318:105|344:129,1,95
384,320,108009,2,0,B|320:320|320:320|320:320|320:320|288:320|275:315|268:318|268:318|245:297|199:271,1,190
192,256,108833,1,0,0:0:0:0:
256,64,109162,5,0,0:0:0:0:
384,160,109492,1,0,0:0:0:0:
384,160,109657,2,0,P|416:192|416:256,2,95
200,141,110646,1,0,0:0:0:0:
171,153,110811,1,0,0:0:0:0:
144,180,110976,1,0,0:0:0:0:
128,224,111141,1,0,0:0:0:0:
128,256,111305,2,0,B|177:298|177:298|254:318,1,142.5
288,320,111965,5,0,0:0:0:0:
306,311,112130,1,0,0:0:0:0:
324,303,112294,1,0,0:0:0:0:
339,294,112459,1,0,0:0:0:0:
352,288,112624,2,0,B|448:224|448:224|448:160|412:138,1,190
265,75,113613,1,0,0:0:0:0:
224,96,113778,1,0,0:0:0:0:
192,128,113943,6,0,B|192:224|256:224|256:224,1,142.5
448,192,114602,2,0,L|401:192,3,47.5
352,96,115261,2,0,B|288:64|288:64|224:64|200:83,1,142.5
191,187,115921,2,0,P|209:222|198:278,1,95
49,251,116745,5,0,0:0:0:0:
49,123,117075,2,0,B|72:83|95:70|131:75,1,95
255,146,117569,1,0,0:0:0:0:
271,314,117899,2,0,P|322:331|366:314,1,95
452,182,118558,2,0,B|448:64|390:62|341:100,1,190
288,192,119382,1,0,0:0:0:0:
160,352,119712,5,0,0:0:0:0:
134,174,120042,2,0,L|166:110,1,47.5
305,38,120536,2,0,B|404:82|404:82|292:117,1,190
294,122,121360,5,0,0:0:0:0:
259,132,121525,1,0,0:0:0:0:
227,132,121690,1,0,0:0:0:0:
195,132,121855,2,0,B|140:110|108:142|204:206,1,142.5
222,336,122679,1,0,0:0:0:0:
222,336,122844,1,0,0:0:0:0:
227,196,123173,2,0,B|227:132|323:132|355:132|259:100|195:132,1,190
156,123,123998,5,0,0:0:0:0:
136,63,124162,1,0,0:0:0:0:
195,36,124327,1,0,0:0:0:0:
259,36,124492,2,0,B|306:36|306:36|355:100,1,95
352,96,124987,1,0,0:0:0:0:
284,277,125316,1,0,0:0:0:0:
266,273,125481,2,0,B|193:288|162:219|162:219|130:196|128:224|37:197|37:197|48:150|96:128,1,332.5
131,110,126800,5,0,0:0:0:0:
188,105,126965,1,0,0:0:0:0:
238,107,127130,2,0,L|330:160,1,95
302,223,127624,2,0,B|232:182|200:150|232:214|40:86|200:22|232:22|269:37|257:55|355:93,1,380
362,106,129108,5,0,0:0:0:0:
406,94,129272,1,0,0:0:0:0:
445,116,129437,1,0,0:0:0:0:
440,159,129602,2,0,L|384:224,1,47.5
256,192,130097,2,0,P|224:198|236:240,1,47.5
160,352,130591,1,0,0:0:0:0:
64,288,130756,2,0,B|27:247|22:234|34:192,1,95
130,89,132075,5,0,0:0:0:0:
130,89,132239,1,0,0:0:0:0:
130,89,132404,2,0,B|194:57|194:85|230:83,1,95
320,128,132899,1,0,0:0:0:0:
68,318,133393,2,0,P|132:350|196:350,1,95
249,192,134217,1,0,0:0:0:0:
430,111,134712,5,0,0:0:0:0:
430,79,134877,1,0,0:0:0:0:
430,47,135042,2,0,B|397:24|374:18|316:41,1,95
256,64,135536,1,0,0:0:0:0:
43,255,136031,1,0,0:0:0:0:
206,277,136360,2,0,B|240:275|246:255|234:184|260:178|288:160|338:155,1,190
482,147,137349,1,0,0:0:0:0:
288,288,137844,5,0,0:0:0:0:
128,192,138173,1,0,0:0:0:0:
288,96,138503,1,0,0:0:0:0:
288,96,138668,1,0,0:0:0:0:
416,224,138998,1,0,0:0:0:0:
256,192,139327,2,0,L|224:288,1,95
32,224,139987,6,0,L|64:128,1,95
160,32,140481,1,0,0:0:0:0:
256,160,140811,1,0,0:0:0:0:
448,160,141141,2,0,B|455:200|416:224,1,47.5
320,288,141635,1,0,0:0:0:0:
271,177,141965,6,0,B|191:187|197:175|167:181|171:147|171:147|191:123|167:114|95:91,1,190
96,96,142789,1,0,0:0:0:0:
66,101,142954,1,0,0:0:0:0:
130,312,143614,1,0,0:0:0:0:
160,320,143778,1,0,0:0:0:0:
192,320,143943,1,0,0:0:0:0:
224,320,144109,1,0,0:0:0:0:
256,320,144272,2,0,B|320:320|292:349|320:352|416:320,1,142.5
403,170,145262,5,0,0:0:0:0:
403,138,145427,1,0,0:0:0:0:
403,106,145591,2,0,P|307:106|243:106,1,142.5
214,149,146250,2,0,L|236:190,3,47.5
271,287,146910,2,0,B|278:364|374:364|416:224|416:224,1,190
448,96,147899,5,0,0:0:0:0:
224,128,148393,1,0,0:0:0:0:
160,256,148723,2,0,B|208:249|192:224|224:224|283:218,1,95
346,180,149217,1,0,0:0:0:0:
416,320,149547,2,0,B|359:313|352:320|320:352|352:352|288:288|288:256|288:352|256:288,1,142.5
142,245,150206,2,0,P|110:213|96:128,1,95
192,32,150866,6,0,L|266:41,1,47.5
416,64,151360,1,0,0:0:0:0:
320,224,151690,1,0,0:0:0:0:
320,224,151855,2,0,B|285:183|264:168|206:177,1,95
164,166,152349,5,0,0:0:0:0:
79,163,152514,2,0,L|29:217,2,47.5
98,148,153009,1,0,0:0:0:0:
123,131,153173,1,0,0:0:0:0:
142,123,153338,1,0,0:0:0:0:
159,117,153503,1,0,0:0:0:0:
352,96,153833,6,0,L|309:117,1,47.5
245,277,154327,2,0,L|288:256,1,47.5
360,87,154822,1,0,0:0:0:0:
192,256,155152,1,0,0:0:0:0:
351,239,155481,2,0,L|389:266,2,47.5
325,229,155976,1,0,0:0:0:0:
301,215,156141,1,0,0:0:0:0:
96,224,156470,6,0,L|130:184,1,47.5
288,64,156965,1,0,0:0:0:0:
313,58,157130,2,0,B|347:48|366:52|387:54|406:83|420:102,1,95
369,271,157789,2,0,P|333:309|276:353,1,95
277,340,158283,1,0,0:0:0:0:
256,335,158448,1,0,0:0:0:0:
238,327,158613,1,0,0:0:0:0:
224,320,158778,2,0,L|160:224,1,95
256,192,159272,2,0,L|160:128,1,95
163,44,159767,2,0,L|67:140,1,95
128,256,160426,5,0,0:0:0:0:
224,160,160756,1,0,0:0:0:0:
234,149,160921,1,0,0:0:0:0:
240,130,161086,1,0,0:0:0:0:
245,115,161250,1,0,0:0:0:0:
256,103,161415,2,0,P|308:122|334:154,1,95
352,245,161910,1,0,0:0:0:0:
256,352,162239,5,0,0:0:0:0:
256,352,162404,2,0,B|211:348|192:361|158:329,1,95
80,178,163393,1,0,0:0:0:0:
94,142,163558,1,0,0:0:0:0:
128,128,163723,1,0,0:0:0:0:
160,135,163888,1,0,0:0:0:0:
224,256,164217,1,0,0:0:0:0:
352,320,164547,6,0,B|404:328|452:290|480:224|480:128|384:128|408:126|256:256,1,427.5
228,269,166195,1,0,0:0:0:0:
192,288,166360,1,0,0:0:0:0:
160,288,166525,6,0,B|85:307|50:332|50:332|23:255|31:182|-7:173|81:136|77:130|86:145|108:168|96:113|174:76|256:113|278:144,1,522.5
384,224,168668,2,0,L|442:188,2,47.5
256,288,169162,2,0,P|160:288|192:288,1,95
256,192,169822,2,0,B|320:192|374:202|416:192|384:128|448:160|448:96|384:96|352:96|416:32|320:96|288:96,1,332.5
129,168,171305,1,0,0:0:0:0:
111,181,171470,1,0,0:0:0:0:
101,208,171635,2,0,P|100:240|122:271,1,47.5
272,316,172130,1,0,0:0:0:0:
