osu file format v14

[General]
AudioFilename: audio.mp3
AudioLeadIn: 0
PreviewTime: 38448
Countdown: 0
SampleSet: Normal
StackLeniency: 0.7
Mode: 0
LetterboxInBreaks: 0
WidescreenStoryboard: 1

[Editor]
DistanceSpacing: 0.8
BeatDivisor: 4
GridSize: 32
TimelineZoom: 1

[Metadata]
Title:Duele El Corazon (Solo Version)
TitleUnicode:Duele El Corazon (Solo Version)
Artist:Enrique Iglesias
ArtistUnicode:Enrique Iglesias
Creator:IMkoley
Version:Easy
Source:
Tags:
BeatmapID:1093676
BeatmapSetID:514990

[Difficulty]
HPDrainRate:3
CircleSize:3.5
OverallDifficulty:3.5
ApproachRate:4.5
SliderMultiplier:1.5
SliderTickRate:1

[Events]
//Background and Video events
0,0,"2.jpg",0,0
//Break Periods
2,71615,75924
//Storyboard Layer 0 (Background)
//Storyboard Layer 1 (Fail)
//Storyboard Layer 2 (Pass)
//Storyboard Layer 3 (Foreground)
//Storyboard Sound Samples

[TimingPoints]
4162.99858273556,659.340659340659,4,1,0,60,1,0
39767,-100,4,1,0,60,0,1
53283,-100,4,1,0,60,0,1
70097,-100,4,1,0,60,0,0
82624,-133.333333333333,4,1,0,60,0,0
83778,-100,4,1,0,55,0,0
84932,-100,4,1,0,55,0,0
86250,-100,4,1,0,55,0,0
87569,-100,4,1,0,55,0,0
90206,-100,4,1,0,55,0,0
95481,-100,4,1,0,55,0,0
100426,-100,4,1,0,60,0,1
132075,-100,4,1,0,55,0,0

[HitObjects]
192,192,10426,5,0,0:0:0:0:
320,160,10921,1,0,0:0:0:0:
384,224,11250,2,0,B|352:288|320:320|224:288,1,187.5
128,192,12734,2,0,B|96:128|160:128|165:120|224:96,1,150
352,128,14053,6,0,B|448:256|448:320|352:320|352:320,1,225
192,288,15701,1,0,0:0:0:0:
96,192,16360,1,0,0:0:0:0:
64,64,17020,2,0,B|160:0|256:0|288:32,1,225
384,96,18668,5,0,0:0:0:0:
448,192,19327,2,0,P|449:248|370:318,1,150
256,320,20646,1,0,0:0:0:0:
147,318,21305,2,0,B|19:286|66:269|19:190|19:126|51:62,2,300
256,320,24602,1,0,0:0:0:0:
359,266,25261,5,0,0:0:0:0:
352,160,25921,1,0,0:0:0:0:
271,80,26580,2,0,B|172:35|172:99|175:135,1,150
223,241,27899,1,0,0:0:0:0:
352,256,28558,6,0,P|352:128|256:96,1,225
160,128,30206,1,0,0:0:0:0:
64,224,30866,1,0,0:0:0:0:
96,352,31525,1,0,0:0:0:0:
256,320,32184,6,0,B|282:268|288:224|352:288|394:273|425:185|352:96,1,300
267,131,33998,1,0,0:0:0:0:
256,32,34492,2,0,B|160:32|108:54|70:100,1,187.5
128,256,36141,1,0,0:0:0:0:
288,256,36800,1,0,0:0:0:0:
352,128,37459,2,0,P|288:96|192:96,1,150
64,160,38778,1,0,0:0:0:0:
96,320,39437,1,0,0:0:0:0:
256,288,40097,1,0,0:0:0:0:
352,192,40756,5,0,0:0:0:0:
352,64,41415,1,0,0:0:0:0:
224,64,42075,1,0,0:0:0:0:
120,65,42734,2,0,B|56:65|24:97|13:154,2,150
224,96,44712,5,0,0:0:0:0:
352,96,45371,2,0,P|400:79|471:101,2,112.5
192,224,47020,1,0,0:0:0:0:
160,224,47349,2,0,B|96:160|159:113|192:96,1,150
320,64,48503,6,0,B|416:64|384:128|480:128|416:192,1,187.5
320,224,49987,1,0,0:0:0:0:
192,224,50646,1,0,0:0:0:0:
256,320,51305,2,0,B|352:288|288:256|302:217|263:193,1,150
192,96,52624,5,0,0:0:0:0:
320,64,53283,2,0,B|376:41|392:43|422:64|416:128,1,150
416,256,54602,1,0,0:0:0:0:
256,288,55261,2,0,B|96:320|32:288|32:192|128:192,1,300
256,160,57239,5,0,0:0:0:0:
352,96,57899,2,0,B|256:32|224:32|160:32|96:64|128:96|128:128,1,300
160,288,59877,1,0,0:0:0:0:
320,288,60536,1,0,0:0:0:0:
192,192,61195,5,0,0:0:0:0:
192,128,61690,1,0,0:0:0:0:
224,64,62184,2,0,B|320:96|357:112|384:224,1,225
256,320,63833,1,0,0:0:0:0:
128,224,64492,1,0,0:0:0:0:
64,96,65152,6,0,P|128:64|224:64,1,150
352,160,66470,2,0,P|352:224|288:288,1,150
192,192,67789,1,0,0:0:0:0:
192,64,68448,2,0,L|288:64,2,75
96,160,69767,5,0,0:0:0:0:
192,288,70426,2,0,P|256:224|271:79,1,225
192,64,77184,6,0,P|288:64|320:160,1,187.5
256,224,78668,1,0,0:0:0:0:
128,288,79327,2,0,B|32:224|32:160|137:111,1,225
256,64,80976,5,0,0:0:0:0:
192,192,81635,1,0,0:0:0:0:
288,288,82294,1,0,0:0:0:0:
416,288,82789,2,0,P|448:224|416:160,1,140.625005364418
288,128,84272,5,0,0:0:0:0:
160,192,84932,2,0,B|96:224|64:288|64:320|149:367|195:335|256:288,1,300
320,192,86910,1,0,0:0:0:0:
192,192,87569,2,0,B|128:192|107:146|107:114|75:82|171:82|203:50|299:82,1,300
384,160,89547,6,0,B|416:256|413:284|352:320,1,150
192,320,90866,1,0,0:0:0:0:
128,224,91525,1,0,0:0:0:0:
256,192,92184,1,0,0:0:0:0:
192,96,92844,1,0,0:0:0:0:
305,93,93503,6,0,B|369:125|394:142|416:224|352:224|256:224,1,262.5
96,192,95152,1,0,0:0:0:0:
32,256,95481,2,0,B|108:338|123:293|160:288|140:338|177:340|225:315|224:288|319:302,1,300
480,288,97459,1,0,0:0:0:0:
423,143,98119,1,0,0:0:0:0:
384,64,98613,6,0,B|256:64|192:64|202:140,1,225
224,256,100097,1,0,0:0:0:0:
334,175,100756,1,0,0:0:0:0:
416,289,101415,1,0,0:0:0:0:
286,323,102075,5,0,0:0:0:0:
139,308,102734,1,0,0:0:0:0:
220,203,103393,1,0,0:0:0:0:
96,160,104053,1,0,0:0:0:0:
192,64,104712,2,0,P|320:32|384:64,1,210
320,224,106525,5,0,0:0:0:0:
160,320,107349,2,0,B|96:256|64:192|64:160|32:96|96:64|128:96,1,300
224,96,109162,1,0,0:0:0:0:
320,96,109657,2,0,B|384:96|404:93|425:173|416:224|363:268,1,225
263,285,111305,5,0,0:0:0:0:
161,242,111965,1,0,0:0:0:0:
96,160,112624,2,0,B|128:96|165:94|224:96,1,140
384,160,113943,1,0,0:0:0:0:
416,288,114602,2,0,P|320:320|256:320,1,140
96,320,115921,5,0,0:0:0:0:
96,192,116580,1,0,0:0:0:0:
224,224,117239,1,0,0:0:0:0:
320,320,117899,1,0,0:0:0:0:
435,255,118558,2,0,B|416:160|384:224|320:224|365:209|318:175|320:128|279:182|238:159|256:98|175:140,1,280
160,256,120536,5,0,0:0:0:0:
288,320,121195,1,0,0:0:0:0:
320,192,121855,1,0,0:0:0:0:
448,224,122514,1,0,0:0:0:0:
440,231,122844,2,0,B|383:293|288:320|128:320,1,315
64,192,124822,5,0,0:0:0:0:
160,96,125481,2,0,B|224:32|279:44|354:53|320:128,1,210
256,224,127130,1,0,0:0:0:0:
192,288,127624,1,0,0:0:0:0:
96,288,128119,6,0,B|64:224|-32:224|32:96|64:96|96:96|96:32|224:64,1,375
320,96,130261,1,0,0:0:0:0:
448,256,130756,2,0,B|352:256|384:288|352:288|320:320|222:305,1,225
96,192,132404,6,0,P|114:145|160:96,1,105
288,160,133723,2,0,B|256:224|224:224|240:233|239:264|288:288,1,150
448,256,135042,1,0,0:0:0:0:
416,128,135701,2,0,P|320:64|288:64,1,140
160,64,137020,5,0,0:0:0:0:
128,192,137679,1,0,0:0:0:0:
256,256,138338,2,0,P|246:279|223:330,2,75
288,128,139492,2,0,B|352:96|448:128|448:192,1,187.5
320,288,140976,5,0,0:0:0:0:
192,352,141635,2,0,P|128:320|128:224,1,150
160,96,142954,1,0,0:0:0:0:
288,160,143613,1,0,0:0:0:0:
352,64,144272,6,0,B|416:64|480:96|480:128|443:217|427:213|317:221,1,300
160,192,146250,1,0,0:0:0:0:
96,96,146910,2,0,B|122:62|174:45|256:64|288:128,1,225
256,320,148723,6,0,B|179:339|128:352|97:302|96:256,1,187.5
224,224,150042,1,0,0:0:0:0:
352,256,150536,2,0,B|416:224|448:224|416:160|416:128|385:84,1,210
288,32,152184,5,0,0:0:0:0:
160,32,152844,1,0,0:0:0:0:
64,96,153503,2,0,B|20:129|25:148|29:186|81:201,1,140
224,192,154822,1,0,0:0:0:0:
384,256,155481,5,0,0:0:0:0:
288,352,156141,2,0,B|244:376|211:333|182:371|141:322|118:357|100:320|64:352|32:288|64:224,1,300
192,96,158283,1,0,0:0:0:0:
192,64,158778,1,0,0:0:0:0:
192,32,159272,6,0,B|172:30|160:32|134:35|102:43|64:32|64:128,1,187.5
96,320,160756,1,0,0:0:0:0:
256,320,161415,2,0,B|320:320|320:352|352:288|352:352|384:320|416:320|422:269|431:244|434:202|428:189|401:161,1,300
256,128,163393,1,0,0:0:0:0:
160,256,164053,1,0,0:0:0:0:
96,256,164547,6,0,B|60:259|32:224|32:160|44:137|107:109,1,187.5
219,71,166031,2,0,B|292:32|349:37|399:53|421:75|421:75|445:96|463:114|468:137|472:168|455:189|455:189|438:229|329:287,1,490
192,320,168998,6,0,B|133:334|47:301|38:281|30:318|6:217|25:191|100:151,1,315
224,96,171305,1,0,0:0:0:0:
352,64,172130,2,0,B|416:64|429:114|462:123|435:185|384:224,1,210
