osu file format v14

[General]
AudioFilename: audio.mp3
AudioLeadIn: 0
PreviewTime: 51951
Countdown: 0
SampleSet: Soft
StackLeniency: 0.7
Mode: 3
LetterboxInBreaks: 0
SpecialStyle: 0
WidescreenStoryboard: 0

[Editor]
Bookmarks: 6845,17631,28418,39204,52687,63474,75609,86395,97182,107968,113362,121451,144373,155159,165946,190216
DistanceSpacing: 2.5
BeatDivisor: 4
GridSize: 4
TimelineZoom: 1.3

[Metadata]
Title:USSEEWA
TitleUnicode:うっせぇわ
Artist:Enn
ArtistUnicode:Enn
Creator:Irone OSU
Version:PokeSky's Shut the F**k Up
Source:
Tags:Diederich Olsen PokeSky Faputa 收皮啦 stfu fuck syudou Ado hong kong Cantonese cover japanese pop jpop j-pop jrock j-rock Yuka rock chinese
BeatmapID:3834279
BeatmapSetID:1864407

[Difficulty]
HPDrainRate:7.7
CircleSize:4
OverallDifficulty:7.7
ApproachRate:5
SliderMultiplier:1.4
SliderTickRate:1

[Events]
//Background and Video events
0,0,"bg.jpg",0,0
Video,-2,"video.mp4"
//Break Periods
//Storyboard Layer 0 (Background)
//Storyboard Layer 1 (Fail)
//Storyboard Layer 2 (Pass)
//Storyboard Layer 3 (Foreground)
//Storyboard Layer 4 (Overlay)
//Storyboard Sound Samples

[TimingPoints]
1390,337.078651685393,4,2,1,50,1,0
51951,-200,4,2,1,50,0,0
52457,-125,4,2,1,50,0,0
52541,-50,4,2,1,50,0,0
52625,-142.857142857143,4,2,1,50,0,1
52710,-200,4,2,1,50,0,1
52794,-333.333333333333,4,2,1,50,0,1
52878,-40,4,2,1,50,0,1
52963,-142.857142857143,4,2,1,50,0,1
53048,-200,4,2,1,50,0,1
53132,-333.333333333333,4,2,1,50,0,1
53216,-40,4,2,1,50,0,1
53300,-142.857142857143,4,2,1,50,0,1
53385,-200,4,2,1,50,0,1
53469,-333.333333333333,4,2,1,50,0,1
53553,-40,4,2,1,50,0,1
53637,-142.857142857143,4,2,1,50,0,1
53722,-200,4,2,1,50,0,1
53806,-333.333333333333,4,2,1,50,0,1
53890,-40,4,2,1,50,0,1
53974,-142.857142857143,4,2,1,50,0,1
54059,-200,4,2,1,50,0,1
54143,-333.333333333333,4,2,1,50,0,1
54227,-40,4,2,1,50,0,1
54311,-142.857142857143,4,2,1,50,0,1
54396,-200,4,2,1,50,0,1
54480,-333.333333333333,4,2,1,50,0,1
54564,-40,4,2,1,50,0,1
54648,-100,4,2,1,50,0,1
58019,-142.857142857143,4,2,1,50,0,1
58104,-200,4,2,1,50,0,1
58188,-333.333333333333,4,2,1,50,0,1
58272,-40,4,2,1,50,0,1
58356,-142.857142857143,4,2,1,50,0,1
58441,-200,4,2,1,50,0,1
58525,-333.333333333333,4,2,1,50,0,1
58609,-40,4,2,1,50,0,1
58693,-142.857142857143,4,2,1,50,0,1
58778,-200,4,2,1,50,0,1
58862,-333.333333333333,4,2,1,50,0,1
58946,-40,4,2,1,50,0,1
59030,-142.857142857143,4,2,1,50,0,1
59115,-200,4,2,1,50,0,1
59199,-333.333333333333,4,2,1,50,0,1
59283,-40,4,2,1,50,0,1
59367,-142.857142857143,4,2,1,50,0,1
59452,-200,4,2,1,50,0,1
59536,-333.333333333333,4,2,1,50,0,1
59620,-40,4,2,1,50,0,1
59704,-142.857142857143,4,2,1,50,0,1
59789,-200,4,2,1,50,0,1
59873,-333.333333333333,4,2,1,50,0,1
59957,-40,4,2,1,50,0,1
60041,-100,4,2,1,50,0,1
68805,-142.857142857143,4,2,1,50,0,1
68890,-200,4,2,1,50,0,1
68974,-333.333333333333,4,2,1,50,0,1
69058,-40,4,2,1,50,0,1
69142,-142.857142857143,4,2,1,50,0,1
69227,-200,4,2,1,50,0,1
69311,-333.333333333333,4,2,1,50,0,1
69395,-40,4,2,1,50,0,1
69479,-142.857142857143,4,2,1,50,0,1
69564,-200,4,2,1,50,0,1
69648,-333.333333333333,4,2,1,50,0,1
69732,-40,4,2,1,50,0,1
69816,-142.857142857143,4,2,1,50,0,1
69901,-200,4,2,1,50,0,1
69985,-333.333333333333,4,2,1,50,0,1
70069,-40,4,2,1,50,0,1
70154,-142.857142857143,4,2,1,50,0,1
70239,-200,4,2,1,50,0,1
70323,-333.333333333333,4,2,1,50,0,1
70407,-40,4,2,1,50,0,1
70491,-142.857142857143,4,2,1,50,0,1
70576,-200,4,2,1,50,0,1
70660,-333.333333333333,4,2,1,50,0,1
70744,-40,4,2,1,50,0,1
70828,-100,4,2,1,50,0,1
72850,-41.6666666666667,4,2,1,50,0,1
73019,-333.333333333333,4,2,1,50,0,1
73103,-166.666666666667,4,2,1,50,0,1
73187,-111.111111111111,4,2,1,50,0,1
73272,-71.4285714285714,4,2,1,50,0,1
73356,-250,4,2,1,50,0,1
73440,-62.5,4,2,1,50,0,1
73524,-41.6666666666667,4,2,1,50,0,1
73693,-333.333333333333,4,2,1,50,0,1
73777,-166.666666666667,4,2,1,50,0,1
73861,-111.111111111111,4,2,1,50,0,1
73946,-71.4285714285714,4,2,1,50,0,1
74030,-40,4,2,1,50,0,1
74114,-200,4,2,1,50,0,1
74367,-40,4,2,1,50,0,1
74451,-200,4,2,1,50,0,1
74704,-62.5,4,2,1,50,0,1
74788,-250,4,2,1,50,0,1
74873,-100,4,2,1,50,0,1
75547,-100,4,2,1,50,0,0
96109,-62.5,4,2,1,50,0,0
96151,-250,4,2,1,50,0,0
96193,-100,4,2,1,50,0,0
96277,-62.5,4,2,1,50,0,0
96319,-250,4,2,1,50,0,0
96361,-100,4,2,1,50,0,0
96614,-40,4,2,1,50,0,0
96656,-200,4,2,1,50,0,0
96783,-40,4,2,1,50,0,0
96825,-200,4,2,1,50,0,0
96951,-40,4,2,1,50,0,0
96993,-200,4,2,1,50,0,0
97120,-100,4,2,1,50,0,0
118693,-62.5,4,2,1,50,0,0
118749,-250,4,2,1,50,0,0
118805,-62.5,4,2,1,50,0,0
118861,-250,4,2,1,50,0,0
118918,-62.5,4,2,1,50,0,0
118974,-250,4,2,1,50,0,0
119030,-40,4,2,1,50,0,0
119114,-200,4,2,1,50,0,0
119367,-62.5,4,2,1,50,0,0
119423,-250,4,2,1,50,0,0
119479,-62.5,4,2,1,50,0,0
119535,-250,4,2,1,50,0,0
119592,-62.5,4,2,1,50,0,0
119648,-250,4,2,1,50,0,0
119704,-40,4,2,1,50,0,0
119788,-200,4,2,1,50,0,0
120041,-62.5,4,2,1,50,0,0
120097,-250,4,2,1,50,0,0
120154,-62.5,4,2,1,50,0,0
120210,-250,4,2,1,50,0,0
120266,-62.5,4,2,1,50,0,0
120322,-250,4,2,1,50,0,0
120378,-62.5,4,2,1,50,0,0
120434,-250,4,2,1,50,0,0
120491,-62.5,4,2,1,50,0,0
120547,-250,4,2,1,50,0,0
120603,-62.5,4,2,1,50,0,0
120659,-250,4,2,1,50,0,0
120715,-200,4,2,1,50,0,0
121221,-125,4,2,1,50,0,0
121305,-50,4,2,1,50,0,0
121389,-142.857142857143,4,2,1,50,0,1
121474,-200,4,2,1,50,0,1
121558,-333.333333333333,4,2,1,50,0,1
121642,-40,4,2,1,50,0,1
121727,-142.857142857143,4,2,1,50,0,1
121812,-200,4,2,1,50,0,1
121896,-333.333333333333,4,2,1,50,0,1
121980,-40,4,2,1,50,0,1
122064,-142.857142857143,4,2,1,50,0,1
122149,-200,4,2,1,50,0,1
122233,-333.333333333333,4,2,1,50,0,1
122317,-40,4,2,1,50,0,1
122401,-142.857142857143,4,2,1,50,0,1
122486,-200,4,2,1,50,0,1
122570,-333.333333333333,4,2,1,50,0,1
122654,-40,4,2,1,50,0,1
122738,-142.857142857143,4,2,1,50,0,1
122823,-200,4,2,1,50,0,1
122907,-333.333333333333,4,2,1,50,0,1
122991,-40,4,2,1,50,0,1
123075,-142.857142857143,4,2,1,50,0,1
123160,-200,4,2,1,50,0,1
123244,-333.333333333333,4,2,1,50,0,1
123328,-40,4,2,1,50,0,1
123412,-100,4,2,1,50,0,1
126783,-142.857142857143,4,2,1,50,0,1
126868,-200,4,2,1,50,0,1
126952,-333.333333333333,4,2,1,50,0,1
127036,-40,4,2,1,50,0,1
127120,-142.857142857143,4,2,1,50,0,1
127205,-200,4,2,1,50,0,1
127289,-333.333333333333,4,2,1,50,0,1
127373,-40,4,2,1,50,0,1
127457,-142.857142857143,4,2,1,50,0,1
127542,-200,4,2,1,50,0,1
127626,-333.333333333333,4,2,1,50,0,1
127710,-40,4,2,1,50,0,1
127794,-142.857142857143,4,2,1,50,0,1
127879,-200,4,2,1,50,0,1
127963,-333.333333333333,4,2,1,50,0,1
128047,-40,4,2,1,50,0,1
128131,-142.857142857143,4,2,1,50,0,1
128216,-200,4,2,1,50,0,1
128300,-333.333333333333,4,2,1,50,0,1
128384,-40,4,2,1,50,0,1
128468,-142.857142857143,4,2,1,50,0,1
128553,-200,4,2,1,50,0,1
128637,-333.333333333333,4,2,1,50,0,1
128721,-40,4,2,1,50,0,1
128805,-100,4,2,1,50,0,1
137569,-142.857142857143,4,2,1,50,0,1
137654,-200,4,2,1,50,0,1
137738,-333.333333333333,4,2,1,50,0,1
137822,-40,4,2,1,50,0,1
137906,-142.857142857143,4,2,1,50,0,1
137991,-200,4,2,1,50,0,1
138075,-333.333333333333,4,2,1,50,0,1
138159,-40,4,2,1,50,0,1
138243,-142.857142857143,4,2,1,50,0,1
138328,-200,4,2,1,50,0,1
138412,-333.333333333333,4,2,1,50,0,1
138496,-40,4,2,1,50,0,1
138581,-142.857142857143,4,2,1,50,0,1
138666,-200,4,2,1,50,0,1
138750,-333.333333333333,4,2,1,50,0,1
138834,-40,4,2,1,50,0,1
138918,-142.857142857143,4,2,1,50,0,1
139003,-200,4,2,1,50,0,1
139087,-333.333333333333,4,2,1,50,0,1
139171,-40,4,2,1,50,0,1
139255,-142.857142857143,4,2,1,50,0,1
139340,-200,4,2,1,50,0,1
139424,-333.333333333333,4,2,1,50,0,1
139508,-40,4,2,1,50,0,1
139592,-100,4,2,1,50,0,1
141614,-40,4,2,1,50,0,1
141698,-333.333333333333,4,2,1,50,0,1
141783,-200,4,2,1,50,0,1
141867,-142.857142857143,4,2,1,50,0,1
141951,-62.5,4,2,1,50,0,1
142036,-250,4,2,1,50,0,1
142120,-62.5,4,2,1,50,0,1
142205,-250,4,2,1,50,0,1
142288,-40,4,2,1,50,0,1
142372,-333.333333333333,4,2,1,50,0,1
142457,-200,4,2,1,50,0,1
142541,-142.857142857143,4,2,1,50,0,1
142625,-62.5,4,2,1,50,0,1
142667,-250,4,2,1,50,0,1
142710,-62.5,4,2,1,50,0,1
142752,-250,4,2,1,50,0,1
142794,-40,4,2,1,50,0,1
142878,-333.333333333333,4,2,1,50,0,1
142963,-200,4,2,1,50,0,1
143047,-142.857142857143,4,2,1,50,0,1
143131,-40,4,2,1,50,0,1
143215,-333.333333333333,4,2,1,50,0,1
143300,-200,4,2,1,50,0,1
143384,-142.857142857143,4,2,1,50,0,1
143468,-62.5,4,2,1,50,0,1
143553,-250,4,2,1,50,0,1
143637,-62.5,4,2,1,50,0,1
143722,-250,4,2,1,50,0,1
143805,-62.5,4,2,1,50,0,1
143847,-250,4,2,1,50,0,1
143889,-62.5,4,2,1,50,0,1
143931,-250,4,2,1,50,0,1
143974,-62.5,4,2,1,50,0,1
144016,-250,4,2,1,50,0,1
144058,-62.5,4,2,1,50,0,1
144100,-250,4,2,1,50,0,1
144142,-62.5,4,2,1,50,0,1
144184,-250,4,2,1,50,0,1
144227,-62.5,4,2,1,50,0,1
144269,-250,4,2,1,50,0,1
144311,-100,4,2,1,50,0,0
164536,-200,4,2,1,50,0,0
165716,-125,4,2,1,50,0,0
165800,-50,4,2,1,50,0,0
165884,-142.857142857143,4,2,1,50,0,1
165969,-200,4,2,1,50,0,1
166053,-333.333333333333,4,2,1,50,0,1
166137,-40,4,2,1,50,0,1
166221,-142.857142857143,4,2,1,50,0,1
166306,-200,4,2,1,50,0,1
166390,-333.333333333333,4,2,1,50,0,1
166474,-40,4,2,1,50,0,1
166558,-142.857142857143,4,2,1,50,0,1
166643,-200,4,2,1,50,0,1
166727,-333.333333333333,4,2,1,50,0,1
166811,-40,4,2,1,50,0,1
166895,-142.857142857143,4,2,1,50,0,1
166980,-200,4,2,1,50,0,1
167064,-333.333333333333,4,2,1,50,0,1
167148,-40,4,2,1,50,0,1
167232,-142.857142857143,4,2,1,50,0,1
167317,-200,4,2,1,50,0,1
167401,-333.333333333333,4,2,1,50,0,1
167485,-40,4,2,1,50,0,1
167569,-142.857142857143,4,2,1,50,0,1
167654,-200,4,2,1,50,0,1
167738,-333.333333333333,4,2,1,50,0,1
167822,-40,4,2,1,50,0,1
167906,-100,4,2,1,50,0,1
171277,-142.857142857143,4,2,1,50,0,1
171362,-200,4,2,1,50,0,1
171446,-333.333333333333,4,2,1,50,0,1
171530,-40,4,2,1,50,0,1
171614,-142.857142857143,4,2,1,50,0,1
171699,-200,4,2,1,50,0,1
171783,-333.333333333333,4,2,1,50,0,1
171867,-40,4,2,1,50,0,1
171951,-142.857142857143,4,2,1,50,0,1
172036,-200,4,2,1,50,0,1
172120,-333.333333333333,4,2,1,50,0,1
172204,-40,4,2,1,50,0,1
172288,-142.857142857143,4,2,1,50,0,1
172373,-200,4,2,1,50,0,1
172457,-333.333333333333,4,2,1,50,0,1
172541,-40,4,2,1,50,0,1
172625,-142.857142857143,4,2,1,50,0,1
172710,-200,4,2,1,50,0,1
172794,-333.333333333333,4,2,1,50,0,1
172878,-40,4,2,1,50,0,1
172963,-142.857142857143,4,2,1,50,0,1
173048,-200,4,2,1,50,0,1
173132,-333.333333333333,4,2,1,50,0,1
173216,-40,4,2,1,50,0,1
173300,-100,4,2,1,50,0,1
182064,-142.857142857143,4,2,1,50,0,1
182149,-200,4,2,1,50,0,1
182233,-333.333333333333,4,2,1,50,0,1
182317,-40,4,2,1,50,0,1
182401,-142.857142857143,4,2,1,50,0,1
182486,-200,4,2,1,50,0,1
182570,-333.333333333333,4,2,1,50,0,1
182654,-40,4,2,1,50,0,1
182738,-142.857142857143,4,2,1,50,0,1
182823,-200,4,2,1,50,0,1
182907,-333.333333333333,4,2,1,50,0,1
182991,-40,4,2,1,50,0,1
183075,-142.857142857143,4,2,1,50,0,1
183160,-200,4,2,1,50,0,1
183244,-333.333333333333,4,2,1,50,0,1
183328,-40,4,2,1,50,0,1
183412,-142.857142857143,4,2,1,50,0,1
183497,-200,4,2,1,50,0,1
183581,-333.333333333333,4,2,1,50,0,1
183665,-40,4,2,1,50,0,1
183749,-142.857142857143,4,2,1,50,0,1
183834,-200,4,2,1,50,0,1
183918,-333.333333333333,4,2,1,50,0,1
184002,-40,4,2,1,50,0,1
184086,-100,4,2,1,50,0,1
186109,-41.6666666666667,4,2,1,50,0,1
186278,-333.333333333333,4,2,1,50,0,1
186362,-166.666666666667,4,2,1,50,0,1
186446,-111.111111111111,4,2,1,50,0,1
186531,-71.4285714285714,4,2,1,50,0,1
186615,-250,4,2,1,50,0,1
186699,-62.5,4,2,1,50,0,1
186783,-41.6666666666667,4,2,1,50,0,1
186952,-333.333333333333,4,2,1,50,0,1
187036,-166.666666666667,4,2,1,50,0,1
187120,-111.111111111111,4,2,1,50,0,1
187205,-71.4285714285714,4,2,1,50,0,1
187289,-40,4,2,1,50,0,1
187373,-200,4,2,1,50,0,1
187625,-62.5,4,2,1,50,0,1
187710,-250,4,2,1,50,0,1
187794,-100,4,2,1,50,0,1
187963,-62.5,4,2,1,50,0,1
188048,-250,4,2,1,50,0,1
188131,-100,4,2,1,50,0,1
188637,-40,4,2,1,50,0,1
188721,-200,4,2,1,50,0,1
188974,-40,4,2,1,50,0,1
189058,-200,4,2,1,50,0,1
189311,-62.5,4,2,1,50,0,1
189396,-250,4,2,1,50,0,1
189479,-200,4,2,1,50,0,1
189985,-125,4,2,1,50,0,1
190069,-50,4,2,1,50,0,1
190154,-100,4,2,1,50,0,0
200266,-40,4,2,1,50,0,0
200308,-200,4,2,1,50,0,0
200434,-40,4,2,1,50,0,0
200476,-200,4,2,1,50,0,0
200603,-40,4,2,1,50,0,0
200645,-200,4,2,1,50,0,0
200772,-41.6666666666667,4,2,1,50,0,0
200941,-333.333333333333,4,2,1,50,0,0
201025,-166.666666666667,4,2,1,50,0,0
201109,-111.111111111111,4,2,1,50,0,0
201194,-71.4285714285714,4,2,1,50,0,0
201277,-100,4,2,1,50,0,0

[HitObjects]
64,192,1390,5,2,0:0:0:0:
320,192,1390,1,0,0:0:0:50:cymbal.wav
448,192,1390,1,0,0:0:0:0:
448,192,1558,1,0,0:0:0:0:
64,192,1727,1,2,0:0:0:0:
192,192,1727,1,0,0:0:0:50:cymbal.wav
448,192,1727,1,0,0:0:0:0:
64,192,2738,1,2,0:0:0:0:
192,192,2738,1,0,0:0:0:50:cymbal.wav
448,192,2738,1,0,0:0:0:0:
64,192,2906,1,0,0:0:0:0:
64,192,3075,1,2,0:0:0:0:
320,192,3075,1,0,0:0:0:50:cymbal.wav
448,192,3075,1,0,0:0:0:0:
64,192,4086,1,2,0:0:0:0:
320,192,4086,1,0,0:0:0:50:cymbal.wav
448,192,4086,1,0,0:0:0:0:
320,192,4255,1,0,0:0:0:0:
64,192,4423,1,2,0:0:0:0:
192,192,4423,1,0,0:0:0:50:cymbal.wav
320,192,4423,1,0,0:0:0:0:
448,192,5097,128,0,5434:0:0:0:0:
64,192,5434,1,8,0:0:0:0:
192,192,5434,1,2,0:0:0:0:
320,192,5434,1,4,0:0:0:0:
64,192,5603,1,8,0:0:0:0:
192,192,5603,1,2,0:0:0:0:
320,192,5603,1,0,0:0:0:0:
192,192,5772,1,8,0:0:0:0:
320,192,5772,1,2,0:0:0:0:
448,192,5772,1,0,0:0:0:0:
192,192,5940,1,8,0:0:0:0:
320,192,5940,1,2,0:0:0:0:
448,192,5940,1,0,0:0:0:0:
64,192,6109,1,8,0:0:0:0:
320,192,6109,1,2,0:0:0:0:
448,192,6109,1,0,0:0:0:0:
64,192,6277,1,8,0:0:0:0:
192,192,6277,1,2,0:0:0:0:
320,192,6361,1,2,0:0:0:0:
64,192,6446,1,8,0:0:0:0:
192,192,6446,1,2,0:0:0:0:
448,192,6446,128,0,6783:0:0:0:0:
64,192,6783,1,4,0:0:0:0:
192,192,6783,128,2,7120:0:0:0:0:
320,192,6783,1,0,0:0:0:0:
64,192,7120,1,8,0:0:0:0:
320,192,7120,1,2,0:0:0:0:
448,192,7120,1,0,0:0:0:0:
64,192,7457,128,2,7794:0:0:0:0:
448,192,7457,1,0,0:0:0:0:
192,192,7794,1,8,0:0:0:0:
320,192,7794,1,2,0:0:0:0:
448,192,7794,1,0,0:0:0:0:
64,192,8131,1,2,0:0:0:0:
320,192,8131,128,0,8468:0:0:0:0:
64,192,8468,1,8,0:0:0:0:
192,192,8468,1,2,0:0:0:0:
448,192,8468,1,0,0:0:0:0:
64,192,8805,128,2,9142:0:0:0:0:
448,192,8805,1,0,0:0:0:0:
192,192,9142,1,8,0:0:0:0:
320,192,9142,1,2,0:0:0:0:
448,192,9142,1,0,0:0:0:0:
64,192,9479,1,2,0:0:0:0:
448,192,9479,128,0,9816:0:0:0:0:
64,192,9816,1,8,0:0:0:0:
192,192,9816,1,2,0:0:0:0:
320,192,9816,1,0,0:0:0:0:
192,192,10154,128,2,10491:0:0:0:0:
448,192,10154,1,0,0:0:0:0:
64,192,10491,1,8,0:0:0:0:
320,192,10491,1,2,0:0:0:0:
448,192,10491,1,0,0:0:0:0:
64,192,10828,1,2,0:0:0:0:
320,192,10828,128,0,11165:0:0:0:0:
64,192,11165,1,8,0:0:0:0:
192,192,11165,1,2,0:0:0:0:
448,192,11165,1,0,0:0:0:0:
64,192,11502,128,2,11839:0:0:0:0:
448,192,11502,1,0,0:0:0:0:
192,192,11839,1,8,0:0:0:0:
320,192,11839,1,2,0:0:0:0:
448,192,11839,1,0,0:0:0:0:
64,192,12007,1,0,0:0:0:0:
192,192,12007,1,0,0:0:0:0:
320,192,12092,1,0,0:0:0:0:
64,192,12176,1,4,0:0:0:0:
192,192,12176,1,2,0:0:0:0:
448,192,12176,128,0,12513:0:0:0:0:
64,192,12513,1,2,0:0:0:0:
192,192,12513,1,8,0:0:0:0:
320,192,12513,1,0,0:0:0:0:
192,192,12850,1,2,0:0:0:0:
320,192,12850,128,0,13187:0:0:0:0:
64,192,13187,1,8,0:0:0:0:
192,192,13187,1,2,0:0:0:0:
448,192,13187,1,0,0:0:0:0:
64,192,13524,128,2,13861:0:0:0:0:
448,192,13524,1,0,0:0:0:0:
192,192,13861,1,8,0:0:0:0:
320,192,13861,1,2,0:0:0:0:
448,192,13861,1,0,0:0:0:0:
64,192,14198,1,2,0:0:0:0:
192,192,14198,128,0,14536:0:0:0:0:
64,192,14536,1,8,0:0:0:0:
320,192,14536,1,2,0:0:0:0:
448,192,14536,1,0,0:0:0:0:
64,192,14873,1,2,0:0:0:0:
448,192,14873,128,0,15210:0:0:0:0:
64,192,15210,1,2,0:0:0:0:
192,192,15210,1,8,0:0:0:0:
320,192,15210,1,0,0:0:0:0:
192,192,15547,1,2,0:0:0:0:
320,192,15547,128,0,15884:0:0:0:0:
64,192,15884,1,8,0:0:0:0:
192,192,15884,1,2,0:0:0:0:
448,192,15884,1,0,0:0:0:0:
64,192,16221,128,2,16558:0:0:0:0:
448,192,16221,1,0,0:0:0:0:
192,192,16558,1,4,0:0:0:0:
320,192,16558,1,8,0:0:0:0:
448,192,16558,1,2,0:0:0:0:
64,192,16895,1,2,0:0:0:0:
320,192,16895,1,0,0:0:0:0:
64,192,17064,1,8,0:0:0:0:
192,192,17064,1,2,0:0:0:0:
448,192,17064,1,0,0:0:0:0:
192,192,17232,1,2,0:0:0:0:
320,192,17232,1,8,0:0:0:0:
448,192,17232,1,0,0:0:0:0:
64,192,17401,1,8,0:0:0:0:
320,192,17401,1,2,0:0:0:0:
448,192,17401,1,0,0:0:0:0:
64,192,17569,1,4,0:0:0:0:
192,192,17569,128,2,17906:0:0:0:0:
320,192,17569,1,0,0:0:0:0:
64,192,17906,1,8,0:0:0:0:
320,192,17906,1,2,0:0:0:0:
448,192,17906,128,0,18075:0:0:0:0:
320,192,18075,128,0,18243:0:0:0:0:
64,192,18243,128,2,18412:0:0:0:0:
448,192,18243,1,0,0:0:0:0:
192,192,18412,128,0,18581:0:0:0:0:
64,192,18581,1,8,0:0:0:0:
320,192,18581,1,2,0:0:0:0:
448,192,18581,128,0,18749:0:0:0:0:
320,192,18749,128,0,18918:0:0:0:0:
64,192,18918,128,2,19086:0:0:0:0:
192,192,18918,1,0,0:0:0:0:
192,192,19255,1,8,0:0:0:0:
320,192,19255,1,2,0:0:0:0:
448,192,19255,128,0,19423:0:0:0:0:
64,192,19592,1,2,0:0:0:0:
192,192,19592,128,0,19760:0:0:0:0:
64,192,19929,1,8,0:0:0:0:
320,192,19929,1,2,0:0:0:0:
448,192,19929,1,0,0:0:0:0:
320,192,20097,128,0,20266:0:0:0:0:
64,192,20266,128,2,20603:0:0:0:0:
192,192,20266,1,0,0:0:0:0:
192,192,20603,1,8,0:0:0:0:
320,192,20603,1,2,0:0:0:0:
448,192,20603,128,0,20772:0:0:0:0:
192,192,20772,128,0,20940:0:0:0:0:
320,192,20940,128,2,21109:0:0:0:0:
448,192,20940,1,0,0:0:0:0:
64,192,21109,128,0,21277:0:0:0:0:
192,192,21277,1,8,0:0:0:0:
320,192,21277,1,2,0:0:0:0:
448,192,21277,128,0,21446:0:0:0:0:
192,192,21446,128,0,21614:0:0:0:0:
64,192,21614,1,2,0:0:0:0:
320,192,21614,128,0,21783:0:0:0:0:
64,192,21951,128,8,22120:0:0:0:0:
192,192,21951,1,2,0:0:0:0:
448,192,21951,1,0,0:0:0:0:
320,192,22288,1,2,0:0:0:0:
448,192,22288,128,0,22457:0:0:0:0:
192,192,22457,1,0,0:0:0:0:
64,192,22625,1,8,0:0:0:0:
320,192,22625,1,2,0:0:0:0:
448,192,22625,1,0,0:0:0:0:
192,192,22794,1,0,0:0:0:0:
64,192,22963,1,2,0:0:0:0:
320,192,22963,128,0,23300:0:0:0:0:
448,192,22963,1,0,0:0:0:0:
64,192,23300,1,2,0:0:0:0:
192,192,23300,128,8,23468:0:0:0:0:
448,192,23300,1,0,0:0:0:0:
64,192,23468,128,0,23637:0:0:0:0:
320,192,23637,1,2,0:0:0:0:
448,192,23637,128,0,23805:0:0:0:0:
192,192,23805,128,0,23974:0:0:0:0:
64,192,23974,1,8,0:0:0:0:
320,192,23974,128,2,24142:0:0:0:0:
448,192,23974,1,0,0:0:0:0:
64,192,24142,128,0,24311:0:0:0:0:
192,192,24311,128,2,24479:0:0:0:0:
448,192,24311,1,0,0:0:0:0:
64,192,24648,1,8,0:0:0:0:
320,192,24648,1,2,0:0:0:0:
448,192,24648,128,0,24816:0:0:0:0:
192,192,24985,1,2,0:0:0:0:
320,192,24985,128,0,25154:0:0:0:0:
64,192,25322,1,8,0:0:0:0:
192,192,25322,1,2,0:0:0:0:
448,192,25322,1,0,0:0:0:0:
192,192,25491,128,0,25659:0:0:0:0:
64,192,25659,1,2,0:0:0:0:
448,192,25659,128,0,25828:0:0:0:0:
320,192,25828,128,0,25996:0:0:0:0:
64,192,25996,128,2,26165:0:0:0:0:
192,192,25996,1,8,0:0:0:0:
448,192,25996,1,0,0:0:0:0:
192,192,26165,128,0,26333:0:0:0:0:
320,192,26333,1,2,0:0:0:0:
448,192,26333,128,0,26502:0:0:0:0:
64,192,26670,1,8,0:0:0:0:
192,192,26670,1,2,0:0:0:0:
320,192,26670,1,0,0:0:0:0:
64,192,26839,128,0,27007:0:0:0:0:
320,192,27007,128,2,27176:0:0:0:0:
448,192,27007,1,0,0:0:0:0:
192,192,27176,128,0,27345:0:0:0:0:
64,192,27345,1,8,0:0:0:0:
320,192,27345,1,2,0:0:0:0:
448,192,27345,128,0,27513:0:0:0:0:
64,192,27513,128,8,27682:0:0:0:0:
192,192,27513,1,0,0:0:0:0:
320,192,27513,1,0,0:0:0:0:
192,192,27850,1,8,0:0:0:0:
320,192,27850,1,2,0:0:0:0:
448,192,27850,1,0,0:0:0:0:
64,192,28019,1,2,0:0:0:0:
192,192,28019,1,8,0:0:0:0:
320,192,28019,1,0,0:0:0:0:
64,192,28187,1,8,0:0:0:0:
320,192,28187,1,2,0:0:0:0:
448,192,28187,1,0,0:0:0:0:
64,192,28356,1,4,0:0:0:0:
192,192,28356,128,2,28524:0:0:0:0:
448,192,28356,1,0,0:0:0:0:
320,192,28524,128,0,28693:0:0:0:0:
64,192,28693,128,8,28861:0:0:0:0:
192,192,28693,1,2,0:0:0:0:
448,192,28693,1,0,0:0:0:0:
448,192,28861,128,0,29030:0:0:0:0:
192,192,29030,128,2,29198:0:0:0:0:
320,192,29030,1,0,0:0:0:0:
64,192,29198,1,0,0:0:0:0:
192,192,29367,1,8,0:0:0:0:
320,192,29367,1,2,0:0:0:0:
448,192,29367,1,0,0:0:0:0:
320,192,29536,128,0,29704:0:0:0:0:
64,192,29704,1,2,0:0:0:0:
192,192,29704,128,0,29873:0:0:0:0:
448,192,29873,128,0,30041:0:0:0:0:
64,192,30041,128,8,30210:0:0:0:0:
192,192,30041,1,2,0:0:0:0:
320,192,30041,1,0,0:0:0:0:
320,192,30210,128,0,30378:0:0:0:0:
192,192,30378,128,2,30547:0:0:0:0:
448,192,30378,1,0,0:0:0:0:
64,192,30547,1,0,0:0:0:0:
192,192,30715,1,8,0:0:0:0:
320,192,30715,1,2,0:0:0:0:
448,192,30715,1,0,0:0:0:0:
64,192,30884,128,0,31052:0:0:0:0:
320,192,31052,1,2,0:0:0:0:
448,192,31052,128,0,31221:0:0:0:0:
192,192,31221,1,0,0:0:0:0:
64,192,31389,128,8,31558:0:0:0:0:
320,192,31389,1,2,0:0:0:0:
448,192,31389,1,0,0:0:0:0:
192,192,31558,128,0,31727:0:0:0:0:
320,192,31727,1,2,0:0:0:0:
448,192,31727,1,0,0:0:0:0:
64,192,31895,128,0,32064:0:0:0:0:
192,192,32064,1,8,0:0:0:0:
320,192,32064,128,2,32232:0:0:0:0:
448,192,32064,1,0,0:0:0:0:
192,192,32232,128,0,32401:0:0:0:0:
64,192,32401,1,2,0:0:0:0:
448,192,32401,128,0,32569:0:0:0:0:
320,192,32569,128,0,32738:0:0:0:0:
64,192,32738,1,8,0:0:0:0:
192,192,32738,128,2,32906:0:0:0:0:
448,192,32738,1,0,0:0:0:0:
64,192,32906,128,0,33075:0:0:0:0:
320,192,33075,1,2,0:0:0:0:
448,192,33075,128,0,33243:0:0:0:0:
64,192,33243,1,4,0:0:0:0:
192,192,33243,1,8,0:0:0:0:
320,192,33243,1,0,0:0:0:0:
64,192,33412,1,4,0:0:0:0:
192,192,33412,1,8,0:0:0:0:
448,192,33412,1,2,0:0:0:0:
320,192,33581,1,0,0:0:0:0:
448,192,33581,1,0,0:0:0:0:
192,192,33665,1,0,0:0:0:0:
64,192,33749,1,4,0:0:0:0:
448,192,33749,1,2,0:0:0:0:
320,192,33918,128,0,34086:0:0:0:0:
64,192,34086,128,2,34255:0:0:0:0:
192,192,34086,1,8,0:0:0:0:
448,192,34086,1,0,0:0:0:0:
448,192,34255,128,0,34423:0:0:0:0:
192,192,34423,128,2,34592:0:0:0:0:
320,192,34423,1,0,0:0:0:0:
64,192,34592,1,0,0:0:0:0:
192,192,34760,1,8,0:0:0:0:
320,192,34760,128,2,34929:0:0:0:0:
448,192,34760,1,0,0:0:0:0:
64,192,34929,128,0,35097:0:0:0:0:
192,192,35097,1,2,0:0:0:0:
448,192,35097,128,0,35266:0:0:0:0:
64,192,35266,1,0,0:0:0:0:
192,192,35434,1,8,0:0:0:0:
320,192,35434,128,2,35603:0:0:0:0:
448,192,35434,1,0,0:0:0:0:
64,192,35603,1,0,0:0:0:0:
192,192,35772,128,2,35940:0:0:0:0:
448,192,35772,1,0,0:0:0:0:
320,192,35940,128,0,36109:0:0:0:0:
64,192,36109,1,8,0:0:0:0:
192,192,36109,1,2,0:0:0:0:
448,192,36109,128,0,36446:0:0:0:0:
320,192,36277,1,0,0:0:0:0:
64,192,36446,128,2,36783:0:0:0:0:
192,192,36446,1,0,0:0:0:0:
320,192,36614,1,0,0:0:0:0:
192,192,36783,1,2,0:0:0:0:
448,192,36783,1,8,0:0:0:0:
448,192,36951,1,0,0:0:0:0:
64,192,37120,1,2,0:0:0:0:
192,192,37120,1,0,0:0:0:0:
192,192,37288,1,0,0:0:0:0:
64,192,37457,1,8,0:0:0:0:
320,192,37457,1,2,0:0:0:0:
448,192,37457,1,0,0:0:0:0:
320,192,37625,1,0,0:0:0:0:
64,192,37794,1,2,0:0:0:0:
192,192,37794,1,0,0:0:0:0:
448,192,37963,128,0,38131:0:0:0:0:
64,192,38131,1,4,0:0:0:0:
192,192,38131,128,8,38300:0:0:0:0:
320,192,38131,1,2,0:0:0:0:
320,192,38300,128,0,38468:0:0:0:0:
64,192,38468,1,2,0:0:0:0:
192,192,38468,1,0,0:0:0:0:
320,192,38552,1,2,0:0:0:0:
448,192,38552,1,0,0:0:0:0:
64,192,38637,1,2,0:0:0:0:
192,192,38637,1,0,0:0:0:0:
64,192,38805,1,4,0:0:0:0:
320,192,38805,1,2,0:0:0:0:
448,192,38805,1,8,0:0:0:0:
192,192,38974,1,0,0:0:0:0:
64,192,39142,1,8,0:0:0:0:
320,192,39142,1,2,0:0:0:0:
448,192,39142,1,0,0:0:0:0:
64,192,39395,1,8,0:0:0:0:
320,192,39395,1,2,0:0:0:0:
448,192,39395,1,0,0:0:0:0:
64,192,39648,1,8,0:0:0:0:
192,192,39648,1,2,0:0:0:0:
448,192,39648,1,0,0:0:0:0:
192,192,39816,1,2,0:0:0:0:
320,192,39816,1,0,0:0:0:0:
448,192,39816,1,0,0:0:0:0:
64,192,40069,1,2,0:0:0:0:
192,192,40069,1,0,0:0:0:0:
320,192,40069,1,0,0:0:0:0:
64,192,40322,1,2,0:0:0:0:
192,192,40322,1,0,0:0:0:0:
448,192,40322,1,0,0:0:0:0:
192,192,40491,1,8,0:0:0:0:
320,192,40491,1,2,0:0:0:0:
448,192,40491,1,0,0:0:0:0:
64,192,40743,1,8,0:0:0:0:
320,192,40743,1,2,0:0:0:0:
448,192,40743,1,0,0:0:0:0:
64,192,40996,1,2,0:0:0:0:
192,192,40996,1,8,0:0:0:0:
448,192,40996,1,0,0:0:0:0:
192,192,41165,1,2,0:0:0:0:
320,192,41165,1,0,0:0:0:0:
448,192,41165,1,0,0:0:0:0:
64,192,41418,1,2,0:0:0:0:
192,192,41418,1,0,0:0:0:0:
320,192,41502,1,2,0:0:0:0:
448,192,41502,1,0,0:0:0:0:
64,192,41670,1,2,0:0:0:0:
448,192,41670,1,0,0:0:0:0:
64,192,41839,1,2,0:0:0:0:
192,192,41839,1,8,0:0:0:0:
320,192,41839,1,0,0:0:0:0:
192,192,42092,1,2,0:0:0:0:
320,192,42092,1,8,0:0:0:0:
448,192,42092,1,0,0:0:0:0:
64,192,42345,1,2,0:0:0:0:
192,192,42345,1,8,0:0:0:0:
448,192,42345,1,0,0:0:0:0:
64,192,42513,1,2,0:0:0:0:
320,192,42513,1,0,0:0:0:0:
448,192,42513,1,0,0:0:0:0:
64,192,42766,1,2,0:0:0:0:
192,192,42766,1,0,0:0:0:0:
320,192,42766,1,0,0:0:0:0:
192,192,43019,1,2,0:0:0:0:
320,192,43019,1,0,0:0:0:0:
448,192,43019,1,0,0:0:0:0:
64,192,43187,1,2,0:0:0:0:
192,192,43187,1,8,0:0:0:0:
448,192,43187,1,0,0:0:0:0:
64,192,43440,1,2,0:0:0:0:
320,192,43440,1,8,0:0:0:0:
448,192,43440,1,0,0:0:0:0:
64,192,43693,1,8,0:0:0:0:
192,192,43693,1,2,0:0:0:0:
320,192,43693,1,0,0:0:0:0:
64,192,43861,1,2,0:0:0:0:
448,192,43861,1,0,0:0:0:0:
320,192,43946,1,0,0:0:0:0:
192,192,44030,1,0,0:0:0:0:
320,192,44114,1,2,0:0:0:0:
448,192,44114,1,0,0:0:0:0:
64,192,44198,1,2,0:0:0:0:
192,192,44198,1,0,0:0:0:0:
448,192,44283,1,0,0:0:0:0:
64,192,44367,1,2,0:0:0:0:
320,192,44367,1,0,0:0:0:0:
192,192,44451,1,0,0:0:0:0:
64,192,44536,1,4,0:0:0:0:
320,192,44536,1,2,0:0:0:0:
448,192,44536,1,0,0:0:0:0:
192,192,44704,1,0,0:0:0:0:
64,192,44788,1,0,0:0:0:0:
320,192,44873,1,8,0:0:0:0:
448,192,44873,1,2,0:0:0:0:
192,192,45041,1,0,0:0:0:0:
64,192,45210,1,2,0:0:0:0:
448,192,45210,1,0,0:0:0:0:
320,192,45378,1,0,0:0:0:0:
192,192,45463,1,0,0:0:0:0:
64,192,45547,1,8,0:0:0:0:
448,192,45547,1,2,0:0:0:0:
320,192,45631,1,0,0:0:0:0:
192,192,45715,1,8,0:0:0:0:
320,192,45800,1,0,0:0:0:0:
64,192,45884,1,2,0:0:0:0:
192,192,45884,1,4,0:0:0:0:
448,192,45884,1,0,0:0:0:0:
320,192,46052,1,0,0:0:0:0:
64,192,46137,1,0,0:0:0:0:
192,192,46221,1,2,0:0:0:0:
448,192,46221,1,8,0:0:0:0:
320,192,46305,1,0,0:0:0:0:
64,192,46389,1,0,0:0:0:0:
192,192,46558,1,2,0:0:0:0:
320,192,46558,1,0,0:0:0:0:
64,192,46727,1,2,0:0:0:0:
448,192,46727,1,0,0:0:0:0:
320,192,46895,1,2,0:0:0:0:
448,192,46895,1,8,0:0:0:0:
64,192,46979,1,2,0:0:0:0:
192,192,46979,1,0,0:0:0:0:
320,192,47064,1,2,0:0:0:0:
448,192,47064,1,8,0:0:0:0:
192,192,47148,1,2,0:0:0:0:
64,192,47232,1,2,0:0:0:0:
320,192,47232,1,4,0:0:0:0:
448,192,47232,1,0,0:0:0:0:
64,192,47401,1,2,0:0:0:0:
192,192,47401,1,0,0:0:0:0:
192,192,47569,1,8,0:0:0:0:
320,192,47569,1,0,0:0:0:0:
448,192,47569,1,0,0:0:0:0:
448,192,47738,1,8,0:0:0:0:
64,192,47906,1,4,0:0:0:0:
320,192,47906,1,2,0:0:0:0:
192,192,48075,1,2,0:0:0:0:
320,192,48075,1,0,0:0:0:0:
64,192,48243,1,8,0:0:0:0:
192,192,48243,1,0,0:0:0:0:
448,192,48243,1,0,0:0:0:0:
64,192,48412,1,8,0:0:0:0:
192,192,48581,1,2,0:0:0:0:
320,192,48581,1,4,0:0:0:0:
448,192,48581,1,0,0:0:0:0:
64,192,48918,1,2,0:0:0:0:
192,192,48918,1,4,0:0:0:0:
448,192,48918,1,0,0:0:0:0:
64,192,49255,1,4,0:0:0:0:
192,192,49255,1,2,0:0:0:0:
320,192,49255,1,0,0:0:0:0:
192,192,49592,1,2,0:0:0:0:
320,192,49592,1,4,0:0:0:0:
448,192,49592,1,0,0:0:0:0:
64,192,49929,1,8,0:0:0:0:
192,192,49929,1,2,0:0:0:0:
448,192,49929,1,0,0:0:0:0:
64,192,50266,1,8,0:0:0:0:
448,192,50266,1,2,0:0:0:0:
64,192,50603,1,8,0:0:0:0:
448,192,50603,1,2,0:0:0:0:
64,192,50940,1,8,0:0:0:0:
320,192,50940,1,2,0:0:0:0:
448,192,50940,1,0,0:0:0:0:
64,192,51277,1,8,0:0:0:0:
192,192,51277,1,2,0:0:0:0:
448,192,51277,1,0,0:0:0:0:
64,192,51614,1,8,0:0:0:0:
192,192,51614,1,2,0:0:0:0:
320,192,51614,1,0,0:0:0:0:
448,192,51614,1,0,0:0:0:0:
320,192,51951,128,0,52625:0:0:0:0:
64,192,52625,1,2,0:0:0:0:
192,192,52625,1,4,0:0:0:0:
448,192,52625,1,0,0:0:0:0:
64,192,52963,1,2,0:0:0:0:
320,192,52963,1,8,0:0:0:0:
448,192,52963,1,0,0:0:0:0:
64,192,53300,1,2,0:0:0:0:
192,192,53300,1,0,0:0:0:0:
320,192,53300,1,0,0:0:0:0:
64,192,53637,1,2,0:0:0:0:
320,192,53637,1,8,0:0:0:0:
448,192,53637,1,0,0:0:0:0:
64,192,53974,1,2,0:0:0:0:
192,192,53974,1,0,0:0:0:0:
320,192,53974,1,0,0:0:0:0:
192,192,54311,1,2,0:0:0:0:
320,192,54311,1,8,0:0:0:0:
448,192,54311,1,0,0:0:0:0:
64,192,54648,1,2,0:0:0:0:
192,192,54648,1,0,0:0:0:0:
448,192,54648,1,0,0:0:0:0:
64,192,54985,1,2,0:0:0:0:
320,192,54985,1,8,0:0:0:0:
448,192,54985,1,0,0:0:0:0:
192,192,55154,128,0,55322:0:0:0:0:
64,192,55322,1,2,0:0:0:0:
448,192,55322,128,0,55491:0:0:0:0:
320,192,55491,128,0,55659:0:0:0:0:
64,192,55659,1,2,0:0:0:0:
192,192,55659,128,8,55828:0:0:0:0:
448,192,55659,1,0,0:0:0:0:
64,192,55828,128,0,55996:0:0:0:0:
320,192,55996,1,2,0:0:0:0:
448,192,55996,128,0,56165:0:0:0:0:
192,192,56165,128,0,56333:0:0:0:0:
64,192,56333,1,2,0:0:0:0:
320,192,56333,128,8,56502:0:0:0:0:
448,192,56333,1,0,0:0:0:0:
64,192,56502,128,0,56670:0:0:0:0:
192,192,56670,1,2,0:0:0:0:
448,192,56670,128,0,56839:0:0:0:0:
320,192,56839,1,0,0:0:0:0:
64,192,57007,1,2,0:0:0:0:
192,192,57007,128,8,57176:0:0:0:0:
448,192,57007,1,0,0:0:0:0:
320,192,57176,1,0,0:0:0:0:
64,192,57345,128,2,57513:0:0:0:0:
192,192,57345,1,0,0:0:0:0:
448,192,57513,1,0,0:0:0:0:
320,192,57569,1,0,0:0:0:0:
192,192,57625,1,0,0:0:0:0:
64,192,57682,1,4,0:0:0:0:
320,192,57682,1,2,0:0:0:0:
448,192,57682,1,8,0:0:0:0:
192,192,57850,1,0,0:0:0:0:
64,192,58019,1,2,0:0:0:0:
320,192,58019,1,4,0:0:0:0:
448,192,58019,1,0,0:0:0:0:
64,192,58356,1,8,0:0:0:0:
192,192,58356,1,2,0:0:0:0:
448,192,58356,1,0,0:0:0:0:
192,192,58693,1,2,0:0:0:0:
320,192,58693,1,0,0:0:0:0:
448,192,58693,1,0,0:0:0:0:
64,192,59030,1,2,0:0:0:0:
320,192,59030,1,8,0:0:0:0:
448,192,59030,1,0,0:0:0:0:
64,192,59367,1,2,0:0:0:0:
192,192,59367,1,0,0:0:0:0:
320,192,59367,1,0,0:0:0:0:
64,192,59704,1,2,0:0:0:0:
192,192,59704,1,8,0:0:0:0:
448,192,59704,1,0,0:0:0:0:
192,192,60041,1,2,0:0:0:0:
320,192,60041,1,0,0:0:0:0:
448,192,60041,1,0,0:0:0:0:
64,192,60378,1,2,0:0:0:0:
192,192,60378,1,8,0:0:0:0:
320,192,60378,1,0,0:0:0:0:
448,192,60547,128,0,60715:0:0:0:0:
64,192,60715,1,2,0:0:0:0:
192,192,60715,128,0,60884:0:0:0:0:
320,192,60884,128,0,61052:0:0:0:0:
64,192,61052,128,8,61221:0:0:0:0:
192,192,61052,1,2,0:0:0:0:
448,192,61052,1,0,0:0:0:0:
448,192,61221,128,0,61389:0:0:0:0:
64,192,61389,1,2,0:0:0:0:
192,192,61389,128,0,61558:0:0:0:0:
320,192,61558,128,0,61727:0:0:0:0:
64,192,61727,1,4,0:0:0:0:
192,192,61727,128,2,61895:0:0:0:0:
448,192,61727,1,8,0:0:0:0:
64,192,61895,128,0,62064:0:0:0:0:
320,192,62064,1,8,0:0:0:0:
448,192,62064,128,0,62232:0:0:0:0:
64,192,62232,1,2,0:0:0:0:
192,192,62232,1,0,0:0:0:0:
320,192,62401,128,8,62569:0:0:0:0:
64,192,62569,128,2,62738:0:0:0:0:
192,192,62569,1,0,0:0:0:0:
320,192,62738,1,8,0:0:0:0:
448,192,62738,128,0,62906:0:0:0:0:
64,192,62906,1,10,0:0:0:0:
192,192,62963,1,0,0:0:0:0:
320,192,63019,1,0,0:0:0:0:
64,192,63075,1,6,0:0:0:0:
448,192,63075,1,8,0:0:0:0:
192,192,63243,1,0,0:0:0:0:
64,192,63412,1,2,0:0:0:0:
320,192,63412,1,4,0:0:0:0:
448,192,63412,1,0,0:0:0:0:
192,192,63581,1,0,0:0:0:0:
64,192,63749,1,2,0:0:0:0:
320,192,63749,128,8,64086:0:0:0:0:
448,192,63749,1,0,0:0:0:0:
192,192,63918,1,0,0:0:0:0:
64,192,64086,128,2,64255:0:0:0:0:
448,192,64086,1,0,0:0:0:0:
448,192,64255,128,0,64423:0:0:0:0:
64,192,64423,1,2,0:0:0:0:
192,192,64423,128,8,64592:0:0:0:0:
320,192,64592,128,2,64760:0:0:0:0:
64,192,64760,128,2,64929:0:0:0:0:
448,192,64760,1,0,0:0:0:0:
320,192,64929,1,0,0:0:0:0:
64,192,65097,1,2,0:0:0:0:
192,192,65097,1,8,0:0:0:0:
448,192,65097,128,0,65266:0:0:0:0:
320,192,65266,128,0,65434:0:0:0:0:
64,192,65434,128,2,65603:0:0:0:0:
448,192,65434,1,0,0:0:0:0:
192,192,65603,128,0,65772:0:0:0:0:
64,192,65772,1,2,0:0:0:0:
320,192,65772,128,8,65940:0:0:0:0:
448,192,65772,1,0,0:0:0:0:
448,192,65940,128,2,66109:0:0:0:0:
64,192,66109,128,2,66277:0:0:0:0:
192,192,66109,1,0,0:0:0:0:
320,192,66277,1,0,0:0:0:0:
192,192,66361,1,0,0:0:0:0:
64,192,66446,1,8,0:0:0:0:
320,192,66446,128,2,66614:0:0:0:0:
448,192,66446,1,0,0:0:0:0:
192,192,66614,128,0,66783:0:0:0:0:
64,192,66783,1,2,0:0:0:0:
448,192,66783,1,0,0:0:0:0:
320,192,66951,128,0,67120:0:0:0:0:
64,192,67120,1,8,0:0:0:0:
192,192,67120,1,2,0:0:0:0:
448,192,67120,1,0,0:0:0:0:
64,192,67288,128,2,67457:0:0:0:0:
320,192,67457,1,2,0:0:0:0:
448,192,67457,128,0,67794:0:0:0:0:
192,192,67625,1,0,0:0:0:0:
64,192,67794,1,4,0:0:0:0:
192,192,67794,1,2,0:0:0:0:
320,192,67794,1,8,0:0:0:0:
448,192,67963,1,0,0:0:0:0:
64,192,68131,128,2,68300:0:0:0:0:
192,192,68131,1,0,0:0:0:0:
320,192,68300,128,0,68468:0:0:0:0:
64,192,68468,1,2,0:0:0:0:
192,192,68468,128,8,68637:0:0:0:0:
448,192,68468,1,0,0:0:0:0:
448,192,68637,128,0,68805:0:0:0:0:
64,192,68805,1,2,0:0:0:0:
192,192,68805,1,4,0:0:0:0:
320,192,68805,1,0,0:0:0:0:
64,192,69142,1,8,0:0:0:0:
320,192,69142,1,2,0:0:0:0:
448,192,69142,1,0,0:0:0:0:
64,192,69479,1,2,0:0:0:0:
192,192,69479,1,0,0:0:0:0:
448,192,69479,1,0,0:0:0:0:
192,192,69816,1,2,0:0:0:0:
320,192,69816,1,8,0:0:0:0:
448,192,69816,1,0,0:0:0:0:
64,192,70154,1,2,0:0:0:0:
192,192,70154,1,4,0:0:0:0:
320,192,70154,1,0,0:0:0:0:
448,192,70154,1,0,0:0:0:0:
64,192,70491,1,8,0:0:0:0:
320,192,70491,1,2,0:0:0:0:
448,192,70491,1,0,0:0:0:0:
64,192,70828,1,2,0:0:0:0:
192,192,70828,1,0,0:0:0:0:
448,192,70828,1,0,0:0:0:0:
64,192,71165,1,2,0:0:0:0:
320,192,71165,1,8,0:0:0:0:
448,192,71165,1,0,0:0:0:0:
192,192,71333,1,0,0:0:0:0:
64,192,71502,128,4,71670:0:0:0:0:
320,192,71502,1,2,0:0:0:0:
448,192,71502,1,0,0:0:0:0:
192,192,71670,128,0,71839:0:0:0:0:
64,192,71839,1,2,0:0:0:0:
320,192,71839,128,8,72007:0:0:0:0:
448,192,71839,1,0,0:0:0:0:
64,192,72007,128,0,72176:0:0:0:0:
192,192,72176,1,2,0:0:0:0:
448,192,72176,128,4,72345:0:0:0:0:
320,192,72345,128,0,72513:0:0:0:0:
64,192,72513,1,8,0:0:0:0:
192,192,72513,128,2,72682:0:0:0:0:
448,192,72513,1,0,0:0:0:0:
448,192,72682,128,0,72850:0:0:0:0:
320,192,72766,1,0,0:0:0:0:
64,192,72850,1,2,0:0:0:0:
192,192,72850,1,0,0:0:0:0:
64,192,73356,1,2,0:0:0:0:
320,192,73356,1,0,0:0:0:0:
448,192,73356,1,0,0:0:0:0:
64,192,73524,1,8,0:0:0:0:
192,192,73524,1,2,0:0:0:0:
448,192,73524,1,0,0:0:0:0:
192,192,74030,1,2,0:0:0:0:
320,192,74030,1,0,0:0:0:50:cymbal.wav
448,192,74030,1,0,0:0:0:0:
64,192,74367,1,2,0:0:0:0:
320,192,74367,1,0,0:0:0:50:cymbal.wav
448,192,74367,1,0,0:0:0:0:
64,192,74704,1,2,0:0:0:0:
192,192,74704,1,0,0:0:0:0:
448,192,74704,1,0,0:0:0:0:
64,192,74873,1,8,0:0:0:0:
192,192,74873,1,2,0:0:0:0:
320,192,74873,1,0,0:0:0:50:cymbal.wav
320,192,75041,1,2,0:0:0:0:
448,192,75041,1,0,0:0:0:0:
192,192,75125,1,2,0:0:0:0:
64,192,75210,128,4,75547:0:0:0:0:
448,192,75210,1,2,0:0:0:0:
192,192,75547,1,4,0:0:0:0:
320,192,75547,1,2,0:0:0:0:
448,192,75547,128,0,75884:0:0:0:0:
320,192,75715,128,0,75884:0:0:0:0:
64,192,75884,1,8,0:0:0:0:
192,192,75884,1,2,0:0:0:0:
192,192,76052,1,0,0:0:0:0:
64,192,76221,128,2,76558:0:0:0:0:
320,192,76221,1,0,0:0:0:0:
448,192,76389,128,0,76558:0:0:0:0:
192,192,76558,1,8,0:0:0:0:
320,192,76558,1,2,0:0:0:0:
320,192,76727,1,0,0:0:0:0:
64,192,76895,1,2,0:0:0:0:
192,192,76895,128,0,77232:0:0:0:0:
320,192,77064,128,0,77232:0:0:0:0:
64,192,77232,1,8,0:0:0:0:
448,192,77232,1,2,0:0:0:0:
448,192,77401,1,0,0:0:0:0:
64,192,77569,128,2,77906:0:0:0:0:
192,192,77569,1,0,0:0:0:0:
320,192,77738,128,0,77906:0:0:0:0:
192,192,77906,1,8,0:0:0:0:
448,192,77906,1,2,0:0:0:0:
448,192,78075,1,0,0:0:0:0:
64,192,78243,128,2,78581:0:0:0:0:
320,192,78243,1,0,0:0:0:0:
192,192,78412,128,0,78581:0:0:0:0:
320,192,78581,1,8,0:0:0:0:
448,192,78581,1,2,0:0:0:0:
320,192,78749,1,0,0:0:0:0:
64,192,78918,1,2,0:0:0:0:
448,192,78918,128,0,79255:0:0:0:0:
192,192,79086,128,0,79255:0:0:0:0:
64,192,79255,1,8,0:0:0:0:
320,192,79255,1,2,0:0:0:0:
320,192,79423,1,0,0:0:0:0:
64,192,79592,128,2,79929:0:0:0:0:
192,192,79592,1,0,0:0:0:0:
448,192,79760,128,0,79929:0:0:0:0:
192,192,79929,1,8,0:0:0:0:
320,192,79929,1,2,0:0:0:0:
320,192,80097,1,0,0:0:0:0:
64,192,80266,1,2,0:0:0:0:
192,192,80266,128,0,80603:0:0:0:0:
320,192,80434,128,0,80603:0:0:0:0:
64,192,80603,1,8,0:0:0:0:
448,192,80603,1,2,0:0:0:0:
320,192,80772,1,0,0:0:0:0:
448,192,80772,1,0,0:0:0:0:
192,192,80856,1,0,0:0:0:0:
64,192,80940,128,4,81277:0:0:0:0:
320,192,80940,1,2,0:0:0:0:
448,192,80940,1,0,0:0:0:0:
192,192,81109,128,0,81277:0:0:0:0:
320,192,81277,1,2,0:0:0:0:
448,192,81277,1,8,0:0:0:0:
448,192,81446,1,0,0:0:0:0:
64,192,81614,1,2,0:0:0:0:
320,192,81614,128,0,81951:0:0:0:0:
448,192,81783,128,0,81951:0:0:0:0:
64,192,81951,1,8,0:0:0:0:
192,192,81951,1,2,0:0:0:0:
192,192,82120,1,0,0:0:0:0:
64,192,82288,1,2,0:0:0:0:
448,192,82288,128,0,82625:0:0:0:0:
192,192,82457,128,0,82625:0:0:0:0:
64,192,82625,1,8,0:0:0:0:
320,192,82625,1,2,0:0:0:0:
320,192,82794,1,0,0:0:0:0:
64,192,82963,128,2,83300:0:0:0:0:
448,192,82963,1,0,0:0:0:0:
192,192,83131,128,0,83300:0:0:0:0:
320,192,83300,1,8,0:0:0:0:
448,192,83300,1,2,0:0:0:0:
320,192,83468,1,0,0:0:0:0:
64,192,83637,1,2,0:0:0:0:
192,192,83637,128,0,83974:0:0:0:0:
320,192,83805,128,0,83974:0:0:0:0:
64,192,83974,1,2,0:0:0:0:
448,192,83974,1,8,0:0:0:0:
64,192,84142,1,0,0:0:0:0:
320,192,84311,1,2,0:0:0:0:
448,192,84311,128,0,84648:0:0:0:0:
192,192,84479,128,0,84648:0:0:0:0:
64,192,84648,1,8,0:0:0:0:
320,192,84648,1,2,0:0:0:0:
320,192,84816,1,0,0:0:0:0:
64,192,84985,128,2,85322:0:0:0:0:
448,192,84985,1,0,0:0:0:0:
192,192,85154,128,0,85322:0:0:0:0:
320,192,85322,1,8,0:0:0:0:
448,192,85322,1,2,0:0:0:0:
64,192,85491,1,0,0:0:0:0:
192,192,85491,1,0,0:0:0:0:
192,192,85659,1,2,0:0:0:0:
448,192,85659,1,0,0:0:0:0:
64,192,85828,1,8,0:0:0:0:
320,192,85828,1,2,0:0:0:0:
448,192,85828,1,0,0:0:0:0:
64,192,85996,1,2,0:0:0:0:
192,192,85996,1,8,0:0:0:0:
448,192,85996,1,0,0:0:0:0:
64,192,86165,1,8,0:0:0:0:
192,192,86165,1,2,0:0:0:0:
320,192,86165,1,0,0:0:0:0:
192,192,86333,1,4,0:0:0:0:
320,192,86333,1,2,0:0:0:0:
448,192,86333,128,0,86670:0:0:0:0:
64,192,86502,1,0,0:0:0:0:
192,192,86670,1,2,0:0:0:0:
320,192,86670,128,0,86839:0:0:0:0:
64,192,86839,128,0,87007:0:0:0:0:
192,192,87007,1,2,0:0:0:0:
448,192,87007,128,0,87176:0:0:0:0:
320,192,87176,128,0,87345:0:0:0:0:
64,192,87345,128,2,87513:0:0:0:0:
448,192,87345,1,0,0:0:0:0:
192,192,87513,128,0,87682:0:0:0:0:
320,192,87682,1,2,0:0:0:0:
448,192,87682,128,0,87850:0:0:0:0:
192,192,87850,1,0,0:0:0:0:
64,192,88019,128,2,88187:0:0:0:0:
320,192,88019,1,0,0:0:0:0:
192,192,88187,1,0,0:0:0:0:
320,192,88356,128,2,88524:0:0:0:0:
448,192,88356,1,0,0:0:0:0:
64,192,88524,1,0,0:0:0:0:
192,192,88524,1,0,0:0:0:0:
64,192,88693,1,2,0:0:0:0:
448,192,88693,1,0,0:0:0:0:
192,192,88861,128,0,89030:0:0:0:0:
64,192,89030,1,2,0:0:0:0:
448,192,89030,128,0,89198:0:0:0:0:
320,192,89198,1,0,0:0:0:0:
64,192,89367,128,2,89536:0:0:0:0:
192,192,89367,1,0,0:0:0:0:
320,192,89536,128,0,89704:0:0:0:0:
64,192,89704,1,2,0:0:0:0:
192,192,89704,128,0,89873:0:0:0:0:
448,192,89873,1,0,0:0:0:0:
64,192,90041,128,2,90210:0:0:0:0:
192,192,90041,1,0,0:0:0:0:
320,192,90210,128,0,90378:0:0:0:0:
192,192,90378,128,2,90547:0:0:0:0:
448,192,90378,1,0,0:0:0:0:
64,192,90547,1,0,0:0:0:0:
192,192,90715,1,2,0:0:0:0:
448,192,90715,128,0,90884:0:0:0:0:
320,192,90884,1,0,0:0:0:0:
64,192,91052,128,2,91221:0:0:0:0:
192,192,91052,1,0,0:0:0:0:
320,192,91221,1,0,0:0:0:0:
448,192,91221,1,0,0:0:0:0:
192,192,91305,1,0,0:0:0:0:
64,192,91389,1,2,0:0:0:0:
448,192,91389,1,0,0:0:0:0:
64,192,91558,1,4,0:0:0:0:
192,192,91558,1,0,0:0:0:0:
320,192,91558,1,0,0:0:0:0:
320,192,91727,1,4,0:0:0:0:
448,192,91727,128,2,92064:0:0:0:0:
64,192,91895,1,0,0:0:0:0:
192,192,92064,128,2,92232:0:0:0:0:
320,192,92064,1,0,0:0:0:0:
64,192,92232,128,0,92401:0:0:0:0:
320,192,92401,128,2,92569:0:0:0:0:
448,192,92401,1,0,0:0:0:0:
192,192,92569,128,0,92738:0:0:0:0:
64,192,92738,1,2,0:0:0:0:
448,192,92738,128,0,92906:0:0:0:0:
320,192,92906,128,0,93075:0:0:0:0:
64,192,93075,1,2,0:0:0:0:
192,192,93075,128,0,93243:0:0:0:0:
448,192,93243,1,0,0:0:0:0:
64,192,93412,128,2,93581:0:0:0:0:
320,192,93412,1,0,0:0:0:0:
192,192,93581,1,0,0:0:0:0:
320,192,93749,128,2,93918:0:0:0:0:
448,192,93749,1,0,0:0:0:0:
64,192,93918,1,0,0:0:0:0:
192,192,94086,1,2,0:0:0:0:
320,192,94086,1,0,0:0:0:0:
448,192,94255,128,0,94423:0:0:0:0:
64,192,94423,128,2,94592:0:0:0:0:
320,192,94423,1,0,0:0:0:0:
192,192,94592,128,0,94760:0:0:0:0:
64,192,94760,1,2,0:0:0:0:
448,192,94760,128,0,94929:0:0:0:0:
320,192,94929,128,0,95097:0:0:0:0:
64,192,95097,128,2,95266:0:0:0:0:
192,192,95097,1,0,0:0:0:0:
320,192,95266,1,2,0:0:0:0:
448,192,95266,1,0,0:0:0:0:
192,192,95434,1,2,0:0:0:0:
448,192,95434,128,0,95603:0:0:0:0:
64,192,95603,1,2,0:0:0:0:
320,192,95603,128,0,95772:0:0:0:0:
192,192,95772,128,0,95940:0:0:0:0:
448,192,95940,128,0,96109:0:0:0:0:
64,192,96109,128,0,96277:0:0:0:0:
192,192,96109,1,0,0:0:0:0:
320,192,96277,128,0,96446:0:0:0:0:
448,192,96277,1,0,0:0:0:0:
64,192,96614,1,8,0:0:0:0:
192,192,96614,1,2,0:0:0:0:
448,192,96614,1,0,0:0:0:0:
64,192,96783,1,2,0:0:0:0:
320,192,96783,1,8,0:0:0:0:
448,192,96783,1,0,0:0:0:0:
64,192,96951,1,8,0:0:0:0:
192,192,96951,1,2,0:0:0:0:
448,192,96951,1,0,0:0:0:0:
64,192,97120,1,4,0:0:0:0:
320,192,97120,128,2,97288:0:0:0:0:
448,192,97120,1,0,0:0:0:0:
192,192,97288,128,0,97457:0:0:0:0:
64,192,97457,1,8,0:0:0:0:
320,192,97457,1,2,0:0:0:0:
448,192,97457,128,0,97625:0:0:0:0:
64,192,97625,128,0,97794:0:0:0:0:
192,192,97794,1,2,0:0:0:0:
320,192,97794,128,0,97963:0:0:0:0:
448,192,97963,1,0,0:0:0:0:
64,192,98131,1,8,0:0:0:0:
192,192,98131,1,2,0:0:0:0:
320,192,98131,1,0,0:0:0:0:
192,192,98300,128,0,98468:0:0:0:0:
320,192,98468,128,2,98637:0:0:0:0:
448,192,98468,1,0,0:0:0:0:
64,192,98637,128,0,98805:0:0:0:0:
192,192,98805,1,8,0:0:0:0:
320,192,98805,1,2,0:0:0:0:
448,192,98805,128,0,98974:0:0:0:0:
192,192,98974,128,0,99142:0:0:0:0:
64,192,99142,1,2,0:0:0:0:
320,192,99142,128,0,99311:0:0:0:0:
448,192,99311,1,0,0:0:0:0:
64,192,99479,1,8,0:0:0:0:
192,192,99479,1,2,0:0:0:0:
320,192,99479,1,0,0:0:0:0:
448,192,99648,128,0,99816:0:0:0:0:
64,192,99816,1,2,0:0:0:0:
192,192,99816,128,0,99985:0:0:0:0:
320,192,99985,1,0,0:0:0:0:
64,192,100154,128,8,100322:0:0:0:0:
192,192,100154,1,2,0:0:0:0:
448,192,100154,1,0,0:0:0:0:
320,192,100322,128,0,100491:0:0:0:0:
64,192,100491,1,2,0:0:0:0:
192,192,100491,1,0,0:0:0:0:
448,192,100659,128,0,100828:0:0:0:0:
64,192,100828,1,8,0:0:0:0:
192,192,100828,128,2,100996:0:0:0:0:
320,192,100828,1,0,0:0:0:0:
320,192,100996,128,0,101165:0:0:0:0:
64,192,101165,128,2,101333:0:0:0:0:
448,192,101165,1,0,0:0:0:0:
192,192,101333,128,0,101502:0:0:0:0:
64,192,101502,1,8,0:0:0:0:
320,192,101502,128,2,101670:0:0:0:0:
448,192,101502,1,0,0:0:0:0:
448,192,101670,128,0,101839:0:0:0:0:
64,192,101839,128,2,102007:0:0:0:0:
192,192,101839,1,0,0:0:0:0:
192,192,102007,1,4,0:0:0:0:
320,192,102007,1,8,0:0:0:0:
448,192,102007,1,0,0:0:0:0:
64,192,102176,1,4,0:0:0:0:
320,192,102176,1,8,0:0:0:0:
448,192,102176,1,2,0:0:0:0:
64,192,102345,1,0,0:0:0:0:
192,192,102345,1,0,0:0:0:0:
320,192,102429,1,0,0:0:0:0:
64,192,102513,1,4,0:0:0:0:
448,192,102513,1,2,0:0:0:0:
192,192,102682,128,0,102850:0:0:0:0:
64,192,102850,1,2,0:0:0:0:
320,192,102850,1,8,0:0:0:0:
448,192,102850,128,0,103019:0:0:0:0:
64,192,103019,128,0,103187:0:0:0:0:
192,192,103187,1,2,0:0:0:0:
320,192,103187,128,0,103356:0:0:0:0:
448,192,103356,1,0,0:0:0:0:
64,192,103524,1,8,0:0:0:0:
192,192,103524,128,2,103693:0:0:0:0:
320,192,103524,1,0,0:0:0:0:
448,192,103693,128,0,103861:0:0:0:0:
64,192,103861,128,2,104030:0:0:0:0:
192,192,103861,1,0,0:0:0:0:
320,192,104030,1,0,0:0:0:0:
64,192,104198,1,8,0:0:0:0:
192,192,104198,128,2,104367:0:0:0:0:
448,192,104198,1,0,0:0:0:0:
320,192,104367,1,0,0:0:0:0:
64,192,104536,1,2,0:0:0:0:
448,192,104536,128,0,104704:0:0:0:0:
320,192,104704,128,0,104873:0:0:0:0:
64,192,104873,128,8,105210:0:0:0:0:
192,192,104873,1,2,0:0:0:0:
448,192,104873,1,0,0:0:0:0:
320,192,105041,1,0,0:0:0:0:
192,192,105210,1,2,0:0:0:0:
448,192,105210,128,0,105547:0:0:0:0:
320,192,105378,1,0,0:0:0:0:
64,192,105547,1,2,0:0:0:0:
192,192,105547,1,8,0:0:0:0:
320,192,105715,1,0,0:0:0:0:
64,192,105884,1,2,0:0:0:0:
448,192,105884,1,0,0:0:0:0:
192,192,106052,1,0,0:0:0:0:
64,192,106221,1,8,0:0:0:0:
320,192,106221,1,2,0:0:0:0:
448,192,106221,1,0,0:0:0:0:
192,192,106389,1,0,0:0:0:0:
320,192,106558,1,2,0:0:0:0:
448,192,106558,1,0,0:0:0:0:
64,192,106727,128,0,106895:0:0:0:0:
192,192,106895,1,4,0:0:0:0:
320,192,106895,128,8,107064:0:0:0:0:
448,192,106895,1,2,0:0:0:0:
192,192,107064,128,0,107232:0:0:0:0:
64,192,107232,1,8,0:0:0:0:
448,192,107232,128,0,107401:0:0:0:0:
320,192,107316,1,8,0:0:0:0:
64,192,107401,1,8,0:0:0:0:
192,192,107401,1,0,0:0:0:0:
320,192,107485,1,8,0:0:0:0:
448,192,107485,1,0,0:0:0:0:
64,192,107569,1,12,0:0:0:0:
192,192,107569,1,2,0:0:0:0:
320,192,107654,1,8,0:0:0:0:
448,192,107654,1,0,0:0:0:0:
64,192,107738,1,8,0:0:0:0:
192,192,107738,1,0,0:0:0:0:
320,192,107822,1,8,0:0:0:0:
64,192,107906,1,2,0:0:0:0:
192,192,107906,1,0,0:0:0:0:
448,192,107906,1,0,0:0:0:0:
320,192,108131,1,0,0:0:0:0:
192,192,108243,1,0,0:0:0:0:
64,192,108356,1,0,0:0:0:0:
320,192,108468,1,0,0:0:0:0:
64,192,108581,1,8,0:0:0:0:
192,192,108581,1,0,0:0:0:0:
448,192,108581,1,0,0:0:0:0:
320,192,108693,1,0,0:0:0:0:
192,192,108805,1,2,0:0:0:0:
448,192,108805,1,0,0:0:0:0:
64,192,108918,1,0,0:0:0:0:
320,192,109030,1,0,0:0:0:0:
192,192,109142,1,0,0:0:0:0:
320,192,109255,1,2,0:0:0:0:
448,192,109255,1,0,0:0:0:0:
64,192,109367,1,0,0:0:0:0:
192,192,109479,1,0,0:0:0:0:
320,192,109592,1,0,0:0:0:0:
64,192,109704,1,0,0:0:0:0:
448,192,109816,1,0,0:0:0:0:
320,192,109873,1,0,0:0:0:0:
64,192,109929,1,2,0:0:0:0:
192,192,109929,1,8,0:0:0:0:
448,192,110041,1,0,0:0:0:0:
320,192,110154,1,0,0:0:0:0:
64,192,110266,1,0,0:0:0:0:
192,192,110322,1,0,0:0:0:0:
320,192,110378,1,0,0:0:0:0:
448,192,110434,1,0,0:0:0:0:
64,192,110491,1,0,0:0:0:0:
192,192,110547,1,0,0:0:0:0:
320,192,110603,1,2,0:0:0:0:
448,192,110603,1,0,0:0:0:0:
64,192,110715,1,2,0:0:0:0:
192,192,110715,1,0,0:0:0:0:
320,192,110828,1,2,0:0:0:0:
448,192,110828,1,0,0:0:0:0:
64,192,110940,1,0,0:0:0:0:
192,192,111052,1,0,0:0:0:0:
448,192,111165,1,0,0:0:0:0:
64,192,111277,1,8,0:0:0:0:
192,192,111277,1,0,0:0:0:0:
320,192,111277,1,0,0:0:0:0:
448,192,111389,1,0,0:0:0:0:
64,192,111502,1,2,0:0:0:0:
320,192,111502,1,0,0:0:0:0:
192,192,111614,1,0,0:0:0:0:
448,192,111727,1,0,0:0:0:0:
320,192,111839,1,0,0:0:0:0:
64,192,111951,1,2,0:0:0:0:
192,192,111951,1,0,0:0:0:0:
320,192,112064,1,0,0:0:0:0:
64,192,112176,1,2,0:0:0:0:
448,192,112176,1,0,0:0:0:0:
192,192,112288,1,0,0:0:0:0:
320,192,112401,1,2,0:0:0:0:
448,192,112401,1,0,0:0:0:0:
64,192,112513,1,0,0:0:0:0:
192,192,112625,1,2,0:0:0:0:
320,192,112625,1,8,0:0:0:0:
448,192,112625,1,0,0:0:0:0:
192,192,112963,128,0,113300:0:0:0:0:
64,192,113300,1,2,0:0:0:0:
320,192,113300,1,4,0:0:0:0:
448,192,113300,1,0,0:0:0:0:
192,192,113552,1,0,0:0:0:0:
64,192,113637,1,2,0:0:0:0:
448,192,113637,1,0,0:0:0:0:
320,192,113805,1,0,0:0:0:0:
64,192,113974,1,2,0:0:0:0:
448,192,113974,1,0,0:0:0:0:
192,192,114227,1,0,0:0:0:0:
320,192,114311,1,2,0:0:0:0:
448,192,114311,1,0,0:0:0:0:
64,192,114395,1,0,0:0:0:0:
192,192,114395,1,0,0:0:0:0:
448,192,114479,1,0,0:0:0:0:
320,192,114564,1,0,0:0:0:0:
64,192,114648,1,4,0:0:0:0:
192,192,114648,1,2,0:0:0:0:
448,192,114648,1,0,0:0:0:0:
320,192,114901,1,0,0:0:0:0:
64,192,114985,1,2,0:0:0:0:
448,192,114985,1,0,0:0:0:0:
192,192,115154,1,0,0:0:0:0:
320,192,115322,1,2,0:0:0:0:
448,192,115322,1,0,0:0:0:0:
192,192,115406,1,0,0:0:0:0:
64,192,115491,1,2,0:0:0:0:
448,192,115491,1,0,0:0:0:0:
320,192,115575,1,0,0:0:0:0:
64,192,115659,1,2,0:0:0:0:
192,192,115659,1,0,0:0:0:0:
320,192,115743,1,0,0:0:0:0:
448,192,115743,1,0,0:0:0:0:
64,192,115828,1,8,0:0:0:0:
192,192,115828,1,2,0:0:0:0:
320,192,115912,1,8,0:0:0:0:
64,192,115996,1,4,0:0:0:0:
192,192,115996,1,2,0:0:0:0:
448,192,115996,1,0,0:0:0:0:
320,192,116165,1,2,0:0:0:0:
448,192,116165,1,0,0:0:0:0:
64,192,116333,1,8,0:0:0:0:
192,192,116333,1,0,0:0:0:0:
320,192,116333,1,0,0:0:0:0:
448,192,116502,1,8,0:0:0:0:
64,192,116586,1,0,0:0:0:0:
192,192,116586,1,0,0:0:0:0:
320,192,116670,1,4,0:0:0:0:
448,192,116670,1,2,0:0:0:0:
192,192,116839,1,2,0:0:0:0:
320,192,116839,1,0,0:0:0:0:
64,192,117007,1,8,0:0:0:0:
192,192,117007,1,0,0:0:0:0:
448,192,117007,1,0,0:0:0:0:
320,192,117176,1,8,0:0:0:0:
192,192,117260,1,0,0:0:0:0:
64,192,117345,1,2,0:0:0:0:
320,192,117345,1,4,0:0:0:0:
448,192,117345,1,0,0:0:0:0:
64,192,117682,1,2,0:0:0:0:
192,192,117682,1,4,0:0:0:0:
448,192,117682,1,0,0:0:0:0:
192,192,118019,1,4,0:0:0:0:
320,192,118019,1,2,0:0:0:0:
448,192,118019,1,0,0:0:0:0:
64,192,118356,1,2,0:0:0:0:
320,192,118356,1,4,0:0:0:0:
448,192,118356,1,0,0:0:0:0:
64,192,118693,1,2,0:0:0:0:
192,192,118693,1,0,0:0:0:0:
64,192,118805,1,0,0:0:0:0:
192,192,118805,1,0,0:0:0:0:
320,192,118918,1,0,0:0:0:0:
448,192,118918,1,0,0:0:0:0:
320,192,119030,1,2,0:0:0:0:
448,192,119030,1,0,0:0:0:0:
64,192,119367,1,2,0:0:0:0:
192,192,119367,1,0,0:0:0:0:
64,192,119479,1,0,0:0:0:0:
192,192,119479,1,0,0:0:0:0:
320,192,119592,1,0,0:0:0:0:
448,192,119592,1,0,0:0:0:0:
320,192,119704,1,2,0:0:0:0:
448,192,119704,1,0,0:0:0:0:
64,192,120041,1,2,0:0:0:0:
192,192,120041,1,0,0:0:0:0:
64,192,120154,1,0,0:0:0:0:
192,192,120154,1,0,0:0:0:0:
320,192,120266,1,0,0:0:0:0:
448,192,120266,1,0,0:0:0:0:
320,192,120378,1,2,0:0:0:0:
448,192,120378,1,0,0:0:0:0:
64,192,120491,1,0,0:0:0:0:
192,192,120491,1,0,0:0:0:0:
320,192,120603,1,0,0:0:0:0:
448,192,120603,1,0,0:0:0:0:
64,192,120715,128,0,121389:0:0:0:0:
192,192,121389,1,4,0:0:0:0:
320,192,121389,1,2,0:0:0:0:
448,192,121389,1,0,0:0:0:0:
64,192,121727,1,2,0:0:0:0:
192,192,121727,1,8,0:0:0:0:
320,192,121727,1,0,0:0:0:0:
64,192,122064,1,2,0:0:0:0:
192,192,122064,1,0,0:0:0:0:
448,192,122064,1,0,0:0:0:0:
64,192,122401,1,2,0:0:0:0:
320,192,122401,1,8,0:0:0:0:
448,192,122401,1,0,0:0:0:0:
192,192,122738,1,2,0:0:0:0:
320,192,122738,1,0,0:0:0:0:
448,192,122738,1,0,0:0:0:0:
64,192,123075,1,2,0:0:0:0:
192,192,123075,1,8,0:0:0:0:
320,192,123075,1,0,0:0:0:0:
64,192,123412,1,2,0:0:0:0:
320,192,123412,1,0,0:0:0:0:
448,192,123412,1,0,0:0:0:0:
64,192,123749,1,2,0:0:0:0:
192,192,123749,1,8,0:0:0:0:
448,192,123749,1,0,0:0:0:0:
320,192,123918,128,0,124086:0:0:0:0:
64,192,124086,128,2,124255:0:0:0:0:
448,192,124086,1,0,0:0:0:0:
192,192,124255,128,0,124423:0:0:0:0:
64,192,124423,1,2,0:0:0:0:
320,192,124423,128,8,124592:0:0:0:0:
448,192,124423,1,0,0:0:0:0:
448,192,124592,128,0,124760:0:0:0:0:
64,192,124760,128,2,124929:0:0:0:0:
192,192,124760,1,0,0:0:0:0:
320,192,124929,128,0,125097:0:0:0:0:
64,192,125097,1,2,0:0:0:0:
192,192,125097,128,8,125266:0:0:0:0:
448,192,125097,1,0,0:0:0:0:
448,192,125266,128,0,125434:0:0:0:0:
64,192,125434,128,2,125603:0:0:0:0:
320,192,125434,1,0,0:0:0:0:
192,192,125603,1,0,0:0:0:0:
64,192,125772,1,2,0:0:0:0:
320,192,125772,128,8,125940:0:0:0:0:
448,192,125772,1,0,0:0:0:0:
192,192,125940,1,0,0:0:0:0:
320,192,126109,1,2,0:0:0:0:
448,192,126109,128,0,126277:0:0:0:0:
64,192,126277,1,0,0:0:0:0:
192,192,126333,1,0,0:0:0:0:
320,192,126389,1,0,0:0:0:0:
64,192,126446,1,4,0:0:0:0:
192,192,126446,1,2,0:0:0:0:
448,192,126446,1,8,0:0:0:0:
320,192,126614,1,0,0:0:0:0:
64,192,126783,1,2,0:0:0:0:
192,192,126783,1,4,0:0:0:0:
448,192,126783,1,0,0:0:0:0:
64,192,127120,1,8,0:0:0:0:
320,192,127120,1,2,0:0:0:0:
448,192,127120,1,0,0:0:0:0:
64,192,127457,1,2,0:0:0:0:
192,192,127457,1,0,0:0:0:0:
320,192,127457,1,0,0:0:0:0:
64,192,127794,1,2,0:0:0:0:
192,192,127794,1,8,0:0:0:0:
448,192,127794,1,0,0:0:0:0:
192,192,128131,1,2,0:0:0:0:
320,192,128131,1,0,0:0:0:0:
448,192,128131,1,0,0:0:0:0:
64,192,128468,1,2,0:0:0:0:
320,192,128468,1,8,0:0:0:0:
448,192,128468,1,0,0:0:0:0:
64,192,128805,1,2,0:0:0:0:
192,192,128805,1,0,0:0:0:0:
320,192,128805,1,0,0:0:0:0:
192,192,129142,1,2,0:0:0:0:
320,192,129142,1,8,0:0:0:0:
448,192,129142,1,0,0:0:0:0:
64,192,129311,1,0,0:0:0:0:
320,192,129479,128,2,129648:0:0:0:0:
448,192,129479,1,0,0:0:0:0:
192,192,129648,128,0,129816:0:0:0:0:
64,192,129816,1,8,0:0:0:0:
320,192,129816,1,2,0:0:0:0:
448,192,129816,128,0,129985:0:0:0:0:
64,192,129985,128,0,130154:0:0:0:0:
320,192,130154,128,2,130322:0:0:0:0:
448,192,130154,1,0,0:0:0:0:
192,192,130322,128,0,130491:0:0:0:0:
64,192,130491,1,4,0:0:0:0:
320,192,130491,128,2,130659:0:0:0:0:
448,192,130491,1,8,0:0:0:0:
64,192,130659,128,0,130828:0:0:0:0:
192,192,130828,128,8,130996:0:0:0:0:
320,192,130828,1,0,0:0:0:0:
64,192,130996,1,2,0:0:0:0:
448,192,130996,1,0,0:0:0:0:
320,192,131165,128,8,131333:0:0:0:0:
64,192,131333,1,2,0:0:0:0:
192,192,131333,128,0,131502:0:0:0:0:
448,192,131502,128,8,131670:0:0:0:0:
64,192,131670,1,10,0:0:0:0:
192,192,131727,1,0,0:0:0:0:
320,192,131783,1,0,0:0:0:0:
64,192,131839,1,6,0:0:0:0:
448,192,131839,1,8,0:0:0:0:
192,192,132007,1,0,0:0:0:0:
64,192,132176,1,2,0:0:0:0:
320,192,132176,1,4,0:0:0:0:
448,192,132176,1,0,0:0:0:0:
192,192,132345,1,0,0:0:0:0:
64,192,132513,1,2,0:0:0:0:
320,192,132513,1,8,0:0:0:0:
448,192,132513,128,0,132850:0:0:0:0:
192,192,132682,1,0,0:0:0:0:
64,192,132850,1,2,0:0:0:0:
320,192,132850,128,0,133019:0:0:0:0:
192,192,133019,128,0,133187:0:0:0:0:
64,192,133187,1,2,0:0:0:0:
320,192,133187,128,8,133356:0:0:0:0:
448,192,133187,1,0,0:0:0:0:
64,192,133356,128,2,133524:0:0:0:0:
192,192,133356,1,0,0:0:0:0:
320,192,133524,1,2,0:0:0:0:
448,192,133524,128,0,133693:0:0:0:0:
192,192,133693,1,0,0:0:0:0:
64,192,133861,1,2,0:0:0:0:
320,192,133861,1,8,0:0:0:0:
448,192,133861,1,0,0:0:0:0:
192,192,134030,128,0,134198:0:0:0:0:
64,192,134198,1,2,0:0:0:0:
448,192,134198,128,0,134367:0:0:0:0:
320,192,134367,128,0,134536:0:0:0:0:
64,192,134536,1,2,0:0:0:0:
192,192,134536,128,8,134704:0:0:0:0:
448,192,134536,1,0,0:0:0:0:
64,192,134704,128,2,134873:0:0:0:0:
320,192,134704,1,0,0:0:0:0:
192,192,134873,1,2,0:0:0:0:
448,192,134873,128,0,135041:0:0:0:0:
320,192,135041,1,0,0:0:0:0:
64,192,135210,1,8,0:0:0:0:
192,192,135210,128,2,135378:0:0:0:0:
448,192,135210,1,0,0:0:0:0:
320,192,135378,128,0,135547:0:0:0:0:
192,192,135547,1,2,0:0:0:0:
448,192,135547,1,0,0:0:0:0:
64,192,135715,128,0,135884:0:0:0:0:
192,192,135884,1,8,0:0:0:0:
320,192,135884,1,2,0:0:0:0:
448,192,135884,1,0,0:0:0:0:
64,192,136052,1,2,0:0:0:0:
448,192,136052,128,0,136221:0:0:0:0:
192,192,136221,128,2,136558:0:0:0:0:
320,192,136221,1,0,0:0:0:0:
64,192,136389,1,0,0:0:0:0:
64,192,136558,1,4,0:0:0:0:
320,192,136558,1,2,0:0:0:0:
448,192,136558,1,8,0:0:0:0:
192,192,136727,1,0,0:0:0:0:
64,192,136895,128,2,137064:0:0:0:0:
448,192,136895,1,0,0:0:0:0:
192,192,137064,128,0,137232:0:0:0:0:
64,192,137232,1,2,0:0:0:0:
320,192,137232,128,8,137401:0:0:0:0:
448,192,137232,1,0,0:0:0:0:
448,192,137401,128,0,137569:0:0:0:0:
64,192,137569,1,2,0:0:0:0:
192,192,137569,1,4,0:0:0:0:
320,192,137569,1,0,0:0:0:0:
64,192,137906,1,8,0:0:0:0:
320,192,137906,1,2,0:0:0:0:
448,192,137906,1,0,0:0:0:0:
64,192,138243,1,2,0:0:0:0:
192,192,138243,1,0,0:0:0:0:
448,192,138243,1,0,0:0:0:0:
64,192,138581,1,2,0:0:0:0:
192,192,138581,1,8,0:0:0:0:
320,192,138581,1,0,0:0:0:0:
64,192,138918,1,2,0:0:0:0:
192,192,138918,1,4,0:0:0:0:
320,192,138918,1,0,0:0:0:0:
448,192,138918,1,0,0:0:0:0:
192,192,139255,1,8,0:0:0:0:
320,192,139255,1,2,0:0:0:0:
448,192,139255,1,0,0:0:0:0:
64,192,139592,1,2,0:0:0:0:
192,192,139592,1,0,0:0:0:0:
448,192,139592,1,0,0:0:0:0:
192,192,139929,1,2,0:0:0:0:
320,192,139929,1,8,0:0:0:0:
448,192,139929,1,0,0:0:0:0:
64,192,140097,128,0,140266:0:0:0:0:
192,192,140266,1,4,0:0:0:0:
320,192,140266,1,2,0:0:0:0:
448,192,140266,128,0,140434:0:0:0:0:
320,192,140434,128,0,140603:0:0:0:0:
64,192,140603,1,2,0:0:0:0:
192,192,140603,128,8,140772:0:0:0:0:
448,192,140603,1,0,0:0:0:0:
448,192,140772,128,0,140940:0:0:0:0:
64,192,140940,128,2,141109:0:0:0:0:
192,192,140940,1,4,0:0:0:0:
320,192,140940,1,0,0:0:0:0:
320,192,141109,128,0,141277:0:0:0:0:
64,192,141277,1,8,0:0:0:0:
192,192,141277,128,2,141446:0:0:0:0:
448,192,141277,1,0,0:0:0:0:
448,192,141446,128,0,141614:0:0:0:0:
320,192,141530,1,0,0:0:0:0:
64,192,141614,1,2,0:0:0:0:
192,192,141614,1,0,0:0:0:0:
64,192,141951,1,2,0:0:0:0:
448,192,141951,1,8,0:0:0:0:
64,192,142120,1,0,0:0:0:0:
320,192,142120,1,0,0:0:0:0:
192,192,142288,1,2,0:0:0:0:
320,192,142288,1,0,0:0:0:0:
448,192,142288,1,0,0:0:0:0:
64,192,142625,1,2,0:0:0:0:
192,192,142625,1,8,0:0:0:0:
320,192,142710,1,0,0:0:0:0:
64,192,142794,1,8,0:0:0:0:
192,192,142794,1,0,0:0:0:50:cymbal.wav
448,192,142794,1,0,0:0:0:0:
64,192,143131,1,2,0:0:0:0:
320,192,143131,1,0,0:0:0:50:cymbal.wav
448,192,143131,1,0,0:0:0:0:
192,192,143468,1,2,0:0:0:0:
320,192,143468,1,0,0:0:0:0:
64,192,143637,1,4,0:0:0:0:
192,192,143637,1,8,0:0:0:0:
448,192,143637,1,2,0:0:0:0:
320,192,143805,1,2,0:0:0:0:
448,192,143805,1,0,0:0:0:0:
64,192,143889,1,2,0:0:0:0:
192,192,143889,1,0,0:0:0:0:
320,192,143974,1,4,0:0:0:0:
448,192,143974,1,2,0:0:0:0:
64,192,144058,1,2,0:0:0:0:
192,192,144142,1,2,0:0:0:0:
320,192,144227,1,2,0:0:0:0:
64,192,144311,128,4,144479:0:0:0:0:
192,192,144311,1,2,0:0:0:0:
448,192,144311,1,0,0:0:0:0:
320,192,144479,1,0,0:0:0:0:
64,192,144648,1,8,0:0:0:0:
192,192,144648,1,2,0:0:0:0:
448,192,144648,128,0,144816:0:0:0:0:
320,192,144816,1,0,0:0:0:0:
64,192,144985,128,2,145154:0:0:0:0:
448,192,144985,1,0,0:0:0:0:
192,192,145154,1,0,0:0:0:0:
64,192,145322,1,8,0:0:0:0:
320,192,145322,1,2,0:0:0:0:
448,192,145322,128,0,145491:0:0:0:0:
192,192,145491,1,0,0:0:0:0:
64,192,145659,128,2,145828:0:0:0:0:
448,192,145659,1,0,0:0:0:0:
320,192,145828,1,0,0:0:0:0:
64,192,145996,1,8,0:0:0:0:
192,192,145996,1,2,0:0:0:0:
448,192,145996,128,0,146165:0:0:0:0:
320,192,146165,1,0,0:0:0:0:
64,192,146333,128,2,146502:0:0:0:0:
192,192,146333,1,0,0:0:0:0:
320,192,146502,1,0,0:0:0:0:
64,192,146670,1,8,0:0:0:0:
448,192,146670,1,2,0:0:0:0:
192,192,146727,1,0,0:0:0:0:
320,192,146783,1,0,0:0:0:0:
448,192,146839,1,0,0:0:0:0:
64,192,146895,1,0,0:0:0:0:
192,192,146951,1,0,0:0:0:0:
320,192,147007,128,2,147176:0:0:0:0:
448,192,147007,1,0,0:0:0:0:
64,192,147176,1,0,0:0:0:0:
192,192,147345,1,8,0:0:0:0:
320,192,147345,1,2,0:0:0:0:
448,192,147345,1,0,0:0:0:0:
64,192,147513,1,0,0:0:0:0:
192,192,147682,128,2,147850:0:0:0:0:
448,192,147682,1,0,0:0:0:0:
320,192,147850,1,0,0:0:0:0:
64,192,148019,1,8,0:0:0:0:
192,192,148019,1,2,0:0:0:0:
448,192,148019,1,0,0:0:0:0:
320,192,148187,1,0,0:0:0:0:
64,192,148356,128,2,148524:0:0:0:0:
448,192,148356,1,0,0:0:0:0:
192,192,148524,128,0,148693:0:0:0:0:
320,192,148693,128,8,148861:0:0:0:0:
448,192,148693,1,2,0:0:0:0:
64,192,148777,1,8,0:0:0:0:
448,192,148861,128,8,149030:0:0:0:0:
192,192,148946,1,8,0:0:0:0:
64,192,149030,1,2,0:0:0:0:
320,192,149030,128,0,149198:0:0:0:0:
192,192,149198,128,0,149367:0:0:0:0:
448,192,149283,1,0,0:0:0:0:
64,192,149367,128,12,149536:0:0:0:0:
320,192,149367,1,2,0:0:0:0:
448,192,149536,128,0,149704:0:0:0:0:
64,192,149704,1,4,0:0:0:0:
192,192,149704,1,2,0:0:0:0:
320,192,149704,1,0,0:0:0:0:
320,192,149873,128,0,150041:0:0:0:0:
64,192,150041,1,2,0:0:0:0:
192,192,150041,1,8,0:0:0:0:
448,192,150041,1,0,0:0:0:0:
192,192,150210,128,0,150378:0:0:0:0:
64,192,150378,1,2,0:0:0:0:
320,192,150378,128,0,150547:0:0:0:0:
448,192,150547,128,0,150715:0:0:0:0:
64,192,150715,1,8,0:0:0:0:
192,192,150715,1,2,0:0:0:0:
320,192,150715,128,0,150884:0:0:0:0:
192,192,150884,128,0,151052:0:0:0:0:
64,192,151052,1,2,0:0:0:0:
320,192,151052,1,0,0:0:0:0:
448,192,151221,128,0,151389:0:0:0:0:
64,192,151389,1,8,0:0:0:0:
192,192,151389,1,2,0:0:0:0:
320,192,151389,1,0,0:0:0:0:
64,192,151558,128,0,151727:0:0:0:0:
192,192,151727,128,2,151895:0:0:0:0:
448,192,151727,1,0,0:0:0:0:
320,192,151895,128,0,152064:0:0:0:0:
64,192,152064,1,8,0:0:0:0:
192,192,152064,1,2,0:0:0:0:
448,192,152064,128,0,152232:0:0:0:0:
192,192,152232,128,0,152401:0:0:0:0:
64,192,152401,128,2,152569:0:0:0:0:
320,192,152401,1,0,0:0:0:0:
448,192,152569,1,0,0:0:0:0:
64,192,152738,1,2,0:0:0:0:
192,192,152738,1,8,0:0:0:0:
320,192,152738,128,0,152906:0:0:0:0:
448,192,152906,1,0,0:0:0:0:
64,192,153075,1,2,0:0:0:0:
192,192,153075,128,0,153243:0:0:0:0:
320,192,153243,1,0,0:0:0:0:
64,192,153412,128,4,153581:0:0:0:0:
192,192,153412,1,8,0:0:0:0:
448,192,153412,1,2,0:0:0:0:
320,192,153581,1,0,0:0:0:0:
64,192,153749,1,4,0:0:0:0:
192,192,153749,1,8,0:0:0:0:
448,192,153749,1,0,0:0:0:0:
192,192,153918,1,2,0:0:0:0:
320,192,153918,1,0,0:0:0:0:
64,192,154086,1,8,0:0:0:0:
320,192,154086,1,0,0:0:0:0:
448,192,154086,1,0,0:0:0:0:
64,192,154255,1,2,0:0:0:0:
192,192,154255,1,0,0:0:0:0:
192,192,154423,1,8,0:0:0:0:
320,192,154423,1,0,0:0:0:0:
448,192,154423,1,0,0:0:0:0:
64,192,154592,1,2,0:0:0:0:
192,192,154648,1,0,0:0:0:0:
320,192,154704,1,0,0:0:0:0:
64,192,154760,1,4,0:0:0:0:
448,192,154760,128,8,155097:0:0:0:0:
64,192,155097,1,4,0:0:0:0:
192,192,155097,1,2,0:0:0:0:
320,192,155097,1,0,0:0:0:0:
192,192,155434,1,2,0:0:0:0:
320,192,155434,1,0,0:0:0:0:
192,192,155772,1,2,0:0:0:0:
320,192,155772,1,0,0:0:0:0:
192,192,156109,1,2,0:0:0:0:
320,192,156109,1,0,0:0:0:0:
192,192,156446,1,2,0:0:0:0:
320,192,156446,1,0,0:0:0:0:
192,192,156783,1,2,0:0:0:0:
320,192,156783,1,0,0:0:0:0:
192,192,157120,1,2,0:0:0:0:
320,192,157120,1,0,0:0:0:0:
192,192,157457,1,2,0:0:0:0:
320,192,157457,1,0,0:0:0:0:
64,192,157794,1,2,0:0:0:0:
448,192,157794,1,0,0:0:0:0:
64,192,158131,1,2,0:0:0:0:
448,192,158131,1,0,0:0:0:0:
64,192,158468,1,2,0:0:0:0:
448,192,158468,1,0,0:0:0:0:
64,192,158805,1,2,0:0:0:0:
448,192,158805,1,0,0:0:0:0:
64,192,159142,1,2,0:0:0:0:
448,192,159142,1,0,0:0:0:0:
64,192,159479,1,2,0:0:0:0:
448,192,159479,1,0,0:0:0:0:
64,192,159816,1,2,0:0:0:0:
448,192,159816,1,0,0:0:0:0:
192,192,159985,1,0,0:0:0:0:
320,192,160069,1,0,0:0:0:0:
64,192,160154,1,2,0:0:0:0:
448,192,160154,1,0,0:0:0:0:
64,192,160491,1,4,0:0:0:0:
192,192,160491,1,2,0:0:0:0:
448,192,160491,1,0,0:0:0:0:
192,192,160659,128,0,160828:0:0:0:0:
320,192,160828,1,2,0:0:0:0:
448,192,160828,1,0,0:0:0:0:
320,192,160996,128,0,161165:0:0:0:0:
64,192,161165,1,2,0:0:0:0:
192,192,161165,1,0,0:0:0:0:
64,192,161333,128,0,161502:0:0:0:0:
320,192,161502,1,2,0:0:0:0:
448,192,161502,1,0,0:0:0:0:
448,192,161670,128,0,161839:0:0:0:0:
64,192,161839,1,4,0:0:0:0:
192,192,161839,1,2,0:0:0:0:
320,192,161839,1,0,0:0:0:0:
192,192,162007,128,0,162176:0:0:0:0:
320,192,162176,1,2,0:0:0:0:
448,192,162176,1,0,0:0:0:0:
320,192,162345,128,0,162513:0:0:0:0:
64,192,162513,1,2,0:0:0:0:
192,192,162513,1,0,0:0:0:0:
64,192,162682,128,0,162850:0:0:0:0:
320,192,162850,1,2,0:0:0:0:
448,192,162850,1,0,0:0:0:0:
448,192,163019,128,0,163187:0:0:0:0:
64,192,163187,1,12,0:0:0:0:
320,192,163187,1,2,0:0:0:0:
192,192,163356,1,8,0:0:0:0:
64,192,163524,1,2,0:0:0:0:
448,192,163524,1,8,0:0:0:0:
192,192,163609,1,0,0:0:0:0:
320,192,163609,1,0,0:0:0:0:
64,192,163777,1,0,0:0:0:0:
192,192,163777,1,0,0:0:0:0:
320,192,163861,1,8,0:0:0:0:
448,192,163861,1,2,0:0:0:0:
64,192,163946,1,8,0:0:0:0:
192,192,163946,1,0,0:0:0:0:
320,192,164030,1,8,0:0:0:0:
448,192,164030,1,0,0:0:0:0:
64,192,164114,1,8,0:0:0:0:
192,192,164114,1,0,0:0:0:0:
320,192,164198,1,8,0:0:0:0:
448,192,164198,1,2,0:0:0:0:
64,192,164283,1,8,0:0:0:0:
192,192,164283,1,0,0:0:0:0:
320,192,164367,1,8,0:0:0:0:
448,192,164367,1,0,0:0:0:0:
64,192,164451,1,8,0:0:0:0:
192,192,164451,1,0,0:0:0:0:
320,192,164536,1,2,0:0:0:0:
448,192,164536,1,0,0:0:0:0:
64,192,165884,1,4,0:0:0:0:
192,192,165884,1,2,0:0:0:0:
448,192,165884,1,0,0:0:0:0:
192,192,166221,1,8,0:0:0:0:
320,192,166221,1,2,0:0:0:0:
448,192,166221,1,0,0:0:0:0:
64,192,166558,1,2,0:0:0:0:
320,192,166558,1,0,0:0:0:0:
448,192,166558,1,0,0:0:0:0:
64,192,166895,1,8,0:0:0:0:
192,192,166895,1,2,0:0:0:0:
448,192,166895,1,0,0:0:0:0:
64,192,167232,1,2,0:0:0:0:
192,192,167232,1,0,0:0:0:0:
320,192,167232,1,0,0:0:0:0:
192,192,167569,1,8,0:0:0:0:
320,192,167569,1,2,0:0:0:0:
448,192,167569,1,0,0:0:0:0:
64,192,167906,1,2,0:0:0:0:
192,192,167906,1,0,0:0:0:0:
448,192,167906,1,0,0:0:0:0:
64,192,168243,1,8,0:0:0:0:
320,192,168243,1,2,0:0:0:0:
448,192,168243,1,0,0:0:0:0:
192,192,168412,128,0,168581:0:0:0:0:
64,192,168581,1,2,0:0:0:0:
448,192,168581,128,0,168749:0:0:0:0:
320,192,168749,128,0,168918:0:0:0:0:
64,192,168918,1,8,0:0:0:0:
192,192,168918,128,2,169086:0:0:0:0:
448,192,168918,1,0,0:0:0:0:
64,192,169086,128,0,169255:0:0:0:0:
320,192,169255,1,2,0:0:0:0:
448,192,169255,128,0,169423:0:0:0:0:
192,192,169423,128,0,169592:0:0:0:0:
64,192,169592,1,8,0:0:0:0:
320,192,169592,128,2,169760:0:0:0:0:
448,192,169592,1,0,0:0:0:0:
64,192,169760,128,0,169929:0:0:0:0:
192,192,169929,1,2,0:0:0:0:
448,192,169929,128,0,170097:0:0:0:0:
320,192,170097,1,0,0:0:0:0:
64,192,170266,1,8,0:0:0:0:
192,192,170266,128,2,170434:0:0:0:0:
448,192,170266,1,0,0:0:0:0:
320,192,170434,1,0,0:0:0:0:
64,192,170603,128,2,170772:0:0:0:0:
192,192,170603,1,0,0:0:0:0:
448,192,170772,1,0,0:0:0:0:
64,192,170940,1,8,0:0:0:0:
192,192,170940,1,2,0:0:0:0:
320,192,170940,1,4,0:0:0:0:
448,192,171109,1,0,0:0:0:0:
64,192,171277,1,4,0:0:0:0:
192,192,171277,1,2,0:0:0:0:
320,192,171277,1,0,0:0:0:0:
64,192,171614,1,2,0:0:0:0:
192,192,171614,1,8,0:0:0:0:
448,192,171614,1,0,0:0:0:0:
192,192,171951,1,2,0:0:0:0:
320,192,171951,1,0,0:0:0:0:
448,192,171951,1,0,0:0:0:0:
64,192,172288,1,8,0:0:0:0:
320,192,172288,1,2,0:0:0:0:
448,192,172288,1,0,0:0:0:0:
64,192,172625,1,2,0:0:0:0:
192,192,172625,1,0,0:0:0:0:
320,192,172625,1,0,0:0:0:0:
64,192,172963,1,8,0:0:0:0:
192,192,172963,1,2,0:0:0:0:
448,192,172963,1,0,0:0:0:0:
192,192,173300,1,2,0:0:0:0:
320,192,173300,1,0,0:0:0:0:
448,192,173300,1,0,0:0:0:0:
64,192,173637,1,8,0:0:0:0:
192,192,173637,1,2,0:0:0:0:
320,192,173637,1,0,0:0:0:0:
448,192,173805,1,0,0:0:0:0:
64,192,173974,1,2,0:0:0:0:
192,192,173974,128,0,174142:0:0:0:0:
320,192,174142,128,0,174311:0:0:0:0:
64,192,174311,128,2,174479:0:0:0:0:
192,192,174311,1,8,0:0:0:0:
448,192,174311,1,0,0:0:0:0:
448,192,174479,128,0,174648:0:0:0:0:
64,192,174648,1,2,0:0:0:0:
192,192,174648,128,0,174816:0:0:0:0:
320,192,174816,128,0,174985:0:0:0:0:
64,192,174985,128,8,175154:0:0:0:0:
192,192,174985,1,2,0:0:0:0:
448,192,174985,1,4,0:0:0:0:
448,192,175154,128,0,175322:0:0:0:0:
192,192,175322,1,8,0:0:0:0:
320,192,175322,128,0,175491:0:0:0:0:
64,192,175491,1,2,0:0:0:0:
448,192,175491,1,0,0:0:0:0:
192,192,175659,128,8,175828:0:0:0:0:
320,192,175828,128,2,175996:0:0:0:0:
448,192,175828,1,0,0:0:0:0:
64,192,175996,128,8,176165:0:0:0:0:
448,192,176165,1,10,0:0:0:0:
320,192,176221,1,2,0:0:0:0:
192,192,176277,1,2,0:0:0:0:
64,192,176333,1,10,0:0:0:0:
448,192,176333,1,4,0:0:0:0:
192,192,176502,1,0,0:0:0:0:
64,192,176670,1,4,0:0:0:0:
320,192,176670,1,2,0:0:0:0:
448,192,176670,1,0,0:0:0:0:
192,192,176839,1,0,0:0:0:0:
64,192,177007,1,8,0:0:0:0:
320,192,177007,128,2,177345:0:0:0:0:
448,192,177007,1,0,0:0:0:0:
192,192,177176,1,0,0:0:0:0:
64,192,177345,128,2,177513:0:0:0:0:
448,192,177345,1,0,0:0:0:0:
448,192,177513,128,0,177682:0:0:0:0:
64,192,177682,1,8,0:0:0:0:
192,192,177682,128,2,177850:0:0:0:0:
320,192,177682,1,0,0:0:0:0:
320,192,177850,128,2,178019:0:0:0:0:
448,192,177850,1,0,0:0:0:0:
64,192,178019,128,2,178187:0:0:0:0:
192,192,178019,1,0,0:0:0:0:
320,192,178187,1,0,0:0:0:0:
64,192,178356,1,8,0:0:0:0:
192,192,178356,1,2,0:0:0:0:
448,192,178356,1,0,0:0:0:0:
320,192,178524,128,0,178693:0:0:0:0:
64,192,178693,128,2,178861:0:0:0:0:
448,192,178693,1,0,0:0:0:0:
192,192,178861,128,0,179030:0:0:0:0:
64,192,179030,1,8,0:0:0:0:
320,192,179030,128,2,179198:0:0:0:0:
448,192,179030,1,0,0:0:0:0:
192,192,179198,1,2,0:0:0:0:
448,192,179198,128,0,179367:0:0:0:0:
64,192,179367,128,2,179536:0:0:0:0:
320,192,179367,1,0,0:0:0:0:
192,192,179536,1,0,0:0:0:0:
64,192,179704,1,2,0:0:0:0:
320,192,179704,128,8,179873:0:0:0:0:
448,192,179704,1,0,0:0:0:0:
192,192,179873,128,0,180041:0:0:0:0:
64,192,180041,1,2,0:0:0:0:
320,192,180041,1,0,0:0:0:0:
448,192,180210,128,0,180378:0:0:0:0:
64,192,180378,1,2,0:0:0:0:
192,192,180378,1,8,0:0:0:0:
320,192,180378,1,0,0:0:0:0:
64,192,180547,128,2,180715:0:0:0:0:
448,192,180547,1,0,0:0:0:0:
192,192,180715,1,2,0:0:0:0:
320,192,180715,128,0,181052:0:0:0:0:
448,192,180884,1,0,0:0:0:0:
64,192,181052,1,8,0:0:0:0:
192,192,181052,1,2,0:0:0:0:
448,192,181052,1,4,0:0:0:0:
320,192,181221,1,0,0:0:0:0:
64,192,181389,1,2,0:0:0:0:
448,192,181389,128,0,181558:0:0:0:0:
320,192,181558,128,0,181727:0:0:0:0:
64,192,181727,1,8,0:0:0:0:
192,192,181727,128,2,181895:0:0:0:0:
448,192,181727,1,0,0:0:0:0:
320,192,181811,1,0,0:0:0:0:
64,192,181895,128,0,182064:0:0:0:0:
192,192,182064,1,4,0:0:0:0:
320,192,182064,1,2,0:0:0:0:
448,192,182064,1,0,0:0:0:0:
64,192,182401,1,2,0:0:0:0:
192,192,182401,1,8,0:0:0:0:
448,192,182401,1,0,0:0:0:0:
192,192,182738,1,2,0:0:0:0:
320,192,182738,1,0,0:0:0:0:
448,192,182738,1,0,0:0:0:0:
64,192,183075,1,8,0:0:0:0:
320,192,183075,1,2,0:0:0:0:
448,192,183075,1,0,0:0:0:0:
64,192,183412,1,4,0:0:0:0:
192,192,183412,1,2,0:0:0:0:
320,192,183412,1,0,0:0:0:0:
448,192,183412,1,0,0:0:0:0:
64,192,183749,1,2,0:0:0:0:
192,192,183749,1,8,0:0:0:0:
320,192,183749,1,0,0:0:0:0:
192,192,184086,1,2,0:0:0:0:
320,192,184086,1,0,0:0:0:0:
448,192,184086,1,0,0:0:0:0:
64,192,184423,1,8,0:0:0:0:
320,192,184423,1,2,0:0:0:0:
448,192,184423,1,0,0:0:0:0:
192,192,184592,1,0,0:0:0:0:
64,192,184760,1,2,0:0:0:0:
320,192,184760,1,4,0:0:0:0:
448,192,184760,128,0,184929:0:0:0:0:
192,192,184929,128,0,185097:0:0:0:0:
64,192,185097,1,8,0:0:0:0:
320,192,185097,128,2,185266:0:0:0:0:
448,192,185097,1,0,0:0:0:0:
64,192,185266,128,0,185434:0:0:0:0:
192,192,185434,1,4,0:0:0:0:
320,192,185434,1,2,0:0:0:0:
448,192,185434,128,0,185603:0:0:0:0:
192,192,185603,128,0,185772:0:0:0:0:
64,192,185772,1,2,0:0:0:0:
320,192,185772,128,8,185940:0:0:0:0:
448,192,185772,1,0,0:0:0:0:
64,192,185940,128,0,186109:0:0:0:0:
192,192,186024,1,0,0:0:0:0:
320,192,186109,1,2,0:0:0:0:
448,192,186109,1,0,0:0:0:0:
64,192,186614,1,2,0:0:0:0:
192,192,186614,1,0,0:0:0:0:
448,192,186614,1,0,0:0:0:0:
64,192,186783,1,2,0:0:0:0:
192,192,186783,1,8,0:0:0:0:
320,192,186783,1,0,0:0:0:0:
192,192,187288,1,2,0:0:0:0:
320,192,187288,1,0,0:0:0:50:cymbal.wav
448,192,187288,1,0,0:0:0:0:
64,192,187625,1,2,0:0:0:0:
320,192,187625,1,0,0:0:0:50:cymbal.wav
448,192,187625,1,0,0:0:0:0:
192,192,187794,1,0,0:0:0:0:
320,192,187963,1,2,0:0:0:0:
448,192,187963,1,0,0:0:0:0:
64,192,188131,1,8,0:0:0:0:
64,192,188300,1,0,0:0:0:0:
448,192,188468,1,0,0:0:0:0:
192,192,188637,1,2,0:0:0:0:
320,192,188637,1,0,0:0:0:50:cymbal.wav
448,192,188637,1,0,0:0:0:0:
64,192,188974,1,2,0:0:0:0:
192,192,188974,1,0,0:0:0:50:cymbal.wav
320,192,188974,1,0,0:0:0:0:
64,192,189311,1,2,0:0:0:0:
448,192,189311,1,0,0:0:0:0:
192,192,189479,1,8,0:0:0:0:
448,192,189479,1,0,0:0:0:0:
64,192,190154,128,2,190491:0:0:0:0:
320,192,190154,1,4,0:0:0:0:
448,192,190154,1,0,0:0:0:0:
192,192,190322,128,0,190491:0:0:0:0:
320,192,190491,1,2,0:0:0:0:
448,192,190491,1,8,0:0:0:0:
320,192,190659,1,0,0:0:0:0:
192,192,190828,1,2,0:0:0:0:
448,192,190828,128,0,191165:0:0:0:0:
64,192,190996,128,0,191165:0:0:0:0:
192,192,191165,1,2,0:0:0:0:
320,192,191165,1,8,0:0:0:0:
192,192,191333,1,0,0:0:0:0:
320,192,191502,128,2,191839:0:0:0:0:
448,192,191502,1,0,0:0:0:0:
192,192,191670,128,0,191839:0:0:0:0:
64,192,191839,1,2,0:0:0:0:
448,192,191839,1,8,0:0:0:0:
64,192,192007,1,0,0:0:0:0:
320,192,192176,1,2,0:0:0:0:
448,192,192176,128,0,192513:0:0:0:0:
192,192,192345,128,0,192513:0:0:0:0:
64,192,192513,1,2,0:0:0:0:
320,192,192513,1,8,0:0:0:0:
64,192,192682,1,0,0:0:0:0:
192,192,192850,1,2,0:0:0:0:
448,192,192850,128,0,193187:0:0:0:0:
320,192,193019,128,0,193187:0:0:0:0:
64,192,193187,1,2,0:0:0:0:
192,192,193187,1,8,0:0:0:0:
192,192,193356,1,0,0:0:0:0:
64,192,193524,128,2,193861:0:0:0:0:
448,192,193524,1,0,0:0:0:0:
320,192,193693,128,0,193861:0:0:0:0:
192,192,193861,1,2,0:0:0:0:
448,192,193861,1,8,0:0:0:0:
192,192,194030,1,0,0:0:0:0:
320,192,194198,1,2,0:0:0:0:
448,192,194198,128,0,194536:0:0:0:0:
64,192,194367,128,0,194536:0:0:0:0:
192,192,194536,1,2,0:0:0:0:
320,192,194536,1,8,0:0:0:0:
192,192,194704,1,0,0:0:0:0:
320,192,194873,128,2,195210:0:0:0:0:
448,192,194873,1,0,0:0:0:0:
192,192,195041,128,0,195210:0:0:0:0:
64,192,195210,1,2,0:0:0:0:
448,192,195210,1,8,0:0:0:0:
64,192,195378,1,0,0:0:0:0:
192,192,195378,1,0,0:0:0:0:
320,192,195463,1,0,0:0:0:0:
64,192,195547,1,2,0:0:0:0:
192,192,195547,1,4,0:0:0:0:
448,192,195547,128,0,195884:0:0:0:0:
320,192,195715,128,0,195884:0:0:0:0:
64,192,195884,1,8,0:0:0:0:
192,192,195884,1,2,0:0:0:0:
64,192,196052,1,0,0:0:0:0:
192,192,196221,128,2,196558:0:0:0:0:
448,192,196221,1,0,0:0:0:0:
64,192,196389,128,0,196558:0:0:0:0:
320,192,196558,1,2,0:0:0:0:
448,192,196558,1,8,0:0:0:0:
320,192,196727,1,0,0:0:0:0:
64,192,196895,128,2,197232:0:0:0:0:
448,192,196895,1,0,0:0:0:0:
320,192,197064,128,0,197232:0:0:0:0:
192,192,197232,1,2,0:0:0:0:
448,192,197232,1,8,0:0:0:0:
192,192,197401,1,0,0:0:0:0:
64,192,197569,1,2,0:0:0:0:
448,192,197569,128,0,197906:0:0:0:0:
320,192,197738,128,0,197906:0:0:0:0:
64,192,197906,1,2,0:0:0:0:
192,192,197906,1,8,0:0:0:0:
192,192,198075,1,0,0:0:0:0:
320,192,198243,128,2,198581:0:0:0:0:
448,192,198243,1,0,0:0:0:0:
192,192,198412,128,0,198581:0:0:0:0:
64,192,198581,1,8,0:0:0:0:
448,192,198581,1,2,0:0:0:0:
448,192,198749,1,0,0:0:0:0:
64,192,198918,128,2,199255:0:0:0:0:
192,192,198918,1,0,0:0:0:0:
320,192,199086,128,0,199255:0:0:0:0:
192,192,199255,1,2,0:0:0:0:
448,192,199255,1,8,0:0:0:0:
192,192,199423,1,0,0:0:0:0:
64,192,199592,1,2,0:0:0:0:
448,192,199592,128,0,199929:0:0:0:0:
320,192,199760,128,0,199929:0:0:0:0:
64,192,199929,1,6,0:0:0:0:
192,192,199929,1,8,0:0:0:0:
192,192,200097,1,0,0:0:0:0:
64,192,200266,1,2,0:0:0:0:
320,192,200266,1,0,0:0:0:0:
448,192,200266,1,0,0:0:0:0:
64,192,200434,1,2,0:0:0:0:
192,192,200434,1,8,0:0:0:0:
448,192,200434,1,0,0:0:0:0:
64,192,200603,1,8,0:0:0:0:
320,192,200603,1,2,0:0:0:0:
448,192,200603,1,0,0:0:0:0:
192,192,200772,1,2,0:0:0:0:
320,192,200772,1,8,0:0:0:0:
448,192,200772,1,0,0:0:0:0:
64,192,201277,1,2,0:0:0:0:
192,192,201277,1,0,0:0:0:50:cymbal.wav
320,192,201277,1,0,0:0:0:0:
448,192,201277,1,0,0:0:0:0:
