osu file format v14

[General]
AudioFilename: audio.mp3
AudioLeadIn: 0
PreviewTime: 51951
Countdown: 0
SampleSet: Soft
StackLeniency: 0.7
Mode: 3
LetterboxInBreaks: 0
SpecialStyle: 0
WidescreenStoryboard: 1

[Editor]
Bookmarks: 6845,17631,28418,39204,52687,63474,75609,86395,97182,107968,113362,121451,144373,155159,165946,190216
DistanceSpacing: 2.5
BeatDivisor: 4
GridSize: 4
TimelineZoom: 1.3

[Metadata]
Title:USSEEWA
TitleUnicode:うっせぇわ
Artist:Enn
ArtistUnicode:Enn
Creator:Irone OSU
Version:Diederich Olsen's Easy
Source:
Tags:Diederich Olsen PokeSky Faputa 收皮啦 stfu fuck syudou Ado hong kong Cantonese cover japanese pop jpop j-pop jrock j-rock Yuka rock chinese
BeatmapID:3860899
BeatmapSetID:1864407

[Difficulty]
HPDrainRate:6.8
CircleSize:4
OverallDifficulty:6.2
ApproachRate:5
SliderMultiplier:1.4
SliderTickRate:1

[Events]
//Background and Video events
0,0,"bg.jpg",0,0
Video,-2,"video.mp4"
//Break Periods
//Storyboard Layer 0 (Background)
//Storyboard Layer 1 (Fail)
//Storyboard Layer 2 (Pass)
//Storyboard Layer 3 (Foreground)
//Storyboard Layer 4 (Overlay)
//Storyboard Sound Samples
Sample,1727,0,"cymbal.wav",50
Sample,3075,0,"cymbal.wav",50
Sample,4423,0,"cymbal.wav",50
Sample,74873,0,"cymbal.wav",50

[TimingPoints]
1390,337.078651685393,4,2,1,50,1,0
52625,-100.0,4,2,1,50,0,1
75547,-100.0,4,2,1,50,0,0
121389,-100.0,4,2,1,50,0,1
144311,-100.0,4,2,1,50,0,0
165884,-100.0,4,2,1,50,0,1
190154,-100.0,4,2,1,50,0,0

[HitObjects]
192,192,1390,1,2,0:0:0:0:
320,192,1390,1,0,0:0:0:50:cymbal.wav
64,192,1727,1,2,0:0:0:0:
192,192,2738,1,2,0:0:0:0:
320,192,2738,1,0,0:0:0:50:cymbal.wav
64,192,3075,1,2,0:0:0:0:
192,192,4086,1,2,0:0:0:0:
320,192,4086,1,0,0:0:0:50:cymbal.wav
64,192,4423,1,2,0:0:0:0:
448,192,5434,1,14,0:0:0:0:
448,192,5772,1,10,0:0:0:0:
320,192,5940,1,10,0:0:0:0:
448,192,6109,1,10,0:0:0:0:
64,192,6446,1,8,0:0:0:0:
192,192,6446,1,2,0:0:0:0:
64,192,6783,128,4,7120:0:0:0:0:
192,192,6783,1,2,0:0:0:0:
448,192,7120,1,10,0:0:0:0:
320,192,7457,128,2,7794:0:0:0:0:
64,192,7794,1,10,0:0:0:0:
192,192,8131,128,2,8468:0:0:0:0:
320,192,8468,1,10,0:0:0:0:
448,192,8805,128,2,9142:0:0:0:0:
192,192,9142,1,10,0:0:0:0:
320,192,9479,128,2,9816:0:0:0:0:
64,192,9816,1,10,0:0:0:0:
320,192,10154,128,2,10491:0:0:0:0:
64,192,10491,1,10,0:0:0:0:
192,192,10828,128,2,11165:0:0:0:0:
320,192,11165,1,10,0:0:0:0:
448,192,11502,128,2,11839:0:0:0:0:
64,192,11839,1,10,0:0:0:0:
192,192,12176,128,4,12513:0:0:0:0:
320,192,12176,1,2,0:0:0:0:
448,192,12513,1,10,0:0:0:0:
192,192,12850,128,2,13187:0:0:0:0:
448,192,13187,1,10,0:0:0:0:
320,192,13524,128,2,13861:0:0:0:0:
64,192,13861,1,10,0:0:0:0:
448,192,14198,128,2,14536:0:0:0:0:
192,192,14536,1,10,0:0:0:0:
320,192,14873,128,2,15210:0:0:0:0:
64,192,15210,1,10,0:0:0:0:
320,192,15547,128,2,15884:0:0:0:0:
64,192,15884,1,10,0:0:0:0:
192,192,16221,128,2,16558:0:0:0:0:
320,192,16558,1,12,0:0:0:0:
448,192,16558,1,2,0:0:0:0:
64,192,17064,1,10,0:0:0:0:
320,192,17232,1,10,0:0:0:0:
64,192,17401,1,10,0:0:0:0:
320,192,17569,128,4,17906:0:0:0:0:
448,192,17569,1,2,0:0:0:0:
192,192,17906,1,10,0:0:0:0:
448,192,18243,1,2,0:0:0:0:
64,192,18581,1,10,0:0:0:0:
192,192,18918,128,2,19255:0:0:0:0:
320,192,19255,128,10,19592:0:0:0:0:
192,192,19592,128,2,19929:0:0:0:0:
448,192,19929,1,10,0:0:0:0:
64,192,20266,128,2,20603:0:0:0:0:
320,192,20603,1,10,0:0:0:0:
192,192,20940,1,2,0:0:0:0:
64,192,21277,1,10,0:0:0:0:
320,192,21614,128,2,21951:0:0:0:0:
192,192,21951,128,10,22288:0:0:0:0:
320,192,22288,1,2,0:0:0:0:
448,192,22457,1,0,0:0:0:0:
64,192,22625,1,10,0:0:0:0:
320,192,22963,128,2,23300:0:0:0:0:
64,192,23300,1,10,0:0:0:0:
448,192,23637,1,2,0:0:0:0:
192,192,23974,1,10,0:0:0:0:
320,192,24311,128,2,24648:0:0:0:0:
448,192,24648,128,10,24985:0:0:0:0:
320,192,24985,128,2,25322:0:0:0:0:
64,192,25322,1,10,0:0:0:0:
192,192,25659,1,2,0:0:0:0:
320,192,25996,1,10,0:0:0:0:
192,192,26333,128,2,26670:0:0:0:0:
320,192,26670,1,10,0:0:0:0:
192,192,27007,1,2,0:0:0:0:
64,192,27345,1,10,0:0:0:0:
448,192,27513,1,8,0:0:0:0:
192,192,27850,1,10,0:0:0:0:
320,192,28019,1,10,0:0:0:0:
64,192,28187,1,10,0:0:0:0:
320,192,28356,1,4,0:0:0:0:
448,192,28356,1,2,0:0:0:0:
192,192,28693,1,10,0:0:0:0:
320,192,28861,1,0,0:0:0:0:
192,192,29030,128,2,29367:0:0:0:0:
448,192,29367,1,10,0:0:0:0:
64,192,29704,1,2,0:0:0:0:
192,192,30041,1,10,0:0:0:0:
320,192,30210,1,0,0:0:0:0:
192,192,30378,128,2,30715:0:0:0:0:
448,192,30715,1,10,0:0:0:0:
320,192,31052,128,2,31389:0:0:0:0:
64,192,31389,1,10,0:0:0:0:
448,192,31558,128,0,31895:0:0:0:0:
192,192,31895,1,0,0:0:0:0:
320,192,32064,1,10,0:0:0:0:
64,192,32401,1,2,0:0:0:0:
448,192,32738,1,10,0:0:0:0:
320,192,33075,1,2,0:0:0:0:
64,192,33243,1,12,0:0:0:0:
448,192,33412,1,14,0:0:0:0:
64,192,33749,1,6,0:0:0:0:
320,192,34086,1,10,0:0:0:0:
192,192,34255,1,0,0:0:0:0:
320,192,34423,128,2,34760:0:0:0:0:
192,192,34760,1,10,0:0:0:0:
64,192,35097,128,2,35434:0:0:0:0:
448,192,35434,128,10,35772:0:0:0:0:
320,192,35772,1,2,0:0:0:0:
192,192,35940,1,0,0:0:0:0:
448,192,36109,128,10,36446:0:0:0:0:
64,192,36446,128,2,37120:0:0:0:0:
192,192,36783,128,10,37120:0:0:0:0:
448,192,37120,128,2,37794:0:0:0:0:
320,192,37457,128,10,37794:0:0:0:0:
64,192,37794,128,2,38131:0:0:0:0:
320,192,38131,1,12,0:0:0:0:
448,192,38131,1,2,0:0:0:0:
64,192,38468,128,2,38805:0:0:0:0:
320,192,38805,1,6,0:0:0:0:
448,192,38805,1,8,0:0:0:0:
192,192,39142,1,10,0:0:0:0:
192,192,39395,128,10,39816:0:0:0:0:
320,192,39816,1,2,0:0:0:0:
320,192,40069,128,2,40491:0:0:0:0:
192,192,40491,1,10,0:0:0:0:
192,192,40743,128,10,41165:0:0:0:0:
320,192,41165,128,2,41502:0:0:0:0:
448,192,41839,1,10,0:0:0:0:
448,192,42092,128,10,42513:0:0:0:0:
320,192,42513,1,2,0:0:0:0:
320,192,42766,128,2,43187:0:0:0:0:
192,192,43187,1,10,0:0:0:0:
192,192,43440,128,10,43861:0:0:0:0:
320,192,43861,128,2,44198:0:0:0:0:
192,192,44536,1,4,0:0:0:0:
448,192,44536,1,2,0:0:0:0:
192,192,44788,128,0,45210:0:0:0:0:
320,192,45210,1,2,0:0:0:0:
320,192,45463,128,0,45884:0:0:0:0:
192,192,45884,1,2,0:0:0:0:
448,192,45884,1,4,0:0:0:0:
192,192,46137,128,0,46558:0:0:0:0:
320,192,46558,128,2,46895:0:0:0:0:
192,192,46895,1,10,0:0:0:0:
64,192,47232,1,2,0:0:0:0:
448,192,47232,1,4,0:0:0:0:
320,192,47569,1,8,0:0:0:0:
64,192,47906,1,4,0:0:0:0:
448,192,47906,1,2,0:0:0:0:
192,192,48243,1,8,0:0:0:0:
448,192,48581,128,6,48918:0:0:0:0:
320,192,48918,128,6,49255:0:0:0:0:
192,192,49255,128,6,49592:0:0:0:0:
448,192,49592,1,6,0:0:0:0:
64,192,49929,1,10,0:0:0:0:
64,192,50266,1,10,0:0:0:0:
64,192,50603,1,10,0:0:0:0:
64,192,50940,1,10,0:0:0:0:
448,192,51277,1,10,0:0:0:0:
448,192,51614,1,10,0:0:0:0:
320,192,51951,128,0,52625:0:0:0:0:
64,192,52625,1,2,0:0:0:0:
192,192,52625,1,4,0:0:0:0:
448,192,52963,128,10,53300:0:0:0:0:
192,192,53300,1,2,0:0:0:0:
320,192,53637,128,10,53974:0:0:0:0:
64,192,53974,1,2,0:0:0:0:
192,192,54311,128,10,54648:0:0:0:0:
448,192,54648,1,2,0:0:0:0:
64,192,54985,1,10,0:0:0:0:
448,192,55322,1,2,0:0:0:0:
192,192,55659,1,10,0:0:0:0:
320,192,55828,1,0,0:0:0:0:
448,192,55996,1,2,0:0:0:0:
320,192,56333,1,10,0:0:0:0:
192,192,56502,1,0,0:0:0:0:
64,192,56670,128,2,57007:0:0:0:0:
320,192,57007,128,10,57345:0:0:0:0:
448,192,57345,128,2,57682:0:0:0:0:
64,192,57682,1,6,0:0:0:0:
192,192,57682,1,8,0:0:0:0:
320,192,58019,1,6,0:0:0:0:
64,192,58356,128,10,58693:0:0:0:0:
320,192,58693,1,2,0:0:0:0:
192,192,59030,128,10,59367:0:0:0:0:
448,192,59367,1,2,0:0:0:0:
320,192,59704,128,10,60041:0:0:0:0:
64,192,60041,1,2,0:0:0:0:
192,192,60378,1,10,0:0:0:0:
320,192,60715,1,2,0:0:0:0:
192,192,60884,1,0,0:0:0:0:
448,192,61052,1,10,0:0:0:0:
192,192,61389,1,2,0:0:0:0:
320,192,61558,1,0,0:0:0:0:
64,192,61727,1,14,0:0:0:0:
192,192,62064,1,8,0:0:0:0:
448,192,62232,1,2,0:0:0:0:
448,192,62569,1,2,0:0:0:0:
64,192,62738,128,8,63075:0:0:0:0:
320,192,63075,1,6,0:0:0:0:
448,192,63075,1,8,0:0:0:0:
192,192,63412,1,6,0:0:0:0:
320,192,63749,128,10,64086:0:0:0:0:
64,192,64086,1,2,0:0:0:0:
192,192,64423,1,10,0:0:0:0:
320,192,64592,1,2,0:0:0:0:
192,192,64760,1,2,0:0:0:0:
448,192,65097,1,10,0:0:0:0:
320,192,65266,1,0,0:0:0:0:
192,192,65434,1,2,0:0:0:0:
64,192,65772,1,10,0:0:0:0:
192,192,65940,1,2,0:0:0:0:
448,192,66109,128,2,66446:0:0:0:0:
192,192,66446,1,10,0:0:0:0:
320,192,66614,128,0,66951:0:0:0:0:
64,192,66951,128,0,67288:0:0:0:0:
448,192,67288,1,2,0:0:0:0:
192,192,67457,1,2,0:0:0:0:
192,192,67794,1,6,0:0:0:0:
448,192,67794,1,8,0:0:0:0:
320,192,68131,1,2,0:0:0:0:
192,192,68300,1,0,0:0:0:0:
64,192,68468,1,10,0:0:0:0:
64,192,68805,1,2,0:0:0:0:
192,192,68805,1,4,0:0:0:0:
448,192,69142,128,10,69479:0:0:0:0:
192,192,69479,1,2,0:0:0:0:
320,192,69816,128,10,70154:0:0:0:0:
64,192,70154,1,2,0:0:0:0:
192,192,70154,1,4,0:0:0:0:
448,192,70491,128,10,70828:0:0:0:0:
192,192,70828,1,2,0:0:0:0:
320,192,71165,1,10,0:0:0:0:
64,192,71502,1,4,0:0:0:0:
448,192,71502,1,2,0:0:0:0:
192,192,71839,1,10,0:0:0:0:
320,192,72007,1,0,0:0:0:0:
64,192,72176,1,2,0:0:0:0:
448,192,72176,1,4,0:0:0:0:
320,192,72513,1,10,0:0:0:0:
192,192,72682,1,0,0:0:0:0:
320,192,72850,128,2,73187:0:0:0:0:
192,192,73356,1,2,0:0:0:0:
448,192,73524,128,10,73861:0:0:0:0:
64,192,74030,1,2,0:0:0:0:
192,192,74030,1,0,0:0:0:50:cymbal.wav
320,192,74367,1,2,0:0:0:0:
448,192,74367,1,0,0:0:0:50:cymbal.wav
192,192,74704,1,2,0:0:0:0:
320,192,74873,128,10,75210:0:0:0:0:
64,192,75210,1,4,0:0:0:0:
192,192,75210,1,2,0:0:0:0:
64,192,75547,1,4,0:0:0:0:
448,192,75547,128,2,75884:0:0:0:0:
192,192,75884,1,10,0:0:0:0:
448,192,76221,128,2,76558:0:0:0:0:
192,192,76558,1,10,0:0:0:0:
320,192,76895,128,2,77232:0:0:0:0:
64,192,77232,1,10,0:0:0:0:
192,192,77569,128,2,77906:0:0:0:0:
320,192,77906,1,10,0:0:0:0:
448,192,78243,128,2,78581:0:0:0:0:
64,192,78581,1,10,0:0:0:0:
448,192,78918,128,2,79255:0:0:0:0:
64,192,79255,1,10,0:0:0:0:
192,192,79592,128,2,79929:0:0:0:0:
320,192,79929,1,10,0:0:0:0:
448,192,80266,128,2,80603:0:0:0:0:
64,192,80603,1,10,0:0:0:0:
192,192,80940,1,4,0:0:0:0:
320,192,80940,128,2,81277:0:0:0:0:
448,192,81277,1,10,0:0:0:0:
192,192,81614,128,2,81951:0:0:0:0:
448,192,81951,1,10,0:0:0:0:
64,192,82288,128,2,82625:0:0:0:0:
320,192,82625,1,10,0:0:0:0:
448,192,82963,128,2,83300:0:0:0:0:
192,192,83300,1,10,0:0:0:0:
64,192,83637,128,2,83974:0:0:0:0:
320,192,83974,1,10,0:0:0:0:
192,192,84311,128,2,84648:0:0:0:0:
320,192,84648,1,10,0:0:0:0:
448,192,84985,128,2,85322:0:0:0:0:
64,192,85322,1,8,0:0:0:0:
192,192,85322,1,2,0:0:0:0:
448,192,85828,1,10,0:0:0:0:
320,192,85996,1,10,0:0:0:0:
64,192,86165,1,10,0:0:0:0:
192,192,86333,1,4,0:0:0:0:
448,192,86333,128,2,86670:0:0:0:0:
320,192,86670,1,2,0:0:0:0:
192,192,87007,1,2,0:0:0:0:
64,192,87345,1,2,0:0:0:0:
192,192,87682,128,2,88019:0:0:0:0:
320,192,88019,128,2,88356:0:0:0:0:
192,192,88356,1,2,0:0:0:0:
64,192,88524,1,0,0:0:0:0:
448,192,88693,1,2,0:0:0:0:
64,192,89030,128,2,89367:0:0:0:0:
320,192,89367,1,2,0:0:0:0:
192,192,89704,1,2,0:0:0:0:
64,192,90041,1,2,0:0:0:0:
320,192,90378,128,2,90715:0:0:0:0:
192,192,90715,128,2,91052:0:0:0:0:
448,192,91052,1,2,0:0:0:0:
64,192,91389,1,2,0:0:0:0:
320,192,91558,1,4,0:0:0:0:
448,192,91558,1,0,0:0:0:0:
192,192,91727,128,6,92064:0:0:0:0:
448,192,92064,1,2,0:0:0:0:
320,192,92401,1,2,0:0:0:0:
192,192,92738,1,2,0:0:0:0:
320,192,93075,128,2,93412:0:0:0:0:
448,192,93412,128,2,93749:0:0:0:0:
320,192,93749,1,2,0:0:0:0:
64,192,93918,1,0,0:0:0:0:
448,192,94086,1,2,0:0:0:0:
192,192,94423,1,2,0:0:0:0:
320,192,94760,1,2,0:0:0:0:
192,192,95097,1,2,0:0:0:0:
448,192,95266,1,2,0:0:0:0:
192,192,95434,1,2,0:0:0:0:
448,192,95603,1,2,0:0:0:0:
192,192,96109,1,0,0:0:0:0:
320,192,96277,1,0,0:0:0:0:
64,192,96614,1,10,0:0:0:0:
448,192,96783,1,10,0:0:0:0:
64,192,96951,1,10,0:0:0:0:
320,192,97120,1,4,0:0:0:0:
448,192,97120,1,2,0:0:0:0:
192,192,97457,1,10,0:0:0:0:
320,192,97625,1,0,0:0:0:0:
192,192,97794,128,2,98131:0:0:0:0:
448,192,98131,1,10,0:0:0:0:
64,192,98468,1,2,0:0:0:0:
192,192,98805,1,10,0:0:0:0:
320,192,98974,1,0,0:0:0:0:
192,192,99142,128,2,99479:0:0:0:0:
448,192,99479,1,10,0:0:0:0:
320,192,99816,128,2,100154:0:0:0:0:
192,192,100154,1,10,0:0:0:0:
448,192,100322,128,0,100659:0:0:0:0:
192,192,100659,1,0,0:0:0:0:
64,192,100828,1,10,0:0:0:0:
320,192,101165,1,2,0:0:0:0:
64,192,101502,1,10,0:0:0:0:
448,192,101839,1,2,0:0:0:0:
320,192,102007,1,12,0:0:0:0:
192,192,102176,1,14,0:0:0:0:
64,192,102513,1,6,0:0:0:0:
320,192,102850,1,10,0:0:0:0:
192,192,103019,1,0,0:0:0:0:
320,192,103187,128,2,103524:0:0:0:0:
192,192,103524,1,10,0:0:0:0:
64,192,103861,128,2,104198:0:0:0:0:
448,192,104198,128,10,104536:0:0:0:0:
320,192,104536,1,2,0:0:0:0:
192,192,104704,1,0,0:0:0:0:
448,192,104873,128,10,105210:0:0:0:0:
64,192,105210,128,2,105884:0:0:0:0:
192,192,105547,128,10,105884:0:0:0:0:
448,192,105884,128,2,106558:0:0:0:0:
320,192,106221,128,10,106558:0:0:0:0:
64,192,106558,128,2,106895:0:0:0:0:
320,192,106895,1,12,0:0:0:0:
448,192,106895,1,2,0:0:0:0:
64,192,107232,128,8,107569:0:0:0:0:
320,192,107569,1,12,0:0:0:0:
448,192,107569,1,2,0:0:0:0:
320,192,107906,1,2,0:0:0:0:
192,192,108131,1,0,0:0:0:0:
448,192,108581,1,8,0:0:0:0:
64,192,108805,1,2,0:0:0:0:
192,192,109255,1,2,0:0:0:0:
448,192,109592,1,0,0:0:0:0:
64,192,109929,1,10,0:0:0:0:
64,192,110266,1,0,0:0:0:0:
320,192,110603,1,2,0:0:0:0:
320,192,110828,1,2,0:0:0:0:
192,192,111277,1,8,0:0:0:0:
448,192,111502,1,2,0:0:0:0:
192,192,111951,1,2,0:0:0:0:
320,192,112176,1,2,0:0:0:0:
192,192,112401,1,2,0:0:0:0:
320,192,112625,1,10,0:0:0:0:
192,192,113300,1,2,0:0:0:0:
448,192,113300,1,4,0:0:0:0:
192,192,113552,128,0,113974:0:0:0:0:
320,192,113974,1,2,0:0:0:0:
320,192,114227,128,0,114648:0:0:0:0:
192,192,114648,1,4,0:0:0:0:
448,192,114648,1,2,0:0:0:0:
192,192,114901,128,0,115322:0:0:0:0:
320,192,115322,128,2,115659:0:0:0:0:
192,192,115659,1,2,0:0:0:0:
64,192,115996,1,4,0:0:0:0:
448,192,115996,1,2,0:0:0:0:
192,192,116333,1,8,0:0:0:0:
64,192,116670,1,4,0:0:0:0:
448,192,116670,1,2,0:0:0:0:
320,192,117007,1,8,0:0:0:0:
448,192,117345,128,6,117682:0:0:0:0:
320,192,117682,128,6,118019:0:0:0:0:
192,192,118019,128,6,118356:0:0:0:0:
448,192,118356,1,6,0:0:0:0:
64,192,118693,128,2,119030:0:0:0:0:
448,192,119030,1,2,0:0:0:0:
320,192,119367,128,2,119704:0:0:0:0:
192,192,119704,1,2,0:0:0:0:
64,192,120041,128,2,120378:0:0:0:0:
448,192,120378,128,2,120715:0:0:0:0:
320,192,120715,128,0,121389:0:0:0:0:
64,192,121389,1,4,0:0:0:0:
192,192,121389,1,2,0:0:0:0:
448,192,121727,128,10,122064:0:0:0:0:
192,192,122064,1,2,0:0:0:0:
320,192,122401,128,10,122738:0:0:0:0:
64,192,122738,1,2,0:0:0:0:
192,192,123075,128,10,123412:0:0:0:0:
448,192,123412,1,2,0:0:0:0:
192,192,123749,1,10,0:0:0:0:
448,192,124086,1,2,0:0:0:0:
64,192,124423,1,10,0:0:0:0:
192,192,124592,1,0,0:0:0:0:
320,192,124760,1,2,0:0:0:0:
448,192,125097,1,10,0:0:0:0:
320,192,125266,1,0,0:0:0:0:
192,192,125434,128,2,125772:0:0:0:0:
320,192,125772,128,10,126109:0:0:0:0:
448,192,126109,128,2,126446:0:0:0:0:
64,192,126446,1,6,0:0:0:0:
192,192,126446,1,8,0:0:0:0:
320,192,126783,1,6,0:0:0:0:
64,192,127120,128,10,127457:0:0:0:0:
320,192,127457,1,2,0:0:0:0:
192,192,127794,128,10,128131:0:0:0:0:
448,192,128131,1,2,0:0:0:0:
320,192,128468,128,10,128805:0:0:0:0:
64,192,128805,1,2,0:0:0:0:
448,192,129142,1,10,0:0:0:0:
192,192,129479,1,2,0:0:0:0:
320,192,129648,1,0,0:0:0:0:
64,192,129816,1,10,0:0:0:0:
320,192,130154,1,2,0:0:0:0:
192,192,130322,1,0,0:0:0:0:
448,192,130491,1,14,0:0:0:0:
64,192,130828,1,8,0:0:0:0:
448,192,130996,1,2,0:0:0:0:
448,192,131333,1,2,0:0:0:0:
64,192,131502,128,8,131839:0:0:0:0:
320,192,131839,1,6,0:0:0:0:
448,192,131839,1,8,0:0:0:0:
192,192,132176,1,6,0:0:0:0:
320,192,132513,128,10,132850:0:0:0:0:
64,192,132850,1,2,0:0:0:0:
192,192,133187,1,10,0:0:0:0:
320,192,133356,1,2,0:0:0:0:
192,192,133524,1,2,0:0:0:0:
448,192,133861,1,10,0:0:0:0:
320,192,134030,1,0,0:0:0:0:
192,192,134198,1,2,0:0:0:0:
64,192,134536,1,10,0:0:0:0:
192,192,134704,1,2,0:0:0:0:
448,192,134873,128,2,135210:0:0:0:0:
192,192,135210,1,10,0:0:0:0:
320,192,135378,128,0,135715:0:0:0:0:
64,192,135715,128,0,136052:0:0:0:0:
448,192,136052,1,2,0:0:0:0:
192,192,136221,1,2,0:0:0:0:
192,192,136558,1,6,0:0:0:0:
448,192,136558,1,8,0:0:0:0:
320,192,136895,1,2,0:0:0:0:
192,192,137064,1,0,0:0:0:0:
64,192,137232,1,10,0:0:0:0:
64,192,137569,1,2,0:0:0:0:
192,192,137569,1,4,0:0:0:0:
448,192,137906,128,10,138243:0:0:0:0:
64,192,138243,1,2,0:0:0:0:
320,192,138581,128,10,138918:0:0:0:0:
64,192,138918,1,2,0:0:0:0:
192,192,138918,1,4,0:0:0:0:
448,192,139255,128,10,139592:0:0:0:0:
192,192,139592,1,2,0:0:0:0:
320,192,139929,1,10,0:0:0:0:
64,192,140266,1,4,0:0:0:0:
448,192,140266,1,2,0:0:0:0:
192,192,140603,1,10,0:0:0:0:
320,192,140772,1,0,0:0:0:0:
64,192,140940,1,2,0:0:0:0:
448,192,140940,1,4,0:0:0:0:
320,192,141277,1,10,0:0:0:0:
192,192,141446,1,0,0:0:0:0:
448,192,141614,128,2,141951:0:0:0:0:
192,192,141951,1,10,0:0:0:0:
64,192,142120,1,0,0:0:0:0:
448,192,142288,128,2,142625:0:0:0:0:
192,192,142625,1,10,0:0:0:0:
64,192,142794,1,8,0:0:0:0:
320,192,142794,1,0,0:0:0:50:cymbal.wav
192,192,143131,1,2,0:0:0:0:
448,192,143131,1,0,0:0:0:50:cymbal.wav
64,192,143468,1,2,0:0:0:0:
448,192,143637,128,14,143974:0:0:0:0:
192,192,143974,1,4,0:0:0:0:
320,192,143974,1,2,0:0:0:0:
64,192,144311,128,4,144648:0:0:0:0:
192,192,144311,1,2,0:0:0:0:
448,192,144648,1,10,0:0:0:0:
64,192,144985,128,2,145322:0:0:0:0:
448,192,145322,1,10,0:0:0:0:
64,192,145659,128,2,145996:0:0:0:0:
448,192,145996,1,10,0:0:0:0:
64,192,146333,128,2,146670:0:0:0:0:
192,192,146670,1,10,0:0:0:0:
320,192,146839,1,0,0:0:0:0:
448,192,147007,128,2,147345:0:0:0:0:
64,192,147345,1,10,0:0:0:0:
320,192,147682,128,2,148019:0:0:0:0:
64,192,148019,1,10,0:0:0:0:
64,192,148356,1,2,0:0:0:0:
192,192,148524,1,0,0:0:0:0:
320,192,148693,1,10,0:0:0:0:
448,192,149030,1,2,0:0:0:0:
320,192,149198,1,0,0:0:0:0:
64,192,149367,1,12,0:0:0:0:
192,192,149367,1,2,0:0:0:0:
192,192,149704,1,4,0:0:0:0:
320,192,149704,1,2,0:0:0:0:
448,192,149873,128,0,150210:0:0:0:0:
64,192,150210,1,0,0:0:0:0:
320,192,150378,1,2,0:0:0:0:
448,192,150715,1,10,0:0:0:0:
320,192,150884,1,0,0:0:0:0:
192,192,151221,128,0,151558:0:0:0:0:
64,192,151558,1,0,0:0:0:0:
320,192,151727,1,2,0:0:0:0:
192,192,152064,1,10,0:0:0:0:
448,192,152232,1,0,0:0:0:0:
320,192,152401,128,2,152738:0:0:0:0:
192,192,152738,128,10,153075:0:0:0:0:
64,192,153075,128,2,153412:0:0:0:0:
320,192,153412,128,12,153749:0:0:0:0:
448,192,153412,1,2,0:0:0:0:
64,192,153749,1,4,0:0:0:0:
192,192,153749,1,8,0:0:0:0:
448,192,154086,1,8,0:0:0:0:
320,192,154255,1,2,0:0:0:0:
192,192,154423,1,8,0:0:0:0:
320,192,154760,1,4,0:0:0:0:
448,192,154760,1,8,0:0:0:0:
192,192,155097,1,6,0:0:0:0:
320,192,155434,1,2,0:0:0:0:
192,192,155772,1,2,0:0:0:0:
320,192,156109,1,2,0:0:0:0:
192,192,156446,1,2,0:0:0:0:
320,192,156783,1,2,0:0:0:0:
192,192,157120,1,2,0:0:0:0:
448,192,157457,1,2,0:0:0:0:
192,192,157794,128,2,158468:0:0:0:0:
448,192,158131,128,2,158468:0:0:0:0:
64,192,158468,128,2,159142:0:0:0:0:
320,192,158805,128,2,159142:0:0:0:0:
448,192,159142,128,2,159479:0:0:0:0:
192,192,159479,1,2,0:0:0:0:
320,192,159816,1,2,0:0:0:0:
64,192,159985,1,0,0:0:0:0:
448,192,160154,1,2,0:0:0:0:
320,192,160491,1,6,0:0:0:0:
192,192,160828,1,2,0:0:0:0:
448,192,161165,1,2,0:0:0:0:
64,192,161502,1,2,0:0:0:0:
192,192,161839,1,4,0:0:0:0:
320,192,161839,1,2,0:0:0:0:
448,192,162176,1,2,0:0:0:0:
64,192,162513,1,2,0:0:0:0:
320,192,162850,1,2,0:0:0:0:
192,192,163187,1,12,0:0:0:0:
448,192,163187,1,2,0:0:0:0:
448,192,163524,1,10,0:0:0:0:
64,192,163861,1,10,0:0:0:0:
64,192,164198,1,10,0:0:0:0:
320,192,164536,1,2,0:0:0:0:
64,192,165884,1,4,0:0:0:0:
192,192,165884,1,2,0:0:0:0:
448,192,166221,128,10,166558:0:0:0:0:
64,192,166558,1,2,0:0:0:0:
320,192,166895,128,10,167232:0:0:0:0:
64,192,167232,1,2,0:0:0:0:
192,192,167569,128,8,167906:0:0:0:0:
448,192,167569,1,2,0:0:0:0:
64,192,167906,1,2,0:0:0:0:
192,192,168243,1,10,0:0:0:0:
320,192,168412,1,0,0:0:0:0:
448,192,168581,1,2,0:0:0:0:
64,192,168918,1,10,0:0:0:0:
192,192,169086,1,0,0:0:0:0:
320,192,169255,1,2,0:0:0:0:
448,192,169592,1,10,0:0:0:0:
320,192,169760,1,0,0:0:0:0:
64,192,169929,128,2,170266:0:0:0:0:
320,192,170266,128,10,170603:0:0:0:0:
448,192,170603,128,2,170940:0:0:0:0:
64,192,170940,1,10,0:0:0:0:
192,192,170940,1,4,0:0:0:0:
320,192,171277,1,6,0:0:0:0:
64,192,171614,128,10,171951:0:0:0:0:
320,192,171951,1,2,0:0:0:0:
192,192,172288,128,10,172625:0:0:0:0:
448,192,172625,1,2,0:0:0:0:
320,192,172963,128,10,173300:0:0:0:0:
64,192,173300,1,2,0:0:0:0:
192,192,173637,1,10,0:0:0:0:
448,192,173974,1,2,0:0:0:0:
320,192,174142,1,0,0:0:0:0:
64,192,174311,1,10,0:0:0:0:
192,192,174648,1,2,0:0:0:0:
320,192,174816,1,0,0:0:0:0:
64,192,174985,1,10,0:0:0:0:
448,192,174985,1,4,0:0:0:0:
448,192,175322,1,8,0:0:0:0:
64,192,175491,1,2,0:0:0:0:
64,192,175828,1,2,0:0:0:0:
448,192,175996,128,8,176333:0:0:0:0:
64,192,176333,1,10,0:0:0:0:
192,192,176333,1,4,0:0:0:0:
320,192,176670,1,4,0:0:0:0:
448,192,176670,1,2,0:0:0:0:
192,192,177007,128,10,177345:0:0:0:0:
448,192,177345,1,2,0:0:0:0:
64,192,177682,1,10,0:0:0:0:
320,192,177850,1,2,0:0:0:0:
64,192,178019,1,2,0:0:0:0:
448,192,178356,1,10,0:0:0:0:
320,192,178524,1,0,0:0:0:0:
192,192,178693,1,2,0:0:0:0:
64,192,179030,1,10,0:0:0:0:
320,192,179198,1,2,0:0:0:0:
448,192,179367,128,2,179704:0:0:0:0:
64,192,179704,1,10,0:0:0:0:
320,192,179873,128,0,180210:0:0:0:0:
192,192,180210,128,0,180547:0:0:0:0:
64,192,180547,1,2,0:0:0:0:
448,192,180715,1,2,0:0:0:0:
192,192,181052,1,10,0:0:0:0:
320,192,181052,1,4,0:0:0:0:
448,192,181389,1,2,0:0:0:0:
320,192,181558,1,0,0:0:0:0:
64,192,181727,1,10,0:0:0:0:
64,192,182064,1,4,0:0:0:0:
192,192,182064,1,2,0:0:0:0:
448,192,182401,128,10,182738:0:0:0:0:
64,192,182738,1,2,0:0:0:0:
320,192,183075,128,10,183412:0:0:0:0:
64,192,183412,1,4,0:0:0:0:
192,192,183412,1,2,0:0:0:0:
448,192,183749,128,10,184086:0:0:0:0:
192,192,184086,1,2,0:0:0:0:
320,192,184423,1,10,0:0:0:0:
64,192,184760,1,2,0:0:0:0:
448,192,184760,1,4,0:0:0:0:
192,192,185097,1,10,0:0:0:0:
320,192,185266,1,0,0:0:0:0:
64,192,185434,1,4,0:0:0:0:
448,192,185434,1,2,0:0:0:0:
320,192,185772,1,10,0:0:0:0:
192,192,185940,1,0,0:0:0:0:
448,192,186109,128,2,186446:0:0:0:0:
192,192,186614,1,2,0:0:0:0:
448,192,186783,128,10,187120:0:0:0:0:
64,192,187288,1,2,0:0:0:0:
192,192,187288,1,0,0:0:0:50:cymbal.wav
192,192,187625,1,2,0:0:0:0:
448,192,187625,1,0,0:0:0:50:cymbal.wav
64,192,187963,1,2,0:0:0:0:
448,192,188131,128,8,188468:0:0:0:0:
192,192,188468,1,0,0:0:0:0:
320,192,188637,128,2,188974:0:0:0:0:
448,192,188637,1,0,0:0:0:50:cymbal.wav
64,192,188974,1,2,0:0:0:0:
192,192,188974,1,0,0:0:0:50:cymbal.wav
192,192,189311,1,2,0:0:0:0:
448,192,189479,128,8,190154:0:0:0:0:
64,192,190154,128,2,190491:0:0:0:0:
192,192,190154,1,4,0:0:0:0:
320,192,190491,1,10,0:0:0:0:
448,192,190828,128,2,191165:0:0:0:0:
192,192,191165,1,10,0:0:0:0:
320,192,191502,128,2,191839:0:0:0:0:
64,192,191839,1,10,0:0:0:0:
192,192,192176,128,2,192513:0:0:0:0:
448,192,192513,1,10,0:0:0:0:
64,192,192850,128,2,193187:0:0:0:0:
448,192,193187,1,10,0:0:0:0:
320,192,193524,128,2,193861:0:0:0:0:
64,192,193861,1,10,0:0:0:0:
192,192,194198,128,2,194536:0:0:0:0:
320,192,194536,1,10,0:0:0:0:
448,192,194873,128,2,195210:0:0:0:0:
192,192,195210,1,10,0:0:0:0:
64,192,195547,128,2,195884:0:0:0:0:
448,192,195547,1,4,0:0:0:0:
320,192,195884,1,10,0:0:0:0:
448,192,196221,128,2,196558:0:0:0:0:
64,192,196558,1,10,0:0:0:0:
320,192,196895,128,2,197232:0:0:0:0:
192,192,197232,1,10,0:0:0:0:
64,192,197569,128,2,197906:0:0:0:0:
448,192,197906,1,10,0:0:0:0:
192,192,198243,128,2,198581:0:0:0:0:
320,192,198581,1,10,0:0:0:0:
448,192,198918,128,2,199255:0:0:0:0:
192,192,199255,1,10,0:0:0:0:
64,192,199592,128,2,199929:0:0:0:0:
320,192,199929,1,6,0:0:0:0:
448,192,199929,1,8,0:0:0:0:
448,192,200266,1,2,0:0:0:0:
320,192,200434,1,10,0:0:0:0:
64,192,200603,1,10,0:0:0:0:
192,192,200772,1,10,0:0:0:0:
64,192,201277,1,2,0:0:0:0:
320,192,201277,1,0,0:0:0:50:cymbal.wav
