osu file format v14

[General]
AudioFilename: audio.mp3
AudioLeadIn: 0
PreviewTime: 13751
Countdown: 0
SampleSet: Soft
StackLeniency: 0.7
Mode: 0
LetterboxInBreaks: 0
WidescreenStoryboard: 0

[Editor]
DistanceSpacing: 1.2
BeatDivisor: 4
GridSize: 16
TimelineZoom: 1

[Metadata]
Title:Lampovaya Nyasha
TitleUnicode:Ламповая Няша
Artist:Enjoykin
ArtistUnicode:Enjoykin
Creator:Marmowka
Version:Lampoviy Advanced
Source:
Tags:russian electro sharishaxd youtube shkuragaming karina стримерша карина enjoyker
BeatmapID:967034
BeatmapSetID:450767

[Difficulty]
HPDrainRate:5
CircleSize:4
OverallDifficulty:5
ApproachRate:5.5
SliderMultiplier:1.3
SliderTickRate:2

[Events]
//Background and Video events
0,0,"bg.png",0,0
Video,0,"video.avi"
//Break Periods
2,41808,54122
//Storyboard Layer 0 (Background)
//Storyboard Layer 1 (Fail)
//Storyboard Layer 2 (Pass)
//Storyboard Layer 3 (Foreground)
//Storyboard Sound Samples

[TimingPoints]
465.498292508637,428.571428571429,4,2,0,40,1,0
14179,-100,4,2,0,40,0,1
26179,-100,4,2,0,40,0,0
69036,-100,4,2,0,40,0,1
81036,-100,4,2,0,40,0,0

[Colours]
Combo1 : 128,0,128
Combo2 : 255,0,255
Combo3 : 255,128,255
Combo4 : 50,0,202

[HitObjects]
242,135,465,6,0,L|308:137,1,65,2|0,0:0|0:0,0:0:0:0:
373,95,894,1,2,0:0:0:0:
418,158,1108,2,0,P|439:217|417:277,1,130
278,351,1965,1,0,0:0:0:0:
216,303,2179,2,0,L|144:304,1,65,2|0,0:0|0:0,0:0:0:0:
84,346,2608,1,2,0:0:0:0:
31,288,2822,2,0,L|32:141,1,130
140,45,3679,1,0,0:0:0:0:
215,66,3894,6,0,B|254:68|254:68|303:57,2,65,2|0|2,0:0|0:0|0:0,0:0:0:0:
160,121,4536,2,0,B|155:217|155:217|178:270,1,130
299,333,5394,1,0,0:0:0:0:
360,285,5608,2,0,L|361:217,1,65,2|0,0:0|0:0,0:0:0:0:
358,142,6036,2,0,P|306:111|245:155,1,130,2|2,0:0|0:0,0:0:0:0:
283,282,6894,2,0,L|347:285,1,65,2|0,0:0|0:0,0:0:0:0:
425,296,7322,6,0,P|453:326|458:351,2,65,2|0|2,0:0|0:0|0:0,0:0:0:0:
390,225,7965,2,0,B|397:119|397:119|383:78,1,130
234,76,8822,1,0,0:0:0:0:
161,103,9036,2,0,L|97:100,2,65,2|0|2,0:0|0:0|0:0,0:0:0:0:
222,151,9679,2,0,P|239:201|209:279,1,130,0|0,0:0|0:0,0:0:0:0:
91,176,10536,6,0,P|83:142|100:104,1,65,0|2,0:0|0:0,0:0:0:0:
144,57,10965,1,0,0:0:0:0:
219,74,11179,2,0,L|364:70,2,130,2|2|2,0:0|0:0|0:0,0:0:0:0:
168,133,12251,1,0,0:0:0:0:
151,209,12465,2,0,P|146:247|160:282,1,65,2|0,0:0|0:0,0:0:0:0:
209,326,12894,2,0,L|359:327,1,130,2|2,0:0|0:0,0:0:0:0:
466,231,13751,1,2,0:0:0:0:
389,95,14179,6,0,P|326:70|263:104,1,130,6|8,0:0|0:0,0:0:0:0:
202,128,14822,2,0,L|138:129,1,65,0|2,0:0|0:0,0:0:0:0:
76,179,15251,2,0,P|67:206|78:243,1,65,0|10,0:0|0:0,0:0:0:0:
112,309,15679,1,0,0:0:0:0:
185,334,15894,2,0,B|215:327|215:327|287:339|287:339|327:329,1,130,2|10,0:0|0:0,0:0:0:0:
379,293,16536,2,0,P|407:230|368:169,1,130
326,124,17179,2,0,P|297:116|259:124,1,65,10|0,0:0|0:0,0:0:0:0:
208,178,17608,6,0,L|205:260,1,65,2|0,0:0|0:0,0:0:0:0:
237,313,18036,1,10,0:0:0:0:
308,345,18251,2,0,P|367:316|382:236,1,130
392,180,18894,2,0,L|394:111,1,65,10|0,0:0|0:0,0:0:0:0:
389,37,19322,2,0,P|341:57|322:147,2,130,2|10|2,0:0|0:0|0:0,0:0:0:0:
486,158,20608,1,10,0:0:0:0:
471,313,21036,6,0,B|380:339|380:339|320:318,1,130,2|10,0:0|0:0,0:0:0:0:
282,282,21679,2,0,P|275:252|281:219,1,65,0|2,0:0|0:0,0:0:0:0:
307,144,22108,2,0,P|313:112|305:80,1,65,0|10,0:0|0:0,0:0:0:0:
241,37,22536,1,0,0:0:0:0:
162,38,22751,2,0,B|66:41|66:41|32:73,1,130,2|10,0:0|0:0,0:0:0:0:
18,139,23394,2,0,P|2:209|24:274,1,130
82,306,24036,2,0,L|162:306,1,65,10|0,0:0|0:0,0:0:0:0:
256,192,24465,12,6,26179,0:0:0:0:
285,54,27465,5,10,0:0:0:0:
285,54,27894,2,0,L|285:119,1,65,2|0,0:0|0:0,0:0:0:0:
313,191,28322,1,10,0:0:0:0:
259,247,28536,2,0,L|168:249,1,65,0|2,0:0|0:0,0:0:0:0:
121,278,28965,2,0,B|112:317|112:317|115:362,2,65,0|10|0,0:0|0:0|0:0,0:0:0:0:
132,200,29608,1,2,0:0:0:0:
142,122,29822,2,0,P|92:132|56:211,2,130
200,175,30894,1,10,0:0:0:0:
348,128,31322,6,0,L|434:124,1,65,2|0,0:0|0:0,0:0:0:0:
475,171,31751,1,10,0:0:0:0:
475,171,31965,2,0,P|479:203|471:237,1,65,0|2,0:0|0:0,0:0:0:0:
337,314,32608,2,0,L|229:316,1,65,10|0,0:0|0:0,0:0:0:0:
212,265,33036,2,0,L|211:125,1,130,2|10,0:0|0:0,0:0:0:0:
171,67,33679,2,0,P|101:40|37:93,1,130
111,117,34322,2,0,P|117:155|105:186,1,65,10|0,0:0|0:0,0:0:0:0:
66,244,34751,6,0,P|58:286|80:331,1,65,2|0,0:0|0:0,0:0:0:0:
131,345,35179,2,0,B|268:344,1,130,10|2,0:0|0:0,0:0:0:0:
330,308,35822,2,0,L|406:307,2,65,0|10|0,0:0|0:0|0:0,0:0:0:0:
268,258,36465,1,2,0:0:0:0:
252,181,36679,2,0,B|245:146|245:146|252:109,1,65,0|10,0:0|0:0,0:0:0:0:
301,58,37108,1,0,0:0:0:0:
378,56,37322,2,0,L|472:55,1,65,2|0,0:0|0:0,0:0:0:0:
444,133,37751,2,0,L|371:133,1,65,10|0,0:0|0:0,0:0:0:0:
256,192,38179,12,0,41608,0:0:0:0:
407,177,55322,6,0,B|316:168|316:168|268:180,1,130,2|10,0:0|0:0,0:0:0:0:
151,268,56179,2,0,L|85:261,1,65,2|0,0:0|0:0,0:0:0:0:
117,189,56608,2,0,L|203:199,1,65,10|0,0:0|0:0,0:0:0:0:
214,125,57036,2,0,L|216:56,2,65,2|0|10,0:0|0:0|0:0,0:0:0:0:
202,281,57894,2,0,P|187:321|91:321,1,130,2|10,0:0|0:0,0:0:0:0:
48,191,58751,6,0,L|46:117,1,65,0|2,0:0|0:0,0:0:0:0:
91,64,59179,1,10,0:0:0:0:
242,103,59608,2,0,L|328:98,1,65,2|0,0:0|0:0,0:0:0:0:
374,60,60036,1,10,0:0:0:0:
414,210,60465,2,0,L|419:287,1,65,2|0,0:0|0:0,0:0:0:0:
467,335,60894,1,10,0:0:0:0:
315,296,61322,2,0,L|250:293,1,65,2|0,0:0|0:0,0:0:0:0:
183,252,61751,6,0,B|92:243|92:243|44:255,2,130,10|2|10,0:0|0:0|0:0,0:0:0:0:
243,202,62822,1,0,0:0:0:0:
279,129,63036,2,0,L|275:48,1,65,2|0,0:0|0:0,0:0:0:0:
351,85,63465,2,0,L|355:165,1,65,10|0,0:0|0:0,0:0:0:0:
391,218,63894,2,0,L|398:298,1,65,2|0,0:0|0:0,0:0:0:0:
343,340,64322,1,10,0:0:0:0:
212,254,64751,2,0,P|155:228|91:258,1,130,2|10,0:0|0:0,0:0:0:0:
97,96,65608,6,0,P|153:121|225:79,1,130,6|2,0:0|0:0,0:0:0:0:
363,52,66465,2,0,P|391:109|350:177,1,130,6|2,0:0|0:0,0:0:0:0:
235,252,67322,2,0,L|149:248,1,65,4|4,0:0|0:0,0:0:0:0:
147,323,67751,2,0,L|219:327,1,65,4|4,0:0|0:0,0:0:0:0:
287,308,68179,2,0,P|306:283|310:239,1,65,6|6,0:0|0:0,0:0:0:0:
335,178,68608,1,6,0:0:0:0:
362,105,68822,1,6,0:0:0:0:
380,29,69036,6,0,P|419:52|429:141,1,130,6|8,0:0|0:0,0:0:0:0:
433,208,69679,2,0,L|430:291,1,65,0|2,0:0|0:0,0:0:0:0:
380,333,70108,2,0,L|315:332,1,65,0|10,0:0|0:0,0:0:0:0:
237,337,70536,1,0,0:0:0:0:
171,294,70751,2,0,P|149:229|171:170,1,130,2|10,0:0|0:0,0:0:0:0:
223,118,71394,2,0,P|280:93|343:125,1,130
366,192,72036,1,10,0:0:0:0:
265,312,72465,6,0,L|265:225,1,65
279,170,72894,1,10,0:0:0:0:
223,118,73108,2,0,P|159:149|152:230,1,130
176,273,73751,2,0,P|141:281|107:271,1,65,10|0,0:0|0:0,0:0:0:0:
62,214,74179,2,0,P|32:275|62:335,2,130,2|10|2,0:0|0:0|0:0,0:0:0:0:
143,80,75465,1,10,0:0:0:0:
275,150,75894,6,0,L|404:149,1,130,2|10,0:0|0:0,0:0:0:0:
472,187,76536,2,0,P|481:224|466:258,1,65,0|2,0:0|0:0,0:0:0:0:
442,321,76965,2,0,L|359:323,1,65,0|10,0:0|0:0,0:0:0:0:
298,324,77394,1,0,0:0:0:0:
220,318,77608,2,0,P|193:259|227:200,1,130,2|8,0:0|0:0,0:0:0:0:
275,149,78251,2,0,P|303:87|272:23,1,130
221,87,78894,2,0,L|156:86,1,65,10|0,0:0|0:0,0:0:0:0:
256,192,79322,12,4,81036,0:0:0:0:
145,67,82322,5,10,0:0:0:0:
145,67,82751,2,0,L|145:132,1,65,2|0,0:0|0:0,0:0:0:0:
187,197,83179,1,10,0:0:0:0:
263,212,83394,2,0,L|327:210,1,65,0|2,0:0|0:0,0:0:0:0:
372,146,83822,2,0,B|369:70,2,65,0|10|0,0:0|0:0|0:0,0:0:0:0:
405,216,84465,1,2,0:0:0:0:
405,293,84679,2,0,P|358:277|329:204,2,130
483,287,85751,1,10,0:0:0:0:
458,133,86179,6,0,L|453:51,1,65,2|0,0:0|0:0,0:0:0:0:
384,31,86608,1,10,0:0:0:0:
314,66,86822,2,0,L|224:66,1,65,0|2,0:0|0:0,0:0:0:0:
119,153,87465,2,0,L|118:229,1,65,10|0,0:0|0:0,0:0:0:0:
168,277,87894,2,0,B|211:271|211:271|258:283|258:283|307:278,1,130,2|10,0:0|0:0,0:0:0:0:
372,286,88536,2,0,P|340:213|267:209,1,130,0|0,0:0|0:0,0:0:0:0:
254,135,89179,2,0,P|247:105|256:72,1,65,10|0,0:0|0:0,0:0:0:0:
328,43,89608,6,0,L|407:43,1,65,2|0,0:0|0:0,0:0:0:0:
452,92,90036,2,0,B|464:187|464:187|454:237,1,130,10|2,0:0|0:0,0:0:0:0:
409,282,90679,2,0,L|410:350,2,65,0|10|0,0:0|0:0|0:0,0:0:0:0:
360,220,91322,1,2,0:0:0:0:
299,171,91536,2,0,B|226:170,1,65,0|10,0:0|0:0,0:0:0:0:
162,198,91965,1,0,0:0:0:0:
105,144,92179,2,0,L|106:59,1,65,2|0,0:0|0:0,0:0:0:0:
31,54,92608,2,0,L|30:134,1,65,10|0,0:0|0:0,0:0:0:0:
256,192,93036,12,4,94536,0:0:0:0:
