osu file format v14

[General]
AudioFilename: enej.mp3
AudioLeadIn: 0
PreviewTime: 47302
Countdown: 0
SampleSet: Normal
StackLeniency: 0.7
Mode: 0
LetterboxInBreaks: 1
WidescreenStoryboard: 1

[Editor]
Bookmarks: 32557,35735,48086,49852,67155,84449,90086,95381,98204,98911,101382,115155,117273,147617,149735
DistanceSpacing: 1
BeatDivisor: 4
GridSize: 4
TimelineZoom: 1.3

[Metadata]
Title:Skrzydlate Rece
TitleUnicode:Skrzydlate Rece
Artist:Enej
ArtistUnicode:Enej
Creator:HKrecords_
Version:Normal
Source:
Tags:polish radio
BeatmapID:726076
BeatmapSetID:325856

[Difficulty]
HPDrainRate:3
CircleSize:3
OverallDifficulty:3
ApproachRate:4
SliderMultiplier:0.999999999999999
SliderTickRate:1

[Events]
//Background and Video events
0,0,"enej.jpg",0,0
//Break Periods
2,70178,79953
2,149238,157600
//Storyboard Layer 0 (Background)
//Storyboard Layer 1 (Fail)
//Storyboard Layer 2 (Pass)
//Storyboard Layer 3 (Foreground)
//Storyboard Sound Samples

[TimingPoints]
97,352.941176470588,4,1,1,50,1,0
13146,-100,4,1,1,50,0,0
24096,-100,4,3,1,50,0,0
24802,-100,4,1,1,50,0,0
47391,-100,4,1,1,70,0,1
57979,-100,4,3,1,70,0,1
58685,-100,4,1,1,70,0,1
69273,-100,4,3,1,70,0,1
69979,-100,4,1,1,50,0,0
91861,-100,4,3,1,50,0,0
92567,-100,4,1,1,50,0,0
103861,-100,4,1,1,70,0,1
114449,-100,4,3,1,70,0,1
115155,-100,4,1,1,70,0,1
125038,-100,4,1,1,50,0,0
125744,-100,4,3,1,50,0,0
126449,-100,4,1,1,50,0,0
137038,-100,4,3,1,50,0,0
137744,-100,4,1,1,50,0,0
148332,-100,4,3,1,50,0,0
149038,-100,4,1,1,50,0,0
160332,-100,4,1,1,70,0,1
170920,-100,4,3,1,70,0,1
171626,-100,4,1,1,50,0,0

[Colours]
Combo1 : 255,128,0
Combo2 : 255,128,255
Combo3 : 108,182,255
Combo4 : 255,0,255
Combo5 : 0,128,255
Combo6 : 255,128,64

[HitObjects]
464,144,13155,85,0,0:0:0:0:
380,92,13508,6,0,P|344:80|184:112,1,200,4|0,0:0|0:0,0:0:0:0:
124,184,14567,1,0,0:0:0:0:
208,236,14920,2,0,B|256:224|256:224|312:228,1,99.9999999999999
296,328,15626,2,0,B|248:340|248:340|192:336,1,99.9999999999999
112,284,16332,6,0,P|84:236|152:116,1,200,4|0,0:0|0:0,0:0:0:0:
240,100,17391,1,0,0:0:0:0:
256,200,17744,2,0,P|272:232|328:256,1,99.9999999999999
400,188,18449,2,0,P|384:156|328:132,1,99.9999999999999
240,84,19155,70,0,P|184:60|64:124,1,200,4|0,0:0|0:0,0:0:0:0:
28,208,20214,1,0,0:0:0:0:
108,264,20567,2,0,P|136:272|216:256,1,99.9999999999999,0|0,0:0|0:0,0:0:0:0:
280,192,21273,1,0,0:0:0:0:
308,96,21626,1,0,0:0:0:0:
392,148,21979,6,0,P|436:192|380:308,1,200,4|0,0:0|0:0,0:0:0:0:
292,328,23038,1,0,0:0:0:0:
208,276,23391,70,0,P|172:260|96:268,1,99.9999999999999
152,356,24096,2,0,P|188:372|264:364,1,99.9999999999999
300,284,24802,6,0,L|296:176,1,99.9999999999999,4|0,0:0|0:0,0:0:0:0:
328,88,25508,1,0,0:0:0:0:
412,144,25861,1,0,0:0:0:0:
440,240,26214,2,0,P|428:288|376:320,1,99.9999999999999,0|0,0:0|0:0,0:0:0:0:
296,280,26920,2,0,B|244:260|196:288|196:288|144:312|96:280,1,200
60,196,27979,69,0,0:0:0:0:
160,188,28332,2,0,L|260:180,1,99.9999999999999,0|0,0:0|0:0,0:0:0:0:
292,84,29038,2,0,P|373:60|472:120,2,200
259,180,30802,5,0,0:0:0:0:
284,276,31155,2,0,P|320:296|392:288,1,99.9999999999999,0|0,0:0|0:0,0:0:0:0:
348,200,31861,1,0,0:0:0:0:
308,108,32214,1,0,0:0:0:0:
208,120,32567,2,0,L|96:128,1,99.9999999999999,0|0,0:0|0:0,0:0:0:0:
56,212,33273,69,0,0:0:0:0:
92,304,33626,1,0,0:0:0:0:
188,328,33979,2,0,L|288:324,1,99.9999999999999,0|0,0:0|0:0,0:0:0:0:
364,256,34685,1,0,0:0:0:0:
380,156,35038,1,0,0:0:0:0:
292,208,35391,2,0,P|245:239|189:239,1,99.9999999999999
123,179,36096,6,0,P|119:123|147:75,1,99.9999999999999,4|0,0:0|0:0,0:0:0:0:
52,52,36802,2,0,L|0:44,2,50,0|0|0,0:0|0:0|0:0,0:0:0:0:
138,85,37508,2,0,P|186:97|242:93,1,99.9999999999999
332,56,38214,2,0,P|356:64|376:80,2,50,0|0|0,0:0|0:0|0:0,0:0:0:0:
308,152,38920,70,0,L|312:260,1,99.9999999999999,0|0,0:0|0:0,0:0:0:0:
404,292,39626,2,0,L|400:184,1,99.9999999999999,0|0,0:0|0:0,0:0:0:0:
311,251,40332,2,0,P|304:296|320:352,1,99.9999999999999,0|0,0:0|0:0,0:0:0:0:
404,292,41038,1,0,0:0:0:0:
400,192,41391,1,0,0:0:0:0:
308,156,41744,6,0,L|208:152,1,99.9999999999999,0|0,0:0|0:0,0:0:0:0:
108,172,42449,2,0,P|84:200|96:280,1,99.9999999999999,0|0,0:0|0:0,0:0:0:0:
152,332,43155,2,0,P|176:304|164:224,1,99.9999999999999,0|0,0:0|0:0,0:0:0:0:
208,152,43861,2,0,L|308:156,2,99.9999999999999,0|0|0,0:0|0:0|0:0,0:0:0:0:
176,243,44920,69,4,0:0:0:0:
148,340,45273,1,4,0:0:0:0:
248,328,45626,1,4,0:0:0:0:
316,256,45979,1,4,0:0:0:0:
400,124,47391,38,0,B|328:108|328:108|272:124|272:124|192:108,1,200,4|0,0:0|0:0,0:0:0:0:
128,44,48449,1,0,0:0:0:0:
88,136,48802,2,0,L|76:256,1,99.9999999999999,0|0,0:0|0:0,0:0:0:0:
96,336,49508,1,0,0:0:0:0:
180,284,49861,1,0,0:0:0:0:
272,244,50214,70,0,L|376:236,2,99.9999999999999,4|0|0,0:0|0:0|0:0,0:0:0:0:
244,340,51273,1,0,0:0:0:0:
344,344,51626,2,0,L|448:336,1,99.9999999999999,0|0,0:0|0:0,0:0:0:0:
476,240,52332,2,0,L|476:136,1,99.9999999999999
388,88,53038,6,0,B|312:80|312:80|260:108|260:108|180:100,1,200,4|0,0:0|0:0,0:0:0:0:
108,144,54096,1,0,0:0:0:0:
96,244,54449,1,0,0:0:0:0:
180,300,54802,1,0,0:0:0:0:
268,252,55155,2,0,P|320:236|376:240,1,99.9999999999999,0|0,0:0|0:0,0:0:0:0:
428,316,55861,70,0,P|336:368|244:348,2,200
460,220,57626,1,0,0:0:0:0:
404,136,57979,2,0,L|296:116,1,99.9999999999999
204,112,58685,6,0,P|144:104|72:228,1,200,4|0,0:0|0:0,0:0:0:0:
108,296,59744,1,0,0:0:0:0:
172,220,60096,2,0,P|212:204|280:236,1,99.9999999999999,0|0,0:0|0:0,0:0:0:0:
368,232,60802,1,0,0:0:0:0:
316,320,61155,1,0,0:0:0:0:
216,320,61508,70,0,L|112:312,2,99.9999999999999,4|0|0,0:0|0:0|0:0,0:0:0:0:
316,320,62567,1,0,0:0:0:0:
412,296,62920,2,0,P|432:264|428:196,1,99.9999999999999,0|0,0:0|0:0,0:0:0:0:
372,124,63626,2,0,L|260:120,1,99.9999999999999
192,56,64332,6,0,P|140:40|24:132,1,200,4|0,0:0|0:0,0:0:0:0:
28,216,65391,1,0,0:0:0:0:
60,312,65744,1,0,0:0:0:0:
144,256,66096,1,0,0:0:0:0:
240,252,66449,2,0,P|276:252|336:272,1,99.9999999999999,0|0,0:0|0:0,0:0:0:0:
427,230,67155,70,0,B|443:182|439:158|435:126|435:126|427:90|427:66|443:18,2,200
336,272,68920,1,0,0:0:0:0:
328,172,69273,2,0,L|324:64,2,99.9999999999999,0|0|4,0:0|0:0|0:0,0:0:0:0:
192,120,81273,70,0,P|152:108|84:128,1,99.9999999999999,4|0,0:0|0:0,0:0:0:0:
44,204,81979,1,0,0:0:0:0:
116,276,82332,1,0,0:0:0:0:
212,300,82685,2,0,L|316:292,1,99.9999999999999
404,256,83391,1,0,0:0:0:0:
436,160,83744,1,0,0:0:0:0:
388,72,84096,70,0,P|362:52|294:69,1,99.9999999999999
252,148,84802,2,0,P|220:144|184:84,1,99.9999999999999
84,108,85508,2,0,P|52:152|80:288,2,200
176,68,87273,5,0,0:0:0:0:
276,76,87626,2,0,L|380:88,1,99.9999999999999
436,168,88332,1,0,0:0:0:0:
428,268,88685,1,0,0:0:0:0:
344,320,89038,2,0,L|240:308,1,99.9999999999999
176,236,89744,69,0,0:0:0:0:
104,304,90096,1,0,0:0:0:0:
36,228,90449,2,0,P|24:192|56:128,1,99.9999999999999
124,76,91155,1,0,0:0:0:0:
224,76,91508,1,0,0:0:0:0:
280,156,91861,2,0,L|264:260,1,99.9999999999999
336,324,92567,6,0,P|388:324|432:296,1,99.9999999999999,4|0,0:0|0:0,0:0:0:0:
444,200,93273,2,0,P|418:154|371:130,1,99.9999999999999
280,124,93979,1,0,0:0:0:0:
284,220,94332,1,0,0:0:0:0:
184,240,94685,2,0,P|168:188|188:140,1,99.9999999999999
280,124,95391,38,0,B|396:120,1,99.9999999999999
464,164,96096,2,0,P|472:216|440:256,1,99.9999999999999,0|0,0:0|0:0,0:0:0:0:
348,272,96802,2,0,P|304:250|288:204,1,99.9999999999999,0|0,0:0|0:0,0:0:0:0:
188,220,97508,2,0,P|191:254|164:312,2,99.9999999999999,0|0|4,0:0|0:0|0:0,0:0:0:0:
135,137,98567,21,0,0:0:0:0:
60,204,98920,2,0,P|48:256|80:312,1,99.9999999999999,0|0,0:0|0:0,0:0:0:0:
167,311,99626,2,0,L|275:307,1,99.9999999999999,0|0,0:0|0:0,0:0:0:0:
248,208,100332,2,0,L|140:212,2,99.9999999999999,0|0|0,0:0|0:0|0:0,0:0:0:0:
328,268,101391,5,4,0:0:0:0:
356,172,101744,1,4,0:0:0:0:
432,108,102096,1,4,0:0:0:0:
452,208,102449,1,4,0:0:0:0:
344,84,103861,6,0,P|260:48|152:84,1,200,4|0,0:0|0:0,0:0:0:0:
108,164,104920,1,0,0:0:0:0:
160,248,105273,2,0,P|212:238|264:216,1,99.9999999999999
356,216,105979,1,0,0:0:0:0:
444,264,106332,1,0,0:0:0:0:
360,316,106685,6,0,L|256:324,2,99.9999999999999,4|0|0,0:0|0:0|0:0,0:0:0:0:
444,264,107744,1,0,0:0:0:0:
472,168,108096,2,0,P|464:120|428:80,1,99.9999999999999,0|0,0:0|0:0,0:0:0:0:
332,88,108802,2,0,P|300:104|232:88,1,99.9999999999999
152,48,109508,70,0,P|108:72|48:208,1,200,4|0,0:0|0:0,0:0:0:0:
108,284,110567,2,0,P|164:276|196:244,1,99.9999999999999,0|0,0:0|0:0,0:0:0:0:
272,184,111273,1,0,0:0:0:0:
284,288,111626,2,0,P|308:308|388:300,1,99.9999999999999,0|0,0:0|0:0,0:0:0:0:
440,236,112332,2,0,P|456:208|400:56,2,200
340,256,114096,1,0,0:0:0:0:
272,184,114449,2,0,L|264:84,1,99.9999999999999
172,44,115155,6,0,P|120:48|64:188,1,200,4|0,0:0|0:0,0:0:0:0:
92,260,116214,1,0,0:0:0:0:
168,324,116567,2,0,L|272:316,1,99.9999999999999
364,288,117273,1,0,0:0:0:0:
428,212,117626,1,0,0:0:0:0:
360,140,117979,70,0,P|332:128|248:132,2,99.9999999999999,4|0|0,0:0|0:0|0:0,0:0:0:0:
428,212,119038,1,0,0:0:0:0:
352,276,119391,2,0,P|324:288|240:284,1,99.9999999999999
172,344,120096,2,0,P|147:325|109:251,1,99.9999999999999
20,232,120802,6,0,P|32:176|152:88,1,200,4|0,0:0|0:0,0:0:0:0:
240,84,121861,1,0,0:0:0:0:
248,184,122214,2,0,L|256:288,1,99.9999999999999
332,348,122920,1,0,0:0:0:0:
432,332,123273,1,0,0:0:0:0:
488,248,123626,2,0,P|496:168|424:60,2,200
432,332,125391,37,0,0:0:0:0:
340,296,125744,2,0,P|300:264|280:212,1,99.9999999999999
248,124,126449,6,0,P|216:80|48:188,1,300,4|0,0:0|0:0,0:0:0:0:
68,268,127861,2,0,P|107:297|156:304,1,99.9999999999999
256,328,128567,2,0,P|305:320|344:291,1,99.9999999999999
420,224,129273,70,0,B|404:124|404:124|316:56,1,200,4|0,0:0|0:0,0:0:0:0:
228,48,130332,1,0,0:0:0:0:
168,128,130685,2,0,L|148:244,1,99.9999999999999
200,316,131391,2,0,P|240:324|304:312,1,99.9999999999999
384,260,132096,6,0,P|392:220|380:156,1,99.9999999999999,4|0,0:0|0:0,0:0:0:0:
324,84,132802,2,0,L|224:64,1,99.9999999999999
208,164,133508,2,0,L|109:183,1,99.9999999999999
76,280,134214,2,0,P|96:332|144:356,1,99.9999999999999
232,348,134920,38,0,L|332:336,1,99.9999999999999,4|0,0:0|0:0,0:0:0:0:
420,288,135626,2,0,P|436:240|416:176,1,99.9999999999999,4|0,0:0|0:0,0:0:0:0:
364,116,136332,2,0,L|252:104,1,99.9999999999999,4|0,0:0|0:0,0:0:0:0:
184,48,137038,2,0,P|160:52|104:108,1,99.9999999999999
72,196,137744,22,0,B|64:268|124:308|124:308|204:320,1,200,4|0,0:0|0:0,0:0:0:0:
280,272,138802,1,0,0:0:0:0:
360,336,139155,2,0,P|396:344|464:324,1,99.9999999999999
500,236,139861,2,0,L|492:132,1,99.9999999999999
428,60,140567,6,0,B|376:36|332:56|332:56|276:80|228:44,1,200,4|0,0:0|0:0,0:0:0:0:
136,56,141626,1,0,0:0:0:0:
76,136,141979,2,0,L|88:240,1,99.9999999999999
156,308,142685,2,0,P|200:316|260:296,1,99.9999999999999
344,344,143391,70,0,P|392:320|424:168,1,200,4|0,0:0|0:0,0:0:0:0:
384,100,144449,1,0,0:0:0:0:
296,144,144802,2,0,P|268:148|200:120,1,99.9999999999999
104,148,145508,2,0,P|81:191|82:241,1,99.9999999999999
144,320,146214,1,0,0:0:0:0:
240,352,146567,2,0,L|440:328,1,200
476,236,147626,5,0,0:0:0:0:
444,140,147979,1,0,0:0:0:0:
368,76,148332,2,0,P|316:56|268:68,1,99.9999999999999
216,148,149038,1,4,0:0:0:0:
288,176,158920,70,0,P|332:196|284:88,1,300
204,112,160332,38,0,P|144:104|72:228,1,200,4|0,0:0|0:0,0:0:0:0:
108,296,161391,1,0,0:0:0:0:
172,220,161743,2,0,P|212:204|280:236,1,99.9999999999999,0|0,0:0|0:0,0:0:0:0:
368,232,162449,1,0,0:0:0:0:
316,320,162802,1,0,0:0:0:0:
216,320,163155,70,0,L|112:312,2,99.9999999999999,4|0|0,0:0|0:0|0:0,0:0:0:0:
316,320,164214,1,0,0:0:0:0:
412,296,164567,2,0,P|432:264|428:196,1,99.9999999999999,0|0,0:0|0:0,0:0:0:0:
372,124,165273,2,0,L|260:120,1,99.9999999999999
192,56,165979,6,0,P|140:40|24:132,1,200,4|0,0:0|0:0,0:0:0:0:
28,216,167038,1,0,0:0:0:0:
60,312,167391,1,0,0:0:0:0:
144,256,167743,1,0,0:0:0:0:
240,252,168096,2,0,P|276:252|336:272,1,99.9999999999999,0|0,0:0|0:0,0:0:0:0:
427,230,168802,70,0,B|443:182|439:158|435:126|435:126|427:90|427:66|443:18,2,200
336,272,170567,1,0,0:0:0:0:
328,172,170920,2,0,L|324:64,2,99.9999999999999,0|0|4,0:0|0:0|0:0,0:0:0:0:
