osu file format v14

[General]
AudioFilename: audio.mp3
AudioLeadIn: 0
PreviewTime: 45323
Countdown: 0
SampleSet: Soft
StackLeniency: 0.7
Mode: 0
LetterboxInBreaks: 0
WidescreenStoryboard: 1

[Editor]
Bookmarks: 147,11441,22735,34029,45323,56617,67911,79205,90499,101794,106029,113088,124382,135676,146970,158264,169558,180852
DistanceSpacing: 1.1
BeatDivisor: 4
GridSize: 32
TimelineZoom: 1

[Metadata]
Title:Skrzydlate Rece
TitleUnicode:Skrzydlate Ręce
Artist:Enej
ArtistUnicode:Enej
Creator:Embo
Version:Trudny
Source:
Tags:polish polski pl rock ska folkhorod winged arms paradise
BeatmapID:4014582
BeatmapSetID:1938268

[Difficulty]
HPDrainRate:5
CircleSize:3.7
OverallDifficulty:5
ApproachRate:7.3
SliderMultiplier:1.6
SliderTickRate:1

[Events]
//Background and Video events
0,0,"thumb-1920-1066513.png",0,0
//Break Periods
2,147170,155998
//Storyboard Layer 0 (Background)
//Storyboard Layer 1 (Fail)
//Storyboard Layer 2 (Pass)
//Storyboard Layer 3 (Foreground)
//Storyboard Layer 4 (Overlay)
//Storyboard Sound Samples

[TimingPoints]
147,352.941176470588,4,2,1,50,1,0
147,-142.857142857143,4,2,1,50,0,0
11441,-111.111111111111,4,2,1,60,0,0
22735,-125,4,2,1,55,0,0
45323,-76.9230769230769,4,2,1,70,0,1
45676,-100,4,2,1,70,0,1
50970,-76.9230769230769,4,2,1,70,0,1
51323,-100,4,2,1,70,0,1
55205,-100,4,2,1,60,0,0
56617,-76.9230769230769,4,2,1,70,0,1
56970,-100,4,2,1,70,0,1
62264,-76.9230769230769,4,2,1,70,0,1
62617,-100,4,2,1,70,0,1
67911,-111.111111111111,4,2,1,60,0,0
79205,-125,4,2,1,55,0,0
101794,-76.9230769230769,4,2,1,70,0,1
102146,-100,4,2,1,70,0,1
107441,-76.9230769230769,4,2,1,70,0,1
107794,-100,4,2,1,70,0,1
111676,-100,4,2,1,60,0,0
113088,-76.9230769230769,4,2,1,70,0,1
113441,-100,4,2,1,70,0,1
118735,-76.9230769230769,4,2,1,70,0,1
119088,-100,4,2,1,70,0,1
124382,-111.111111111111,4,2,1,60,0,0
133558,-111.111111111111,4,2,1,65,0,0
134264,-111.111111111111,4,2,1,70,0,0
134970,-111.111111111111,4,2,1,75,0,0
135676,-111.111111111111,4,2,1,60,0,0
146970,-111.111111111111,4,2,1,65,0,0
156852,-100,4,2,1,50,0,0
157205,-100,4,2,1,60,0,0
157558,-100,4,2,1,70,0,0
157911,-100,4,2,1,80,0,0
158264,-71.4285714285714,4,2,1,75,0,1
158617,-90.9090909090909,4,2,1,75,0,1
163911,-71.4285714285714,4,2,1,75,0,1
164264,-90.9090909090909,4,2,1,75,0,1
169558,-100,4,2,1,70,0,0
180852,-100,4,2,1,65,0,0

[Colours]
Combo1 : 233,121,10
Combo2 : 124,157,197
Combo3 : 206,162,96
Combo4 : 85,73,226

[HitObjects]
47,372,147,6,0,L|36:307,1,55.9999982910157,2|0,0:0|0:0,0:0:0:0:
80,291,499,2,0,L|91:226,1,55.9999982910157,2|0,0:0|0:0,0:0:0:0:
69,189,852,2,0,P|99:216|183:231,1,111.999996582031,2|0,0:0|0:0,0:0:0:0:
213,211,1382,1,0,0:0:0:0:
220,161,1558,1,2,0:0:0:0:
177,133,1735,2,0,P|158:80|166:25,2,111.999996582031
313,29,2970,6,0,L|388:14,1,55.9999982910157,2|0,0:0|0:0,0:0:0:0:
412,42,3323,2,0,L|427:117,1,55.9999982910157,2|0,0:0|0:0,0:0:0:0:
459,131,3676,2,0,P|418:142|354:196,1,111.999996582031,2|0,0:0|0:0,0:0:0:0:
353,233,4205,1,2,0:0:0:0:
382,274,4382,2,0,P|436:294|482:203,2,167.999994873047,2|0|0,0:0|0:0|0:0,0:0:0:0:
290,201,5794,6,0,L|282:262,1,55.9999982910157,2|0,0:0|0:0,0:0:0:0:
244,289,6146,2,0,L|252:350,1,55.9999982910157,2|0,0:0|0:0,0:0:0:0:
296,367,6499,2,0,P|335:382|405:339,1,111.999996582031,2|0,0:0|0:0,0:0:0:0:
419,309,7029,1,0,0:0:0:0:
406,260,7205,1,2,0:0:0:0:
360,237,7382,2,0,P|348:197|339:119,2,111.999996582031
478,91,8617,6,0,L|416:77,1,55.9999982910157,2|0,0:0|0:0,0:0:0:0:
396,36,8970,2,0,L|334:50,1,55.9999982910157,2|0,0:0|0:0,0:0:0:0:
314,91,9323,2,0,P|272:73|230:18,1,111.999996582031,2|0,0:0|0:0,0:0:0:0:
184,3,9852,1,2,0:0:0:0:
150,40,10029,2,0,L|142:108,1,55.9999982910157,2|0,0:0|0:0,0:0:0:0:
186,122,10382,2,0,L|194:190,1,55.9999982910157,2|0,0:0|0:0,0:0:0:0:
153,210,10735,1,2,0:0:0:0:
157,214,11441,5,6,1:1:0:0:
157,214,11617,1,0,0:0:0:0:
106,276,11794,1,10,2:2:0:0:
106,276,11970,1,0,0:0:0:0:
38,235,12146,2,0,P|20:199|9:82,1,143.999995605469,2|8,1:1|2:2,0:0:0:0:
44,26,12676,1,0,0:0:0:0:
125,83,12852,5,2,1:1:0:0:
125,83,13029,2,0,B|157:110|157:110|262:81,1,143.999995605469,2|2,0:0|0:0,0:0:0:0:
391,3,13735,1,2,0:0:0:0:
391,3,13823,1,0,0:0:0:0:
391,3,13911,2,0,L|464:18,1,71.9999978027344,8|2,2:2|0:0,0:0:0:0:
507,99,14264,5,2,1:1:0:0:
507,99,14441,1,0,0:0:0:0:
456,159,14617,1,10,2:2:0:0:
456,159,14794,1,0,0:0:0:0:
379,123,14970,2,0,P|344:157|329:253,1,143.999995605469,2|8,1:1|2:2,0:0:0:0:
391,297,15499,1,2,0:0:0:0:
473,242,15676,6,0,B|510:279|510:279|486:377,1,143.999995605469,2|8,1:1|2:2,0:0:0:0:
329,356,16382,2,0,L|254:373,1,71.9999978027344,0|2,1:1|0:0,0:0:0:0:
258,371,16646,1,0,0:0:0:0:
258,371,16735,1,8,2:2:0:0:
190,335,16911,1,2,1:2:0:0:
261,248,17088,6,0,P|272:211|273:174,1,71.9999978027344,2|0,1:1|0:0,0:0:0:0:
217,124,17441,1,10,2:2:0:0:
217,124,17617,1,0,0:0:0:0:
285,80,17794,2,0,P|244:44|156:59,1,143.999995605469,2|8,1:1|2:2,0:0:0:0:
113,120,18323,1,0,0:0:0:0:
22,60,18499,5,2,1:1:0:0:
22,60,18676,2,0,P|58:113|77:204,1,143.999995605469,2|2,0:0|0:0,0:0:0:0:
70,357,19382,1,2,0:0:0:0:
70,357,19470,1,0,0:0:0:0:
70,357,19558,2,0,L|-2:373,1,71.9999978027344,8|2,2:2|0:0,0:0:0:0:
23,266,19911,5,2,1:1:0:0:
23,266,20088,1,0,0:0:0:0:
105,278,20264,1,10,2:2:0:0:
105,278,20441,1,0,0:0:0:0:
126,202,20617,2,0,P|156:156|247:121,1,143.999995605469,2|8,1:1|2:2,0:0:0:0:
293,175,21146,1,2,0:0:0:0:
242,271,21323,6,0,L|312:286,1,71.9999978027344,2|2,1:1|0:0,0:0:0:0:
382,249,21676,2,0,L|397:178,1,71.9999978027344,10|2,2:2|0:0,0:0:0:0:
349,115,22029,1,2,1:1:0:0:
379,40,22205,1,10,2:2:0:0:
457,29,22382,1,10,3:0:0:0:
507,92,22558,1,6,3:0:0:0:
477,166,22735,5,4,1:1:0:0:
512,292,23088,1,10,2:2:0:0:
512,292,23264,1,2,0:0:0:0:
452,340,23441,2,0,P|407:312|314:293,1,128,2|8,1:2|2:2,0:2:0:0:
275,345,23970,1,2,0:2:0:0:
219,288,24146,2,0,L|207:223,1,64,2|2,1:2|0:2,0:0:0:0:
250,158,24499,2,0,L|315:146,1,64,10|2,2:2|0:2,0:0:0:0:
362,209,24852,2,0,P|389:176|355:82,2,128,2|8|0,1:2|2:2|1:2,0:2:0:0:
288,237,25735,5,2,0:2:0:0:
244,172,25911,2,0,L|179:160,1,64,10|2,2:2|0:2,0:0:0:0:
131,100,26264,2,0,P|87:114|55:160,1,96,2|2,1:2|0:2,0:2:0:0:
64,195,26617,1,8,2:2:0:0:
136,235,26794,1,2,0:2:0:0:
136,235,26970,2,0,L|163:375,1,128,2|8,1:2|2:2,0:2:0:0:
85,384,27499,1,2,0:3:0:0:
25,333,27676,2,0,P|39:298|64:277,1,64,2|2,1:3|0:3,0:0:0:0:
145,243,28029,1,8,2:2:0:0:
145,243,28117,1,2,0:3:0:0:
145,243,28205,1,2,0:3:0:0:
32,137,28558,5,2,0:2:0:0:
84,79,28735,2,0,L|148:87,1,64,10|2,2:2|0:2,0:0:0:0:
204,143,29088,2,0,P|239:111|266:22,1,128,2|8,1:2|2:2,0:2:0:0:
195,0,29617,1,2,0:2:0:0:
273,27,29794,2,0,L|337:19,1,64,2|2,1:2|0:2,0:0:0:0:
402,66,30146,2,0,L|410:130,1,64,10|2,2:2|0:2,0:0:0:0:
350,180,30499,2,0,P|396:214|475:186,2,128,2|8|0,1:2|2:2|1:2,0:2:0:0:
326,103,31382,5,2,0:2:0:0:
249,130,31558,2,0,L|237:197,1,64,10|2,2:2|0:2,0:0:0:0:
296,244,31911,2,0,L|308:311,1,64,2|2,1:2|0:2,0:0:0:0:
256,369,32264,1,10,2:2:0:0:
256,369,32441,1,2,0:2:0:0:
181,339,32617,2,0,P|152:312|137:215,1,128,2|8,1:2|2:2,0:2:0:0:
181,168,33146,2,0,P|206:145|212:106,1,64,2|2,0:2|1:2,0:0:0:0:
137,101,33499,1,8,2:2:0:0:
63,128,33676,1,8,3:3:0:0:
63,128,33764,1,4,3:3:0:0:
63,128,33852,1,4,3:3:0:0:
59,204,34029,5,4,1:1:0:0:
0,333,34382,1,10,2:2:0:0:
0,333,34558,1,2,0:2:0:0:
71,376,34735,2,0,P|92:341|171:287,1,128,2|8,1:2|2:2,0:2:0:0:
194,218,35264,1,2,0:2:0:0:
259,261,35441,2,0,L|274:335,1,64,2|2,1:2|0:2,0:0:0:0:
330,377,35794,1,10,2:2:0:0:
366,308,35970,2,0,P|398:300|428:278,1,64,2|0,0:2|1:2,0:2:0:0:
437,204,36323,1,2,0:2:0:0:
437,204,36499,2,0,P|484:227|508:302,1,128,8|0,2:2|1:2,0:0:0:0:
459,357,37029,5,2,0:2:0:0:
386,329,37205,2,0,L|370:261,1,64,10|2,2:2|0:2,0:0:0:0:
310,215,37558,2,0,L|326:147,1,64,2|2,1:2|0:2,0:0:0:0:
381,99,37911,1,10,2:2:0:0:
381,99,38088,1,2,0:2:0:0:
445,148,38264,2,0,B|472:116|472:116|439:23,1,128,2|8,1:2|2:2,0:2:0:0:
371,5,38794,1,2,0:3:0:0:
311,53,38970,2,0,P|275:42|247:23,1,64,2|2,1:3|0:3,0:0:0:0:
214,107,39323,1,8,2:2:0:0:
214,107,39411,1,2,0:3:0:0:
214,107,39499,1,2,0:3:0:0:
309,227,39852,5,2,0:2:0:0:
277,297,40029,2,0,L|204:315,1,64,10|2,2:2|0:2,0:0:0:0:
145,351,40382,2,0,P|106:294|118:233,1,128,2|8,1:2|2:2,0:2:0:0:
176,186,40911,1,2,0:2:0:0:
114,140,41088,2,0,P|79:127|42:124,1,64,2|2,1:2|0:2,0:0:0:0:
20,54,41441,2,0,P|48:30|69:0,1,64,10|2,2:2|0:2,0:0:0:0:
141,14,41794,2,0,P|168:58|237:110,2,128,2|8|0,1:2|2:2|1:2,0:2:0:0:
64,8,42676,5,2,0:2:0:0:
25,77,42852,2,0,L|39:146,1,64,10|2,2:2|0:2,0:0:0:0:
109,174,43205,2,0,L|95:243,1,64,2|2,1:2|0:2,0:0:0:0:
30,278,43558,1,10,2:2:0:0:
58,352,43735,2,0,P|85:368|116:374,1,64,2|0,0:2|1:2,0:2:0:0:
166,307,44088,6,0,P|193:290|224:284,2,64,10|0|0,3:2|3:0|1:1,0:0:0:0:
229,381,44617,1,8,3:2:0:0:
229,381,44794,1,8,3:0:0:0:
303,334,44970,1,8,3:0:0:0:
303,334,45146,1,4,3:0:0:0:
274,223,45323,6,0,B|248:163|248:163|273:92|273:92|247:23,2,207.999990478516,6|10|0,1:1|2:1|1:1,0:0:0:0:
213,288,46205,1,2,0:0:0:0:
132,250,46382,1,10,2:2:0:0:
143,161,46558,1,2,1:2:0:0:
233,140,46735,6,0,P|272:133|316:107,1,80,2|0,1:2|0:0,0:0:0:0:
359,188,47088,2,0,P|398:195|442:221,1,80,10|0,2:2|0:0,0:0:0:0:
484,136,47441,2,0,L|498:50,1,80,2|0,1:2|3:0,0:0:0:0:
496,57,47705,1,0,3:0:0:0:
496,57,47794,1,10,3:2:0:0:
417,5,47970,1,0,3:0:0:0:
417,5,48058,1,0,3:0:0:0:
417,5,48146,6,0,P|371:52|256:82,1,160,2|8,1:2|2:2,0:0:0:0:
206,30,48676,1,0,0:0:0:0:
206,30,48852,2,0,L|122:11,1,80,0|0,1:1|0:0,0:0:0:0:
58,80,49205,2,0,P|84:116|99:161,1,80,10|0,2:2|3:0,0:0:0:0:
184,170,49558,6,0,P|189:216|144:327,1,160,2|8,1:2|2:2,0:0:0:0:
67,358,50088,1,2,0:0:0:0:
2,294,50264,1,2,1:2:0:0:
50,217,50441,1,2,0:0:0:0:
136,238,50617,2,0,P|177:249|225:253,1,80,10|8,3:2|3:3,0:0:0:0:
306,151,50970,6,0,B|290:205|290:205|348:270|348:270|322:355,2,207.999990478516,6|10|0,1:1|2:1|1:1,0:0:0:0:
463,40,52029,1,10,2:2:0:0:
463,40,52205,1,2,0:0:0:0:
381,0,52382,5,2,1:2:0:0:
381,0,52558,1,2,0:0:0:0:
328,68,52735,1,10,2:2:0:0:
328,68,52911,1,2,0:0:0:0:
385,136,53088,2,0,P|425:150|463:148,1,80,2|0,1:2|0:0,0:0:0:0:
511,227,53441,1,10,2:2:0:0:
511,227,53617,1,2,3:2:0:0:
464,301,53794,6,0,P|424:311|311:376,1,160,0|8,1:1|2:2,0:0:0:0:
241,322,54323,1,2,0:0:0:0:
241,322,54499,2,0,L|255:218,1,80,0|0,1:1|0:0,0:0:0:0:
319,177,54852,2,0,L|305:73,1,80,8|0,2:2|1:1,0:0:0:0:
211,26,55205,5,0,1:1:0:0:
300,16,55382,2,0,B|204:41|262:86|174:106,1,160,10|0,3:2|1:1,0:0:0:0:
92,64,55911,1,8,3:2:0:0:
92,64,56088,1,8,3:0:0:0:
45,141,56264,1,8,3:0:0:0:
130,192,56441,1,4,3:0:0:0:
130,192,56529,1,4,3:0:0:0:
130,192,56617,6,0,B|104:259|104:259|160:303|160:303|156:378,2,207.999990478516,6|10|0,1:1|2:1|1:1,0:0:0:0:
220,201,57499,1,2,0:0:0:0:
198,111,57676,1,10,2:2:0:0:
289,93,57852,1,2,1:2:0:0:
265,3,58029,6,0,P|302:1|350:26,1,80,2|0,1:2|0:0,0:0:0:0:
427,51,58382,2,0,P|440:85|431:138,1,80,10|0,2:2|0:0,0:0:0:0:
387,203,58735,2,0,L|297:184,1,80,2|0,1:2|3:0,0:0:0:0:
308,186,58999,1,0,3:0:0:0:
308,186,59088,1,10,3:2:0:0:
259,271,59264,1,0,3:0:0:0:
259,271,59352,1,0,3:0:0:0:
259,271,59441,6,0,B|177:289|177:289|153:212,1,160,2|8,1:2|2:2,0:0:0:0:
201,137,59970,1,0,0:0:0:0:
201,137,60146,2,0,L|215:56,1,80,0|0,1:1|0:0,0:0:0:0:
149,0,60499,2,0,P|106:11|74:48,1,80,10|0,2:2|3:0,0:0:0:0:
0,78,60852,6,0,P|-4:133|41:243,1,160,2|8,1:2|2:2,0:0:0:0:
117,256,61382,1,2,0:0:0:0:
171,180,61558,1,2,1:2:0:0:
252,227,61735,1,2,0:0:0:0:
239,318,61911,2,0,P|202:328|165:345,1,80,10|8,3:2|3:3,0:0:0:0:
40,377,62264,6,0,B|4:295|4:295|41:255|41:255|11:189,2,207.999990478516,6|10|0,1:1|2:1|1:1,0:0:0:0:
152,222,63323,1,10,2:2:0:0:
152,222,63499,1,2,0:0:0:0:
112,140,63676,5,2,1:2:0:0:
112,140,63852,1,2,0:0:0:0:
201,149,64029,1,10,2:2:0:0:
201,149,64205,1,2,0:0:0:0:
240,231,64382,2,0,P|228:271|224:327,1,80,2|0,1:2|0:0,0:0:0:0:
291,370,64735,1,10,2:2:0:0:
291,370,64911,1,2,3:2:0:0:
330,290,65088,6,0,P|380:230|461:225,1,160,0|8,1:1|2:2,0:0:0:0:
512,305,65617,1,2,0:0:0:0:
512,305,65794,2,0,L|496:392,2,80,0|0|8,1:1|0:0|2:2,0:0:0:0:
468,219,66323,1,0,1:1:0:0:
395,281,66499,6,0,L|403:324,2,40,2|2|10,1:2|0:0|2:2,0:0:0:0:
304,248,66852,2,0,L|270:276,2,40,2|2|2,0:0|0:0|1:2,0:0:0:0:
287,152,67205,2,0,L|245:137,2,40,10|2|10,2:2|0:0|3:0,0:0:0:0:
361,89,67558,1,8,3:0:0:0:
452,121,67735,1,4,3:0:0:0:
506,33,67911,6,0,P|466:19|442:-1,1,71.9999978027344,6|0,1:1|0:0,0:0:0:0:
366,2,68264,1,10,2:2:0:0:
366,2,68441,1,0,0:0:0:0:
340,76,68617,2,0,P|291:103|214:182,1,143.999995605469,2|8,1:1|2:2,0:0:0:0:
238,241,69146,1,0,0:0:0:0:
331,202,69323,5,2,1:1:0:0:
331,202,69499,2,0,B|363:240|363:240|341:342,1,143.999995605469,2|2,0:0|0:0,0:0:0:0:
190,376,70205,1,2,0:0:0:0:
190,376,70294,1,0,0:0:0:0:
190,376,70382,2,0,L|176:295,1,71.9999978027344,8|2,2:2|0:0,0:0:0:0:
131,242,70735,5,2,1:1:0:0:
131,242,70911,1,0,0:0:0:0:
70,291,71088,1,10,2:2:0:0:
70,291,71264,1,0,0:0:0:0:
5,242,71441,2,0,P|8:173|51:111,1,143.999995605469,2|8,1:1|2:2,0:0:0:0:
124,121,71970,1,2,0:0:0:0:
215,50,72146,6,0,B|196:16|196:16|80:-3,1,143.999995605469,2|8,1:1|2:2,0:0:0:0:
9,134,72852,2,0,L|27:207,1,71.9999978027344,0|2,1:1|0:0,0:0:0:0:
2,279,73205,1,8,2:2:0:0:
66,326,73382,1,2,1:2:0:0:
125,247,73558,6,0,P|156:226|193:211,1,71.9999978027344,2|0,1:1|0:0,0:0:0:0:
214,138,73911,1,10,2:2:0:0:
214,138,74088,1,0,0:0:0:0:
291,155,74264,2,0,P|298:212|331:304,1,143.999995605469,2|8,1:1|2:2,0:0:0:0:
394,336,74794,1,0,0:0:0:0:
463,255,74970,5,2,1:1:0:0:
463,255,75146,2,0,L|480:104,1,143.999995605469,2|2,0:0|0:0,0:0:0:0:
346,29,75852,1,2,0:0:0:0:
346,29,75941,1,0,0:0:0:0:
346,29,76029,2,0,L|335:106,1,71.9999978027344,8|2,2:2|0:0,0:0:0:0:
385,198,76382,5,2,1:1:0:0:
385,198,76558,1,0,0:0:0:0:
320,244,76735,1,10,2:2:0:0:
320,244,76911,1,0,0:0:0:0:
255,192,77088,2,0,P|248:146|202:48,1,143.999995605469,2|8,1:1|2:2,0:0:0:0:
138,25,77617,1,2,0:0:0:0:
70,98,77794,6,0,L|86:177,1,71.9999978027344,2|2,1:1|0:0,0:0:0:0:
165,164,78146,2,0,L|150:235,1,71.9999978027344,10|2,2:2|0:0,0:0:0:0:
198,298,78499,1,2,1:1:0:0:
168,373,78675,1,10,2:2:0:0:
90,384,78852,1,10,3:0:0:0:
40,321,79028,1,6,3:0:0:0:
69,246,79205,5,4,1:1:0:0:
16,134,79558,1,10,2:2:0:0:
16,134,79735,1,2,0:2:0:0:
64,70,79911,2,0,P|114:75|157:146,1,128,2|8,1:2|2:2,0:2:0:0:
144,212,80441,1,2,0:2:0:0:
211,248,80617,2,0,L|286:228,1,64,2|2,1:2|0:2,0:0:0:0:
318,164,80970,1,10,2:2:0:0:
259,111,81146,2,0,L|238:42,1,64,2|0,0:2|1:2,0:2:0:0:
305,0,81499,1,2,0:2:0:0:
305,0,81676,2,0,P|346:30|426:43,1,128,8|0,2:2|1:2,0:0:0:0:
489,7,82205,5,2,0:2:0:0:
510,82,82382,2,0,L|488:145,1,64,10|2,2:2|0:2,0:0:0:0:
486,227,82735,2,0,L|390:188,1,96,2|2,1:2|0:2,0:2:0:0:
383,160,83088,1,8,2:2:0:0:
306,138,83264,1,2,0:2:0:0:
306,138,83441,2,0,P|270:178|282:257,1,128,2|8,1:2|2:2,0:2:0:0:
323,311,83970,1,2,0:3:0:0:
389,267,84146,2,0,P|419:283|450:288,1,64,2|2,1:3|0:3,0:0:0:0:
502,356,84499,1,8,2:2:0:0:
502,356,84588,1,2,0:3:0:0:
502,356,84676,1,2,0:3:0:0:
350,383,85029,5,2,0:2:0:0:
326,312,85205,1,10,2:2:0:0:
326,312,85382,2,0,L|262:296,1,64,2|0,0:2|1:2,0:2:0:0:
198,245,85735,2,0,L|182:309,1,64,2|8,0:2|2:2,0:2:0:0:
123,357,86088,1,2,0:2:0:0:
50,329,86264,2,0,P|28:300|21:267,1,64,2|2,1:2|0:2,0:0:0:0:
15,196,86617,2,0,P|35:166|65:149,1,64,10|2,2:2|0:2,0:0:0:0:
134,123,86970,2,0,P|187:129|268:173,2,128,2|8|0,1:2|2:2|1:2,0:2:0:0:
101,49,87852,5,2,0:2:0:0:
26,62,88029,2,0,L|16:132,1,64,10|2,2:2|0:2,0:0:0:0:
75,180,88382,2,0,L|85:250,1,64,2|2,1:2|0:2,0:0:0:0:
31,302,88735,1,10,2:2:0:0:
31,302,88911,1,2,0:2:0:0:
93,353,89088,2,0,P|147:336|196:271,1,128,2|8,1:2|3:2,0:0:0:0:
171,207,89617,2,0,P|154:173|156:137,1,64,0|0,3:0|1:1,0:0:0:0:
235,163,89970,1,8,3:2:0:0:
296,210,90146,1,8,3:2:0:0:
270,282,90323,1,0,3:0:0:0:
191,282,90499,5,4,1:1:0:0:
301,378,90852,1,10,2:2:0:0:
301,378,91029,2,0,P|332:361|356:336,1,64,2|0,0:2|1:2,0:2:0:0:
426,312,91382,2,0,P|419:277|403:246,1,64,2|8,0:2|2:2,0:2:0:0:
345,204,91735,1,2,0:2:0:0:
399,145,91911,2,0,L|468:136,1,64,2|2,1:2|0:2,0:0:0:0:
452,58,92264,2,0,L|388:66,1,64,10|2,2:2|0:2,0:0:0:0:
323,112,92617,2,0,P|286:98|232:27,2,128,2|8|0,1:2|2:2|1:2,0:2:0:0:
389,67,93499,5,2,0:2:0:0:
456,112,93676,2,0,L|463:182,1,64,10|2,2:2|0:2,0:0:0:0:
429,248,94029,2,0,P|394:257|339:217,1,96,2|2,1:2|0:2,0:2:0:0:
339,201,94382,1,8,2:2:0:0:
267,234,94558,1,2,0:2:0:0:
267,234,94735,2,0,P|239:193|245:90,1,128,2|8,1:2|2:2,0:2:0:0:
291,62,95264,1,2,0:3:0:0:
228,13,95441,2,0,P|193:19|158:47,1,64,2|2,1:3|0:3,0:0:0:0:
150,113,95794,1,10,2:2:0:0:
150,113,95882,1,2,0:3:0:0:
150,113,95970,1,2,0:3:0:0:
35,10,96323,5,2,0:2:0:0:
4,80,96499,2,0,L|16:148,1,64,10|2,2:2|0:2,0:0:0:0:
84,181,96852,2,0,P|63:210|38:309,1,128,2|8,1:2|2:2,0:2:0:0:
99,349,97382,1,2,0:2:0:0:
152,287,97558,2,0,L|239:266,1,64,2|2,1:2|0:2,0:0:0:0:
247,201,97911,2,0,L|231:138,1,64,10|2,2:2|0:2,0:0:0:0:
159,105,98264,2,0,P|188:69|287:76,2,128,2|8|0,1:2|2:2|1:2,0:2:0:0:
139,185,99146,5,2,0:2:0:0:
184,246,99323,2,0,P|217:259|241:278,1,64,10|2,2:2|0:2,0:0:0:0:
298,221,99676,2,0,P|331:208|355:189,1,64,2|2,1:2|0:2,0:0:0:0:
369,113,100029,1,10,2:2:0:0:
444,125,100205,2,0,L|458:194,1,64,2|0,0:2|1:2,0:2:0:0:
444,271,100558,6,0,L|506:258,2,64,10|0|0,3:2|3:0|1:1,0:0:0:0:
389,348,101088,1,8,3:2:0:0:
389,348,101264,1,8,3:0:0:0:
301,310,101441,1,8,3:0:0:0:
301,310,101617,1,4,3:0:0:0:
318,199,101794,6,0,B|266:209|266:209|222:260|222:260|134:214,2,207.999990478516,6|10|0,1:1|2:1|1:1,0:0:0:0:
411,185,102676,1,2,0:0:0:0:
445,97,102852,1,10,2:2:0:0:
385,24,103029,1,2,1:2:0:0:
291,39,103205,6,0,P|270:81|260:130,1,80,2|0,1:2|0:0,0:0:0:0:
193,176,103558,2,0,P|182:137|163:102,1,80,10|0,2:2|0:0,0:0:0:0:
115,22,103911,2,0,L|31:8,1,80,2|0,1:2|3:0,0:0:0:0:
36,8,104176,1,0,3:0:0:0:
36,8,104264,1,10,3:2:0:0:
6,101,104441,1,0,3:0:0:0:
6,101,104529,1,0,3:0:0:0:
6,101,104617,6,0,P|42:134|78:262,1,160,2|8,1:2|2:2,0:0:0:0:
3,285,105146,1,0,0:0:0:0:
3,285,105323,2,0,L|21:371,1,80,0|0,1:1|0:0,0:0:0:0:
112,378,105676,2,0,P|143:353|161:308,1,80,10|0,2:2|3:0,0:0:0:0:
249,301,106029,6,0,P|228:224|175:165,1,160,2|8,1:2|2:2,0:0:0:0:
84,154,106558,1,2,0:0:0:0:
42,69,106735,1,2,1:2:0:0:
111,6,106911,1,2,0:0:0:0:
154,89,107088,2,0,P|198:75|228:56,1,80,10|8,3:2|3:3,0:0:0:0:
336,6,107441,6,0,B|305:64|305:64|373:114|373:114|348:177,2,207.999990478516,6|10|0,1:1|2:1|1:1,0:0:0:0:
502,111,108499,1,10,2:2:0:0:
502,111,108676,1,2,0:0:0:0:
447,33,108852,5,2,1:2:0:0:
447,33,109029,1,2,0:0:0:0:
367,82,109205,1,10,2:2:0:0:
367,82,109382,1,2,0:0:0:0:
394,167,109558,2,0,P|418:202|428:242,1,80,2|0,1:2|0:0,0:0:0:0:
504,288,109911,1,10,2:2:0:0:
504,288,110088,1,2,3:2:0:0:
445,357,110264,6,0,L|274:317,1,160,0|8,1:1|2:2,0:0:0:0:
232,252,110794,1,2,0:0:0:0:
232,252,110970,2,0,P|206:286|194:329,1,80,0|0,1:1|0:0,0:0:0:0:
120,376,111323,2,0,P|107:338|82:306,1,80,8|0,2:2|1:1,0:0:0:0:
19,235,111676,5,0,1:1:0:0:
1,321,111852,2,0,B|86:289|28:246|120:217,1,160,10|0,3:2|1:1,0:0:0:0:
207,259,112382,1,8,3:2:0:0:
207,259,112558,1,8,3:0:0:0:
269,184,112735,1,8,3:0:0:0:
219,106,112911,1,4,3:0:0:0:
219,106,112999,1,4,3:0:0:0:
219,106,113088,6,0,B|156:96|156:96|99:142|99:142|23:96,2,207.999990478516,6|10|0,1:1|2:1|1:1,0:0:0:0:
279,33,113970,1,2,0:0:0:0:
188,18,114146,1,10,2:2:0:0:
97,3,114323,1,2,1:2:0:0:
33,66,114499,6,0,P|61:112|68:145,1,80,2|0,1:2|0:0,0:0:0:0:
130,204,114852,2,0,P|104:251|79:273,1,80,10|0,2:2|0:0,0:0:0:0:
15,345,115205,2,0,L|111:363,1,80,2|0,1:2|3:0,0:0:0:0:
93,359,115470,1,0,3:0:0:0:
93,359,115558,1,10,3:2:0:0:
180,316,115735,1,0,3:0:0:0:
180,316,115823,1,0,3:0:0:0:
180,316,115911,6,0,P|231:359|343:368,1,160,2|8,1:2|2:2,0:0:0:0:
365,295,116441,1,0,0:0:0:0:
365,295,116617,2,0,L|345:213,1,80,0|0,1:1|0:0,0:0:0:0:
258,198,116970,2,0,P|266:157|287:121,1,80,10|0,2:2|3:0,0:0:0:0:
248,41,117323,6,0,P|294:12|411:27,1,160,2|8,1:2|2:2,0:0:0:0:
385,105,117852,1,2,0:0:0:0:
468,64,118029,1,2,1:2:0:0:
509,147,118205,1,2,0:0:0:0:
426,188,118382,2,0,P|406:229|398:280,1,80,10|8,3:2|3:3,0:0:0:0:
472,357,118735,6,0,B|399:344|399:344|371:292|371:292|290:281,2,207.999990478516,6|10|0,1:1|2:1|1:1,0:0:0:0:
284,383,119794,1,10,2:2:0:0:
284,383,119970,1,2,0:0:0:0:
216,319,120146,5,2,1:2:0:0:
216,319,120323,1,2,0:0:0:0:
285,257,120499,1,10,2:2:0:0:
285,257,120676,1,2,0:0:0:0:
225,190,120852,2,0,P|211:149|204:102,1,80,2|0,1:2|0:0,0:0:0:0:
276,56,121205,1,10,2:2:0:0:
276,56,121382,1,2,3:2:0:0:
195,5,121558,6,0,B|118:-15|118:-15|99:63,1,160,0|8,1:1|2:2,0:0:0:0:
47,139,122088,1,2,0:0:0:0:
47,139,122264,2,0,P|67:182|80:221,1,80,0|0,1:1|0:0,0:0:0:0:
165,257,122617,2,0,P|145:300|132:339,1,80,8|0,2:2|1:1,0:0:0:0:
54,367,122970,5,0,1:1:0:0:
134,330,123146,2,0,P|70:327|11:232,1,160,8|0,2:2|1:1,0:0:0:0:
90,201,123676,1,8,2:2:0:0:
90,201,123852,1,8,3:0:0:0:
27,141,124029,1,8,3:0:0:0:
90,94,124205,1,4,3:0:0:0:
12,18,124382,6,0,L|94:8,1,71.9999978027344,6|0,1:1|0:0,0:0:0:0:
84,10,124646,1,2,0:0:0:0:
84,10,124735,1,8,0:0:0:0:
174,29,124911,1,2,0:0:0:0:
205,106,125088,2,0,P|252:95|320:19,1,143.999995605469,2|8,1:2|2:2,0:0:0:0:
402,2,125617,1,2,1:2:0:0:
460,80,125794,6,0,P|441:124|432:160,1,71.9999978027344,2|0,1:1|0:0,0:0:0:0:
399,172,126058,2,0,P|355:153|319:144,1,71.9999978027344,2|0,0:0|0:0,0:0:0:0:
315,106,126323,1,2,0:0:0:0:
259,172,126499,2,0,L|274:246,1,71.9999978027344,2|0,1:2|0:0,0:0:0:0:
351,280,126852,1,10,2:2:0:0:
210,380,127205,6,0,P|176:358|156:308,1,71.9999978027344,2|0,1:1|0:0,0:0:0:0:
160,331,127470,1,2,0:0:0:0:
160,331,127558,1,8,0:0:0:0:
158,246,127735,1,2,0:0:0:0:
79,288,127911,2,0,L|1:272,1,71.9999978027344,2|0,1:2|0:0,0:0:0:0:
62,199,128264,1,10,2:2:0:0:
62,199,128441,1,2,1:2:0:0:
25,111,128617,5,2,1:1:0:0:
127,31,128882,1,2,0:0:0:0:
192,144,129146,1,2,0:0:0:0:
266,99,129323,2,0,L|340:89,1,71.9999978027344,2|0,1:2|0:0,0:0:0:0:
371,9,129676,1,10,2:2:0:0:
503,119,130029,6,0,P|482:155|460:240,1,107.999996704102,2|0,1:1|0:0,0:0:0:0:
480,263,130382,1,10,2:2:0:0:
439,334,130558,1,2,0:0:0:0:
439,334,130735,2,0,L|522:349,1,71.9999978027344,2|0,1:2|0:0,0:0:0:0:
372,268,131088,2,0,L|301:280,1,71.9999978027344,8|0,2:2|0:0,0:0:0:0:
245,358,131441,6,0,P|219:323|208:283,1,71.9999978027344,2|0,1:1|0:0,0:0:0:0:
210,296,131705,1,2,0:2:0:0:
210,296,131794,1,8,0:0:0:0:
138,254,131970,1,2,0:0:0:0:
192,187,132146,2,0,L|275:199,1,71.9999978027344,2|0,1:2|0:0,0:0:0:0:
319,131,132499,1,10,2:2:0:0:
284,51,132676,1,2,0:0:0:0:
184,109,132852,6,0,P|188:68|217:0,1,107.999996704102,2|0,1:1|0:0,0:0:0:0:
213,7,133205,2,0,L|131:-10,1,71.9999978027344,8|0,2:2|0:0,0:0:0:0:
55,53,133558,6,0,P|76:102|83:155,1,107.999996704102,2|0,1:1|0:0,0:0:0:0:
83,155,133911,2,0,L|12:169,1,71.9999978027344,8|0,2:2|1:1,0:0:0:0:
46,253,134264,5,2,1:1:0:0:
8,321,134441,2,0,B|91:306|45:257|134:247,1,143.999995605469,8|0,2:2|1:1,0:0:0:0:
187,185,134970,1,10,2:2:0:0:
187,185,135146,1,8,3:0:0:0:
271,212,135323,1,8,3:0:0:0:
286,286,135499,1,4,3:0:0:0:
207,361,135676,6,0,L|292:377,1,71.9999978027344,6|0,1:1|0:0,0:0:0:0:
277,374,135941,1,2,0:0:0:0:
277,374,136029,1,8,0:0:0:0:
356,330,136205,1,2,0:0:0:0:
432,379,136382,2,0,P|454:344|452:238,1,143.999995605469,2|8,1:2|2:2,0:0:0:0:
382,194,136911,1,2,1:2:0:0:
475,162,137088,6,0,P|485:124|501:94,1,71.9999978027344,2|0,1:1|0:0,0:0:0:0:
481,56,137352,2,0,P|443:46|413:30,1,71.9999978027344,2|0,0:0|0:0,0:0:0:0:
379,57,137617,1,2,0:0:0:0:
306,9,137794,2,0,L|286:84,1,71.9999978027344,2|0,1:2|0:0,0:0:0:0:
208,113,138146,1,10,2:2:0:0:
358,198,138499,6,0,L|378:273,1,71.9999978027344,2|0,1:1|0:0,0:0:0:0:
376,267,138764,1,2,0:0:0:0:
376,267,138852,1,8,0:0:0:0:
318,331,139029,1,2,0:0:0:0:
249,279,139205,2,0,P|212:289|184:308,1,71.9999978027344,2|0,1:2|0:0,0:0:0:0:
141,384,139558,1,10,2:2:0:0:
141,384,139735,1,2,0:0:0:0:
62,327,139911,5,2,1:1:0:0:
120,211,140176,1,2,0:0:0:0:
6,147,140441,1,2,0:0:0:0:
80,103,140617,2,0,P|86:67|100:34,1,71.9999978027344,2|0,1:2|0:0,0:0:0:0:
19,3,140970,1,10,2:2:0:0:
165,94,141323,6,0,B|201:114|201:114|288:86,1,107.999996704102,2|0,1:1|0:0,0:0:0:0:
305,79,141676,1,10,2:2:0:0:
343,2,141852,2,0,L|428:23,1,71.9999978027344,2|0,0:0|1:1,0:0:0:0:
468,86,142205,2,0,L|447:171,2,71.9999978027344,2|8|0,0:0|2:2|0:0,0:0:0:0:
370,137,142735,6,0,P|345:169|337:206,1,71.9999978027344,2|0,1:1|0:0,0:0:0:0:
338,199,142999,1,2,0:0:0:0:
338,199,143088,1,8,0:0:0:0:
408,266,143264,1,2,0:0:0:0:
485,230,143441,2,0,L|505:328,1,71.9999978027344,2|0,1:2|0:0,0:0:0:0:
449,371,143794,1,10,2:2:0:0:
369,337,143970,1,2,0:0:0:0:
274,384,144146,6,0,B|250:362|250:362|163:383,1,107.999996704102,2|0,1:1|0:0,0:0:0:0:
140,355,144499,2,0,L|114:268,1,71.9999978027344,8|0,2:2|0:0,0:0:0:0:
200,256,144852,2,0,L|220:187,1,71.9999978027344,0|0,1:1|0:0,0:0:0:0:
153,140,145205,1,10,2:2:0:0:
153,140,145382,1,2,1:2:0:0:
131,53,145558,6,0,P|100:33|57:23,1,71.9999978027344,2|10,1:1|2:2,0:0:0:0:
211,29,145911,2,0,P|245:19|275:0,1,71.9999978027344,2|2,0:0|1:2,0:0:0:0:
362,26,146264,1,10,2:2:0:0:
382,113,146441,1,8,3:0:0:0:
316,173,146617,1,8,3:0:0:0:
231,145,146794,1,4,3:0:0:0:
298,86,146970,5,6,1:1:0:0:
256,192,156852,12,2,157911,0:3:0:0:
278,279,158264,6,0,B|356:289|356:289|390:354|390:354|469:364,2,223.999993164063,6|10|0,1:1|2:1|1:1,0:0:0:0:
228,355,159146,1,2,0:0:0:0:
159,299,159323,1,10,2:2:0:0:
146,384,159499,1,2,1:2:0:0:
57,362,159676,6,0,P|37:315|36:271,1,88.000002685547,2|0,1:2|0:0,0:0:0:0:
4,191,160029,2,0,P|42:157|84:142,1,88.000002685547,10|0,2:2|0:0,0:0:0:0:
154,205,160382,2,0,L|169:111,1,88.000002685547,2|0,1:2|3:0,0:0:0:0:
167,118,160646,1,0,3:0:0:0:
167,118,160735,1,10,3:2:0:0:
103,55,160911,1,0,3:0:0:0:
103,55,160999,1,0,3:0:0:0:
103,55,161088,6,0,P|173:79|273:9,1,176.000005371094,2|8,1:2|2:2,0:0:0:0:
347,0,161617,1,0,0:0:0:0:
347,0,161794,2,0,L|363:94,1,88.000002685547,0|0,1:1|0:0,0:0:0:0:
439,139,162146,2,0,P|428:185|394:217,1,88.000002685547,10|0,2:2|3:0,0:0:0:0:
380,303,162499,6,0,P|324:300|219:213,1,176.000005371094,2|8,1:2|2:2,0:0:0:0:
261,145,163029,1,2,0:0:0:0:
187,87,163205,1,2,1:2:0:0:
109,137,163382,1,2,0:0:0:0:
135,228,163558,2,0,P|155:270|164:327,1,88.000002685547,10|8,3:2|3:3,0:0:0:0:
275,345,163911,6,0,B|295:276|295:276|244:217|244:217|261:144,2,223.999993164063,6|10|0,1:1|2:1|1:1,0:0:0:0:
485,302,164970,1,10,2:2:0:0:
485,302,165146,1,2,0:0:0:0:
413,239,165323,5,2,1:2:0:0:
413,239,165499,1,2,0:0:0:0:
470,169,165676,1,10,2:2:0:0:
470,169,165852,1,2,0:0:0:0:
394,105,166029,2,0,P|344:94|297:71,1,88.000002685547,2|0,1:2|0:0,0:0:0:0:
248,143,166382,1,10,2:2:0:0:
248,143,166558,1,2,3:2:0:0:
169,75,166735,6,0,P|192:21|311:0,1,176.000005371094,0|8,1:1|2:2,0:0:0:0:
365,63,167264,1,2,0:0:0:0:
365,63,167441,2,0,L|454:43,2,88.000002685547,0|0|8,1:1|0:0|2:2,0:0:0:0:
339,148,167970,1,0,0:0:0:0:
389,231,168146,6,0,L|443:245,2,44.0000013427735,2|2|10,1:2|0:0|2:2,0:0:0:0:
316,326,168499,2,0,L|358:314,2,44.0000013427735,2|2|2,0:0|0:0|1:2,0:0:0:0:
224,233,168852,2,0,L|266:244,2,44.0000013427735,10|2|10,2:2|0:0|3:0,0:0:0:0:
168,305,169205,1,8,3:0:0:0:
92,258,169382,1,4,3:0:0:0:
137,147,169558,6,0,P|100:160|57:189,1,80,6|0,1:1|0:0,0:0:0:0:
5,123,169911,1,10,2:2:0:0:
5,123,170088,1,0,0:0:0:0:
47,44,170264,2,0,P|94:60|193:66,1,120,2|0,1:1|0:0,0:0:0:0:
195,36,170617,2,0,P|227:9|269:-2,1,80,8|0,2:2|2:2,2:2:0:0:
283,113,170970,5,2,1:1:0:0:
356,60,171146,2,0,P|375:101|308:194,1,160,2|2,0:0|0:0,0:0:0:0:
125,171,171852,1,2,0:0:0:0:
125,171,171941,1,0,0:0:0:0:
125,171,172029,2,0,L|40:152,1,80,8|2,2:2|0:0,0:0:0:0:
0,245,172382,5,2,1:1:0:0:
0,245,172558,1,0,0:0:0:0:
49,323,172735,1,10,2:2:0:0:
49,323,172911,1,0,0:0:0:0:
125,278,173088,2,0,P|164:250|254:228,1,120,2|0,1:1|0:0,0:0:0:0:
270,250,173441,1,10,0:0:0:0:
258,337,173617,1,2,0:0:0:0:
354,378,173794,6,0,P|396:376|439:352,1,80,2|0,1:1|0:0,0:0:0:0:
476,285,174146,2,0,L|456:199,1,80,10|0,2:2|0:0,0:0:0:0:
380,176,174499,1,0,1:1:0:0:
380,176,174676,1,2,0:0:0:0:
407,92,174852,2,0,L|493:72,1,80,8|2,2:2|0:0,0:0:0:0:
361,1,175205,5,2,1:1:0:0:
361,1,175382,1,0,0:0:0:0:
299,69,175558,1,10,2:2:0:0:
299,69,175735,1,0,0:0:0:0:
230,6,175911,2,0,P|201:46|191:131,1,120,2|0,1:1|0:0,0:0:0:0:
222,142,176264,2,0,P|246:181|249:220,1,80,8|0,0:0|0:0,0:0:0:0:
143,272,176617,5,2,1:1:0:0:
73,217,176794,2,0,B|37:184|37:184|71:65,1,160,2|2,0:0|0:0,0:0:0:0:
242,16,177499,1,2,0:0:0:0:
242,16,177588,1,0,0:0:0:0:
242,16,177676,2,0,L|326:37,1,80,8|2,2:2|0:0,0:0:0:0:
434,7,178029,5,2,1:1:0:0:
434,7,178205,1,0,0:0:0:0:
490,84,178382,1,10,2:2:0:0:
490,84,178558,1,0,0:0:0:0:
414,134,178735,2,0,B|378:167|378:167|412:286,1,160,2|8,1:1|2:2,0:0:0:0:
432,359,179264,1,2,0:0:0:0:
333,299,179441,6,0,P|302:327|288:365,1,80,2|10,1:1|2:2,0:0:0:0:
204,384,179794,2,0,P|173:358|157:321,1,80,2|2,1:2|1:2,0:0:0:0:
219,241,180146,5,10,2:2:0:0:
219,241,180323,1,10,3:0:0:0:
150,178,180499,5,10,3:0:0:0:
150,178,180676,1,6,3:0:0:0:
188,99,180852,5,6,1:1:0:0:
