osu file format v14

[General]
AudioFilename: audio.mp3
AudioLeadIn: 0
PreviewTime:45323
Countdown: 0
SampleSet: Soft
StackLeniency: 0.7
Mode: 0
LetterboxInBreaks: 0
WidescreenStoryboard: 1

[Editor]
Bookmarks:147,11441,22735,34029,45323,56617,67911,79205,90499,101794,113088,124382,135676,146970,158264,169558,180852
DistanceSpacing: 0.8
BeatDivisor: 4
GridSize: 32
TimelineZoom: 1

[Metadata]
Title:Skrzydlate Rece
TitleUnicode:Skrzydlate Ręce
Artist:Enej
ArtistUnicode:Enej
Creator:Embo
Version:Szalony
Source:
Tags:polish polski pl rock ska folkhorod winged arms paradise
BeatmapID:4038803
BeatmapSetID:1938268

[Difficulty]
HPDrainRate:5.5
CircleSize:4.5
OverallDifficulty:7
ApproachRate:8.2
SliderMultiplier:1.8
SliderTickRate:1

[Events]
//Background and Video events
0,0,"thumb-1920-1066513.png",0,0
//Break Periods
2,147170,156132
//Storyboard Layer 0 (Background)
//Storyboard Layer 1 (Fail)
//Storyboard Layer 2 (Pass)
//Storyboard Layer 3 (Foreground)
//Storyboard Layer 4 (Overlay)
//Storyboard Sound Samples

[TimingPoints]
147,352.941176470588,4,2,1,50,1,0
147,-142.857142857143,4,2,1,50,0,0
11441,-111.111111111111,4,2,1,60,0,0
22735,-125,4,2,1,55,0,0
45323,-90.9090909090909,4,2,1,70,0,1
45676,-90.9090909090909,4,2,1,70,0,1
50970,-90.9090909090909,4,2,1,70,0,1
51323,-90.9090909090909,4,2,1,70,0,1
55205,-90.9090909090909,4,2,1,60,0,0
56617,-90.9090909090909,4,2,1,70,0,1
56970,-90.9090909090909,4,2,1,70,0,1
62264,-90.9090909090909,4,2,1,70,0,1
62617,-90.9090909090909,4,2,1,70,0,1
67911,-111.111111111111,4,2,1,60,0,0
79205,-125,4,2,1,55,0,0
101794,-90.9090909090909,4,2,1,70,0,1
102146,-90.9090909090909,4,2,1,70,0,1
107441,-90.9090909090909,4,2,1,70,0,1
107794,-90.9090909090909,4,2,1,70,0,1
111676,-90.9090909090909,4,2,1,60,0,0
113088,-90.9090909090909,4,2,1,70,0,1
113441,-90.9090909090909,4,2,1,70,0,1
118735,-90.9090909090909,4,2,1,70,0,1
119088,-90.9090909090909,4,2,1,70,0,1
124382,-100,4,2,1,60,0,0
133558,-100,4,2,1,65,0,0
134264,-100,4,2,1,70,0,0
134970,-100,4,2,1,75,0,0
135676,-100,4,2,1,60,0,0
146970,-166.666666666667,4,2,1,65,0,0
156852,-125,4,2,1,50,0,0
157205,-111.111111111111,4,2,1,60,0,0
157558,-100,4,2,1,70,0,0
157911,-90.9090909090909,4,2,1,80,0,0
158264,-90.9090909090909,4,2,1,75,0,1
158617,-90.9090909090909,4,2,1,75,0,1
163911,-90.9090909090909,4,2,1,75,0,1
164264,-90.9090909090909,4,2,1,75,0,1
169558,-100,4,2,1,70,0,0
180852,-100,4,2,1,65,0,0

[Colours]
Combo1 : 233,121,10
Combo2 : 124,157,197
Combo3 : 206,162,96
Combo4 : 85,73,226

[HitObjects]
39,319,147,6,0,L|105:303,1,62.9999980773926,2|0,0:0|0:0,0:0:0:0:
22,244,499,2,0,L|83:229,1,62.9999980773926,2|0,0:0|0:0,0:0:0:0:
175,167,852,2,0,P|159:134|67:140,1,125.999996154785,2|0,0:0|0:0,0:0:0:0:
175,167,1382,1,0,0:0:0:0:
155,239,1558,1,2,0:0:0:0:
83,229,1735,2,0,P|53:197|84:106,2,125.999996154785
179,171,2617,1,0,0:0:0:0:
179,171,2794,1,0,0:0:0:0:
231,276,2970,6,0,L|248:343,1,62.9999980773926,2|0,0:0|0:0,0:0:0:0:
306,262,3323,2,0,L|323:329,1,62.9999980773926,2|0,0:0|0:0,0:0:0:0:
296,159,3676,2,0,P|326:184|432:206,1,125.999996154785,2|0,0:0|0:0,0:0:0:0:
296,159,4205,1,2,0:0:0:0:
212,205,4382,1,2,0:0:0:0:
212,205,4558,2,0,P|218:166|184:63,2,125.999996154785
299,270,5441,1,0,0:0:0:0:
299,270,5617,1,0,0:0:0:0:
362,188,5794,6,0,L|374:116,1,62.9999980773926,2|0,0:0|0:0,0:0:0:0:
439,198,6146,2,0,L|451:126,1,62.9999980773926,2|0,0:0|0:0,0:0:0:0:
506,320,6499,2,0,P|445:305|392:247,1,125.999996154785,2|0,0:0|0:0,0:0:0:0:
506,320,7029,1,0,0:0:0:0:
457,382,7205,1,2,0:0:0:0:
387,351,7382,2,0,P|356:309|400:258,2,125.999996154785
506,320,8264,1,0,0:0:0:0:
506,320,8441,1,0,0:0:0:0:
460,225,8617,6,0,L|469:163,1,62.9999980773926,2|0,0:0|0:0,0:0:0:0:
381,217,8970,2,0,L|390:155,1,62.9999980773926,2|0,0:0|0:0,0:0:0:0:
327,54,9323,1,2,0:0:0:0:
327,54,9852,1,2,0:0:0:0:
409,8,10029,5,2,0:0:0:0:
409,8,10205,1,0,0:0:0:0:
478,71,10382,5,2,0:0:0:0:
478,71,10558,1,0,0:0:0:0:
439,156,10735,5,2,0:0:0:0:
439,156,11441,5,6,1:1:0:0:
369,140,11617,1,0,0:0:0:0:
312,262,11794,1,10,2:2:0:0:
382,246,11970,1,0,0:0:0:0:
243,217,12146,2,0,P|228:258|242:297,1,80.9999975280763,2|0,1:1|0:0,0:0:0:0:
357,355,12499,1,8,2:2:0:0:
357,355,12676,1,0,0:0:0:0:
238,292,12852,5,2,1:1:0:0:
311,184,13029,2,0,P|344:162|384:164,1,80.9999975280763,2|8,0:0|2:2,0:0:0:0:
222,198,13382,2,0,P|200:164|202:124,1,80.9999975280763,2|0,0:0|1:1,0:0:0:0:
238,292,13735,1,2,0:0:0:0:
216,315,13823,1,0,0:0:0:0:
183,315,13911,1,8,2:2:0:0:
77,227,14088,1,2,0:0:0:0:
110,227,14176,1,0,0:0:0:0:
132,250,14264,5,2,1:1:0:0:
112,323,14441,1,0,0:0:0:0:
0,212,14617,1,10,2:2:0:0:
20,285,14794,1,0,0:0:0:0:
105,146,14970,2,0,P|138:125|190:120,1,80.9999975280763,2|0,1:1|0:0,0:0:0:0:
178,118,15235,1,0,0:0:0:0:
178,118,15323,1,8,2:2:0:0:
256,159,15499,1,2,0:0:0:0:
150,39,15676,5,2,1:1:0:0:
150,39,15852,2,0,P|110:33|76:11,1,80.9999975280763,2|8,0:0|2:2,0:0:0:0:
240,2,16205,2,0,P|254:39|253:79,1,80.9999975280763,2|0,0:0|1:1,0:0:0:0:
175,203,16558,1,2,0:0:0:0:
175,203,16646,1,0,0:0:0:0:
175,203,16735,1,8,2:2:0:0:
67,97,16911,1,2,1:2:0:0:
192,113,17088,5,2,1:1:0:0:
127,140,17264,1,0,0:0:0:0:
256,40,17441,1,10,2:2:0:0:
191,13,17617,1,0,0:0:0:0:
339,143,17794,2,0,P|363:106|360:60,1,80.9999975280763,2|0,1:1|0:0,0:0:0:0:
243,196,18146,1,8,2:2:0:0:
243,196,18323,1,0,0:0:0:0:
339,143,18499,5,2,1:1:0:0:
384,247,18676,2,0,P|375:290|352:326,1,80.9999975280763,2|8,0:0|2:2,0:0:0:0:
424,170,19029,2,0,P|465:156|508:158,1,80.9999975280763,2|0,0:0|1:1,0:0:0:0:
339,143,19382,1,2,0:0:0:0:
309,129,19470,1,0,0:0:0:0:
297,98,19558,1,8,2:2:0:0:
406,18,19735,1,2,0:0:0:0:
383,42,19823,1,0,0:0:0:0:
350,44,19911,5,2,1:1:0:0:
289,2,20088,1,0,0:0:0:0:
200,122,20264,1,10,2:2:0:0:
221,51,20441,1,0,0:0:0:0:
85,9,20617,2,0,P|106:46|144:64,1,80.9999975280763,2|0,1:1|0:0,0:0:0:0:
139,63,20882,1,0,0:0:0:0:
139,63,20970,1,8,2:2:0:0:
46,105,21146,1,2,0:0:0:0:
141,200,21323,5,2,1:1:0:0:
141,200,21499,1,2,0:0:0:0:
6,176,21676,1,10,2:2:0:0:
6,176,21852,1,2,0:0:0:0:
53,319,22029,5,2,1:1:0:0:
181,275,22205,1,10,2:2:0:0:
82,250,22382,5,10,3:0:0:0:
190,359,22558,1,6,3:0:0:0:
249,208,22735,5,4,1:1:0:0:
249,208,22911,1,2,0:0:0:0:
317,293,23088,2,0,L|331:212,1,72,10|2,2:2|0:0,0:0:0:0:
190,359,23441,2,0,L|163:205,1,144,2|8,1:2|2:2,0:2:0:0:
99,148,23970,1,2,0:2:0:0:
235,150,24146,5,2,1:2:0:0:
235,150,24323,1,2,0:2:0:0:
168,81,24499,1,10,2:2:0:0:
165,217,24676,1,2,0:2:0:0:
99,148,24852,2,0,P|71:184|61:297,1,144,2|8,1:2|2:2,0:2:0:0:
117,340,25382,2,0,L|196:320,1,72,0|0,0:2|1:2,0:0:0:0:
56,279,25735,5,2,0:2:0:0:
165,217,25911,1,10,2:2:0:0:
165,217,26088,1,2,0:2:0:0:
92,164,26264,2,0,P|69:130|63:82,1,72,2|0,1:2|0:2,0:2:0:0:
79,72,26529,1,2,0:2:0:0:
79,72,26617,1,8,2:2:0:0:
146,9,26794,1,2,0:2:0:0:
218,130,26970,6,0,P|267:116|329:39,1,144,2|8,1:2|2:2,0:2:0:0:
218,130,27499,1,2,0:3:0:0:
326,175,27676,1,2,1:3:0:0:
326,175,27852,1,2,0:3:0:0:
250,250,28029,1,8,2:2:0:0:
245,232,28117,1,2,0:3:0:0:
240,214,28205,1,2,0:3:0:0:
214,337,28382,5,0,1:2:0:0:
214,337,28558,1,2,0:2:0:0:
321,278,28735,2,0,P|357:290|391:318,1,72,10|2,2:2|0:2,0:0:0:0:
481,250,29088,2,0,P|479:306|426:381,1,144,2|8,1:2|2:2,0:2:0:0:
296,351,29617,1,2,0:2:0:0:
389,314,29794,5,2,1:2:0:0:
389,314,29970,1,2,0:2:0:0:
259,258,30146,1,10,2:2:0:0:
352,221,30323,1,2,0:2:0:0:
203,171,30499,2,0,P|184:131|184:25,1,144,2|8,1:2|2:2,0:2:0:0:
263,0,31029,2,0,L|344:18,1,72,0|0,0:2|1:2,0:0:0:0:
181,32,31382,5,2,0:2:0:0:
273,102,31558,1,10,2:2:0:0:
273,102,31735,1,2,0:2:0:0:
338,19,31911,1,2,1:2:0:0:
338,19,32088,1,2,0:2:0:0:
419,136,32264,1,10,2:2:0:0:
351,97,32441,1,2,0:2:0:0:
478,86,32617,6,0,P|451:127|440:247,1,144,2|8,1:2|2:2,0:2:0:0:
485,310,33146,1,2,0:2:0:0:
435,219,33323,1,2,1:2:0:0:
400,357,33499,1,8,2:2:0:0:
485,310,33676,1,8,3:3:0:0:
467,306,33764,1,4,3:3:0:0:
449,302,33852,1,4,3:3:0:0:
347,193,34029,5,4,1:1:0:0:
347,193,34205,1,2,0:2:0:0:
274,256,34382,2,0,P|250:224|247:182,1,72,10|2,2:2|0:2,0:0:0:0:
328,334,34735,2,0,P|297:366|189:367,1,144,2|8,1:2|2:2,0:2:0:0:
328,334,35264,1,2,0:2:0:0:
274,256,35441,5,2,1:2:0:0:
274,256,35617,1,2,0:2:0:0:
198,370,35794,1,10,2:2:0:0:
122,294,35970,2,0,P|93:329|95:379,1,72,2|0,0:2|1:2,0:2:0:0:
156,229,36323,1,2,0:2:0:0:
156,229,36499,2,0,L|142:152,2,72,8|0|0,2:2|0:2|1:2,0:0:0:0:
198,370,37029,5,2,0:2:0:0:
121,298,37205,1,10,2:2:0:0:
121,298,37382,1,2,0:2:0:0:
28,384,37558,1,2,1:2:0:0:
28,384,37735,1,2,0:2:0:0:
1,255,37911,1,10,2:2:0:0:
49,308,38088,1,2,0:2:0:0:
117,195,38264,6,0,P|157:165|252:146,1,144,2|8,1:2|2:2,0:2:0:0:
117,195,38794,1,2,0:3:0:0:
55,98,38970,1,2,1:3:0:0:
55,98,39146,1,2,0:3:0:0:
0,186,39323,1,8,2:2:0:0:
17,181,39411,1,2,0:3:0:0:
34,176,39499,1,2,0:3:0:0:
145,265,39676,5,0,1:3:0:0:
145,265,39852,1,2,0:2:0:0:
224,153,40029,2,0,P|227:185|245:224,1,72,10|2,2:2|0:2,0:0:0:0:
108,151,40382,2,0,P|124:107|132:7,1,144,2|8,1:2|2:2,0:2:0:0:
41,57,40911,1,2,0:2:0:0:
153,92,41088,5,2,1:2:0:0:
153,92,41264,1,2,0:2:0:0:
226,2,41441,1,10,2:2:0:0:
226,2,41617,1,2,0:2:0:0:
132,10,41794,2,0,P|197:23|273:74,1,144,2|8,1:2|2:2,0:2:0:0:
286,149,42323,2,0,L|272:224,1,72,0|0,0:2|1:2,0:0:0:0:
262,63,42676,5,2,0:2:0:0:
366,13,42852,1,10,2:2:0:0:
366,13,43029,1,2,0:2:0:0:
425,117,43205,1,2,1:2:0:0:
425,117,43382,1,2,0:2:0:0:
512,26,43558,1,10,2:2:0:0:
444,49,43735,2,0,P|427:85|426:132,1,72,2|0,0:2|1:2,0:2:0:0:
478,221,44088,5,10,3:2:0:0:
495,225,44176,1,0,3:0:0:0:
512,229,44264,1,0,3:0:0:0:
447,295,44441,1,0,1:1:0:0:
331,182,44617,1,8,3:2:0:0:
447,295,44794,1,8,3:0:0:0:
291,338,44970,1,8,3:0:0:0:
355,289,45146,1,4,3:0:0:0:
365,273,45235,1,4,3:0:0:0:
366,252,45323,6,0,P|322:209|218:189,1,148.50000453186,6|0,1:1|0:0,0:0:0:0:
239,186,45676,2,0,L|225:292,2,99.0000030212403,10|0|0,2:1|0:0|1:1,0:0:0:0:
148,40,46205,1,2,0:0:0:0:
297,103,46382,1,10,2:2:0:0:
160,172,46558,1,2,1:2:0:0:
235,48,46735,6,0,P|293:19|335:34,1,99.0000030212403,2|0,1:2|0:0,0:0:0:0:
248,193,47088,2,0,P|199:198|159:171,1,99.0000030212403,10|0,2:2|0:0,0:0:0:0:
63,16,47441,2,0,P|63:62|46:127,1,99.0000030212403,2|0,1:2|3:0,0:0:0:0:
35,132,47705,1,0,3:0:0:0:
10,138,47794,1,10,3:2:0:0:
116,277,47970,1,0,3:0:0:0:
93,267,48057,1,0,3:0:0:0:
79,245,48146,6,0,P|115:201|250:194,1,198.000006042481,2|8,1:2|2:2,0:0:0:0:
138,145,48676,1,0,0:0:0:0:
229,292,48852,1,0,1:1:0:0:
247,192,49029,1,0,0:0:0:0:
79,245,49205,2,0,P|83:299|110:339,1,99.0000030212403,10|0,2:2|3:0,0:0:0:0:
307,259,49558,6,0,P|351:186|355:65,1,198.000006042481,2|8,1:2|2:2,0:0:0:0:
307,259,50088,1,2,0:0:0:0:
234,93,50264,1,2,1:2:0:0:
383,182,50441,1,2,0:0:0:0:
205,213,50617,2,0,P|155:205|104:188,1,99.0000030212403,10|8,3:2|3:3,0:0:0:0:
313,364,50970,6,0,P|380:335|489:317,1,148.50000453186,6|0,1:1|0:0,0:0:0:0:
454,319,51323,2,0,P|461:263|432:230,1,99.0000030212403,10|0,2:1|0:0,0:0:0:0:
292,133,51676,2,0,P|285:189|314:222,1,99.0000030212403,0|0,1:1|0:0,0:0:0:0:
470,111,52029,1,10,2:2:0:0:
436,232,52205,1,2,0:0:0:0:
292,133,52382,5,2,1:2:0:0:
390,156,52558,1,2,0:0:0:0:
335,301,52735,1,10,2:2:0:0:
335,301,52911,1,2,0:0:0:0:
190,243,53088,2,0,P|190:187|226:146,1,99.0000030212403,2|0,1:2|0:0,0:0:0:0:
189,340,53441,1,10,2:2:0:0:
272,219,53617,1,2,3:2:0:0:
106,174,53794,6,0,P|53:237|51:370,1,198.000006042481,0|8,1:1|2:2,0:0:0:0:
228,273,54323,2,0,L|114:250,1,99.0000030212403,2|0,0:0|1:1,0:0:0:0:
21,146,54676,1,0,0:0:0:0:
130,253,54852,1,8,2:2:0:0:
10,277,55029,1,0,1:1:0:0:
147,160,55205,5,0,1:1:0:0:
110,99,55382,1,10,3:2:0:0:
86,93,55470,1,0,3:0:0:0:
62,87,55558,1,0,3:0:0:0:
80,205,55735,1,0,1:1:0:0:
238,131,55911,1,8,3:2:0:0:
80,205,56088,1,8,3:0:0:0:
115,26,56264,1,8,3:0:0:0:
42,2,56441,1,4,3:0:0:0:
23,18,56529,1,4,3:0:0:0:
27,46,56617,6,0,P|62:101|147:115,1,148.50000453186,6|0,1:1|0:0,0:0:0:0:
139,117,56970,2,0,L|36:146,2,99.0000030212403,10|0|0,2:1|0:0|1:1,0:0:0:0:
254,20,57499,1,2,0:0:0:0:
305,155,57676,1,10,2:2:0:0:
177,40,57852,1,2,1:2:0:0:
345,87,58029,6,0,P|379:129|377:184,1,99.0000030212403,2|0,1:2|0:0,0:0:0:0:
203,270,58382,2,0,P|206:221|238:184,1,99.0000030212403,10|0,2:2|0:0,0:0:0:0:
416,313,58735,2,0,P|367:303|316:284,1,99.0000030212403,2|0,1:2|3:0,0:0:0:0:
305,266,58999,1,0,3:0:0:0:
301,241,59088,1,10,3:2:0:0:
254,376,59265,1,0,3:0:0:0:
228,379,59352,1,0,3:0:0:0:
204,370,59441,6,0,P|161:303|186:166,1,198.000006042481,2|8,1:2|2:2,0:0:0:0:
126,305,59970,1,0,0:0:0:0:
257,174,60146,1,0,1:1:0:0:
171,189,60323,1,0,0:0:0:0:
285,305,60499,2,0,P|334:313|393:334,1,99.0000030212403,10|0,2:2|3:0,0:0:0:0:
131,116,60852,6,0,P|221:101|340:58,1,198.000006042481,2|8,1:2|2:2,0:0:0:0:
131,116,61382,1,2,0:0:0:0:
242,1,61558,1,2,1:2:0:0:
289,175,61735,1,2,0:0:0:0:
180,57,61911,2,0,P|229:75|267:110,1,99.0000030212403,10|8,3:2|3:3,0:0:0:0:
315,341,62264,6,0,P|351:301|376:208,1,148.50000453186,6|0,1:1|0:0,0:0:0:0:
376,211,62617,2,0,L|274:193,1,99.0000030212403,10|0,2:1|0:0,0:0:0:0:
404,97,62970,2,0,L|501:80,1,99.0000030212403,0|0,1:1|0:0,0:0:0:0:
257,15,63323,1,10,2:2:0:0:
316,112,63499,1,2,0:0:0:0:
435,0,63676,5,2,1:2:0:0:
341,33,63852,1,2,0:0:0:0:
505,84,64029,1,10,2:2:0:0:
505,84,64205,1,2,0:0:0:0:
435,180,64382,2,0,P|400:135|409:82,1,99.0000030212403,2|0,1:2|0:0,0:0:0:0:
512,188,64735,1,10,2:2:0:0:
403,96,64911,1,2,3:2:0:0:
337,237,65088,6,0,P|383:289|519:317,1,198.000006042481,0|8,1:1|2:2,0:0:0:0:
337,237,65617,2,0,L|328:342,1,99.0000030212403,2|0,0:0|1:1,0:0:0:0:
278,180,65970,1,0,0:0:0:0:
413,265,66146,1,8,2:2:0:0:
328,335,66323,1,0,1:1:0:0:
376,171,66499,5,2,1:2:0:0:
394,154,66588,1,2,0:0:0:0:
418,154,66676,1,10,2:2:0:0:
248,108,66852,5,2,0:0:0:0:
237,85,66941,1,2,0:0:0:0:
244,62,67029,1,2,1:2:0:0:
148,210,67205,5,10,2:2:0:0:
123,213,67294,1,2,0:0:0:0:
103,199,67382,1,10,3:0:0:0:
213,346,67557,5,8,3:0:0:0:
242,246,67734,1,4,3:0:0:0:
120,320,67911,5,6,1:1:0:0:
149,384,68088,1,0,0:0:0:0:
71,264,68264,1,10,2:2:0:0:
0,257,68441,1,0,0:0:0:0:
157,175,68617,2,0,P|161:215|143:252,1,80.9999975280763,2|0,1:1|0:0,0:0:0:0:
49,135,68970,1,8,2:2:0:0:
49,135,69146,1,0,0:0:0:0:
157,175,69323,5,2,1:1:0:0:
207,65,69499,2,0,P|177:33|131:29,1,80.9999975280763,2|8,0:0|2:2,0:0:0:0:
239,146,69852,2,0,P|281:136|308:98,1,80.9999975280763,2|0,0:0|1:1,0:0:0:0:
157,178,70205,1,2,0:0:0:0:
134,201,70294,1,0,0:0:0:0:
146,230,70382,1,8,2:2:0:0:
286,316,70558,1,2,0:0:0:0:
298,287,70646,1,0,0:0:0:0:
275,264,70735,5,2,1:1:0:0:
204,281,70911,1,0,0:0:0:0:
320,179,71088,1,10,2:2:0:0:
249,162,71264,1,0,0:0:0:0:
395,260,71441,2,0,P|403:304|379:346,1,80.9999975280763,2|0,1:1|0:0,0:0:0:0:
388,336,71705,1,0,0:0:0:0:
388,336,71794,1,8,2:2:0:0:
318,325,71970,1,2,0:0:0:0:
405,240,72146,5,2,1:1:0:0:
405,240,72323,2,0,P|439:211|487:210,1,80.9999975280763,2|8,0:0|2:2,0:0:0:0:
302,154,72676,2,0,P|259:138|235:97,1,80.9999975280763,2|0,0:0|1:1,0:0:0:0:
421,37,73029,1,2,0:0:0:0:
387,150,73205,1,8,2:2:0:0:
352,80,73382,1,2,1:2:0:0:
512,145,73558,5,2,1:1:0:0:
449,109,73735,1,0,0:0:0:0:
352,260,73911,1,10,2:2:0:0:
415,224,74088,1,0,0:0:0:0:
295,142,74264,2,0,L|287:229,1,80.9999975280763,2|0,1:1|0:0,0:0:0:0:
202,94,74617,1,8,2:2:0:0:
202,94,74794,1,0,0:0:0:0:
158,195,74970,5,2,1:1:0:0:
295,142,75146,2,0,P|318:101|317:60,1,80.9999975280763,2|8,0:0|2:2,0:0:0:0:
242,214,75499,2,0,P|283:237|324:236,1,80.9999975280763,2|0,0:0|1:1,0:0:0:0:
158,195,75852,1,2,0:0:0:0:
141,223,75941,1,0,0:0:0:0:
150,253,76029,1,8,2:2:0:0:
131,113,76205,1,2,0:0:0:0:
103,96,76294,1,0,0:0:0:0:
73,105,76382,5,2,1:1:0:0:
59,177,76558,1,0,0:0:0:0:
197,59,76735,1,10,2:2:0:0:
211,131,76911,1,0,0:0:0:0:
59,31,77088,2,0,P|93:2|130:0,1,80.9999975280763,2|0,1:1|0:0,0:0:0:0:
127,0,77352,1,0,0:0:0:0:
127,0,77441,1,8,2:2:0:0:
272,41,77617,1,2,0:0:0:0:
137,111,77794,5,2,1:1:0:0:
137,111,77970,1,2,0:0:0:0:
237,209,78146,1,10,2:2:0:0:
237,209,78323,1,2,0:0:0:0:
98,310,78499,5,2,1:1:0:0:
165,183,78676,1,10,2:2:0:0:
188,337,78852,5,10,3:0:0:0:
89,194,79029,1,6,3:0:0:0:
31,372,79205,5,4,1:1:0:0:
31,372,79382,1,2,0:2:0:0:
98,310,79558,2,0,L|171:324,1,72,10|2,2:2|0:2,0:0:0:0:
11,232,79911,2,0,L|157:203,1,144,2|8,1:2|2:2,0:2:0:0:
192,116,80441,1,2,0:2:0:0:
245,248,80617,5,2,1:2:0:0:
245,248,80794,1,2,0:2:0:0:
152,203,80970,1,10,2:2:0:0:
192,116,81146,2,0,P|214:80|218:42,1,72,2|0,0:2|1:2,0:2:0:0:
332,178,81499,1,2,0:2:0:0:
332,178,81676,2,0,L|254:163,2,72,8|0|0,2:2|0:2|1:2,0:0:0:0:
398,259,82205,5,2,0:2:0:0:
489,178,82382,1,10,2:2:0:0:
489,178,82558,1,2,0:2:0:0:
414,130,82735,2,0,P|393:93|385:39,1,72,2|0,1:2|0:2,0:2:0:0:
394,36,82999,1,2,0:2:0:0:
394,36,83088,1,8,2:2:0:0:
313,78,83264,1,2,0:2:0:0:
481,98,83441,6,0,P|432:118|360:181,1,144,2|8,1:2|2:2,0:2:0:0:
421,320,83970,1,2,0:3:0:0:
289,214,84146,1,2,1:3:0:0:
289,214,84323,1,2,0:3:0:0:
431,227,84499,1,8,2:2:0:0:
448,221,84588,1,2,0:3:0:0:
465,215,84676,1,2,0:3:0:0:
339,328,84852,5,0,1:2:0:0:
339,328,85029,1,2,0:2:0:0:
363,176,85205,1,10,2:2:0:0:
289,214,85382,2,0,P|313:240|365:259,1,72,2|0,0:2|1:2,0:2:0:0:
497,334,85735,2,0,P|462:341|420:377,1,72,2|8,0:2|2:2,0:2:0:0:
345,255,86088,1,2,0:2:0:0:
244,349,86264,5,2,1:2:0:0:
244,349,86441,1,2,0:2:0:0:
160,229,86617,1,10,2:2:0:0:
160,229,86794,1,2,0:2:0:0:
284,290,86970,2,0,P|231:302|143:364,1,144,2|8,1:2|2:2,0:2:0:0:
69,320,87499,2,0,L|48:223,1,72,0|0,0:2|1:2,0:0:0:0:
156,349,87852,5,2,0:2:0:0:
28,384,88029,1,10,2:2:0:0:
28,384,88205,1,2,0:2:0:0:
57,253,88382,1,2,1:2:0:0:
57,253,88558,1,2,0:2:0:0:
156,349,88735,1,10,2:2:0:0:
78,327,88911,1,2,0:2:0:0:
165,233,89088,6,0,P|202:198|293:169,1,144,2|8,1:2|3:2,0:0:0:0:
165,233,89617,1,0,3:0:0:0:
109,76,89794,1,0,1:1:0:0:
16,190,89970,1,8,3:2:0:0:
170,123,90146,1,8,3:2:0:0:
109,76,90323,1,0,3:0:0:0:
86,253,90499,5,4,1:1:0:0:
86,253,90676,1,2,0:2:0:0:
34,110,90852,1,10,2:2:0:0:
100,167,91029,2,0,P|129:194|172:207,1,72,2|0,0:2|1:2,0:2:0:0:
21,97,91382,2,0,L|4:20,1,72,2|8,0:2|2:2,0:2:0:0:
0,181,91735,1,2,0:2:0:0:
101,78,91911,5,2,1:2:0:0:
101,78,92088,1,2,0:2:0:0:
207,151,92264,1,10,2:2:0:0:
207,151,92441,1,2,0:2:0:0:
290,55,92617,2,0,P|239:44|157:-2,1,144,2|8,1:2|2:2,0:2:0:0:
101,78,93146,2,0,L|128:164,1,72,0|0,0:2|1:2,0:0:0:0:
159,0,93499,5,2,0:2:0:0:
294,59,93676,1,10,2:2:0:0:
294,59,93852,1,2,0:2:0:0:
216,57,94029,2,0,P|197:87|193:123,1,72,2|0,1:2|0:2,0:2:0:0:
211,149,94294,1,2,0:2:0:0:
211,149,94382,1,8,2:2:0:0:
292,208,94558,1,2,0:2:0:0:
369,108,94735,6,0,P|400:134|442:236,1,144,2|8,1:2|2:2,0:2:0:0:
369,108,95264,1,2,0:3:0:0:
512,53,95441,1,2,1:3:0:0:
512,53,95617,1,2,0:3:0:0:
393,17,95794,1,10,2:2:0:0:
375,13,95882,1,2,0:3:0:0:
357,9,95970,1,2,0:3:0:0:
481,125,96146,5,0,1:2:0:0:
481,125,96323,1,2,0:2:0:0:
385,179,96499,2,0,L|307:199,1,72,10|2,2:2|0:2,0:0:0:0:
474,225,96852,2,0,L|515:373,1,144,2|8,1:2|2:2,0:2:0:0:
474,225,97382,1,2,0:2:0:0:
415,326,97558,5,2,1:2:0:0:
415,326,97735,1,2,0:2:0:0:
312,267,97911,1,10,2:2:0:0:
312,267,98088,1,2,0:2:0:0:
474,225,98264,2,0,P|430:217|322:167,1,144,2|8,1:2|2:2,0:2:0:0:
282,108,98794,2,0,L|289:29,1,72,0|0,0:2|1:2,0:0:0:0:
339,178,99146,5,2,0:2:0:0:
220,232,99323,1,10,2:2:0:0:
220,232,99499,1,2,0:2:0:0:
293,337,99676,1,2,1:2:0:0:
293,337,99852,1,2,0:2:0:0:
195,374,100029,1,10,2:2:0:0:
229,306,100205,2,0,P|267:317|297:341,1,72,2|0,0:2|1:2,0:2:0:0:
405,366,100558,5,10,3:2:0:0:
423,370,100646,1,0,3:0:0:0:
441,374,100735,1,0,3:0:0:0:
357,286,100911,1,0,1:1:0:0:
465,190,101088,1,8,3:2:0:0:
357,286,101264,1,8,3:0:0:0:
326,139,101441,1,8,3:0:0:0:
372,203,101617,1,4,3:0:0:0:
387,194,101705,1,4,3:0:0:0:
393,177,101794,6,0,P|313:174|264:233,1,148.50000453186,6|0,1:1|0:0,0:0:0:0:
268,219,102146,2,0,L|249:115,2,99.0000030212403,10|0|0,2:1|0:0|1:1,0:0:0:0:
220,364,102676,1,2,0:0:0:0:
345,270,102852,1,10,2:2:0:0:
193,227,103029,1,2,1:2:0:0:
325,349,103205,6,0,P|373:351|409:315,1,99.0000030212403,2|0,1:2|0:0,0:0:0:0:
275,195,103558,2,0,P|226:193|192:226,1,99.0000030212403,10|0,2:2|0:0,0:0:0:0:
106,372,103911,2,0,P|113:326|111:262,1,99.0000030212403,2|0,1:2|3:0,0:0:0:0:
103,250,104176,1,0,3:0:0:0:
82,236,104264,1,10,3:2:0:0:
220,364,104440,1,0,3:0:0:0:
240,347,104529,1,0,3:0:0:0:
247,323,104617,6,0,P|223:240|151:144,1,198.000006042481,2|8,1:2|2:2,0:0:0:0:
257,245,105146,1,0,0:0:0:0:
158,150,105323,1,0,1:1:0:0:
257,145,105499,1,0,0:0:0:0:
149,278,105676,2,0,P|100:265|52:223,1,99.0000030212403,10|0,2:2|3:0,0:0:0:0:
206,79,106029,6,0,P|252:45|401:9,1,198.000006042481,2|8,1:2|2:2,0:0:0:0:
257,145,106558,1,2,0:0:0:0:
163,0,106735,1,2,1:2:0:0:
312,70,106911,1,2,0:0:0:0:
140,148,107088,2,0,P|110:100|123:43,1,99.0000030212403,10|8,3:2|3:3,0:0:0:0:
319,223,107441,6,0,L|140:263,1,148.50000453186,6|0,1:1|0:0,0:0:0:0:
174,255,107794,2,0,P|145:294|147:343,1,99.0000030212403,10|0,2:1|0:0,0:0:0:0:
50,170,108146,2,0,P|98:174|139:148,1,99.0000030212403,0|0,1:1|0:0,0:0:0:0:
5,287,108499,1,10,2:2:0:0:
83,253,108676,1,2,0:0:0:0:
0,110,108852,5,2,1:2:0:0:
83,253,109029,1,2,0:0:0:0:
143,151,109205,1,10,2:2:0:0:
143,151,109382,1,2,0:0:0:0:
14,188,109558,2,0,L|3:302,1,99.0000030212403,2|0,1:2|0:0,0:0:0:0:
69,92,109911,1,10,2:2:0:0:
159,233,110088,1,2,3:2:0:0:
208,64,110264,6,0,P|140:118|87:233,1,198.000006042481,0|8,1:1|2:2,0:0:0:0:
218,75,110794,2,0,L|325:93,1,99.0000030212403,2|0,0:0|1:1,0:0:0:0:
141,17,111146,1,0,0:0:0:0:
241,164,111323,1,8,2:2:0:0:
157,126,111499,1,0,1:1:0:0:
315,91,111676,5,0,1:1:0:0:
302,19,111852,1,10,3:2:0:0:
277,13,111941,1,0,3:0:0:0:
253,7,112029,1,0,3:0:0:0:
357,168,112205,1,0,1:1:0:0:
218,75,112382,1,8,3:2:0:0:
357,168,112558,1,8,3:0:0:0:
395,18,112735,1,8,3:0:0:0:
466,48,112911,1,4,3:0:0:0:
471,72,112999,1,4,3:0:0:0:
461,93,113088,6,0,P|390:96|305:36,1,148.50000453186,6|0,1:1|0:0,0:0:0:0:
323,59,113441,2,0,P|274:26|205:33,2,99.0000030212403,10|0|0,2:1|0:0|1:1,0:0:0:0:
364,200,113970,1,2,0:0:0:0:
255,100,114146,1,10,2:2:0:0:
415,124,114323,1,2,1:2:0:0:
259,204,114499,6,0,P|234:254|232:304,1,99.0000030212403,2|0,1:2|0:0,0:0:0:0:
443,217,114852,2,0,P|438:168|415:124,1,99.0000030212403,10|0,2:2|0:0,0:0:0:0:
360,325,115205,2,0,P|403:348|452:352,1,99.0000030212403,2|0,1:2|3:0,0:0:0:0:
473,340,115470,1,0,3:0:0:0:
483,317,115558,1,10,3:2:0:0:
333,232,115734,1,0,3:0:0:0:
351,246,115823,1,0,3:0:0:0:
376,249,115911,6,0,P|460:194|503:97,1,198.000006042481,2|8,1:2|2:2,0:0:0:0:
460,246,116441,1,0,0:0:0:0:
403,74,116617,1,0,1:1:0:0:
501,108,116794,1,0,0:0:0:0:
327,149,116970,2,0,P|294:114|289:40,1,99.0000030212403,10|0,2:2|3:0,0:0:0:0:
338,285,117323,6,0,P|275:310|154:250,1,198.000006042481,2|8,1:2|2:2,0:0:0:0:
338,285,117852,1,2,0:0:0:0:
220,182,118029,1,2,1:2:0:0:
189,340,118205,1,2,0:0:0:0:
291,219,118382,2,0,P|316:172|320:108,1,99.0000030212403,10|8,3:2|3:3,0:0:0:0:
161,260,118735,6,0,L|2:223,1,148.50000453186,6|0,1:1|0:0,0:0:0:0:
16,226,119088,2,0,P|41:273|45:337,1,99.0000030212403,10|0,2:1|0:0,0:0:0:0:
171,378,119441,2,0,P|199:332|252:297,1,99.0000030212403,0|0,1:1|0:0,0:0:0:0:
101,165,119794,1,10,2:2:0:0:
156,254,119970,1,2,0:0:0:0:
257,137,120146,5,2,1:2:0:0:
176,181,120323,1,2,0:0:0:0:
294,261,120499,1,10,2:2:0:0:
294,261,120676,1,2,0:0:0:0:
334,99,120852,2,0,P|345:161|316:196,1,99.0000030212403,2|0,1:2|0:0,0:0:0:0:
189,57,121205,1,10,2:2:0:0:
334,99,121382,1,2,3:2:0:0:
176,181,121558,6,0,P|71:152|-8:103,1,198.000006042481,0|8,1:1|2:2,0:0:0:0:
222,258,122088,2,0,L|327:234,1,99.0000030212403,2|0,0:0|1:1,0:0:0:0:
126,328,122441,1,0,0:0:0:0:
176,181,122617,1,8,2:2:0:0:
225,261,122794,1,0,1:1:0:0:
62,181,122970,5,0,1:1:0:0:
225,261,123146,1,8,2:2:0:0:
179,184,123323,1,0,0:0:0:0:
179,184,123499,1,0,1:1:0:0:
61,314,123676,5,8,2:2:0:0:
225,261,123852,1,8,3:0:0:0:
117,128,124029,1,8,3:0:0:0:
178,53,124205,1,4,3:0:0:0:
126,2,124382,6,0,P|84:15|56:49,1,90,6|0,1:1|0:0,0:0:0:0:
21,41,124646,2,0,L|43:136,1,90,2|0,0:0|0:0,0:0:0:0:
22,159,124911,1,2,0:0:0:0:
145,221,125088,2,0,P|191:235|251:230,1,90,2|0,1:2|0:0,0:0:0:0:
81,320,125441,1,8,2:2:0:0:
81,320,125617,1,2,1:2:0:0:
145,221,125794,6,0,P|100:220|57:234,1,90,2|0,1:1|0:0,0:0:0:0:
33,260,126058,2,0,L|9:163,1,90,2|0,0:0|0:0,0:0:0:0:
29,136,126323,1,2,0:0:0:0:
145,51,126499,2,0,L|123:138,1,90,2|0,1:2|0:0,0:0:0:0:
235,186,126852,1,10,2:2:0:0:
123,138,127029,1,2,0:0:0:0:
280,103,127205,6,0,P|324:131|348:174,1,90,2|0,1:1|0:0,0:0:0:0:
371,185,127470,2,0,P|372:132|397:90,1,90,2|0,0:0|0:0,0:0:0:0:
420,81,127735,1,2,0:0:0:0:
291,0,127911,2,0,L|204:19,1,90,2|0,1:2|0:0,0:0:0:0:
392,0,128264,1,10,2:2:0:0:
392,0,128441,1,2,1:2:0:0:
280,103,128617,6,0,P|259:142|258:187,1,90,2|0,1:1|0:0,0:0:0:0:
282,213,128882,2,0,P|326:210|365:189,1,90,2|0,0:0|0:0,0:0:0:0:
373,153,129146,1,2,0:0:0:0:
461,251,129323,2,0,L|446:352,1,90,2|0,1:2|0:0,0:0:0:0:
328,286,129676,1,10,2:2:0:0:
460,251,129852,1,2,1:2:0:0:
322,364,130029,6,0,P|256:349|195:278,1,135,2|0,1:1|0:0,0:0:0:0:
207,304,130382,1,10,2:2:0:0:
242,195,130558,1,2,0:0:0:0:
136,273,130735,2,0,P|136:333|169:365,1,90,2|0,1:2|0:0,0:0:0:0:
161,198,131088,2,0,P|109:168|64:180,1,90,8|0,2:2|0:0,0:0:0:0:
207,304,131441,6,0,L|303:279,1,90,2|0,1:1|0:0,0:0:0:0:
316,253,131705,2,0,L|348:349,1,90,2|0,0:2|0:0,0:0:0:0:
328,370,131970,1,2,0:0:0:0:
420,300,132146,2,0,P|442:259|442:211,1,90,2|0,1:2|0:0,0:0:0:0:
307,134,132499,1,10,2:2:0:0:
419,114,132676,1,2,0:0:0:0:
272,218,132852,6,0,P|237:177|235:68,1,135,2|0,1:1|0:0,0:0:0:0:
241,66,133205,2,0,L|336:48,1,90,8|0,2:2|0:0,0:0:0:0:
131,120,133558,6,0,P|151:169|119:274,1,135,2|0,1:1|0:0,0:0:0:0:
113,274,133911,2,0,L|17:261,1,90,8|0,2:2|1:1,0:0:0:0:
212,379,134264,5,2,1:1:0:0:
251,244,134441,1,8,2:2:0:0:
212,379,134617,1,0,0:0:0:0:
189,294,134794,1,0,1:1:0:0:
340,348,134970,5,10,2:2:0:0:
189,294,135146,1,8,3:0:0:0:
89,384,135323,1,8,3:0:0:0:
24,353,135499,1,4,3:0:0:0:
5,321,135588,1,4,3:0:0:0:
24,290,135676,5,6,1:1:0:0:
198,212,135941,1,2,0:0:0:0:
44,101,136205,1,2,0:0:0:0:
89,195,136382,2,0,P|122:161|139:92,1,90,2|0,1:2|0:0,0:0:0:0:
80,16,136735,1,8,2:2:0:0:
80,16,136911,1,2,1:2:0:0:
224,49,137088,5,2,1:1:0:0:
44,101,137352,1,2,0:0:0:0:
180,231,137617,1,2,0:0:0:0:
138,121,137794,2,0,P|105:155|88:224,1,90,2|0,1:2|0:0,0:0:0:0:
175,321,138146,1,10,2:2:0:0:
55,261,138323,1,2,0:0:0:0:
212,159,138499,6,0,P|256:162|296:182,1,90,2|0,1:1|0:0,0:0:0:0:
317,212,138764,2,0,P|314:256|294:296,1,90,2|0,0:0|0:0,0:0:0:0:
260,311,139029,1,2,0:0:0:0:
394,239,139205,2,0,L|497:214,1,90,2|0,1:2|0:0,0:0:0:0:
379,352,139558,1,10,2:2:0:0:
379,352,139735,1,2,0:0:0:0:
242,236,139911,5,2,1:1:0:0:
406,130,140176,1,2,0:0:0:0:
233,41,140441,1,2,0:0:0:0:
297,133,140617,2,0,P|321:89|323:30,1,90,2|0,1:2|0:0,0:0:0:0:
192,119,140970,1,10,2:2:0:0:
325,49,141146,1,2,1:2:0:0:
365,252,141323,6,0,P|423:234|478:167,1,135,2|0,1:1|0:0,0:0:0:0:
472,180,141676,1,10,2:2:0:0:
297,133,141852,2,0,L|283:224,1,90,2|0,0:0|1:1,0:0:0:0:
429,101,142205,2,0,L|415:12,2,90,2|8|0,0:0|2:2|0:0,0:0:0:0:
365,252,142735,5,2,1:1:0:0:
337,65,142999,1,2,0:0:0:0:
512,138,143264,1,2,0:0:0:0:
395,174,143441,2,0,P|346:166|293:130,1,90,2|0,1:2|0:0,0:0:0:0:
423,87,143794,1,10,2:2:0:0:
311,146,143970,1,2,0:0:0:0:
423,302,144146,6,0,P|462:281|506:274,1,90,2|0,1:1|0:0,0:0:0:0:
331,379,144499,2,0,L|309:274,1,90,8|0,2:2|0:0,0:0:0:0:
209,140,144852,2,0,L|190:228,1,90,0|0,1:1|0:0,0:0:0:0:
113,357,145205,1,10,2:2:0:0:
113,357,145382,1,2,1:2:0:0:
239,297,145558,5,2,1:1:0:0:
113,196,145735,1,10,2:2:0:0:
212,369,145911,5,2,0:0:0:0:
269,223,146088,1,2,1:2:0:0:
79,277,146264,5,10,2:2:0:0:
192,226,146441,1,8,3:0:0:0:
140,114,146617,1,8,3:0:0:0:
28,165,146794,1,4,3:0:0:0:
113,196,146970,5,6,1:1:0:0:
1,74,156852,5,8,3:3:0:0:
1,74,156941,1,8,3:3:0:0:
1,74,157029,2,0,P|14:85|26:106,1,36,4|0,3:3|3:3,3:3:0:0:
119,34,157205,6,0,P|115:50|99:75,1,40.4999987640381,8|0,3:3|3:3,3:3:0:0:
125,43,157382,2,0,P|121:59|105:84,1,40.4999987640381,8|0,3:3|3:3,3:3:0:0:
188,152,157558,6,0,P|171:157|138:155,1,45,4|0,3:3|3:3,3:3:0:0:
185,165,157735,2,0,P|168:170|135:168,1,45,4|0,3:3|3:3,3:3:0:0:
112,287,157911,6,0,P|99:275|86:240,1,49.5000015106202,2|0,0:3|0:0,0:0:0:0:
11,235,158088,2,0,P|14:218|38:188,1,49.5000015106202,2|0,0:3|0:0,0:0:0:0:
109,75,158264,6,0,P|168:63|258:116,1,148.50000453186,6|0,1:1|0:0,0:0:0:0:
245,99,158617,2,0,L|235:205,2,99.0000030212403,10|0|0,2:1|0:0|1:1,0:0:0:0:
406,63,159146,1,2,0:0:0:0:
251,11,159323,1,10,2:2:0:0:
333,144,159499,1,2,1:2:0:0:
479,87,159676,6,0,P|480:38|451:0,1,99.0000030212403,2|0,1:2|0:0,0:0:0:0:
260,124,160029,2,0,P|258:172|288:211,1,99.0000030212403,10|0,2:2|0:0,0:0:0:0:
509,227,160382,2,0,P|464:204|417:189,1,99.0000030212403,2|0,1:2|3:0,0:0:0:0:
396,202,160646,1,0,3:0:0:0:
386,225,160735,1,10,3:2:0:0:
237,82,160912,1,0,3:0:0:0:
242,106,160999,1,0,3:0:0:0:
260,124,161088,6,0,P|332:103|416:-6,1,198.000006042481,2|8,1:2|2:2,0:0:0:0:
450,122,161617,1,0,0:0:0:0:
315,14,161794,1,0,1:1:0:0:
410,12,161970,1,0,0:0:0:0:
333,149,162146,2,0,P|321:197|314:251,1,99.0000030212403,10|0,2:2|3:0,0:0:0:0:
134,10,162499,6,0,P|171:106|188:212,1,198.000006042481,2|8,1:2|2:2,0:0:0:0:
134,10,163029,1,2,0:0:0:0:
250,135,163205,1,2,1:2:0:0:
76,97,163382,1,2,0:0:0:0:
215,10,163558,2,0,P|264:25|305:63,1,99.0000030212403,10|8,3:2|3:3,0:0:0:0:
251,285,163911,6,0,L|86:251,1,148.50000453186,6|0,1:1|0:0,0:0:0:0:
105,255,164264,2,0,P|56:270|15:308,1,99.0000030212403,10|0,2:1|0:0,0:0:0:0:
251,285,164617,2,0,P|262:235|250:180,1,99.0000030212403,0|0,1:1|0:0,0:0:0:0:
122,377,164970,1,10,2:2:0:0:
172,299,165146,1,2,0:0:0:0:
38,233,165323,5,2,1:2:0:0:
172,299,165499,1,2,0:0:0:0:
163,148,165676,1,10,2:2:0:0:
163,148,165852,1,2,0:0:0:0:
98,297,166029,2,0,L|-12:327,1,99.0000030212403,2|0,1:2|0:0,0:0:0:0:
202,380,166382,1,10,2:2:0:0:
235,242,166558,1,2,3:2:0:0:
329,384,166735,6,0,P|359:337|387:188,1,198.000006042481,0|8,1:1|2:2,0:0:0:0:
177,299,167264,2,0,L|287:329,1,99.0000030212403,2|0,0:0|1:1,0:0:0:0:
387,199,167617,1,0,0:0:0:0:
272,325,167794,1,8,2:2:0:0:
240,241,167970,1,0,0:0:0:0:
356,336,168146,5,2,1:2:0:0:
357,360,168235,1,2,0:0:0:0:
342,380,168323,1,10,2:2:0:0:
449,260,168499,5,2,0:0:0:0:
472,266,168588,1,2,0:0:0:0:
486,286,168676,1,2,1:2:0:0:
405,148,168852,5,10,2:2:0:0:
418,128,168941,1,2,0:0:0:0:
441,120,169029,1,10,3:0:0:0:
284,155,169205,5,8,3:0:0:0:
258,59,169382,1,4,3:0:0:0:
314,277,169558,5,6,1:1:0:0:
349,194,169735,1,0,0:0:0:0:
183,187,169911,1,10,2:2:0:0:
234,261,170088,1,0,0:0:0:0:
211,112,170264,2,0,P|175:88|111:86,1,90,2|0,1:1|0:0,0:0:0:0:
59,184,170617,1,8,2:2:0:0:
59,184,170794,1,0,0:0:0:0:
67,40,170970,5,2,1:1:0:0:
153,163,171146,2,0,L|140:264,1,90,2|8,0:0|2:2,0:0:0:0:
298,62,171499,2,0,L|311:163,1,90,2|0,0:0|1:1,0:0:0:0:
204,44,171852,1,2,0:0:0:0:
335,0,172029,1,8,2:2:0:0:
298,62,172205,1,2,0:0:0:0:
382,182,172382,5,2,1:1:0:0:
450,129,172558,1,0,0:0:0:0:
409,285,172735,1,10,2:2:0:0:
327,255,172911,1,0,0:0:0:0:
482,254,173088,2,0,P|490:308|457:352,1,90,2|0,1:1|0:0,0:0:0:0:
353,381,173441,1,8,2:2:0:0:
353,381,173617,1,2,0:0:0:0:
232,191,173794,6,0,L|259:328,1,135,2|0,1:1|0:0,0:0:0:0:
258,323,174146,2,0,P|304:320|331:258,1,90,10|0,2:2|0:0,0:0:0:0:
128,218,174499,1,0,1:1:0:0:
128,218,174676,1,2,0:0:0:0:
145,384,174852,2,0,L|161:290,1,90,8|2,2:2|0:0,0:0:0:0:
290,183,175205,5,2,1:1:0:0:
258,101,175382,1,0,0:0:0:0:
131,136,175558,1,10,2:2:0:0:
210,168,175735,1,0,0:0:0:0:
123,13,175911,2,0,P|83:42|71:79,1,90,2|0,1:1|0:0,0:0:0:0:
128,222,176264,1,8,2:2:0:0:
128,222,176441,1,0,0:0:0:0:
70,79,176617,5,2,1:1:0:0:
18,203,176794,2,0,L|42:318,1,90,2|8,0:0|2:2,0:0:0:0:
165,136,177146,2,0,L|76:154,1,90,2|0,0:0|1:1,0:0:0:0:
221,269,177499,1,2,0:0:0:0:
291,151,177676,1,8,2:2:0:0:
225,191,177852,1,2,0:0:0:0:
306,368,178029,5,2,1:1:0:0:
331,287,178205,1,0,0:0:0:0:
158,312,178382,1,10,2:2:0:0:
133,231,178558,1,0,0:0:0:0:
254,318,178735,2,0,P|192:325|84:394,1,180,2|8,1:1|2:2,0:0:0:0:
254,318,179264,1,2,0:0:0:0:
183,155,179441,5,2,1:1:0:0:
158,312,179617,1,10,2:2:0:0:
268,212,179794,5,2,1:2:0:0:
86,169,179970,1,2,1:2:0:0:
254,318,180146,5,10,2:2:0:0:
143,220,180323,1,10,3:0:0:0:
241,109,180499,1,10,3:0:0:0:
352,207,180676,1,6,3:0:0:0:
143,220,180852,5,6,1:1:0:0:
