osu file format v14

[General]
AudioFilename: audio.mp3
AudioLeadIn: 0
PreviewTime: 45323
Countdown: 0
SampleSet: Soft
StackLeniency: 0.7
Mode: 0
LetterboxInBreaks: 0
WidescreenStoryboard: 0

[Editor]
Bookmarks: 147,11441,22735,34029,45323,56617,67911,79205,90499,101794,113088,124382,135676,146970,158264,169558,180852
DistanceSpacing: 0.75
BeatDivisor: 4
GridSize: 32
TimelineZoom: 1

[Metadata]
Title:Skrzydlate Rece
TitleUnicode:Skrzydlate Ręce
Artist:Enej
ArtistUnicode:Enej
Creator:Embo
Version:Raj
Source:
Tags:polish polski pl rock ska folkhorod winged arms paradise
BeatmapID:4006786
BeatmapSetID:1938268

[Difficulty]
HPDrainRate:5
CircleSize:4
OverallDifficulty:8
ApproachRate:9
SliderMultiplier:1.8
SliderTickRate:1

[Events]
//Background and Video events
0,0,"thumb-1920-1066513.png",0,0
//Break Periods
2,147170,156252
//Storyboard Layer 0 (Background)
//Storyboard Layer 1 (Fail)
//Storyboard Layer 2 (Pass)
//Storyboard Layer 3 (Foreground)
//Storyboard Layer 4 (Overlay)
//Storyboard Sound Samples

[TimingPoints]
147,352.941176470588,4,2,1,50,1,0
147,-142.857142857143,4,2,1,50,0,0
11441,-100,4,2,1,60,0,0
22735,-117.647058823529,4,2,1,55,0,0
45146,-76.9230769230769,4,2,1,55,0,0
45323,-76.9230769230769,4,2,1,70,0,1
45676,-86.9565217391304,4,2,1,70,0,1
50970,-76.9230769230769,4,2,1,70,0,1
51323,-86.9565217391304,4,2,1,70,0,1
55205,-86.9565217391304,4,2,1,60,0,0
56441,-76.9230769230769,4,2,1,60,0,0
56617,-76.9230769230769,4,2,1,70,0,1
56970,-86.9565217391304,4,2,1,70,0,1
62264,-76.9230769230769,4,2,1,70,0,1
62617,-86.9565217391304,4,2,1,70,0,1
67911,-100,4,2,1,60,0,0
79205,-117.647058823529,4,2,1,55,0,0
101617,-76.9230769230769,4,2,1,55,0,0
101794,-76.9230769230769,4,2,1,70,0,1
102146,-86.9565217391304,4,2,1,70,0,1
107441,-76.9230769230769,4,2,1,70,0,1
107794,-86.9565217391304,4,2,1,70,0,1
111676,-86.9565217391304,4,2,1,60,0,0
112911,-76.9230769230769,4,2,1,60,0,0
113088,-76.9230769230769,4,2,1,70,0,1
113441,-86.9565217391304,4,2,1,70,0,1
118735,-76.9230769230769,4,2,1,70,0,1
119088,-86.9565217391304,4,2,1,70,0,1
124382,-100,4,2,1,60,0,0
133558,-90.9090909090909,4,2,1,65,0,0
134264,-90.9090909090909,4,2,1,70,0,0
134970,-90.9090909090909,4,2,1,75,0,0
135676,-100,4,2,1,60,0,0
146970,-166.666666666667,4,2,1,65,0,0
156852,-100,4,2,1,50,0,0
157205,-90.9090909090909,4,2,1,60,0,0
157558,-83.3333333333333,4,2,1,70,0,0
157911,-76.9230769230769,4,2,1,80,0,0
158264,-71.4285714285714,4,2,1,75,0,1
158617,-80,4,2,1,75,0,1
163911,-71.4285714285714,4,2,1,75,0,1
164264,-80,4,2,1,75,0,1
169558,-86.9565217391304,4,2,1,70,0,0
180852,-86.9565217391304,4,2,1,65,0,0

[Colours]
Combo1 : 233,121,10
Combo2 : 124,157,197
Combo3 : 206,162,96
Combo4 : 85,73,226

[HitObjects]
386,46,147,5,2,0:0:0:0:
458,66,323,1,0,0:0:0:0:
461,142,499,1,2,0:0:0:0:
390,168,676,1,0,0:0:0:0:
343,108,852,2,0,P|302:155|295:216,1,125.999996154785,2|0,0:0|0:0,0:0:0:0:
366,243,1382,1,0,0:0:0:0:
320,338,1558,1,2,0:0:0:0:
223,294,1735,2,0,P|197:268|185:166,2,125.999996154785
295,216,2617,2,0,L|362:228,1,62.9999980773926
213,0,2970,5,2,0:0:0:0:
146,33,3146,1,0,0:0:0:0:
157,108,3322,1,2,0:0:0:0:
232,120,3499,1,0,0:0:0:0:
267,52,3675,2,0,P|315:90|334:149,1,125.999996154785,2|0,0:0|0:0,0:0:0:0:
272,193,4205,1,2,0:0:0:0:
329,308,4382,2,0,P|388:288|426:240,1,125.999996154785,2|0,0:0|0:0,0:0:0:0:
276,370,4911,1,0,0:0:0:0:
276,370,5264,5,0,0:0:0:0:
202,350,5441,1,0,0:0:0:0:
128,330,5617,1,0,0:0:0:0:
252,226,5794,5,2,0:0:0:0:
178,246,5970,1,0,0:0:0:0:
136,181,6146,1,2,0:0:0:0:
184,120,6323,1,0,0:0:0:0:
256,146,6499,2,0,P|267:85|242:28,1,125.999996154785,2|0,0:0|0:0,0:0:0:0:
168,1,7029,1,0,0:0:0:0:
106,76,7205,1,2,0:0:0:0:
16,21,7382,2,0,P|77:27|125:68,2,125.999996154785
0,165,8264,2,0,L|65:150,1,62.9999980773926
252,313,8617,5,2,0:0:0:0:
256,236,8793,1,0,0:0:0:0:
184,207,8969,1,2,0:0:0:0:
134,266,9146,1,0,0:0:0:0:
172,331,9322,2,0,P|114:353|54:340,1,125.999996154785,2|0,0:0|0:0,0:0:0:0:
20,271,9852,1,2,0:0:0:0:
111,181,10029,5,2,0:0:0:0:
111,181,10205,1,0,0:0:0:0:
2,135,10382,5,2,0:0:0:0:
2,135,10558,1,0,0:0:0:0:
75,79,10735,5,2,0:0:0:0:
75,79,11441,5,6,1:1:0:0:
120,248,11617,1,0,0:0:0:0:
178,72,11794,1,10,2:2:0:0:
4,161,11970,1,0,0:0:0:0:
185,189,12146,2,0,L|283:168,1,90,2|0,1:1|0:0,0:0:0:0:
101,150,12499,1,8,2:2:0:0:
227,317,12676,1,0,0:0:0:0:
342,109,12852,5,2,1:1:0:0:
273,170,13029,2,0,P|250:124|260:76,1,90,2|8,0:0|2:2,0:0:0:0:
461,228,13382,2,0,P|464:272|442:310,1,90,2|0,0:0|1:1,0:0:0:0:
239,244,13735,1,2,0:0:0:0:
260,248,13823,1,0,0:0:0:0:
281,252,13911,1,8,2:2:0:0:
367,384,14088,1,2,0:0:0:0:
371,363,14176,1,0,0:0:0:0:
375,342,14264,5,2,1:1:0:0:
329,187,14441,1,0,0:0:0:0:
228,348,14617,1,10,2:2:0:0:
381,251,14794,1,0,0:0:0:0:
182,130,14970,2,0,L|168:229,1,90,2|0,1:1|0:0,0:0:0:0:
177,240,15235,1,0,0:0:0:0:
184,260,15323,1,8,2:2:0:0:
341,173,15499,1,2,0:0:0:0:
100,100,15676,6,0,P|154:43|263:86,1,180,2|8,1:1|2:2,0:0:0:0:
99,202,16205,1,2,0:0:0:0:
99,202,16382,1,0,1:1:0:0:
254,142,16558,1,2,0:0:0:0:
258,164,16646,1,0,0:0:0:0:
262,186,16735,1,8,2:2:0:0:
144,35,16911,1,2,1:2:0:0:
309,17,17088,5,2,1:1:0:0:
179,113,17264,1,0,0:0:0:0:
360,174,17441,1,10,2:2:0:0:
179,113,17617,1,0,0:0:0:0:
408,79,17794,2,0,P|440:115|446:165,1,90,2|0,1:1|0:0,0:0:0:0:
277,272,18146,1,8,2:2:0:0:
299,104,18323,1,0,0:0:0:0:
418,311,18499,5,2,1:1:0:0:
476,240,18676,2,0,L|388:218,1,90,2|8,0:0|2:2,0:0:0:0:
242,372,19029,2,0,L|329:350,1,90,2|0,0:0|1:1,0:0:0:0:
161,250,19382,1,2,0:0:0:0:
166,228,19470,1,0,0:0:0:0:
171,206,19558,1,8,2:2:0:0:
71,367,19735,1,2,0:0:0:0:
66,345,19823,1,0,0:0:0:0:
61,323,19911,5,2,1:1:0:0:
232,294,20088,1,0,0:0:0:0:
67,183,20264,1,10,2:2:0:0:
148,333,20441,1,0,0:0:0:0:
170,122,20617,2,0,P|215:128|247:163,1,90,2|0,1:1|0:0,0:0:0:0:
252,180,20882,1,0,0:0:0:0:
250,202,20970,1,8,2:2:0:0:
92,254,21146,1,2,0:0:0:0:
218,383,21323,5,2,1:1:0:0:
168,212,21499,1,2,0:0:0:0:
327,316,21676,5,10,2:2:0:0:
377,145,21852,1,2,0:0:0:0:
150,305,22029,5,2,1:1:0:0:
325,224,22205,1,10,2:2:0:0:
244,49,22382,5,10,3:0:0:0:
69,130,22558,1,6,3:0:0:0:
195,177,22735,5,4,1:1:0:0:
145,117,22911,5,2,0:0:0:0:
271,163,23088,1,10,2:2:0:0:
168,249,23264,1,2,0:0:0:0:
42,202,23441,2,0,P|24:250|96:329,1,153.000002918243,2|8,1:2|2:2,0:2:0:0:
123,193,23970,1,2,0:2:0:0:
0,137,24146,5,2,1:2:0:0:
123,193,24323,1,2,0:2:0:0:
158,50,24499,1,10,2:2:0:0:
103,107,24676,1,2,0:2:0:0:
213,219,24852,2,0,P|220:181|241:147,1,76.5000014591217,2|0,1:2|0:2,0:2:0:0:
321,84,25205,2,0,L|239:63,2,76.5000014591217,8|0|0,2:2|0:2|1:2,0:2:0:0:
417,277,25735,5,2,0:2:0:0:
303,200,25911,1,10,2:2:0:0:
396,191,26088,1,2,0:2:0:0:
285,283,26264,2,0,P|304:315|311:353,1,76.5000014591217,2|0,1:2|0:2,0:2:0:0:
311,353,26529,1,2,0:2:0:0:
311,353,26617,1,8,2:2:0:0:
206,261,26794,1,2,0:2:0:0:
403,332,26970,6,0,P|450:294|468:187,1,153.000002918243,2|8,1:2|2:2,0:2:0:0:
322,100,27499,1,2,0:3:0:0:
383,235,27676,1,2,1:3:0:0:
442,136,27852,1,2,0:3:0:0:
313,195,28029,1,8,2:2:0:0:
313,195,28117,1,2,0:3:0:0:
313,195,28205,2,0,L|213:175,1,76.5000014591217,2|0,0:3|1:2,0:2:0:0:
396,66,28558,5,2,0:2:0:0:
294,112,28735,1,10,2:2:0:0:
343,0,28911,1,2,0:2:0:0:
447,138,29088,2,0,P|484:99|439:-1,1,153.000002918243,2|8,1:2|2:2,0:2:0:0:
364,145,29617,1,2,0:2:0:0:
268,38,29794,5,2,1:2:0:0:
396,66,29970,1,2,0:2:0:0:
259,194,30146,1,10,2:2:0:0:
222,114,30323,1,2,0:2:0:0:
350,220,30499,2,0,L|365:136,1,76.5000014591217,2|0,1:2|0:2,0:2:0:0:
295,299,30852,2,0,P|328:319|366:322,2,76.5000014591217,8|0|0,2:2|0:2|1:2,0:2:0:0:
170,243,31382,5,2,0:2:0:0:
203,353,31558,1,10,2:2:0:0:
203,353,31735,1,2,0:2:0:0:
269,227,31911,1,2,1:2:0:0:
269,227,32088,1,2,0:2:0:0:
87,198,32264,1,10,2:2:0:0:
188,127,32441,1,2,0:2:0:0:
56,279,32617,6,0,P|17:250|33:139,1,153.000002918243,2|8,1:2|2:2,0:2:0:0:
193,209,33146,1,2,0:2:0:0:
97,120,33323,1,2,1:2:0:0:
138,272,33499,1,8,2:2:0:0:
261,162,33676,1,8,3:3:0:0:
279,168,33764,1,4,3:3:0:0:
296,174,33852,1,4,3:3:0:0:
161,20,34029,5,4,1:1:0:0:
197,91,34205,5,2,0:2:0:0:
117,188,34382,1,10,2:2:0:0:
0,141,34558,1,2,0:2:0:0:
8,15,34735,2,0,P|66:37|68:130,1,153.000002918243,2|8,1:2|2:2,0:2:0:0:
0,233,35264,1,2,0:2:0:0:
143,194,35441,5,2,1:2:0:0:
0,233,35617,1,2,0:2:0:0:
75,119,35794,1,10,2:2:0:0:
121,285,35970,2,0,L|217:262,1,76.5000014591217,2|0,0:2|1:2,0:2:0:0:
86,368,36323,2,0,L|11:350,2,76.5000014591217,2|8|0,0:2|2:2|0:2,0:2:0:0:
86,368,36852,1,0,1:2:0:0:
195,267,37029,5,2,0:2:0:0:
269,384,37205,1,10,2:2:0:0:
185,350,37382,1,2,0:2:0:0:
287,236,37558,1,2,1:2:0:0:
287,236,37735,1,2,0:2:0:0:
386,350,37911,1,10,2:2:0:0:
421,251,38088,1,2,0:2:0:0:
262,311,38264,6,0,P|251:260|208:147,1,153.000002918243,2|8,1:2|2:2,0:2:0:0:
314,67,38794,1,2,0:3:0:0:
169,39,38970,1,2,1:3:0:0:
301,147,39146,1,2,0:3:0:0:
373,9,39323,1,8,2:2:0:0:
373,9,39411,1,2,0:3:0:0:
373,9,39499,2,0,P|396:48|391:90,1,76.5000014591217,2|0,0:3|1:3,0:3:0:0:
215,130,39852,5,2,0:2:0:0:
245,0,40029,1,10,2:2:0:0:
314,67,40205,1,2,0:2:0:0:
145,93,40382,2,0,P|136:149|219:215,1,153.000002918243,2|8,1:2|2:2,0:2:0:0:
338,173,40911,1,2,0:2:0:0:
250,293,41088,5,2,1:2:0:0:
255,144,41264,1,2,0:2:0:0:
347,264,41441,1,10,2:2:0:0:
198,213,41617,1,2,0:2:0:0:
339,160,41794,2,0,P|347:122|361:81,1,76.5000014591217,2|0,1:2|0:2,0:2:0:0:
455,148,42146,2,0,P|467:184|474:221,2,76.5000014591217,8|0|0,2:2|0:2|1:2,0:2:0:0:
496,15,42676,5,2,0:2:0:0:
362,0,42852,1,10,2:2:0:0:
427,58,43029,1,2,0:2:0:0:
295,151,43205,1,2,1:2:0:0:
312,65,43382,1,2,0:2:0:0:
444,205,43558,1,10,2:2:0:0:
395,139,43735,2,0,P|371:172|368:217,1,76.5000014591217,2|0,0:2|1:2,0:2:0:0:
490,321,44088,5,10,3:2:0:0:
501,318,44176,1,0,3:0:0:0:
512,315,44264,1,0,3:0:0:0:
438,384,44441,1,0,1:1:0:0:
379,281,44617,1,8,3:2:0:0:
272,376,44794,1,8,3:0:0:0:
166,217,44970,1,8,3:0:0:0:
48,313,45146,1,4,3:0:0:0:
8,292,45235,1,4,3:0:0:0:
5,248,45323,6,0,P|62:286|102:399,1,175.499991966248,6|0,1:1|0:0,0:0:0:0:
102,382,45676,2,0,P|116:325|237:187,1,207.000003948212,10|0,2:1|1:1,0:0:0:0:
303,310,46205,1,2,0:0:0:0:
86,177,46382,1,10,2:2:0:0:
282,120,46558,1,2,1:2:0:0:
114,269,46735,6,0,P|63:269|19:239,1,103.500001974106,2|0,1:2|0:0,0:0:0:0:
204,209,47088,2,0,P|230:252|225:306,1,103.500001974106,10|0,2:2|0:0,0:0:0:0:
4,158,47441,1,2,1:2:0:0:
128,61,47617,1,0,3:0:0:0:
157,82,47705,1,0,3:0:0:0:
155,118,47794,1,10,3:2:0:0:
225,303,47970,1,0,3:0:0:0:
254,282,48058,1,0,3:0:0:0:
252,246,48146,6,0,P|212:192|59:160,1,207.000003948212,2|8,1:2|2:2,0:0:0:0:
146,322,48676,1,0,0:0:0:0:
261,129,48852,1,0,1:1:0:0:
146,200,49029,1,0,0:0:0:0:
347,341,49205,2,0,P|370:273|354:219,1,103.500001974106,10|0,2:2|3:0,0:0:0:0:
357,133,49470,5,0,3:0:0:0:
357,133,49558,2,0,P|409:168|446:316,1,207.000003948212,2|8,1:2|2:2,0:0:0:0:
243,163,50088,1,2,0:0:0:0:
471,195,50264,1,2,1:2:0:0:
268,288,50441,1,2,0:0:0:0:
346,51,50617,1,10,3:2:0:0:
370,44,50705,1,8,3:0:0:0:
396,47,50793,1,8,3:3:0:0:
419,59,50881,1,4,3:0:0:0:
437,79,50970,6,0,P|386:21|261:7,1,175.499991966248,6|0,1:1|0:0,0:0:0:0:
293,0,51323,2,0,P|260:52|267:104,1,103.500001974106,10|0,2:1|0:0,0:0:0:0:
405,232,51676,2,0,P|404:181|374:140,1,103.500001974106,0|0,1:1|0:0,0:0:0:0:
182,241,52029,1,10,2:2:0:0:
341,348,52205,1,2,0:0:0:0:
239,179,52382,5,2,1:2:0:0:
180,375,52558,1,2,0:0:0:0:
123,153,52735,1,10,2:2:0:0:
254,312,52911,1,2,0:0:0:0:
292,113,53088,2,0,P|330:162|324:213,1,103.500001974106,2|0,1:2|0:0,0:0:0:0:
127,297,53441,1,10,2:2:0:0:
22,113,53617,1,2,3:2:0:0:
39,82,53705,1,0,3:0:0:0:
75,80,53794,6,0,P|141:119|185:258,1,207.000003948212,0|8,1:1|2:2,0:0:0:0:
2,353,54323,2,0,P|29:288|73:265,1,103.500001974106,2|0,0:0|1:1,0:0:0:0:
168,384,54676,1,0,0:0:0:0:
16,200,54852,1,8,2:2:0:0:
187,236,55029,1,0,1:1:0:0:
87,350,55205,5,0,1:1:0:0:
194,314,55382,1,10,3:2:0:0:
208,310,55470,1,0,3:0:0:0:
222,305,55558,1,0,3:0:0:0:
80,243,55735,1,0,1:1:0:0:
269,197,55911,1,8,3:2:0:0:
59,115,56088,1,8,3:0:0:0:
331,83,56264,1,8,3:0:0:0:
148,0,56441,1,4,3:0:0:0:
115,28,56529,1,4,3:0:0:0:
130,69,56617,6,0,P|214:81|272:19,1,175.499991966248,6|0,1:1|0:0,0:0:0:0:
271,19,56970,2,0,P|239:74|218:226,1,207.000003948212,10|0,2:1|1:1,0:0:0:0:
400,282,57499,1,2,0:0:0:0:
253,134,57676,1,10,2:2:0:0:
268,365,57852,1,2,1:2:0:0:
473,211,58029,6,0,P|426:175|375:181,1,103.500001974106,2|0,1:2|0:0,0:0:0:0:
183,290,58382,2,0,P|233:289|271:256,1,103.500001974106,10|0,2:2|0:0,0:0:0:0:
328,18,58735,1,2,1:2:0:0:
147,47,58911,1,0,3:0:0:0:
145,83,58999,1,0,3:0:0:0:
174,105,59088,1,10,3:2:0:0:
384,177,59264,1,0,3:0:0:0:
361,206,59353,1,0,3:0:0:0:
325,203,59441,6,0,P|284:155|255:-7,1,207.000003948212,2|8,1:2|2:2,0:0:0:0:
447,43,59970,1,0,0:0:0:0:
254,154,60146,1,0,1:1:0:0:
328,18,60323,1,0,0:0:0:0:
456,215,60499,2,0,P|445:273|404:317,1,103.500001974106,10|0,2:2|3:0,0:0:0:0:
319,273,60764,5,0,3:0:0:0:
319,273,60852,2,0,P|401:334|502:351,1,207.000003948212,2|8,1:2|2:2,0:0:0:0:
354,160,61382,1,2,0:0:0:0:
296,376,61558,1,2,1:2:0:0:
456,215,61735,1,2,0:0:0:0:
179,158,61911,1,10,3:2:0:0:
161,177,61999,1,8,3:0:0:0:
154,201,62087,1,8,3:3:0:0:
156,227,62175,1,4,3:0:0:0:
167,253,62264,6,0,P|130:195|155:80,1,175.499991966248,6|0,1:1|0:0,0:0:0:0:
145,93,62617,2,0,P|208:89|254:130,1,103.500001974106,10|0,2:1|0:0,0:0:0:0:
393,277,62970,2,0,P|348:300|297:293,1,103.500001974106,0|0,1:1|0:0,0:0:0:0:
339,86,63323,1,10,2:2:0:0:
493,218,63499,1,2,0:0:0:0:
303,170,63676,5,2,1:2:0:0:
510,76,63852,1,2,0:0:0:0:
257,27,64029,1,10,2:2:0:0:
440,145,64205,1,2,0:0:0:0:
248,253,64382,2,0,P|296:277|358:263,1,103.500001974106,2|0,1:2|0:0,0:0:0:0:
323,83,64735,1,10,2:2:0:0:
164,149,64911,1,2,3:2:0:0:
156,184,64999,1,0,3:0:0:0:
181,210,65088,6,0,P|191:134|125:23,1,207.000003948212,0|8,1:1|2:2,0:0:0:0:
1,146,65617,2,0,P|71:121|93:72,1,103.500001974106,2|0,0:0|1:1,0:0:0:0:
0,7,65970,1,0,0:0:0:0:
58,220,66146,1,8,2:2:0:0:
212,79,66323,1,0,1:1:0:0:
85,100,66500,5,2,1:2:0:0:
60,60,66588,1,2,0:0:0:0:
89,23,66677,1,10,2:2:0:0:
217,234,66852,5,2,0:0:0:0:
171,245,66940,1,2,0:0:0:0:
145,206,67029,1,2,1:2:0:0:
385,149,67206,5,10,2:2:0:0:
381,197,67294,1,2,0:0:0:0:
336,209,67383,1,10,3:0:0:0:
317,19,67558,5,8,3:0:0:0:
468,64,67735,1,4,3:0:0:0:
205,156,67911,5,6,1:1:0:0:
327,98,68088,1,0,0:0:0:0:
141,63,68264,1,10,2:2:0:0:
182,238,68441,1,0,0:0:0:0:
249,89,68617,2,0,L|236:0,1,90,2|0,1:1|0:0,0:0:0:0:
105,155,68970,1,8,2:2:0:0:
279,206,69146,1,0,0:0:0:0:
146,357,69323,5,2,1:1:0:0:
76,306,69499,2,0,P|116:273|158:271,1,90,2|8,0:0|2:2,0:0:0:0:
291,384,69852,2,0,L|304:295,1,90,2|0,0:0|1:1,0:0:0:0:
212,136,70205,1,2,0:0:0:0:
216,158,70294,1,0,0:0:0:0:
220,179,70382,1,8,2:2:0:0:
76,306,70558,1,2,0:0:0:0:
80,284,70647,1,0,0:0:0:0:
84,263,70735,5,2,1:1:0:0:
151,364,70911,1,0,0:0:0:0:
2,341,71088,1,10,2:2:0:0:
173,284,71264,1,0,0:0:0:0:
45,138,71441,2,0,P|10:178|20:238,1,90,2|0,1:1|0:0,0:0:0:0:
17,233,71705,1,0,0:0:0:0:
34,247,71794,1,8,2:2:0:0:
148,136,71970,1,2,0:0:0:0:
252,333,72146,6,0,P|259:276|295:135,1,180,2|8,1:1|2:2,0:0:0:0:
169,238,72676,1,2,0:0:0:0:
169,238,72852,1,0,1:1:0:0:
359,217,73029,5,2,0:0:0:0:
214,93,73205,1,8,2:2:0:0:
299,272,73382,1,2,1:2:0:0:
415,66,73558,5,2,1:1:0:0:
287,156,73735,1,0,0:0:0:0:
339,13,73911,1,10,2:2:0:0:
435,157,74088,1,0,0:0:0:0:
241,15,74264,2,0,P|213:47|217:101,1,90,2|0,1:1|0:0,0:0:0:0:
364,231,74617,1,8,2:2:0:0:
294,79,74794,1,0,0:0:0:0:
217,280,74970,5,2,1:1:0:0:
277,207,75146,2,0,L|174:183,1,90,2|8,0:0|2:2,0:0:0:0:
359,350,75499,2,0,L|462:326,1,90,2|0,0:0|1:1,0:0:0:0:
285,384,75852,1,2,0:0:0:0:
279,361,75941,1,0,0:0:0:0:
273,339,76029,1,8,2:2:0:0:
410,200,76205,1,2,0:0:0:0:
404,222,76293,1,0,0:0:0:0:
398,245,76382,5,2,1:1:0:0:
508,384,76558,1,0,0:0:0:0:
494,234,76735,1,10,2:2:0:0:
374,377,76911,1,0,0:0:0:0:
299,158,77088,2,0,P|274:192|282:258,1,90,2|0,1:1|0:0,0:0:0:0:
286,256,77352,1,0,0:0:0:0:
306,266,77441,1,8,2:2:0:0:
393,130,77617,1,2,0:0:0:0:
220,72,77794,5,2,1:1:0:0:
372,215,77970,1,2,0:0:0:0:
335,13,78146,5,10,2:2:0:0:
225,190,78323,1,2,0:0:0:0:
69,50,78499,5,2,1:1:0:0:
255,0,78676,1,10,2:2:0:0:
305,186,78852,5,10,3:0:0:0:
119,236,79029,1,6,3:0:0:0:
187,118,79205,5,4,1:1:0:0:
155,39,79382,5,2,0:2:0:0:
108,150,79558,1,10,2:2:0:0:
219,197,79735,1,2,0:2:0:0:
68,74,79911,2,0,P|26:116|54:215,1,153.000002918243,2|8,1:2|2:2,0:2:0:0:
176,273,80441,1,2,0:2:0:0:
55,365,80617,5,2,1:2:0:0:
15,283,80794,1,2,0:2:0:0:
148,363,80970,1,10,2:2:0:0:
125,214,81146,2,0,P|102:247|100:289,1,76.5000014591217,2|0,0:2|1:2,0:2:0:0:
198,167,81499,2,0,L|277:186,2,76.5000014591217,2|8|0,0:2|2:2|0:2,0:2:0:0:
198,167,82029,1,0,1:2:0:0:
299,101,82205,5,2,0:2:0:0:
350,246,82382,1,10,2:2:0:0:
259,279,82558,1,2,0:2:0:0:
375,166,82735,2,0,L|394:87,1,76.5000014591217,2|0,1:2|0:2,0:2:0:0:
392,91,82999,1,2,0:2:0:0:
392,91,83088,1,8,2:2:0:0:
462,223,83264,1,2,0:2:0:0:
288,178,83441,6,0,P|244:214|263:305,1,153.000002918243,2|8,1:2|2:2,0:2:0:0:
400,381,83970,1,2,0:3:0:0:
327,252,84146,1,2,1:3:0:0:
288,384,84323,1,2,0:3:0:0:
416,289,84499,1,8,2:2:0:0:
416,289,84588,1,2,0:3:0:0:
416,289,84676,2,0,P|457:297|497:312,1,76.5000014591217,2|0,0:3|1:2,0:2:0:0:
385,111,85029,5,2,0:2:0:0:
502,217,85205,1,10,2:2:0:0:
404,199,85382,2,0,P|367:211|330:218,1,76.5000014591217,2|0,0:2|1:2,0:2:0:0:
475,123,85735,2,0,P|482:85|494:49,1,76.5000014591217,2|8,0:2|2:2,0:2:0:0:
502,217,86088,1,2,0:2:0:0:
349,125,86264,5,2,1:2:0:0:
330,218,86441,1,2,0:2:0:0:
264,89,86617,1,10,2:2:0:0:
383,41,86794,1,2,0:2:0:0:
250,178,86970,2,0,L|242:264,1,76.5000014591217,2|0,1:2|0:2,0:2:0:0:
185,84,87323,2,0,P|142:88|110:114,2,76.5000014591217,8|0|0,2:2|0:2|1:2,0:2:0:0:
222,19,87852,5,2,0:2:0:0:
176,164,88029,1,10,2:2:0:0:
176,164,88205,1,2,0:2:0:0:
54,63,88382,1,2,1:2:0:0:
54,63,88558,1,2,0:2:0:0:
20,220,88735,1,10,2:2:0:0:
79,149,88911,1,2,0:2:0:0:
0,0,89088,5,2,1:2:0:0:
120,11,89264,1,0,3:0:0:0:
130,7,89352,1,0,3:0:0:0:
141,3,89441,1,8,3:2:0:0:
54,63,89617,1,0,3:0:0:0:
183,102,89794,1,0,1:1:0:0:
60,170,89970,1,8,3:2:0:0:
245,196,90146,1,8,3:2:0:0:
135,290,90323,1,0,3:0:0:0:
107,291,90411,1,0,3:0:0:0:
90,270,90499,1,4,1:1:0:0:
149,211,90676,5,2,0:2:0:0:
274,276,90852,1,10,2:2:0:0:
219,355,91029,2,0,L|313:374,1,76.5000014591217,2|0,0:2|1:2,0:2:0:0:
159,289,91382,2,0,P|134:328|131:376,1,76.5000014591217,2|8,0:2|2:2,0:2:0:0:
2,384,91735,1,2,0:2:0:0:
0,252,91911,5,2,1:2:0:0:
54,323,92088,1,2,0:2:0:0:
113,148,92264,1,10,2:2:0:0:
24,166,92441,1,2,0:2:0:0:
161,267,92617,2,0,L|255:248,1,76.5000014591217,2|0,1:2|0:2,0:2:0:0:
220,117,92970,2,0,P|198:156|188:204,2,76.5000014591217,8|0|0,2:2|0:2|1:2,0:2:0:0:
160,50,93499,5,2,0:2:0:0:
349,116,93676,1,10,2:2:0:0:
190,187,93852,1,2,0:2:0:0:
248,0,94029,2,0,P|270:39|280:87,1,76.5000014591217,2|0,1:2|0:2,0:2:0:0:
278,69,94294,1,2,0:2:0:0:
278,69,94382,1,8,2:2:0:0:
371,206,94558,1,2,0:2:0:0:
501,74,94735,6,0,P|470:28|372:25,1,153.000002918243,2|8,1:2|2:2,0:2:0:0:
290,169,95264,1,2,0:3:0:0:
423,95,95441,1,2,1:3:0:0:
288,10,95617,1,2,0:3:0:0:
388,176,95794,1,10,2:2:0:0:
388,176,95882,1,2,0:3:0:0:
388,176,95970,2,0,P|366:215|356:263,1,76.5000014591217,2|0,0:3|1:2,0:2:0:0:
498,184,96323,5,2,0:2:0:0:
337,93,96499,1,10,2:2:0:0:
428,80,96676,1,2,0:2:0:0:
357,245,96852,2,0,P|307:223|266:124,1,153.000002918243,2|8,1:2|2:2,0:2:0:0:
393,159,97382,1,2,0:2:0:0:
363,352,97558,5,2,1:2:0:0:
458,381,97735,1,2,0:2:0:0:
449,222,97911,1,10,2:2:0:0:
508,301,98088,1,2,0:2:0:0:
325,221,98264,2,0,P|300:250|291:296,1,76.5000014591217,2|0,1:2|0:2,0:2:0:0:
213,378,98617,2,0,P|203:341|178:312,2,76.5000014591217,8|0|0,2:2|0:2|1:2,0:2:0:0:
343,378,99146,5,2,0:2:0:0:
223,241,99323,1,10,2:2:0:0:
325,221,99499,1,2,0:2:0:0:
139,160,99676,1,2,1:2:0:0:
105,258,99852,1,2,0:2:0:0:
272,137,100029,1,10,2:2:0:0:
204,58,100205,2,0,P|236:37|282:43,1,76.5000014591217,2|0,0:2|1:2,0:2:0:0:
225,338,100558,5,10,3:2:0:0:
223,349,100646,1,0,3:0:0:0:
221,360,100735,1,0,3:0:0:0:
326,309,100911,1,0,1:1:0:0:
192,238,101088,1,8,3:2:0:0:
383,177,101264,1,8,3:0:0:0:
143,76,101441,1,8,3:0:0:0:
344,0,101617,1,4,3:0:0:0:
365,37,101705,1,4,3:0:0:0:
339,73,101794,6,0,P|270:73|188:9,1,175.499991966248,6|0,1:1|0:0,0:0:0:0:
188,9,102146,2,0,P|189:75|136:224,1,207.000003948212,10|0,2:1|1:1,0:0:0:0:
37,69,102676,1,2,0:0:0:0:
259,166,102852,1,10,2:2:0:0:
82,247,103029,1,2,1:2:0:0:
188,9,103205,6,0,P|221:41|228:105,1,103.500001974106,2|0,1:2|0:0,0:0:0:0:
0,257,103558,2,0,P|6:206|42:169,1,103.500001974106,10|0,2:2|0:0,0:0:0:0:
237,254,103911,1,2,1:2:0:0:
104,368,104088,1,0,3:0:0:0:
68,361,104176,1,0,3:0:0:0:
59,325,104264,1,10,3:2:0:0:
168,160,104441,1,0,3:0:0:0:
132,169,104529,1,0,3:0:0:0:
125,205,104617,6,0,P|166:257|306:313,1,207.000003948212,2|8,1:2|2:2,0:0:0:0:
413,135,105146,1,0,0:0:0:0:
242,210,105323,1,0,1:1:0:0:
377,260,105499,1,0,0:0:0:0:
310,56,105676,2,0,P|259:64|219:96,1,103.500001974106,10|0,2:2|3:0,0:0:0:0:
116,169,105941,5,0,3:0:0:0:
116,169,106029,2,0,P|134:84|215:0,1,207.000003948212,2|8,1:2|2:2,0:0:0:0:
353,174,106558,1,2,0:0:0:0:
118,47,106735,1,2,1:2:0:0:
364,0,106911,1,2,0:0:0:0:
242,265,107088,1,10,3:2:0:0:
222,248,107176,1,8,3:3:0:0:
209,226,107264,1,8,3:3:0:0:
204,200,107352,1,4,3:3:0:0:
209,176,107441,6,0,P|178:233|221:350,1,175.499991966248,6|0,1:1|0:0,0:0:0:0:
205,335,107794,2,0,P|258:343|314:290,1,103.500001974106,10|0,2:1|0:0,0:0:0:0:
469,156,108146,2,0,P|425:130|374:139,1,103.500001974106,0|0,1:1|0:0,0:0:0:0:
414,383,108499,1,10,2:2:0:0:
508,228,108676,1,2,0:0:0:0:
296,221,108852,5,2,1:2:0:0:
501,328,109029,1,2,0:0:0:0:
260,317,109205,1,10,2:2:0:0:
428,227,109382,1,2,0:0:0:0:
195,177,109558,2,0,P|230:143|289:143,1,103.500001974106,2|0,1:2|0:0,0:0:0:0:
309,380,109911,1,10,2:2:0:0:
95,317,110088,1,2,3:2:0:0:
69,291,110176,1,0,3:0:0:0:
76,255,110264,6,0,P|142:248|271:337,1,207.000003948212,0|8,1:1|2:2,0:0:0:0:
78,173,110794,2,0,P|65:104|89:53,1,103.500001974106,2|0,0:0|1:1,0:0:0:0:
312,33,111146,1,0,0:0:0:0:
247,210,111323,1,8,2:2:0:0:
153,121,111499,1,0,1:1:0:0:
450,210,111676,5,0,1:1:0:0:
403,126,111852,1,10,3:2:0:0:
407,110,111941,1,0,3:0:0:0:
411,95,112029,1,0,3:0:0:0:
332,258,112205,1,0,1:1:0:0:
259,94,112382,1,8,3:2:0:0:
188,299,112558,1,8,3:0:0:0:
105,73,112735,1,8,3:0:0:0:
7,183,112911,1,4,3:0:0:0:
0,226,112999,1,4,3:0:0:0:
39,246,113088,6,0,P|113:210|169:122,1,175.499991966248,6|0,1:1|0:0,0:0:0:0:
164,134,113441,2,0,P|165:202|209:341,1,207.000003948212,10|0,2:1|1:1,0:0:0:0:
342,206,113970,1,2,0:0:0:0:
136,288,114146,1,10,2:2:0:0:
322,376,114323,1,2,1:2:0:0:
296,130,114499,6,0,P|260:179|259:232,1,103.500001974106,2|0,1:2|0:0,0:0:0:0:
386,53,114852,2,0,P|337:17|284:16,1,103.500001974106,10|0,2:2|0:0,0:0:0:0:
431,196,115205,1,2,1:2:0:0:
512,67,115382,1,0,3:0:0:0:
475,68,115470,1,0,3:0:0:0:
458,99,115558,1,10,3:2:0:0:
378,294,115735,1,0,3:0:0:0:
347,277,115823,1,0,3:0:0:0:
346,240,115911,6,0,P|431:239|527:334,1,207.000003948212,2|8,1:2|2:2,0:0:0:0:
341,374,116441,1,0,0:0:0:0:
268,171,116617,1,0,1:1:0:0:
346,240,116794,1,0,0:0:0:0:
166,366,116970,2,0,P|135:315|142:254,1,103.500001974106,10|0,2:2|3:0,0:0:0:0:
130,159,117235,5,0,3:0:0:0:
130,159,117323,2,0,P|83:195|56:335,1,207.000003948212,2|8,1:2|2:2,0:0:0:0:
244,275,117852,1,2,0:0:0:0:
30,189,118029,1,2,1:2:0:0:
166,366,118205,1,2,0:0:0:0:
310,174,118382,1,10,3:2:0:0:
293,154,118470,1,8,3:3:0:0:
271,140,118558,1,8,3:3:0:0:
246,135,118646,1,4,3:3:0:0:
223,142,118735,6,0,P|293:101|403:136,1,175.499991966248,6|0,1:1|0:0,0:0:0:0:
381,118,119088,2,0,P|408:164|400:219,1,103.500001974106,10|0,2:1|0:0,0:0:0:0:
132,165,119441,2,0,P|128:114|154:70,1,103.500001974106,0|0,1:1|0:0,0:0:0:0:
314,264,119794,1,10,2:2:0:0:
144,314,119970,1,2,0:0:0:0:
215,137,120146,5,2,1:2:0:0:
303,352,120323,1,2,0:0:0:0:
329,175,120499,1,10,2:2:0:0:
223,318,120676,1,2,0:0:0:0:
153,70,120852,2,0,P|127:114|132:165,1,103.500001974106,2|0,1:2|0:0,0:0:0:0:
314,264,121205,1,10,2:2:0:0:
374,47,121382,1,2,3:2:0:0:
338,50,121470,1,0,3:0:0:0:
328,84,121558,6,0,P|350:141|481:212,1,207.000003948212,0|8,1:1|2:2,0:0:0:0:
261,0,122088,2,0,P|200:-9|153:18,1,103.500001974106,2|0,0:0|1:1,0:0:0:0:
168,254,122441,1,0,0:0:0:0:
221,82,122617,1,8,2:2:0:0:
94,141,122794,1,0,1:1:0:0:
344,237,122970,5,0,1:1:0:0:
241,207,123146,1,8,2:2:0:0:
420,163,123323,1,0,0:0:0:0:
369,340,123499,1,0,1:1:0:0:
178,153,123676,5,8,2:2:0:0:
304,116,123852,1,8,3:0:0:0:
83,61,124029,1,8,3:0:0:0:
146,279,124205,1,4,3:0:0:0:
275,36,124382,6,0,P|330:14|385:2,1,90,6|0,1:1|0:0,0:0:0:0:
398,28,124646,2,0,P|420:83|432:138,1,90,2|0,0:0|0:0,0:0:0:0:
405,152,124911,2,0,P|377:163|350:169,1,45,2|0,0:0|0:0,0:0:0:0:
225,99,125088,2,0,P|200:138|202:191,1,90,2|0,1:2|0:0,0:0:0:0:
198,180,125352,1,0,0:0:0:0:
198,180,125441,1,8,2:2:0:0:
123,32,125617,1,2,1:2:0:0:
13,254,125794,6,0,B|58:260|58:260|99:229,1,90,2|0,1:1|0:0,0:0:0:0:
120,197,126058,2,0,B|126:151|126:151|95:110,1,90,2|0,0:0|0:0,0:0:0:0:
58,98,126323,2,0,L|5:113,1,45,2|0,0:0|0:0,0:0:0:0:
206,10,126499,2,0,B|212:55|212:55|181:96,1,90,2|0,1:2|0:0,0:0:0:0:
31,16,126852,1,10,2:2:0:0:
106,292,127029,1,2,0:0:0:0:
86,280,127117,1,2,0:0:0:0:
82,257,127205,6,0,P|119:228|179:210,1,90,2|0,1:1|0:0,0:0:0:0:
183,173,127470,2,0,P|220:202|280:220,1,90,2|0,0:0|0:0,0:0:0:0:
292,248,127735,2,0,P|316:228|350:210,1,45,2|0,0:0|0:0,0:0:0:0:
352,57,127911,2,0,P|345:103|359:164,1,90,2|0,1:2|0:0,0:0:0:0:
512,238,128264,1,10,2:2:0:0:
430,106,128441,1,2,1:2:0:0:
391,358,128617,6,0,B|354:330|354:330|364:278,1,90,2|0,1:1|0:0,0:0:0:0:
399,261,128882,2,0,B|436:233|436:233|426:181,1,90,2|0,0:0|0:0,0:0:0:0:
388,168,129146,2,0,L|334:156,1,45,2|0,0:0|0:0,0:0:0:0:
237,56,129323,2,0,B|265:19|265:19|317:29,1,90,2|0,1:2|0:0,0:0:0:0:
257,191,129676,1,10,2:2:0:0:
156,24,129852,1,2,1:2:0:0:
369,82,130029,6,0,P|434:58|482:0,1,135,2|0,1:1|0:0,0:0:0:0:
476,10,130382,1,10,2:2:0:0:
464,192,130558,1,2,0:0:0:0:
307,27,130735,2,0,P|285:70|298:117,1,90,2|0,1:2|0:0,0:0:0:0:
512,127,131088,2,0,P|469:105|422:118,1,90,8|0,2:2|0:0,0:0:0:0:
363,348,131441,6,0,P|321:332|298:294,1,90,2|0,1:1|0:0,0:0:0:0:
264,266,131705,2,0,P|279:224|317:201,1,90,2|0,0:2|0:0,0:0:0:0:
346,167,131970,2,0,P|374:175|392:185,1,45,2|0,0:0|0:0,0:0:0:0:
461,300,132146,1,2,1:2:0:0:
480,205,132323,1,0,0:0:0:0:
480,205,132411,1,0,0:0:0:0:
480,205,132499,1,10,2:2:0:0:
512,373,132676,1,2,0:0:0:0:
346,167,132852,6,0,P|311:197|286:303,1,135,2|0,1:1|0:0,0:0:0:0:
300,321,133205,2,0,L|389:303,1,90,8|0,2:2|0:0,0:0:0:0:
128,381,133558,6,0,P|93:351|70:234,1,148.50000453186,2|0,1:1|0:0,0:0:0:0:
88,211,133911,2,0,L|149:202,1,49.5000015106202,8|0,2:2|0:0,0:0:0:0:
200,276,134088,1,0,1:1:0:0:
329,168,134264,5,2,1:1:0:0:
141,62,134441,1,8,2:2:0:0:
222,196,134617,1,0,0:0:0:0:
255,83,134794,1,0,1:1:0:0:
176,353,134970,5,10,2:2:0:0:
11,232,135146,1,8,3:0:0:0:
182,125,135323,1,8,3:0:0:0:
82,8,135499,1,4,3:0:0:0:
32,8,135588,1,4,3:0:0:0:
11,52,135676,6,0,P|20:98|60:159,1,90,6|0,1:1|0:0,0:0:0:0:
74,165,135941,2,0,P|120:156|181:116,1,90,2|0,0:0|0:0,0:0:0:0:
182,98,136205,2,0,P|172:63|152:33,1,45,2|0,0:0|0:0,0:0:0:0:
273,7,136382,2,0,P|282:53|322:114,1,90,2|0,1:2|0:0,0:0:0:0:
302,91,136646,1,0,0:0:0:0:
302,91,136735,1,8,2:2:0:0:
404,0,136911,1,2,1:2:0:0:
487,245,137088,6,0,B|441:247|441:247|402:214,1,90,2|0,1:1|0:0,0:0:0:0:
384,180,137352,2,0,B|381:133|381:133|415:94,1,90,2|0,0:0|0:0,0:0:0:0:
452,86,137617,2,0,L|503:104,1,45,2|0,0:0|0:0,0:0:0:0:
307,0,137794,2,0,L|220:23,1,90,2|0,1:2|0:0,0:0:0:0:
411,10,138146,1,10,2:2:0:0:
210,176,138323,1,2,0:0:0:0:
219,195,138411,1,2,0:0:0:0:
239,205,138499,6,0,P|270:162|277:123,1,90,2|0,1:1|0:0,0:0:0:0:
316,104,138764,2,0,P|359:135|398:142,1,90,2|0,0:0|0:0,0:0:0:0:
413,183,139029,2,0,P|397:204|392:223,1,45,2|0,0:0|0:0,0:0:0:0:
490,345,139205,2,0,P|447:314|408:307,1,90,2|0,1:2|0:0,0:0:0:0:
306,384,139558,1,10,2:2:0:0:
411,307,139734,1,2,0:0:0:0:
214,184,139911,6,0,B|243:219|243:219|237:274,1,90,2|0,1:1|0:0,0:0:0:0:
222,305,140176,2,0,B|187:334|187:334|132:328,1,90,2|0,0:0|0:0,0:0:0:0:
100,311,140441,2,0,L|83:261,1,45,2|0,0:0|0:0,0:0:0:0:
24,140,140617,2,0,L|11:237,1,90,2|0,1:2|0:0,0:0:0:0:
136,169,140970,1,10,2:2:0:0:
2,306,141146,1,2,1:2:0:0:
200,272,141323,6,0,P|236:238|248:132,1,135,2|0,1:1|0:0,0:0:0:0:
254,156,141676,1,10,2:2:0:0:
112,21,141852,2,0,P|123:69|164:99,1,90,2|0,0:0|1:1,0:0:0:0:
348,25,142205,2,0,L|252:11,2,90,2|8|0,0:0|2:2|0:0,0:0:0:0:
420,194,142735,6,0,P|389:226|346:234,1,90,2|0,1:1|0:0,0:0:0:0:
313,265,142999,2,0,P|272:246|251:207,1,90,2|0,0:0|0:0,0:0:0:0:
208,193,143264,2,0,P|209:165|221:133,1,45,2|0,0:0|0:0,0:0:0:0:
283,49,143441,1,2,1:2:0:0:
324,149,143617,1,0,0:0:0:0:
324,149,143705,1,0,0:0:0:0:
324,149,143794,1,10,2:2:0:0:
198,16,143970,1,2,0:0:0:0:
71,201,144146,6,0,P|102:233|145:241,1,90,2|0,1:1|0:0,0:0:0:0:
74,49,144499,2,0,P|30:57|0:88,1,90,8|0,2:2|0:0,0:0:0:0:
232,272,144852,2,0,L|214:161,1,90,0|0,1:1|0:0,0:0:0:0:
166,383,145205,1,10,2:2:0:0:
317,264,145382,1,2,1:2:0:0:
105,61,145558,5,2,1:1:0:0:
274,120,145735,1,10,2:2:0:0:
214,289,145911,1,2,0:0:0:0:
45,229,146088,1,2,1:2:0:0:
193,80,146264,5,10,2:2:0:0:
254,207,146441,1,8,3:0:0:0:
127,268,146617,1,8,3:0:0:0:
65,141,146794,1,4,3:0:0:0:
160,174,146970,5,6,1:1:0:0:
231,384,156852,5,8,3:3:0:0:
231,384,156941,1,8,3:3:0:0:
231,384,157029,2,0,L|216:320,1,45,4|0,3:3|3:3,3:3:0:0:
272,226,157205,6,0,P|253:242|240:263,1,49.5000015106202,8|0,3:3|3:3,3:3:0:0:
117,263,157382,2,0,P|141:269|161:282,1,49.5000015106202,8|0,3:3|3:3,3:3:0:0:
267,146,157558,6,0,P|242:149|214:170,1,53.9999983520508,4|0,3:3|3:3,3:3:0:0:
86,189,157735,2,0,P|109:181|143:187,1,53.9999983520508,4|0,3:3|3:3,3:3:0:0:
303,74,157911,6,0,P|277:66|244:68,1,58.4999973220826,2|0,0:3|0:0,0:0:0:0:
22,140,158088,2,0,P|41:122|72:109,1,58.4999973220826,2|0,0:3|0:0,0:0:0:0:
275,0,158264,6,0,P|311:64|355:182,1,188.999994232178,6|0,1:1|0:0,0:0:0:0:
353,170,158617,2,0,P|286:188|175:70,1,225,10|0,2:1|1:1,0:0:0:0:
440,124,159146,1,2,0:0:0:0:
245,276,159323,1,10,2:2:0:0:
298,63,159499,1,2,1:2:0:0:
439,254,159676,6,0,P|474:311|473:367,1,112.5,2|0,1:2|0:0,0:0:0:0:
164,211,160029,2,0,P|221:176|277:177,1,112.5,10|0,2:2|0:0,0:0:0:0:
228,372,160382,1,2,1:2:0:0:
45,264,160558,1,0,3:0:0:0:
34,226,160646,1,0,3:0:0:0:
65,201,160735,1,10,3:2:0:0:
265,174,160911,1,0,3:0:0:0:
240,143,161000,1,0,3:0:0:0:
202,155,161088,6,0,P|183:225|312:279,1,225,2|8,1:2|2:2,0:0:0:0:
424,152,161617,1,0,0:0:0:0:
229,250,161794,1,0,1:1:0:0:
395,301,161970,1,0,0:0:0:0:
345,71,162146,2,0,P|304:33|249:30,1,112.5,10|0,2:2|3:0,0:0:0:0:
199,99,162411,5,0,3:0:0:0:
199,99,162499,2,0,P|271:61|427:25,1,225,2|8,1:2|2:2,0:0:0:0:
376,218,163029,1,2,0:0:0:0:
167,12,163205,1,2,1:2:0:0:
440,112,163382,1,2,0:0:0:0:
225,279,163558,1,10,3:2:0:0:
200,265,163646,1,8,3:0:0:0:
184,242,163734,1,8,3:3:0:0:
178,215,163822,1,4,3:0:0:0:
186,188,163911,6,0,P|151:239|203:358,1,188.999994232178,6|0,1:1|0:0,0:0:0:0:
190,350,164264,2,0,P|257:350|292:305,1,112.5,10|0,2:1|0:0,0:0:0:0:
209,95,164617,2,0,P|154:89|112:125,1,112.5,0|0,1:1|0:0,0:0:0:0:
291,241,164970,1,10,2:2:0:0:
331,60,165146,1,2,0:0:0:0:
128,232,165323,5,2,1:2:0:0:
371,136,165499,1,2,0:0:0:0:
131,44,165676,1,10,2:2:0:0:
291,156,165852,1,2,0:0:0:0:
88,307,166029,2,0,P|43:257|56:199,1,112.5,2|0,1:2|0:0,0:0:0:0:
217,72,166382,1,10,2:2:0:0:
329,268,166558,1,2,3:2:0:0:
318,305,166646,1,0,3:0:0:0:
280,317,166735,6,0,P|210:289|131:160,1,225,0|8,1:1|2:2,0:0:0:0:
303,37,167264,2,0,P|298:110|265:152,1,112.5,2|0,0:0|1:1,0:0:0:0:
0,34,167617,1,0,0:0:0:0:
213,0,167794,1,8,2:2:0:0:
132,167,167970,1,0,0:0:0:0:
121,0,168146,5,2,1:2:0:0:
77,36,168235,1,2,0:0:0:0:
96,88,168323,1,10,2:2:0:0:
329,81,168499,5,2,0:0:0:0:
281,50,168588,1,2,0:0:0:0:
237,84,168676,1,2,1:2:0:0:
316,303,168852,5,10,2:2:0:0:
330,248,168941,1,2,0:0:0:0:
284,217,169029,1,10,3:0:0:0:
100,350,169205,5,8,3:0:0:0:
321,384,169382,1,4,3:0:0:0:
168,159,169558,5,6,1:1:0:0:
212,346,169735,1,0,0:0:0:0:
72,196,169911,1,10,2:2:0:0:
254,117,170088,1,0,0:0:0:0:
103,271,170264,2,0,P|52:276|12:245,1,103.500001974106,2|0,1:1|0:0,0:0:0:0:
142,61,170617,1,8,2:2:0:0:
237,231,170794,1,0,0:0:0:0:
364,29,170970,5,2,1:1:0:0:
273,0,171146,2,0,P|230:47|240:94,1,103.500001974106,2|8,0:0|2:2,0:0:0:0:
472,207,171499,2,0,P|452:146|407:131,1,103.500001974106,2|0,0:0|1:1,0:0:0:0:
299,315,171852,1,2,0:0:0:0:
419,131,172029,1,8,2:2:0:0:
274,159,172205,1,2,0:0:0:0:
487,317,172382,5,2,1:1:0:0:
246,244,172558,1,0,0:0:0:0:
486,201,172735,1,10,2:2:0:0:
391,368,172911,1,0,0:0:0:0:
339,113,173088,2,0,P|359:55|401:19,1,103.500001974106,2|0,1:1|0:0,0:0:0:0:
379,245,173441,1,8,2:2:0:0:
232,108,173617,1,2,0:0:0:0:
199,350,173794,6,0,P|259:314|298:224,1,155.250002961159,2|0,1:1|0:0,0:0:0:0:
269,195,174146,2,0,L|164:173,1,103.500001974106,10|0,2:2|0:0,0:0:0:0:
167,173,174411,1,0,0:0:0:0:
167,173,174499,1,0,1:1:0:0:
290,56,174676,1,2,0:0:0:0:
379,245,174852,1,8,2:2:0:0:
232,108,175029,1,2,0:0:0:0:
124,304,175205,5,2,1:1:0:0:
269,195,175382,1,0,0:0:0:0:
71,134,175558,1,10,2:2:0:0:
239,276,175735,1,0,0:0:0:0:
45,378,175911,2,0,P|14:321|28:271,1,103.500001974106,2|0,1:1|0:0,0:0:0:0:
174,166,176264,1,8,2:2:0:0:
0,201,176441,1,0,0:0:0:0:
213,366,176617,5,2,1:1:0:0:
239,276,176794,2,0,P|188:272|146:300,1,103.500001974106,2|8,0:0|2:2,0:0:0:0:
400,339,177146,2,0,L|413:232,1,103.500001974106,2|0,0:0|1:1,0:0:0:0:
284,91,177499,1,2,0:0:0:0:
323,281,177676,1,8,2:2:0:0:
423,156,177852,1,2,0:0:0:0:
178,148,178029,5,2,1:1:0:0:
366,44,178205,1,0,0:0:0:0:
248,224,178382,1,10,2:2:0:0:
181,7,178558,1,0,0:0:0:0:
350,167,178735,2,0,P|289:156|251:126,1,103.500001974106,2|0,1:1|0:0,0:0:0:0:
256,132,178999,1,0,0:0:0:0:
256,132,179088,1,8,2:2:0:0:
169,305,179264,1,2,0:0:0:0:
69,35,179441,5,2,1:1:0:0:
173,224,179617,1,10,2:2:0:0:
166,4,179794,5,2,1:2:0:0:
53,244,179970,1,2,1:2:0:0:
353,156,180146,5,10,2:2:0:0:
149,110,180323,1,10,3:0:0:0:
104,314,180499,5,10,3:0:0:0:
307,359,180676,1,6,3:0:0:0:
229,235,180852,5,6,1:1:0:0:
