osu file format v14

[General]
AudioFilename: audio.mp3
AudioLeadIn: 0
PreviewTime:45323
Countdown: 0
SampleSet: Soft
StackLeniency: 0.7
Mode: 0
LetterboxInBreaks: 0
WidescreenStoryboard: 1

[Editor]
Bookmarks:147,11441,22735,34029,45323,56617,67911,79205,90499,101794,113088,124382,135676,146970,158264,169558,180852
DistanceSpacing: 0.9
BeatDivisor: 4
GridSize: 32
TimelineZoom: 1

[Metadata]
Title:Skrzydlate Rece
TitleUnicode:Skrzydlate Ręce
Artist:Enej
ArtistUnicode:Enej
Creator:Embo
Version:Normalny
Source:
Tags:polish polski pl rock ska folkhorod winged arms paradise
BeatmapID:4011579
BeatmapSetID:1938268

[Difficulty]
HPDrainRate:4
CircleSize:3.5
OverallDifficulty:4
ApproachRate:5.5
SliderMultiplier:1.3
SliderTickRate:1

[Events]
//Background and Video events
0,0,"thumb-1920-1066513.png",0,0
//Break Periods
2,147170,156852
//Storyboard Layer 0 (Background)
//Storyboard Layer 1 (Fail)
//Storyboard Layer 2 (Pass)
//Storyboard Layer 3 (Foreground)
//Storyboard Layer 4 (Overlay)
//Storyboard Sound Samples

[TimingPoints]
147,352.941176470588,4,2,1,50,1,0
147,-100,4,2,1,50,0,0
11441,-111.111111111111,4,2,1,60,0,0
22735,-125,4,2,1,55,0,0
45323,-100,4,2,1,70,0,1
45676,-100,4,2,1,70,0,1
50970,-100,4,2,1,70,0,1
51323,-100,4,2,1,70,0,1
55205,-111.111111111111,4,2,1,60,0,0
56617,-100,4,2,1,70,0,1
56970,-100,4,2,1,70,0,1
62264,-100,4,2,1,70,0,1
62617,-100,4,2,1,70,0,1
67911,-111.111111111111,4,2,1,60,0,0
79205,-125,4,2,1,55,0,0
101794,-100,4,2,1,70,0,1
102146,-100,4,2,1,70,0,1
107441,-100,4,2,1,70,0,1
107794,-100,4,2,1,70,0,1
111676,-111.111111111111,4,2,1,60,0,0
113088,-100,4,2,1,70,0,1
113441,-100,4,2,1,70,0,1
118735,-100,4,2,1,70,0,1
119088,-100,4,2,1,70,0,1
124382,-111.111111111111,4,2,1,60,0,0
133558,-111.111111111111,4,2,1,65,0,0
134264,-111.111111111111,4,2,1,70,0,0
134970,-111.111111111111,4,2,1,75,0,0
135676,-111.111111111111,4,2,1,60,0,0
146970,-111.111111111111,4,2,1,65,0,0
156852,-100,4,2,1,50,0,0
157205,-100,4,2,1,60,0,0
157558,-100,4,2,1,70,0,0
157911,-100,4,2,1,80,0,0
158264,-90.9090909090909,4,2,1,75,0,1
158617,-90.9090909090909,4,2,1,75,0,1
163911,-90.9090909090909,4,2,1,75,0,1
164264,-90.9090909090909,4,2,1,75,0,1
169558,-100,4,2,1,70,0,0
180852,-100,4,2,1,65,0,0

[Colours]
Combo1 : 233,121,10
Combo2 : 124,157,197
Combo3 : 206,162,96
Combo4 : 85,73,226

[HitObjects]
256,192,8617,12,2,10735,0:0:0:0:
61,49,11441,6,0,L|121:60,1,58.4999982147217,6|0,1:1|0:0,0:0:0:0:
150,101,11794,2,0,L|210:90,1,58.4999982147217,10|0,2:2|0:0,0:0:0:0:
235,45,12146,1,2,1:1:0:0:
300,127,12499,2,0,P|310:152|314:186,1,58.4999982147217,8|0,2:2|0:0,0:0:0:0:
288,231,12852,1,2,1:1:0:0:
288,231,13029,2,0,P|243:262|171:230,1,116.999996429443,2|2,0:0|0:0,0:0:0:0:
105,178,13735,2,0,P|108:149|119:121,2,58.4999982147217,2|8|2,0:0|2:2|0:0,0:0:0:0:
75,222,14264,6,0,L|8:237,1,58.4999982147217,2|0,1:1|0:0,0:0:0:0:
3,285,14617,2,0,L|18:352,1,58.4999982147217,10|0,2:2|0:0,0:0:0:0:
63,364,14970,1,2,1:1:0:0:
139,291,15323,1,8,2:2:0:0:
139,291,15499,1,2,0:0:0:0:
139,291,15676,2,0,P|165:319|260:313,1,116.999996429443,2|8,1:1|2:2,0:0:0:0:
309,183,16558,1,2,0:0:0:0:
309,183,16735,1,8,2:2:0:0:
376,263,17088,6,0,P|388:298|394:323,1,58.4999982147217,2|0,1:1|0:0,0:0:0:0:
436,349,17441,2,0,P|471:337|496:331,1,58.4999982147217,10|0,2:2|0:0,0:0:0:0:
505,280,17794,1,2,1:1:0:0:
433,203,18146,2,0,P|440:174|450:147,1,58.4999982147217,8|0,2:2|0:0,0:0:0:0:
496,121,18499,1,2,1:1:0:0:
496,121,18676,2,0,P|464:81|388:62,1,116.999996429443,2|2,0:0|0:0,0:0:0:0:
309,11,19382,2,0,L|234:-4,2,58.4999982147217,2|8|2,0:0|2:2|0:0,0:0:0:0:
312,63,19911,6,0,P|297:92|286:127,1,58.4999982147217,2|0,1:1|0:0,0:0:0:0:
325,153,20264,2,0,P|340:182|351:217,1,58.4999982147217,10|0,2:2|0:0,0:0:0:0:
326,254,20617,1,2,1:1:0:0:
187,330,21146,1,2,0:0:0:0:
187,330,21323,2,0,L|121:316,1,58.4999982147217,2|2,1:1|0:0,0:0:0:0:
92,280,21676,2,0,L|106:214,1,58.4999982147217,10|2,2:2|0:0,0:0:0:0:
156,202,22029,1,2,1:1:0:0:
156,202,22205,1,10,2:2:0:0:
156,202,22382,2,0,L|142:136,1,58.4999982147217,10|6,3:0|3:0,0:0:0:0:
107,114,22735,5,4,1:1:0:0:
169,44,23088,1,10,2:2:0:0:
84,4,23441,2,0,P|35:32|8:91,1,104,2|8,1:2|2:2,0:2:0:0:
38,161,24146,2,0,L|28:227,1,52,2|2,1:2|0:2,0:0:0:0:
57,250,24499,2,0,L|123:260,1,52,10|2,2:2|0:2,0:0:0:0:
146,229,24852,2,0,P|166:261|165:333,1,104,2|8,1:2|2:2,0:2:0:0:
82,366,25558,5,0,1:2:0:0:
6,310,25911,1,10,2:2:0:0:
58,232,26264,2,0,P|42:201|-4:172,2,78,2|2|2,1:2|0:2|0:2,0:2:0:0:
93,262,26970,2,0,L|206:232,1,104,2|8,1:2|2:2,0:2:0:0:
225,269,27499,1,2,0:3:0:0:
225,269,27676,2,0,P|252:246|263:162,1,104,2|8,1:3|2:2,0:0:0:0:
215,103,28382,5,0,1:2:0:0:
266,24,28735,1,10,2:2:0:0:
335,86,29088,2,0,P|385:78|442:48,1,104,2|8,1:2|2:2,0:2:0:0:
456,16,29617,1,2,0:2:0:0:
456,16,29794,2,0,L|467:77,1,52,2|2,1:2|0:2,0:0:0:0:
506,94,30146,2,0,L|495:155,1,52,10|2,2:2|0:2,0:0:0:0:
510,189,30499,2,0,P|463:166|412:158,1,104,2|8,1:2|2:2,0:2:0:0:
354,232,31205,5,0,1:2:0:0:
281,172,31558,2,0,L|266:116,1,52,10|2,2:2|0:2,0:0:0:0:
230,92,31911,2,0,L|174:107,1,52,2|2,1:2|0:2,0:0:0:0:
164,149,32264,1,10,2:2:0:0:
79,109,32617,2,0,P|45:155|52:223,1,104,2|8,1:2|2:2,0:2:0:0:
78,230,33146,1,2,0:2:0:0:
78,230,33323,2,0,L|137:244,2,52,2|8|8,1:2|2:2|3:3,0:0:0:0:
17,301,34029,5,4,1:1:0:0:
75,374,34382,1,10,2:2:0:0:
153,323,34735,2,0,L|266:299,1,104,2|8,1:2|2:2,0:2:0:0:
263,207,35441,2,0,P|296:214|321:229,1,52,2|2,1:2|0:2,0:0:0:0:
358,228,35794,2,0,P|368:260|367:289,1,52,10|2,2:2|0:2,0:0:0:0:
345,368,36323,2,0,L|280:380,2,52,2|8|0,0:2|2:2|0:2,0:2:0:0:
389,382,36852,5,0,1:2:0:0:
468,332,37205,1,10,2:2:0:0:
438,243,37558,2,0,P|408:231|385:229,1,52,2|2,1:2|0:2,0:0:0:0:
358,193,37911,2,0,P|370:163|372:140,1,52,10|2,2:2|0:2,0:0:0:0:
413,121,38264,2,0,P|394:83|327:54,1,104,2|8,1:2|2:2,0:2:0:0:
306,86,38794,1,2,0:3:0:0:
306,86,38970,2,0,L|187:109,1,104,2|8,1:3|2:2,0:0:0:0:
132,44,39676,5,0,1:3:0:0:
51,92,40029,1,10,2:2:0:0:
100,171,40382,2,0,P|141:180|201:217,1,104,2|8,1:2|2:2,0:2:0:0:
229,250,40911,1,2,0:2:0:0:
229,250,41088,2,0,L|220:301,1,52,2|2,1:2|0:2,0:0:0:0:
203,340,41441,2,0,L|150:331,1,52,10|2,2:2|0:2,0:0:0:0:
119,296,41794,2,0,P|86:322|48:381,1,104,2|8,1:2|2:2,0:2:0:0:
2,293,42499,5,0,1:2:0:0:
23,200,42852,1,10,2:2:0:0:
103,149,43205,1,2,1:2:0:0:
196,171,43558,1,10,2:2:0:0:
249,257,43911,1,0,1:2:0:0:
249,257,44088,2,0,L|355:233,1,104,10|0,3:2|1:1,0:0:0:0:
375,194,44617,2,0,L|363:136,1,52,8|8,3:2|3:0,0:0:0:0:
326,114,44970,1,8,3:0:0:0:
213,145,45323,6,0,P|205:105|257:27,2,130,6|10|0,1:1|2:1|1:1,0:0:0:0:
260,179,46205,1,2,0:0:0:0:
237,233,46382,2,0,L|169:249,1,65,10|2,2:2|1:2,0:0:0:0:
130,208,46735,1,2,1:2:0:0:
57,299,47088,1,10,2:2:0:0:
150,368,47441,2,0,L|217:354,1,65,2|0,1:2|3:0,0:0:0:0:
257,315,47794,2,0,P|286:348|297:377,1,65,10|0,3:2|3:0,0:0:0:0:
351,379,48146,6,0,P|391:348|422:246,2,130,2|8|0,1:2|2:2|1:1,0:0:0:0:
262,302,49205,2,0,L|249:232,1,65,10|0,2:2|3:0,0:0:0:0:
198,209,49558,2,0,P|261:200|319:154,1,130,2|8,1:2|2:2,0:0:0:0:
280,112,50088,1,2,0:0:0:0:
312,63,50264,2,0,L|388:78,1,65,2|2,1:2|0:0,0:0:0:0:
401,128,50617,1,10,3:2:0:0:
482,43,50970,6,0,P|515:110|507:187,2,130,6|10|0,1:1|2:1|1:1,0:0:0:0:
370,7,52029,2,0,L|359:72,1,65,10|2,2:2|0:0,0:0:0:0:
322,117,52382,2,0,L|257:106,1,65,2|2,1:2|0:0,0:0:0:0:
234,52,52735,1,10,2:2:0:0:
178,34,52911,1,2,0:0:0:0:
138,77,53088,1,2,1:2:0:0:
118,192,53441,2,0,L|45:215,1,65,10|2,2:2|3:2,0:0:0:0:
9,176,53794,6,0,P|-4:126|31:52,1,130,0|8,1:1|2:2,0:0:0:0:
79,33,54323,1,2,0:0:0:0:
79,33,54499,2,0,B|111:63|111:63|198:41,1,130,0|8,1:1|2:2,0:0:0:0:
310,7,55205,5,0,1:1:0:0:
310,7,55382,2,0,B|356:48|356:48|332:114,1,116.999996429443,10|0,3:2|1:1,0:0:0:0:
320,149,55911,2,0,L|251:167,1,58.4999982147217,8|8,3:2|3:0,0:0:0:0:
223,128,56264,1,8,3:0:0:0:
142,211,56617,6,0,P|111:254|118:348,2,130,6|10|0,1:1|2:1|1:1,0:0:0:0:
199,219,57499,1,2,0:0:0:0:
237,263,57676,2,0,L|224:333,1,65,10|2,2:2|1:2,0:0:0:0:
189,373,58029,1,2,1:2:0:0:
305,383,58382,1,10,2:2:0:0:
347,273,58735,2,0,P|380:256|410:250,1,65,2|0,1:2|3:0,0:0:0:0:
458,277,59088,2,0,P|475:310|481:340,1,65,10|0,3:2|3:0,0:0:0:0:
440,380,59441,6,0,P|378:375|299:333,2,130,2|8|0,1:2|2:2|1:1,0:0:0:0:
501,280,60499,2,0,L|475:195,1,65,10|0,2:2|3:0,0:0:0:0:
423,211,60852,2,0,P|414:160|460:77,1,130,2|8,1:2|2:2,0:0:0:0:
501,74,61382,1,2,0:0:0:0:
488,16,61558,2,0,P|457:1|407:-5,1,65,2|2,1:2|0:0,0:0:0:0:
375,21,61911,1,10,3:2:0:0:
318,123,62264,6,0,P|277:89|259:1,2,130,6|10|0,1:1|2:1|1:1,0:0:0:0:
433,103,63323,2,0,L|419:181,1,65,10|2,2:2|0:0,0:0:0:0:
468,202,63676,2,0,L|482:280,1,65,2|2,1:2|0:0,0:0:0:0:
448,315,64029,1,10,2:2:0:0:
390,324,64205,1,2,0:0:0:0:
350,280,64382,1,2,1:2:0:0:
303,172,64735,2,0,P|271:158|235:151,1,65,10|2,2:2|3:2,0:0:0:0:
201,194,65088,6,0,B|219:160|219:160|177:56,1,130,0|8,1:1|2:2,0:0:0:0:
135,42,65617,1,2,0:0:0:0:
135,42,65794,2,0,P|63:57|40:124,1,130,0|8,1:1|2:2,0:0:0:0:
78,147,66323,1,0,1:1:0:0:
49,197,66499,5,2,1:2:0:0:
114,294,66852,1,2,0:0:0:0:
199,214,67205,1,10,2:2:0:0:
297,280,67558,1,8,3:0:0:0:
329,231,67735,1,4,3:0:0:0:
379,246,67911,6,0,P|386:283|395:313,1,58.4999982147217,6|0,1:1|0:0,0:0:0:0:
379,354,68264,2,0,P|342:361|312:370,1,58.4999982147217,10|0,2:2|0:0,0:0:0:0:
270,354,68617,1,2,1:1:0:0:
215,263,68970,2,0,P|178:256|148:247,1,58.4999982147217,8|0,2:2|0:0,0:0:0:0:
129,205,69323,1,2,1:1:0:0:
129,205,69499,2,0,P|86:227|55:308,1,116.999996429443,2|2,0:0|0:0,0:0:0:0:
62,384,70205,2,0,L|4:372,2,58.4999982147217,2|8|2,0:0|2:2|0:0,0:0:0:0:
109,360,70735,6,0,P|125:334|156:305,1,58.4999982147217,2|0,1:1|0:0,0:0:0:0:
161,263,71088,2,0,P|146:236|136:194,1,58.4999982147217,10|0,2:2|0:0,0:0:0:0:
90,188,71441,1,2,1:1:0:0:
28,102,71794,1,8,2:2:0:0:
28,102,71970,1,2,0:0:0:0:
28,102,72146,2,0,P|47:56|124:33,1,116.999996429443,2|8,1:1|2:2,0:0:0:0:
220,140,73029,1,2,0:0:0:0:
220,140,73205,1,8,2:2:0:0:
292,64,73558,6,0,P|322:53|347:39,1,58.4999982147217,2|0,1:1|0:0,0:0:0:0:
374,0,73911,2,0,P|404:11|429:25,1,58.4999982147217,10|0,2:2|0:0,0:0:0:0:
455,68,74264,1,2,1:1:0:0:
377,139,74617,2,0,L|389:199,1,58.4999982147217,8|0,2:2|0:0,0:0:0:0:
441,218,74970,1,2,1:1:0:0:
441,218,75146,2,0,L|427:345,1,116.999996429443,2|2,0:0|0:0,0:0:0:0:
331,376,75852,2,0,L|271:364,2,58.4999982147217,2|8|2,0:0|2:2|0:0,0:0:0:0:
345,324,76382,6,0,P|333:290|306:251,1,58.4999982147217,2|0,1:1|0:0,0:0:0:0:
309,219,76735,2,0,P|273:212|226:216,1,58.4999982147217,10|0,2:2|0:0,0:0:0:0:
213,174,77088,1,2,1:1:0:0:
129,308,77617,1,2,0:0:0:0:
129,308,77794,2,0,L|64:293,1,58.4999982147217,2|2,1:1|0:0,0:0:0:0:
33,259,78146,2,0,L|48:194,1,58.4999982147217,10|2,2:2|0:0,0:0:0:0:
98,182,78499,1,2,1:1:0:0:
98,182,78676,1,10,2:2:0:0:
98,182,78852,2,0,L|83:117,1,58.4999982147217,10|6,3:0|3:0,0:0:0:0:
33,95,79205,5,4,1:1:0:0:
80,14,79558,1,10,2:2:0:0:
163,56,79911,2,0,L|187:165,1,104,2|8,1:2|2:2,0:2:0:0:
270,198,80617,2,0,P|259:235|256:261,1,52,2|2,1:2|0:2,0:0:0:0:
228,285,80970,2,0,P|191:274|165:271,1,52,10|2,2:2|0:2,0:0:0:0:
112,204,81499,2,0,P|75:215|49:218,2,52,2|8|0,0:2|2:2|0:2,0:2:0:0:
128,159,82029,5,0,1:2:0:0:
67,87,82382,1,10,2:2:0:0:
154,54,82735,2,0,P|189:40|223:15,2,78,2|2|2,1:2|0:2|0:2,0:2:0:0:
120,20,83441,2,0,P|86:2|12:18,1,104,2|8,1:2|2:2,0:2:0:0:
13,56,83970,2,0,L|22:114,1,52,2|2,0:3|1:3,0:0:0:0:
54,139,84323,2,0,L|112:130,2,52,2|8|2,0:3|2:2|0:3,0:0:0:0:
41,184,84852,5,0,1:2:0:0:
118,236,85205,1,10,2:2:0:0:
118,236,85382,2,0,P|100:265|94:302,1,52,2|0,0:2|1:2,0:2:0:0:
69,321,85735,2,0,P|123:325|178:353,1,104,2|2,0:2|0:2,0:2:0:0:
206,372,86264,2,0,L|271:357,1,52,2|2,1:2|0:2,0:0:0:0:
281,320,86617,2,0,L|266:255,1,52,10|2,2:2|0:2,0:0:0:0:
235,237,86970,2,0,P|283:213|325:168,1,104,2|8,1:2|2:2,0:2:0:0:
401,222,87676,5,0,1:2:0:0:
461,293,88029,2,0,P|452:332|448:354,1,52,10|2,2:2|0:2,0:0:0:0:
412,371,88382,2,0,P|373:362|351:358,1,52,2|2,1:2|0:2,0:0:0:0:
343,316,88735,1,10,2:2:0:0:
256,351,89088,2,0,P|234:323|225:245,1,104,2|8,1:2|3:2,0:0:0:0:
264,236,89617,1,0,3:0:0:0:
264,236,89794,2,0,L|330:217,2,52,0|8|8,1:1|3:2|3:2,0:0:0:0:
204,163,90499,5,4,1:1:0:0:
259,87,90852,1,10,2:2:0:0:
259,87,91029,2,0,P|283:72|303:44,1,52,2|0,0:2|1:2,0:2:0:0:
318,11,91382,2,0,P|335:57|383:108,1,104,2|2,0:2|0:2,0:2:0:0:
410,122,91911,2,0,L|466:112,1,52,2|2,1:2|0:2,0:0:0:0:
497,143,92264,2,0,L|507:199,1,52,10|2,2:2|0:2,0:0:0:0:
478,231,92617,2,0,P|447:257|377:239,1,104,2|8,1:2|2:2,0:2:0:0:
319,177,93323,5,0,1:2:0:0:
255,245,93676,2,0,P|268:280|274:301,1,52,10|2,2:2|0:2,0:0:0:0:
246,333,94029,2,0,L|152:312,2,78,2|2|2,1:2|0:2|0:2,0:2:0:0:
279,366,94735,2,0,P|338:373|367:329,1,104,2|8,1:2|2:2,0:2:0:0:
359,300,95264,1,2,0:3:0:0:
359,300,95441,2,0,P|362:268|369:247,1,52,2|2,1:3|0:3,0:0:0:0:
410,228,95794,1,10,2:2:0:0:
487,176,96146,5,0,1:2:0:0:
445,91,96499,1,10,2:2:0:0:
362,135,96852,2,0,P|342:101|323:33,1,104,2|8,1:2|2:2,0:2:0:0:
286,10,97382,1,2,0:2:0:0:
286,10,97558,2,0,L|225:21,1,52,2|2,1:2|0:2,0:0:0:0:
207,57,97911,2,0,L|218:118,1,52,10|2,2:2|0:2,0:0:0:0:
252,137,98264,2,0,P|221:175|159:192,1,104,2|8,1:2|2:2,0:2:0:0:
111,118,98970,5,0,1:2:0:0:
21,151,99323,1,10,2:2:0:0:
24,246,99676,1,2,1:2:0:0:
115,272,100029,1,10,2:2:0:0:
170,192,100382,1,0,1:2:0:0:
170,192,100558,2,0,L|277:213,1,104,10|0,3:2|1:1,0:0:0:0:
297,251,101088,2,0,L|287:312,1,52,8|8,3:2|3:0,0:0:0:0:
252,332,101441,1,8,3:0:0:0:
141,371,101794,6,0,P|96:352|55:263,2,130,6|10|0,1:1|2:1|1:1,0:0:0:0:
174,322,102676,1,2,0:0:0:0:
145,271,102852,2,0,L|159:200,1,65,10|2,2:2|1:2,0:0:0:0:
211,184,103205,1,2,1:2:0:0:
308,248,103558,1,10,2:2:0:0:
318,131,103911,2,0,P|351:115|390:108,1,65,2|0,1:2|3:0,0:0:0:0:
424,145,104264,2,0,L|448:214,1,65,10|0,3:2|3:0,0:0:0:0:
483,250,104617,6,0,P|463:304|393:341,2,130,2|8|0,1:2|2:2|1:1,0:0:0:0:
507,135,105676,2,0,L|485:73,1,65,10|0,2:2|3:0,0:0:0:0:
497,16,106029,2,0,P|455:55|376:58,1,130,2|8,1:2|2:2,0:0:0:0:
341,23,106558,1,2,0:0:0:0:
284,38,106735,2,0,L|273:106,1,65,2|2,1:2|0:0,0:0:0:0:
317,141,107088,1,10,3:2:0:0:
232,221,107441,6,0,P|198:198|173:110,2,130,6|10|0,1:1|2:1|1:1,0:0:0:0:
342,260,108499,2,0,L|410:244,1,65,10|2,2:2|0:0,0:0:0:0:
452,279,108852,2,0,L|468:347,1,65,2|2,1:2|0:0,0:0:0:0:
424,382,109205,1,10,2:2:0:0:
379,343,109382,1,2,0:0:0:0:
325,366,109558,1,2,1:2:0:0:
234,291,109911,2,0,P|219:324|214:359,1,65,10|2,2:2|3:2,0:0:0:0:
161,377,110264,6,0,P|122:372|105:281,1,130,0|8,1:1|2:2,0:0:0:0:
141,257,110794,1,2,0:0:0:0:
141,257,110970,2,0,B|105:282|105:282|-9:253,1,130,0|8,1:1|2:2,0:0:0:0:
0,147,111676,5,0,1:1:0:0:
0,147,111852,2,0,B|33:100|33:100|96:124,1,116.999996429443,10|0,3:2|1:1,0:0:0:0:
124,160,112382,2,0,L|189:145,1,58.4999982147217,8|8,3:2|3:0,0:0:0:0:
207,100,112735,1,8,3:0:0:0:
306,162,113088,6,0,P|289:202|276:295,2,130,6|10|0,1:1|2:1|1:1,0:0:0:0:
361,142,113970,1,2,0:0:0:0:
397,96,114146,2,0,P|384:57|381:23,1,65,10|2,2:2|1:2,0:0:0:0:
330,3,114499,1,2,1:2:0:0:
236,73,114852,1,10,2:2:0:0:
135,13,115205,2,0,P|99:8|66:-2,1,65,2|0,1:2|3:0,0:0:0:0:
26,37,115558,2,0,P|21:73|11:106,1,65,10|0,3:2|3:0,0:0:0:0:
54,141,115911,6,0,P|121:157|166:102,2,130,2|8|0,1:2|2:2|1:1,0:0:0:0:
2,246,116970,2,0,L|29:322,1,65,10|0,2:2|3:0,0:0:0:0:
16,365,117323,2,0,P|45:312|112:296,1,130,2|8,1:2|2:2,0:0:0:0:
155,331,117852,1,2,0:0:0:0:
201,295,118029,2,0,P|216:264|222:217,1,65,2|2,1:2|0:0,0:0:0:0:
187,186,118382,1,10,3:2:0:0:
278,113,118735,6,0,P|326:146|361:218,2,130,6|10|0,1:1|2:1|1:1,0:0:0:0:
164,81,119794,2,0,L|183:12,1,65,10|2,2:2|0:0,0:0:0:0:
237,3,120146,2,0,L|319:23,1,65,2|2,1:2|0:0,0:0:0:0:
344,57,120499,1,10,2:2:0:0:
390,21,120676,1,2,0:0:0:0:
441,47,120852,1,2,1:2:0:0:
480,157,121205,2,0,P|443:166|409:187,1,65,10|2,2:2|3:2,0:0:0:0:
367,151,121558,6,0,P|333:202|327:287,1,130,0|8,1:1|2:2,0:0:0:0:
300,323,122088,1,2,0:0:0:0:
300,323,122264,2,0,P|342:360|423:337,1,130,0|8,1:1|2:2,0:0:0:0:
468,246,122970,1,0,1:1:0:0:
413,225,123146,2,0,B|391:193|391:193|422:94,1,130,8|0,2:2|1:1,0:0:0:0:
473,84,123676,2,0,L|458:17,1,65,8|8,2:2|3:0,0:0:0:0:
403,2,124029,1,8,3:0:0:0:
318,64,124382,6,0,P|292:31|244:9,2,87.7499973220826,6|2|2,1:1|0:0|0:0,0:0:0:0:
298,112,125088,2,0,L|173:135,1,116.999996429443,2|8,1:2|2:2,0:0:0:0:
151,91,125617,1,2,1:2:0:0:
99,101,125794,5,2,1:1:0:0:
90,179,126058,1,2,0:0:0:0:
85,261,126323,1,2,0:0:0:0:
85,261,126499,2,0,P|110:296|130:375,1,116.999996429443,2|10,1:2|2:2,0:0:0:0:
212,301,127205,6,0,L|303:322,2,87.7499973220826,2|2|2,1:1|0:0|0:0,0:0:0:0:
188,253,127911,2,0,P|200:217|205:135,1,116.999996429443,2|10,1:2|2:2,0:0:0:0:
168,100,128441,1,2,1:2:0:0:
194,54,128617,5,2,1:1:0:0:
271,69,128882,1,2,0:0:0:0:
352,86,129146,1,2,0:0:0:0:
352,86,129323,2,0,P|383:70|411:49,1,58.4999982147217,2|0,1:2|0:0,0:0:0:0:
432,13,129676,2,0,P|463:29|491:50,1,58.4999982147217,10|2,2:2|1:2,0:0:0:0:
503,90,130029,6,0,L|485:217,1,116.999996429443,2|10,1:1|2:2,0:0:0:0:
441,233,130558,1,2,0:0:0:0:
399,200,130735,2,0,P|356:232|375:307,1,116.999996429443,2|8,1:2|2:2,0:0:0:0:
431,367,131441,2,0,P|472:344|527:332,2,87.7499973220826,2|2|2,1:1|0:2|0:0,0:0:0:0:
380,380,132146,1,2,1:2:0:0:
290,324,132499,2,0,L|231:309,1,58.4999982147217,10|2,2:2|0:0,0:0:0:0:
198,349,132852,6,0,P|171:310|174:228,1,116.999996429443,2|8,1:1|2:2,0:0:0:0:
71,201,133558,2,0,P|91:158|163:119,1,116.999996429443,2|8,1:1|2:2,0:0:0:0:
135,17,134264,1,2,1:1:0:0:
135,17,134441,2,0,P|182:13|251:56,1,116.999996429443,8|0,2:2|1:1,0:0:0:0:
292,60,134970,2,0,L|285:120,1,58.4999982147217,10|8,2:2|3:0,0:0:0:0:
251,158,135323,1,8,3:0:0:0:
148,122,135676,6,0,P|162:162|177:233,2,87.7499973220826,6|2|2,1:1|0:0|0:0,0:0:0:0:
174,76,136382,2,0,P|158:37|75:11,1,116.999996429443,2|8,1:2|2:2,0:0:0:0:
49,38,136911,1,2,1:2:0:0:
72,85,137088,5,2,1:1:0:0:
19,143,137352,1,2,0:0:0:0:
79,201,137617,1,2,0:0:0:0:
79,201,137794,2,0,P|66:230|46:320,1,116.999996429443,2|10,1:2|2:2,0:0:0:0:
150,296,138499,6,0,L|171:405,2,87.7499973220826,2|2|2,1:1|0:0|0:0,0:0:0:0:
179,252,139205,2,0,P|231:245|288:288,1,116.999996429443,2|10,1:2|2:2,0:0:0:0:
301,328,139735,1,2,0:0:0:0:
352,339,139911,5,2,1:1:0:0:
400,276,140176,1,2,0:0:0:0:
359,214,140441,1,2,0:0:0:0:
359,214,140617,2,0,P|334:164|318:94,1,116.999996429443,2|10,1:2|2:2,0:0:0:0:
271,81,141146,1,2,1:2:0:0:
282,29,141323,6,0,L|411:4,1,116.999996429443,2|10,1:1|2:2,0:0:0:0:
449,13,141852,2,0,P|465:40|471:82,1,58.4999982147217,2|0,0:0|1:1,0:0:0:0:
462,118,142205,2,0,L|393:107,1,58.4999982147217,2|8,0:0|2:2,0:0:0:0:
346,197,142735,2,0,P|304:212|262:223,2,87.7499973220826,2|2|2,1:1|0:0|0:0,0:0:0:0:
394,218,143441,1,2,1:2:0:0:
478,280,143794,2,0,P|462:307|456:349,1,58.4999982147217,10|2,2:2|0:0,0:0:0:0:
412,363,144146,6,0,P|385:347|343:341,1,58.4999982147217,2|0,1:1|0:0,0:0:0:0:
327,298,144499,2,0,P|286:314|229:370,1,116.999996429443,8|0,2:2|1:1,0:0:0:0:
140,313,145205,1,10,2:2:0:0:
140,313,145382,1,2,1:2:0:0:
140,313,145558,6,0,L|129:248,1,58.4999982147217,2|10,1:1|2:2,0:0:0:0:
164,215,145911,1,2,0:0:0:0:
105,127,146264,1,10,2:2:0:0:
124,78,146441,1,8,3:0:0:0:
176,76,146617,2,0,L|250:96,1,58.4999982147217,8|4,3:0|3:0,0:0:0:0:
262,134,146970,5,6,1:1:0:0:
116,108,158264,6,0,P|149:93|226:12,2,143.000004364014,6|10|0,1:1|2:1|1:1,0:0:0:0:
65,67,159146,1,2,0:0:0:0:
12,104,159323,2,0,L|33:182,1,71.5000021820069,10|2,2:2|1:2,0:0:0:0:
79,214,159676,1,2,1:2:0:0:
9,322,160029,1,10,2:2:0:0:
128,369,160382,2,0,P|145:326|148:290,1,71.5000021820069,2|0,1:2|3:0,0:0:0:0:
188,250,160735,2,0,P|216:286|246:306,1,71.5000021820069,10|0,3:2|3:0,0:0:0:0:
263,360,161088,6,0,P|287:319|379:276,2,143.000004364014,2|8|0,1:2|2:2|1:1,0:0:0:0:
139,323,162146,2,0,P|116:286|114:240,1,71.5000021820069,10|0,2:2|3:0,0:0:0:0:
165,222,162499,2,0,B|199:187|199:187|165:83,1,143.000004364014,2|8,1:2|2:2,0:0:0:0:
111,69,163029,1,2,0:0:0:0:
147,16,163205,2,0,L|229:-4,1,71.5000021820069,2|2,1:2|0:0,0:0:0:0:
272,31,163558,1,10,3:2:0:0:
397,2,163911,6,0,P|423:35|446:134,2,143.000004364014,6|10|0,1:1|2:1|1:1,0:0:0:0:
324,108,164970,2,0,L|254:126,1,71.5000021820069,10|2,2:2|0:0,0:0:0:0:
190,119,165323,2,0,L|208:189,1,71.5000021820069,2|2,1:2|0:0,0:0:0:0:
173,243,165676,1,10,2:2:0:0:
215,291,165852,1,2,0:0:0:0:
275,269,166029,1,2,1:2:0:0:
392,321,166382,2,0,P|401:281|414:248,1,71.5000021820069,10|2,2:2|3:2,0:0:0:0:
472,230,166735,6,0,L|322:188,1,143.000004364014,0|8,1:1|2:2,0:0:0:0:
308,138,167264,1,2,0:0:0:0:
308,138,167441,2,0,P|270:163|261:273,1,143.000004364014,0|8,1:1|2:2,0:0:0:0:
304,291,167970,1,0,0:0:0:0:
274,348,168146,5,2,1:2:0:0:
172,296,168499,1,2,0:0:0:0:
85,370,168852,1,10,2:2:0:0:
1,291,169205,1,8,3:0:0:0:
37,237,169382,1,4,3:0:0:0:
93,256,169558,6,0,P|111:217|117:184,1,65,6|0,1:1|0:0,0:0:0:0:
163,161,169911,2,0,P|138:125|112:104,1,65,10|0,2:2|0:0,0:0:0:0:
64,119,170264,1,2,1:1:0:0:
1,20,170617,2,0,L|72:4,1,65,8|0,2:2|0:0,0:0:0:0:
117,30,170970,1,2,1:1:0:0:
161,2,171146,2,0,P|208:24|255:94,1,130,2|2,0:0|0:0,0:0:0:0:
338,166,171852,2,0,L|323:235,2,65,2|8|2,0:0|2:2|0:0,0:0:0:0:
393,145,172382,6,0,P|405:106|401:76,1,65,2|0,1:1|0:0,0:0:0:0:
368,34,172735,2,0,P|329:22|299:26,1,65,10|0,2:2|0:0,0:0:0:0:
263,65,173088,1,2,1:1:0:0:
209,172,173441,1,8,2:2:0:0:
209,172,173617,1,2,0:0:0:0:
209,172,173794,2,0,L|131:161,1,65,2|0,1:1|0:0,0:0:0:0:
106,118,174146,2,0,P|69:157|78:243,1,130,10|0,2:2|1:1,0:0:0:0:
116,265,174676,1,2,0:0:0:0:
116,265,174852,1,8,2:2:0:0:
221,315,175205,6,0,P|251:302|288:298,1,65,2|0,1:1|0:0,0:0:0:0:
307,244,175558,2,0,P|337:257|374:261,1,65,10|0,2:2|0:0,0:0:0:0:
392,314,175911,1,2,1:1:0:0:
493,255,176264,2,0,L|475:190,1,65,8|0,2:2|0:0,0:0:0:0:
496,137,176617,1,2,1:1:0:0:
496,137,176794,2,0,P|451:104|372:126,1,130,2|2,0:0|0:0,0:0:0:0:
277,63,177499,2,0,L|289:-12,2,65,2|8|2,0:0|2:2|0:0,0:0:0:0:
228,97,178029,6,0,P|246:137|248:166,1,65,2|0,1:1|0:0,0:0:0:0:
223,210,178382,2,0,P|183:228|154:230,1,65,10|0,2:2|0:0,0:0:0:0:
125,184,178735,1,2,1:1:0:0:
62,350,179264,1,2,0:0:0:0:
62,350,179441,2,0,P|46:317|40:279,1,65,2|10,1:1|2:2,0:0:0:0:
3,244,179794,2,0,P|24:214|53:189,1,65,2|2,1:2|1:2,0:0:0:0:
65,139,180146,1,10,2:2:0:0:
65,139,180323,1,10,3:0:0:0:
65,139,180499,2,0,P|102:142|137:155,1,65,10|6,3:0|3:0,0:0:0:0:
149,205,180852,5,6,1:1:0:0:
