osu file format v14

[General]
AudioFilename: audio.mp3
AudioLeadIn: 0
PreviewTime: 47658
Countdown: 0
SampleSet: None
StackLeniency: 0.02
Mode: 0
LetterboxInBreaks: 0
EpilepsyWarning: 1
WidescreenStoryboard: 1

[Editor]
Bookmarks: 15773,89909,158862,169071,178967,189176,199229,209281
DistanceSpacing: 0.76
BeatDivisor: 4
GridSize: 32
TimelineZoom: 3.099999

[Metadata]
Title:Sincuvate
TitleUnicode:Sincuvate
Artist:Endorfin. vs Feryquitous
ArtistUnicode:Endorfin. vs Feryquitous
Creator:Nokris
Version:Nokris. vs NeilPerry
Source:
Tags:
BeatmapID:1559554
BeatmapSetID:739011

[Difficulty]
HPDrainRate:6
CircleSize:4
OverallDifficulty:9
ApproachRate:9.4
SliderMultiplier:2.99999990463257
SliderTickRate:1

[Events]
//Background and Video events
0,0,"62402863_p0.png",0,0
//Break Periods
//Storyboard Layer 0 (Background)
//Storyboard Layer 1 (Fail)
//Storyboard Layer 2 (Pass)
//Storyboard Layer 3 (Foreground)
//Storyboard Sound Samples

[TimingPoints]
695,314.13612565445,4,2,1,40,1,0
695,-200,4,2,1,40,0,0
15302,-153.846153846153,4,2,1,60,0,0
15459,-117.647058823529,4,2,1,60,0,0
15616,-86.9565217391304,4,2,1,60,0,0
15773,-83.3333333333333,4,2,1,60,0,0
17030,-62.5,4,2,1,60,0,0
17658,-83.3333333333333,4,2,1,60,0,0
22056,-62.5,4,2,1,60,0,0
22684,-83.3333333333333,4,2,1,60,0,0
27082,-62.5,4,2,1,60,0,0
27710,-83.3333333333333,4,2,1,60,0,0
32108,-62.5,4,2,1,60,0,0
32736,-83.3333333333333,4,2,1,60,0,0
35878,-200,4,2,1,60,0,0
42789,-100,4,2,1,60,0,0
43417,-83.3333333333333,4,2,1,60,0,0
47815,-333.333333333333,4,2,1,60,0,0
48129,-76.9230769230769,4,2,1,60,0,0
48286,-66.6666666666667,4,2,1,60,0,1
48600,-74.0740740740741,4,2,1,60,0,1
58496,-66.6666666666667,4,2,1,60,0,1
58810,-74.0740740740741,4,2,1,60,0,1
68548,-100,4,2,1,60,0,0
72318,-80,4,2,1,60,0,0
73574,-100,4,2,1,60,0,0
77344,-80,4,2,1,60,0,0
78443,-117.647058823529,4,2,1,60,0,0
79386,-153.846153846153,4,2,1,60,0,0
79543,-117.647058823529,4,2,1,60,0,0
79700,-86.9565217391304,4,2,1,60,0,0
79857,-250,4,2,1,60,0,0
89909,-83.3333333333333,4,2,1,60,0,0
91166,-62.5,4,2,1,60,0,0
92422,-83.3333333333333,4,2,1,60,0,0
94935,-200,4,2,1,60,0,0
96192,-133.333333333333,4,2,1,60,0,0
99647,-100,4,2,1,60,0,0
99962,-133.333333333333,4,2,1,60,0,0
106558,-200,4,2,1,60,0,0
107501,-83.3333333333333,4,2,1,60,0,0
110014,-62.5,4,2,1,60,0,0
110799,-83.3333333333333,4,2,1,60,0,0
111585,-500,4,2,1,60,0,0
111663,-500,4,2,1,5,0,0
112370,-66.6666666666667,4,2,1,60,0,1
112684,-74.0740740740741,4,2,1,60,0,1
124464,-66.6666666666667,4,2,1,60,0,1
124778,-74.0740740740741,4,2,1,60,0,1
129412,-133.333333333333,4,2,1,60,0,1
129647,-74.0740740740741,4,2,1,60,0,1
132632,-400,4,2,1,60,0,0
132946,-200,4,2,1,60,0,0
133888,-83.3333333333333,4,2,1,60,0,0
137658,-62.5,4,2,1,60,0,0
138129,-83.3333333333333,4,2,1,60,0,0
142684,-62.5,4,2,1,60,0,0
143941,-83.3333333333333,4,2,1,60,0,0
147710,-62.5,4,2,1,60,0,0
148181,-83.3333333333333,4,2,1,60,0,0
153993,-400,4,2,1,60,0,0
158705,-76.9230769230769,4,2,1,60,0,0
158862,-66.6666666666667,4,2,1,60,0,1
159176,-74.0740740740741,4,2,1,60,0,1
169071,-66.6666666666667,4,2,1,60,0,1
169386,-74.0740740740741,4,2,1,60,0,1
178967,-333.333333333333,4,2,1,60,0,0
197815,-200,4,2,1,60,0,0
208810,-250,4,2,1,60,0,0
209124,-333.333333333333,4,2,1,60,0,0
209202,-333.333333333333,4,2,1,0,0,0

[Colours]
Combo1 : 127,127,127
Combo2 : 254,255,217
Combo3 : 239,242,121
Combo4 : 104,216,253
Combo5 : 255,140,255
Combo6 : 255,132,72
Combo7 : 255,81,137
Combo8 : 178,178,178

[HitObjects]
24,208,695,5,2,2:3:0:0:
168,140,852,1,2,2:3:0:0:
76,20,1009,2,0,P|60:64|64:100,1,74.9999976158143,2|0,2:3|0:0,0:0:0:0:
8,224,1323,2,0,L|172:248,1,149.999995231629,8|0,2:3|0:0,0:0:0:0:
156,245,1794,1,0,0:0:0:0:
464,240,1951,5,0,0:0:0:0:
243,311,2108,1,0,0:0:0:0:
378,351,2265,101,2,2:3:0:0:
401,281,2422,1,2,2:3:0:0:
318,308,2579,1,0,0:0:0:0:
378,351,2736,5,2,2:3:0:0:
336,224,2893,1,0,0:0:0:0:
296,96,3051,1,0,0:0:0:0:
456,24,3208,101,2,2:3:0:0:
400,140,3365,1,2,2:3:0:0:
276,80,3522,2,0,P|237:71|196:84,1,74.9999976158143,2|0,2:3|0:0,0:0:0:0:
56,24,3836,2,0,L|84:180,1,149.999995231629,8|0,2:3|0:0,0:0:0:0:
82,171,4307,1,0,0:0:0:0:
0,285,4464,5,0,0:0:0:0:
207,235,4621,1,0,0:0:0:0:
123,358,4778,101,2,2:3:0:0:
171,301,4935,1,2,2:3:0:0:
57,321,5092,1,0,0:0:0:0:
123,358,5249,5,0,0:0:0:0:
82,171,5407,1,2,2:3:0:0:
76,185,5485,1,2,2:3:0:0:
69,198,5564,2,0,L|141:186,1,37.4999988079071,2|0,2:3|0:0,0:0:0:0:
288,160,5721,101,2,2:3:0:0:
200,272,5878,1,2,2:3:0:0:
360,348,6035,2,0,P|361:310|348:272,1,74.9999976158143,2|0,2:3|0:0,0:0:0:0:
436,178,6349,2,0,L|272:158,1,149.999995231629,8|0,2:3|0:0,0:0:0:0:
287,159,6820,1,0,0:0:0:0:
16,208,6977,5,0,0:0:0:0:
194,100,7134,1,0,0:0:0:0:
52,144,7291,101,2,2:3:0:0:
119,178,7448,1,2,2:3:0:0:
120,102,7605,1,0,0:0:0:0:
52,68,7763,5,2,2:3:0:0:
119,178,7920,1,2,2:3:0:0:
184,284,8077,1,0,0:0:0:0:
368,192,8234,101,2,2:3:0:0:
276,356,8391,1,2,2:3:0:0:
168,264,8548,2,0,P|204:280|272:284,1,74.9999976158143,2|0,2:3|0:0,0:0:0:0:
400,338,8862,2,0,B|364:178,1,149.999995231629,8|0,2:3|0:0,0:0:0:0:
367,191,9333,1,0,0:0:0:0:
264,0,9490,5,0,0:0:0:0:
497,123,9647,1,2,2:3:0:0:
290,68,9804,101,2,2:3:0:0:
425,140,9962,1,0,0:0:0:0:
358,104,10119,1,0,0:0:0:0:
412,4,10276,6,0,L|386:56,1,37.4999988079071,8|0,2:3|0:0,0:0:0:0:
358,104,10433,1,2,2:3:0:0:
360,120,10511,1,2,2:3:0:0:
360,136,10590,2,0,L|334:188,1,37.4999988079071,2|0,2:3|0:0,0:0:0:0:
288,272,10747,101,2,2:3:0:0:
120,200,10904,1,2,2:3:0:0:
208,380,11061,2,0,P|216:340|196:288,1,74.9999976158143,2|0,2:3|0:0,0:0:0:0:
120,200,11375,1,8,2:3:0:0:
0,256,11532,5,0,0:0:0:0:
12,264,11611,1,0,0:0:0:0:
24,272,11689,2,0,L|92:260,1,37.4999988079071,2|0,2:3|0:0,0:0:0:0:
120,200,11846,2,0,L|188:188,1,37.4999988079071,2|0,2:3|0:0,0:0:0:0:
272,176,12003,102,0,P|312:184|348:212,1,74.9999976158143,2|2,2:3|2:3,0:0:0:0:
432,208,12318,2,0,P|454:241|460:287,1,74.9999976158143,2|8,2:3|2:3,0:0:0:0:
131,363,12632,6,0,P|128:322|146:280,1,74.9999976158143
120,200,12947,2,0,P|146:169|189:152,1,74.9999976158143,0|2,0:0|2:3,0:0:0:0:
340,76,13181,1,2,2:3:0:0:
324,88,13260,102,0,L|228:80,1,74.9999976158143,2|2,2:3|2:3,0:0:0:0:
128,76,13574,1,2,2:3:0:0:
0,172,13731,6,0,L|96:164,1,74.9999976158143,8|0,2:3|0:0,0:0:0:0:
196,157,14045,1,2,2:3:0:0:
332,264,14202,101,2,2:3:0:0:
180,365,14359,2,0,B|200:309|168:261|168:261|148:233|148:233|112:185|132:125|132:125|156:157|196:157|196:157|164:201|192:253,1,412.499986886978,8|0,2:3|0:0,0:0:0:0:
260,212,15302,86,0,P|280:232|320:244,1,48.7499962186815
392,120,15459,22,0,P|362:132|339:154,1,63.7499991893769
416,312,15616,6,0,P|420:280|396:226,1,86.2499989032746
288,64,15773,6,0,L|176:80,1,89.9999943923952,2|0,0:0|0:0,0:0:0:0:
52,24,15930,2,0,P|40:68|64:116,1,89.9999943923952,2|0,0:0|0:0,0:0:0:0:
152,196,16087,2,0,P|100:144|0:164,1,179.99998878479,8|0,0:0|0:0,0:0:0:0:
24,344,16323,5,0,0:0:0:0:
37,321,16401,2,0,P|61:292|136:276,1,89.9999943923952
352,328,16558,1,2,0:0:0:0:
167,369,16715,2,0,B|195:277|115:297|159:173,1,179.99998878479,8|0,0:0|0:0,0:0:0:0:
20,32,17030,102,0,L|280:72,1,239.999992370606,2|2,3:2|3:2,0:0:0:0:
388,120,17265,1,2,3:2:0:0:
368,128,17344,2,0,B|352:112|348:84|348:84|336:136|292:148,1,119.999996185303,8|0,3:2|0:0,0:0:0:0:
151,195,17501,2,0,L|269:213,1,119.999996185303,0|0,3:2|0:0,0:0:0:0:
476,212,17658,5,0,0:0:0:0:
312,360,17815,1,2,0:0:0:0:
476,212,17972,1,8,0:0:0:0:
312,360,18129,101,0,0:0:0:0:
292,340,18208,1,0,0:0:0:0:
272,320,18286,2,0,P|304:340|392:324,1,89.9999943923952,2|0,0:0|0:0,0:0:0:0:
480,376,18443,2,0,P|500:344|484:256,1,89.9999943923952,2|0,0:0|0:0,0:0:0:0:
420,68,18600,2,0,P|376:128|444:260,1,179.99998878479,8|0,0:0|0:0,0:0:0:0:
395,226,18836,5,0,0:0:0:0:
395,226,18914,2,0,P|408:188|392:120,1,89.9999943923952
136,16,19071,1,2,0:0:0:0:
324,36,19229,2,0,B|220:48|220:48|197:96|148:104,1,179.99998878479,8|0,0:0|0:0,0:0:0:0:
12,76,19464,101,0,0:0:0:0:
32,52,19543,2,0,P|68:32|124:40,1,89.9999943923952,2|0,0:0|0:0,0:0:0:0:
141,180,19700,2,0,P|105:200|49:192,1,89.9999943923952,2|0,0:0|0:0,0:0:0:0:
88,116,19857,6,0,B|36:216|120:188|64:296,2,179.99998878479,8|0|0,0:0|0:0|0:0,0:0:0:0:
52,300,20328,2,0,P|87:324|159:312,1,89.9999943923952,2|0,0:0|0:0,0:0:0:0:
223,366,20485,101,8,0:0:0:0:
260,301,20563,1,0,0:0:0:0:
325,265,20642,1,0,0:0:0:0:
400,266,20720,1,0,0:0:0:0:
463,303,20799,6,0,P|473:260|447:208,1,89.9999943923952,2|0,0:0|0:0,0:0:0:0:
496,80,20956,2,0,L|392:96,1,89.9999943923952,2|0,0:0|0:0,0:0:0:0:
212,120,21113,2,0,P|268:76|316:156,1,179.99998878479,8|0,0:0|0:0,0:0:0:0:
224,288,21349,101,0,0:0:0:0:
208,267,21427,2,0,B|169:240|203:226|153:192,1,89.9999943923952
48,48,21585,1,2,0:0:0:0:
8,208,21742,2,0,P|84:204|132:100,1,179.99998878479,8|0,0:0|0:0,0:0:0:0:
352,16,22056,6,0,B|320:76|360:132|360:132|404:192|364:256,1,239.999992370606,2|2,3:2|3:2,0:0:0:0:
376,384,22291,1,0,3:2:0:0:
360,368,22370,2,0,P|340:332|368:248,1,119.999996185303,8|0,3:2|0:0,0:0:0:0:
472,160,22527,1,0,3:2:0:0:
484,180,22605,1,0,3:2:0:0:
492,196,22684,101,0,0:0:0:0:
256,140,22841,1,2,0:0:0:0:
492,196,22998,1,8,0:0:0:0:
256,140,23155,5,0,0:0:0:0:
240,148,23234,1,0,0:0:0:0:
224,156,23312,2,0,B|211:200|211:200|230:261,1,89.9999943923952,2|0,0:0|0:0,0:0:0:0:
424,312,23469,2,0,B|437:269|437:269|424:225,1,89.9999943923952,2|0,0:0|0:0,0:0:0:0:
320,72,23626,2,0,P|240:120|136:84,1,179.99998878479,8|0,0:0|0:0,0:0:0:0:
159,102,23862,101,0,0:0:0:0:
159,102,23941,2,0,P|189:70|241:84,1,89.9999943923952
317,260,24098,1,2,0:0:0:0:
352,0,24255,2,0,L|324:208,1,179.99998878479,8|0,0:0|0:0,0:0:0:0:
249,289,24490,5,0,0:0:0:0:
233,273,24569,2,0,B|261:253|261:253|333:261,1,89.9999943923952,2|0,0:0|0:0,0:0:0:0:
448,348,24726,2,0,P|420:312|440:236,1,89.9999943923952,2|0,0:0|0:0,0:0:0:0:
464,92,24883,2,0,P|484:140|416:268,2,179.99998878479,8|0|0,0:0|0:0|0:0,0:0:0:0:
464,92,25354,102,0,P|432:116|356:116,1,89.9999943923952,2|0,0:0|0:0,0:0:0:0:
280,172,25511,1,8,0:0:0:0:
225,115,25589,1,0,0:0:0:0:
170,60,25668,1,0,0:0:0:0:
101,99,25746,1,0,0:0:0:0:
32,137,25825,6,0,P|60:172|92:240,1,89.9999943923952,2|0,0:0|0:0,0:0:0:0:
196,360,25982,2,0,P|217:320|245:285,1,89.9999943923952,2|0,0:0|0:0,0:0:0:0:
402,146,26140,2,0,L|218:114,1,179.99998878479,8|0,0:0|0:0,0:0:0:0:
104,32,26375,101,0,0:0:0:0:
84,12,26454,2,0,P|60:48|76:104,1,89.9999943923952
100,300,26611,1,2,0:0:0:0:
88,112,26768,2,0,B|60:200|148:188|116:284,1,179.99998878479,8|0,0:0|0:0,0:0:0:0:
480,336,27082,6,0,B|498:291|498:291|394:259|308:365,1,239.999992370606,2|2,3:2|3:2,3:2:0:0:
188,340,27318,1,0,3:2:0:0:
214,326,27396,2,0,P|254:350|354:326,1,119.999996185303,8|0,3:2|0:0,0:0:0:0:
512,100,27553,2,0,P|453:92|400:119,1,119.999996185303,0|0,3:2|0:0,0:0:0:0:
282,257,27710,101,0,0:0:0:0:
176,76,27867,1,2,0:0:0:0:
282,257,28024,1,8,0:0:0:0:
176,76,28181,5,0,0:0:0:0:
160,88,28260,1,0,0:0:0:0:
144,100,28338,2,0,L|240:112,1,89.9999943923952,2|0,0:0|0:0,0:0:0:0:
386,31,28496,2,0,P|348:44|317:96,1,89.9999943923952,2|0,0:0|0:0,0:0:0:0:
374,289,28653,2,0,P|410:209|390:97,1,179.99998878479,8|0,0:0|0:0,0:0:0:0:
400,119,28888,101,0,0:0:0:0:
400,119,28967,2,0,P|377:164|310:187,1,89.9999943923952
144,100,29124,1,2,0:0:0:0:
208,352,29281,2,0,B|168:256|268:276|216:160,1,179.99998878479,8|0,0:0|0:0,0:0:0:0:
194,41,29516,5,0,0:0:0:0:
174,25,29595,2,0,P|140:63|160:122,1,89.9999943923952,2|0,0:0|0:0,0:0:0:0:
308,300,29752,2,0,P|341:261|321:202,1,89.9999943923952,2|0,0:0|0:0,0:0:0:0:
252,108,29909,2,0,B|179:112|179:112|154:129|154:129|55:136,2,179.99998878479,8|0|0,0:0|0:0|0:0,0:0:0:0:
56,112,30380,102,0,P|32:164|60:212,1,89.9999943923952,2|0,0:0|0:0,0:0:0:0:
2,314,30537,1,8,0:0:0:0:
64,270,30615,1,0,0:0:0:0:
141,264,30694,1,0,0:0:0:0:
210,296,30772,1,0,0:0:0:0:
256,359,30852,6,0,P|292:376|360:368,1,89.9999943923952,2|0,0:0|0:0,0:0:0:0:
512,176,31009,2,0,P|470:158|426:160,1,89.9999943923952,2|0,0:0|0:0,0:0:0:0:
368,360,31166,2,0,L|408:152,1,179.99998878479,8|0,0:0|0:0,0:0:0:0:
472,32,31401,101,0,0:0:0:0:
484,12,31480,2,0,P|520:40|492:92,1,89.9999943923952
252,176,31637,1,2,0:0:0:0:
488,104,31794,2,0,B|384:72|416:140|304:108,1,179.99998878479,8|0,0:0|0:0,0:0:0:0:
76,24,32108,6,0,P|0:80|68:240,1,239.999992370606,2|2,3:2|3:2,0:0:0:0:
108,352,32344,1,0,3:2:0:0:
80,360,32422,2,0,P|108:308|180:292,1,119.999996185303,8|0,3:2|0:0,0:0:0:0:
384,336,32579,1,0,3:2:0:0:
372,356,32657,1,0,3:2:0:0:
362,371,32736,101,0,0:0:0:0:
252,176,32893,1,2,0:0:0:0:
362,371,33050,1,8,0:0:0:0:
252,176,33207,5,0,0:0:0:0:
236,184,33286,1,0,0:0:0:0:
220,192,33365,2,0,B|204:148|204:148|220:84,1,89.9999943923952,2|0,0:0|0:0,0:0:0:0:
380,28,33522,2,0,B|396:72|396:72|380:136,1,89.9999943923952,2|0,0:0|0:0,0:0:0:0:
116,48,33679,2,0,L|312:68,1,179.99998878479,8|0,0:0|0:0,0:0:0:0:
295,66,33914,101,0,0:0:0:0:
295,66,33993,2,0,P|281:37|221:24,1,89.9999943923952
48,120,34150,1,2,0:0:0:0:
108,360,34307,2,0,B|132:244|132:244|96:180,1,179.99998878479,8|0,0:0|0:0,0:0:0:0:
4,48,34621,6,0,B|40:72|88:48|88:48|136:16|192:52,1,179.99998878479,2|0,0:0|0:0,0:0:0:0:
175,42,34857,2,0,B|137:71|87:43|87:43|38:22|4:48,1,179.99998878479,2|0,0:0|0:0,0:0:0:0:
5,47,35092,102,0,P|-8:88|24:148,1,89.9999943923952,8|0,0:0|0:0,0:0:0:0:
0,244,35249,1,2,0:0:0:0:
0,244,35328,2,0,P|48:204|192:232,1,179.99998878479,2|0,0:0|0:0,0:0:0:0:
336,320,35564,5,8,0:0:0:0:
321,336,35642,1,0,0:0:0:0:
301,347,35721,1,0,0:0:0:0:
279,348,35799,1,0,0:0:0:0:
258,340,35878,70,0,B|232:264|300:284|264:188,2,149.999995231629,2|2|2,0:0|0:0|0:0,0:0:0:0:
224,124,36663,5,0,0:0:0:0:
224,124,36820,2,0,P|240:88|252:32,1,74.9999976158143,2|0,0:0|0:0,0:0:0:0:
249,53,37134,1,2,0:0:0:0:
360,196,37291,101,2,0:0:0:0:
360,196,37448,2,0,P|344:160|332:104,1,74.9999976158143,2|0,0:0|0:0,0:0:0:0:
152,24,37763,6,0,P|92:44|-12:48,2,149.999995231629,2|2|2,0:0|0:0|0:0,0:0:0:0:
334,125,38548,101,0,0:0:0:0:
334,125,38705,2,0,P|298:109|242:97,1,74.9999976158143,2|0,0:0|0:0,0:0:0:0:
263,99,39019,1,2,0:0:0:0:
48,192,39176,5,2,0:0:0:0:
48,192,39333,2,0,P|84:176|140:164,1,74.9999976158143,2|0,0:0|0:0,0:0:0:0:
340,216,39647,102,0,L|304:368,2,149.999995231629,2|2|2,0:0|0:0|0:0,0:0:0:0:
464,32,40433,5,0,0:0:0:0:
504,104,40590,2,0,P|480:140|448:176,1,74.9999976158143,2|0,0:0|0:0,0:0:0:0:
459,164,40904,1,2,0:0:0:0:
305,361,41061,101,0,0:0:0:0:
345,289,41218,2,0,P|321:253|289:217,1,74.9999976158143,2|0,0:0|0:0,0:0:0:0:
160,92,41532,6,0,B|80:72|100:124|8:100,2,149.999995231629,2|2|2,0:0|0:0|0:0,0:0:0:0:
160,92,42239,101,0,0:0:0:0:
160,92,42318,2,0,L|144:152,1,37.4999988079071
108,316,42475,1,2,0:0:0:0:
108,316,42789,21,0,0:0:0:0:
136,304,42867,1,0,0:0:0:0:
164,292,42946,1,0,0:0:0:0:
192,280,43024,1,0,0:0:0:0:
264,252,43103,5,0,0:0:0:0:
319,309,43181,1,0,0:0:0:0:
374,364,43260,1,0,0:0:0:0:
443,325,43338,1,0,0:0:0:0:
512,287,43417,102,0,P|484:252|452:184,1,89.9999943923952,2|0,0:0|0:0,0:0:0:0:
340,228,43574,2,0,P|344:183|370:112,1,89.9999943923952,2|0,0:0|0:0,0:0:0:0:
504,4,43731,2,0,P|500:64|400:56,1,179.99998878479,8|0,0:0|0:0,0:0:0:0:
288,80,43967,5,0,0:0:0:0:
264,60,44045,2,0,P|220:40|148:52,1,89.9999943923952
12,216,44202,1,2,0:0:0:0:
136,112,44359,2,0,L|164:312,1,179.99998878479,8|0,0:0|0:0,0:0:0:0:
120,380,44595,101,0,0:0:0:0:
96,368,44674,2,0,P|60:320|64:268,1,89.9999943923952,2|0,0:0|0:0,0:0:0:0:
184,192,44831,2,0,L|272:212,1,89.9999943923952,2|0,0:0|0:0,0:0:0:0:
500,212,44988,6,0,P|420:196|352:296,1,179.99998878479,8|0,0:0|0:0,0:0:0:0:
354,260,45223,1,0,0:0:0:0:
354,260,45302,1,0,0:0:0:0:
412,356,45459,101,2,0:0:0:0:
283,137,45616,2,0,B|98:94|98:94|114:202,1,269.999983177186,8|0,0:0|0:0,0:0:0:0:
139,348,45930,6,0,L|123:238,1,89.9999943923952,2|0,0:0|0:0,0:0:0:0:
48,28,46087,2,0,P|16:80|52:144,1,89.9999943923952,2|0,0:0|0:0,0:0:0:0:
8,232,46244,2,0,L|204:204,1,179.99998878479,8|0,0:0|0:0,0:0:0:0:
368,120,46480,101,0,0:0:0:0:
384,132,46558,2,0,P|392:204|316:156,1,179.99998878479,0|2,0:0|0:0,0:0:0:0:
196,48,46794,1,0,0:0:0:0:
224,32,46873,2,0,L|200:144,1,89.9999943923952,8|0,0:0|0:0,0:0:0:0:
186,206,47030,2,0,L|162:318,1,89.9999943923952
148,380,47187,5,0,0:0:0:0:
32,200,47344,1,0,0:0:0:0:
20,216,47422,1,0,0:0:0:0:
8,232,47501,2,0,P|40:216|112:216,1,89.9999943923952
320,300,47658,1,0,0:0:0:0:
205,120,47815,54,0,P|168:105|132:103,1,67.4999957942964,2|0,2:3|0:0,0:0:0:0:
344,64,48129,102,0,P|380:49|445:52,1,97.4999924373631,8|0,2:3|0:0,0:0:0:0:
240,12,48286,86,0,B|284:140|168:108|228:240,1,225.000001430512,4|0,0:0|0:0,0:0:0:0:
212,368,48522,1,0,0:0:0:0:
196,347,48600,6,0,B|192:296|235:324|232:240,1,101.249997167587,2|0,0:0|0:0,0:0:0:0:
140,102,48757,2,0,P|72:62|28:174,1,202.499994335175,8|0,0:0|0:0,0:0:0:0:
64,212,48993,1,0,0:0:0:0:
64,212,49071,1,2,0:0:0:0:
240,12,49229,2,0,L|476:40,1,202.499994335175,8|0,0:0|0:0,0:0:0:0:
307,247,49543,102,0,L|508:223,1,202.499994335175,2|0,0:0|0:0,0:0:0:0:
264,316,49778,1,0,0:0:0:0:
244,293,49857,2,0,P|228:249|252:193,1,101.249997167587,2|0,0:0|0:0,0:0:0:0:
315,71,50014,2,0,P|354:156|299:253,2,202.499994335175,8|0|2,0:0|0:0|0:0,0:0:0:0:
224,12,50407,1,0,0:0:0:0:
208,36,50485,2,0,P|172:56|100:44,2,101.249997167587,8|0|0,0:0|0:0|0:0,0:0:0:0:
444,180,50799,6,0,L|216:152,1,202.499994335175,2|0,0:0|0:0,0:0:0:0:
292,348,51113,2,0,L|64:376,1,202.499994335175,2|8,0:0|0:0,0:0:0:0:
16,336,51349,1,0,0:0:0:0:
16,336,51427,1,0,0:0:0:0:
164,192,51585,1,2,0:0:0:0:
84,40,51742,2,0,B|112:92|84:136|84:136|48:192|88:256,1,202.499994335175,8|0,0:0|0:0,0:0:0:0:
120,368,51977,101,0,0:0:0:0:
88,376,52056,2,0,P|164:320|332:356,1,202.499994335175,2|0,0:0|0:0,0:0:0:0:
396,316,52291,1,0,0:0:0:0:
416,332,52370,2,0,P|380:372|320:352,1,101.249997167587,2|0,0:0|0:0,0:0:0:0:
228,224,52527,6,0,P|204:152|324:104,1,202.499994335175,8|0,0:0|0:0,0:0:0:0:
472,188,52841,1,2,0:0:0:0:
409,230,52919,1,0,0:0:0:0:
333,223,52998,1,2,0:0:0:0:
280,167,53076,1,0,0:0:0:0:
226,112,53155,1,8,0:0:0:0:
151,105,53234,1,0,0:0:0:0:
88,147,53312,102,0,L|129:428,1,202.499994335175,2|0,0:0|0:0,0:0:0:0:
12,324,53548,1,0,0:0:0:0:
0,300,53626,2,0,P|12:268|76:252,1,101.249997167587,2|0,0:0|0:0,0:0:0:0:
280,167,53784,2,0,P|336:207|488:207,1,202.499994335175,8|0,0:0|0:0,0:0:0:0:
436,136,54019,1,0,0:0:0:0:
436,136,54098,1,2,0:0:0:0:
224,272,54255,2,0,B|184:176|280:176|232:72,1,202.499994335175,8|0,0:0|0:0,0:0:0:0:
16,44,54569,6,0,P|36:116|176:76,1,202.499994335175,2|0,0:0|0:0,0:0:0:0:
328,48,54804,1,0,0:0:0:0:
306,31,54883,2,0,P|258:35|238:99,1,101.249997167587,2|0,0:0|0:0,0:0:0:0:
224,272,55040,2,0,L|460:236,1,202.499994335175,8|0,0:0|0:0,0:0:0:0:
504,64,55276,101,0,0:0:0:0:
504,64,55354,2,0,B|548:132|496:200|496:200|476:168|432:160,1,202.499994335175,2|0,0:0|0:0,0:0:0:0:
128,92,55668,2,0,L|364:128,1,202.499994335175,8|0,0:0|0:0,0:0:0:0:
453,165,55904,5,0,0:0:0:0:
453,165,55982,2,0,P|373:145|301:289,1,202.499994335175,0|2,0:0|0:0,0:0:0:0:
205,380,56218,1,0,0:0:0:0:
229,368,56297,2,0,B|241:320|241:320|217:252,1,101.249997167587,8|0,0:0|0:0,0:0:0:0:
24,116,56454,2,0,P|20:177|88:193,1,101.249997167587
296,40,56611,2,0,B|180:16|220:88|88:56,2,202.499994335175,2|8|0,0:0|0:0|0:0,0:0:0:0:
512,32,57082,102,0,L|416:248,1,202.499994335175,2|0,3:2|0:0,0:0:0:0:
368,364,57318,1,0,3:2:0:0:
360,336,57396,2,0,P|340:288|276:208,1,101.249997167587,2|0,3:2|3:2,0:0:0:0:
99,58,57553,2,0,P|123:122|275:90,1,202.499994335175,8|0,0:0|3:2,0:0:0:0:
388,60,57789,5,0,0:0:0:0:
372,40,57867,2,0,B|356:24|356:24|328:136,1,101.249997167587,2|0,0:0|0:0,0:0:0:0:
224,312,58024,1,8,0:0:0:0:
175,369,58102,1,0,0:0:0:0:
99,370,58181,1,0,0:0:0:0:
50,312,58259,1,0,0:0:0:0:
61,237,58338,1,0,0:0:0:0:
126,198,58416,1,0,0:0:0:0:
198,221,58496,102,0,B|320:196|288:288|416:256,1,225.000001430512,2|2,0:0|0:0,0:0:0:0:
476,172,58731,1,0,0:0:0:0:
476,172,58810,6,0,B|471:140|494:117|494:117|420:182|435:112|342:199,2,202.499994335175,8|0|0,0:0|0:0|0:0,0:0:0:0:
324,40,59202,1,0,0:0:0:0:
344,28,59281,2,0,P|328:84|292:140,1,101.249997167587,2|0,0:0|0:0,0:0:0:0:
160,127,59438,2,0,P|176:183|212:239,1,101.249997167587,8|0,0:0|0:0,0:0:0:0:
264,324,59595,102,0,P|176:252|52:220,1,202.499994335175,0|2,0:0|0:0,0:0:0:0:
0,344,59831,1,0,0:0:0:0:
24,360,59909,2,0,P|81:349|140:319,1,101.249997167587,2|0,0:0|0:0,0:0:0:0:
292,224,60066,6,0,B|364:172|448:188|448:188|424:236,2,202.499994335175,8|0|0,0:0|0:0|0:0,0:0:0:0:
492,284,60537,1,2,0:0:0:0:
264,324,60694,2,0,B|228:224|328:248|272:112,1,202.499994335175,8|0,0:0|0:0,0:0:0:0:
172,64,60930,101,0,0:0:0:0:
153,48,61009,2,0,P|133:108|141:180,1,101.249997167587,2|0,0:0|0:0,0:0:0:0:
297,32,61166,2,0,P|293:95|258:158,1,101.249997167587,2|0,0:0|0:0,0:0:0:0:
28,228,61323,2,0,P|80:180|224:204,1,202.499994335175,8|0,0:0|0:0,0:0:0:0:
268,248,61558,1,0,0:0:0:0:
268,248,61637,1,0,0:0:0:0:
396,104,61794,1,2,0:0:0:0:
396,104,61951,2,0,P|424:140|412:212,1,101.249997167587,8|0,0:0|0:0,0:0:0:0:
308,368,62108,6,0,B|344:148,1,202.499994335175,0|2,3:2|3:2,0:0:0:0:
312,92,62344,1,0,3:2:0:0:
312,92,62422,2,0,P|274:118|265:190,1,101.249997167587,2|0,3:2|0:0,0:0:0:0:
456,56,62579,2,0,L|224:28,2,202.499994335175,8|0|0,3:2|0:0|0:0,0:0:0:0:
254,31,63051,102,0,P|220:64|144:56,1,101.249997167587,2|0,0:0|0:0,0:0:0:0:
56,20,63208,1,8,0:0:0:0:
2,73,63286,1,0,0:0:0:0:
32,144,63365,1,0,0:0:0:0:
61,213,63443,1,0,0:0:0:0:
91,283,63522,6,0,P|136:256|232:244,1,101.249997167587,2|0,0:0|0:0,0:0:0:0:
432,148,63679,2,0,P|388:121|340:108,1,101.249997167587,2|0,0:0|0:0,0:0:0:0:
216,140,63836,2,0,B|256:252|172:228|220:348,1,202.499994335175,8|0,0:0|0:0,0:0:0:0:
436,352,64071,1,0,0:0:0:0:
448,336,64150,2,0,B|468:308|468:308|284:328,2,202.499994335175,0|2|8,0:0|0:0|0:0,0:0:0:0:
215,336,64621,1,0,0:0:0:0:
340,108,64778,102,0,P|376:140|432:204,1,101.249997167587,2|0,0:0|0:0,0:0:0:0:
215,336,64935,1,2,0:0:0:0:
199,348,65014,1,0,0:0:0:0:
184,360,65092,2,0,B|160:308|200:264|200:264|232:224|212:168,1,202.499994335175,8|0,0:0|0:0,0:0:0:0:
128,96,65328,5,0,0:0:0:0:
128,96,65407,2,0,B|79:94|79:94|144:114,1,101.249997167587
316,140,65564,2,0,B|364:138|364:138|299:158,1,101.249997167587,2|0,0:0|0:0,0:0:0:0:
184,360,65721,1,8,0:0:0:0:
175,310,65799,1,0,0:0:0:0:
198,266,65878,1,0,0:0:0:0:
218,220,65956,1,0,0:0:0:0:
212,170,66035,102,0,P|223:219|287:251,1,101.249997167587,2|0,0:0|0:0,0:0:0:0:
368,368,66192,2,0,P|407:338|418:289,1,101.249997167587,2|0,0:0|0:0,0:0:0:0:
308,136,66349,2,0,L|84:152,1,202.499994335175,8|0,0:0|0:0,0:0:0:0:
44,208,66585,1,0,0:0:0:0:
44,208,66663,1,0,0:0:0:0:
192,40,66820,1,2,0:0:0:0:
44,208,66977,2,0,P|68:256|112:312,1,101.249997167587,8|0,0:0|0:0,0:0:0:0:
260,368,67134,6,0,B|220:268|312:296|252:152,1,202.499994335175,0|2,0:0|0:0,0:0:0:0:
212,24,67370,1,0,0:0:0:0:
192,40,67448,2,0,P|172:84|208:152,1,101.249997167587
344,144,67605,2,0,P|364:100|328:32,1,101.249997167587
72,128,67763,102,0,P|140:76|268:108,2,202.499994335175,2|0|0,0:0|0:0|0:0,0:0:0:0:
16,260,68155,1,0,0:0:0:0:
36,241,68234,2,0,B|40:200|40:200|4:181|-7:128,1,101.249997167587,2|0,0:0|0:0,0:0:0:0:
46,0,68391,2,0,P|6:44|30:100,1,101.249997167587,2|0,0:0|0:0,0:0:0:0:
232,297,68548,85,6,0:0:0:0:
150,208,68705,1,2,0:0:0:0:
36,241,68862,1,8,0:0:0:0:
117,330,69019,6,0,L|336:288,1,149.999995231629,2|0,0:0|0:0,0:0:0:0:
260,316,69255,1,0,0:0:0:0:
256,328,69333,1,2,0:0:0:0:
2,179,69490,2,0,L|221:221,1,149.999995231629,8|0,0:0|0:0,0:0:0:0:
232,224,69726,1,0,0:0:0:0:
232,224,69804,101,2,0:0:0:0:
368,144,69962,1,2,0:0:0:0:
244,48,70119,2,0,B|208:24|208:24|224:148,1,149.999995231629,8|0,0:0|0:0,0:0:0:0:
232,224,70354,1,0,0:0:0:0:
236,252,70433,2,0,P|214:294|166:326,1,74.9999976158143
80,360,70590,2,0,P|54:320|50:262,1,74.9999976158143,2|0,0:0|0:0,0:0:0:0:
70,81,70747,1,8,0:0:0:0:
107,86,70825,1,0,0:0:0:0:
144,91,70904,1,2,0:0:0:0:
181,96,70982,1,0,0:0:0:0:
221,129,71061,5,2,0:0:0:0:
420,64,71218,1,2,0:0:0:0:
292,12,71375,1,8,0:0:0:0:
348,188,71532,102,0,L|323:336,1,149.999995231629,2|0,0:0|0:0,0:0:0:0:
336,328,71768,1,0,0:0:0:0:
348,320,71846,1,2,0:0:0:0:
420,64,72003,2,0,L|444:212,1,149.999995231629,8|0,0:0|0:0,0:0:0:0:
512,332,72239,1,0,0:0:0:0:
501,315,72318,6,0,P|470:294|369:307,1,93.7499970197678,2|0,3:2|0:0,0:0:0:0:
128,280,72475,1,2,3:2:0:0:
140,320,72553,1,0,3:2:0:0:
152,360,72632,2,0,B|176:260|240:324|263:203,1,187.499994039536,8|0,3:2|3:2,0:0:0:0:
69,64,72867,1,0,0:0:0:0:
69,64,72946,102,0,P|36:100|5:169,1,93.7499970197678,2|0,0:0|0:0,0:0:0:0:
244,124,73103,2,0,P|247:170|260:215,1,93.7499970197678,2|0,3:2|0:0,0:0:0:0:
151,102,73260,2,0,P|134:145|126:191,1,93.7499970197678,8|0,3:2|0:0,0:0:0:0:
336,101,73417,2,0,P|355:145|405:203,1,93.7499970197678,2|0,3:2|0:0,0:0:0:0:
324,360,73574,5,2,0:0:0:0:
480,184,73731,1,2,0:0:0:0:
288,288,73888,1,8,0:0:0:0:
512,260,74045,102,0,L|340:280,1,149.999995231629,2|0,0:0|0:0,0:0:0:0:
288,288,74281,1,0,0:0:0:0:
288,288,74359,1,2,0:0:0:0:
336,101,74516,2,0,L|164:81,1,149.999995231629,8|0,0:0|0:0,0:0:0:0:
200,76,74752,1,0,0:0:0:0:
212,68,74831,6,0,P|228:100|204:140,1,74.9999976158143,2|0,0:0|0:0,0:0:0:0:
8,232,74988,2,0,P|-8:200|16:160,1,74.9999976158143,2|0,0:0|0:0,0:0:0:0:
76,36,75145,2,0,L|120:220,1,149.999995231629,8|0,0:0|0:0,0:0:0:0:
192,212,75380,1,0,0:0:0:0:
192,212,75459,2,0,P|175:251|140:292,1,74.9999976158143
4,328,75616,101,2,0:0:0:0:
16,320,75694,2,0,L|140:336,1,74.9999976158143,2|8,0:0|0:0,0:0:0:0:
224,348,75852,1,2,0:0:0:0:
236,356,75930,2,0,L|360:340,1,74.9999976158143,2|0,0:0|0:0,0:0:0:0:
508,212,76087,5,2,0:0:0:0:
391,151,76244,1,2,0:0:0:0:
320,255,76401,1,8,0:0:0:0:
460,372,76558,102,0,B|464:292|408:316|412:228,1,149.999995231629,2|0,0:0|0:0,0:0:0:0:
492,40,76873,2,0,P|480:88|432:120,1,74.9999976158143,2|0,0:0|0:0,0:0:0:0:
391,151,77030,2,0,L|227:135,1,149.999995231629,8|0,0:0|0:0,0:0:0:0:
76,286,77344,6,0,P|98:263|107:199,1,93.7499970197678,2|0,3:2|0:0,0:0:0:0:
0,54,77501,1,2,3:2:0:0:
16,90,77579,1,0,3:2:0:0:
28,119,77658,2,0,B|136:127|85:199|213:204,1,187.499994039536,8|0,3:2|3:2,0:0:0:0:
456,352,77893,1,0,0:0:0:0:
456,352,77972,102,0,L|444:232,1,93.7499970197678
376,360,78129,2,0,L|364:240,1,93.7499970197678,2|0,3:2|0:0,0:0:0:0:
296,368,78286,2,0,L|284:248,1,93.7499970197678,8|0,3:2|0:0,0:0:0:0:
399,109,78443,86,0,B|331:39|394:-40|500:-11|501:82|442:149|371:178|371:178|292:122|204:146|149:192|134:236|134:236|161:202|213:196,1,701.249991083145,2|0,3:2|0:0,0:0:0:0:
296,28,79386,6,0,L|284:96,1,48.7499962186815
177,138,79543,102,0,L|193:230,1,63.7499991893769
312,240,79700,6,0,L|293:352,1,86.2499989032746
116,358,79857,102,0,B|116:262|188:302|188:190,1,179.999994277954,6|2,0:0|0:0,0:0:0:0:
136,76,80485,2,0,B|148:64|156:40|156:40|140:76|149:117,1,119.999996185303,8|0,0:0|0:0,0:0:0:0:
212,344,80956,6,0,P|262:330|339:293,2,119.999996185303,2|2|2,0:0|0:0|0:0,0:0:0:0:
392,356,81742,2,0,P|413:321|423:292,1,59.9999980926514,8|0,0:0|0:0,0:0:0:0:
512,300,82056,2,0,P|502:260|489:232,1,59.9999980926514
456,64,82370,102,0,B|428:40|428:40|404:88|408:143|456:188,1,179.999994277954,2|2,0:0|0:0,0:0:0:0:
512,300,82998,2,0,P|502:260|489:232,1,59.9999980926514,8|0,0:0|0:0,0:0:0:0:
456,64,83312,1,2,0:0:0:0:
512,300,83469,6,0,P|461:286|384:249,2,119.999996185303,2|2|2,0:0|0:0|0:0,0:0:0:0:
340,188,84255,2,0,P|300:197|276:206,1,59.9999980926514,8|0,0:0|0:0,0:0:0:0:
144,244,84569,2,0,P|104:234|80:225,1,59.9999980926514
176,0,84883,102,0,L|204:196,1,179.999994277954,2|2,0:0|0:0,0:0:0:0:
236,356,85511,2,0,B|216:368|216:368|240:256,1,119.999996185303,8|0,0:0|0:0,0:0:0:0:
292,84,85982,6,0,B|360:64|344:112|424:84,2,119.999996185303,2|2|2,0:0|0:0|0:0,0:0:0:0:
492,16,86768,2,0,P|504:48|512:100,1,59.9999980926514,8|0,0:0|0:0,0:0:0:0:
391,268,87082,2,0,P|397:238|408:210,1,59.9999980926514
509,73,87396,102,0,B|505:123|456:145|456:145|412:165|409:211,1,179.999994277954,2|2,0:0|0:0,0:0:0:0:
424,360,88024,2,0,P|480:336|464:284,1,119.999996185303,8|0,0:0|0:0,0:0:0:0:
232,132,88496,6,0,B|164:112|180:160|100:132,2,119.999996185303,2|2|2,0:0|0:0|0:0,0:0:0:0:
435,126,89281,2,0,P|439:97|448:68,1,59.9999980926514,8|0,0:0|0:0,0:0:0:0:
345,247,89595,2,0,P|340:217|331:188,1,59.9999980926514,8|0,2:3|0:0,0:0:0:0:
458,40,89909,6,0,P|448:70|433:150,1,89.9999943923952,2|0,0:0|0:0,0:0:0:0:
323,160,90066,2,0,P|333:190|348:270,1,89.9999943923952,2|0,0:0|0:0,0:0:0:0:
489,339,90223,2,0,B|424:311|424:311|272:363,1,179.99998878479,8|0,0:0|0:0,0:0:0:0:
236,186,90459,5,0,0:0:0:0:
245,180,90537,2,0,P|253:224|267:267,1,89.9999943923952
356,78,90694,1,2,0:0:0:0:
321,346,90852,2,0,B|374:376|414:350|404:338|443:310|500:346,1,179.99998878479,8|0,0:0|0:0,0:0:0:0:
475,14,91166,102,0,L|431:278,1,239.999992370606,2|2,3:2|3:2,0:0:0:0:
292,353,91401,1,0,3:2:0:0:
321,346,91480,2,0,B|340:312|340:312|311:220,1,119.999996185303,8|0,3:2|0:0,0:0:0:0:
232,173,91637,2,0,B|210:151|202:121|202:121|187:154|157:173,1,119.999996185303,0|0,3:2|0:0,0:0:0:0:
55,311,91794,5,0,0:0:0:0:
164,33,91951,2,0,B|185:76|176:171|132:109|77:176|105:249,2,239.999992370606,2|8|0,0:0|0:0|0:0,0:0:0:0:
55,311,92422,102,0,P|42:324|72:316,1,89.9999943923952,2|0,0:0|0:0,0:0:0:0:
206,301,92579,1,2,0:0:0:0:
199,313,92658,1,0,0:0:0:0:
193,326,92736,2,0,P|226:332|395:385,1,179.99998878479,8|0,0:0|0:0,0:0:0:0:
420,262,92972,5,0,0:0:0:0:
407,269,93051,2,0,P|375:259|293:236,1,89.9999943923952
332,112,93208,1,2,0:0:0:0:
257,1,93365,2,0,B|224:89|279:132|293:120|366:152|308:274,1,269.999983177186,8|0,0:0|0:0,0:0:0:0:
146,349,93679,102,0,B|248:292|248:292|215:318|218:380,2,179.99998878479,2|2|8,0:0|0:0|0:0,0:0:0:0:
476,334,94150,2,0,B|359:357|421:321|278:355,1,179.99998878479
159,224,94386,5,0,0:0:0:0:
171,218,94464,2,0,P|181:180|198:132,1,89.9999943923952,2|0,0:0|0:0,0:0:0:0:
35,8,94621,1,8,0:0:0:0:
52,83,94700,1,0,0:0:0:0:
127,68,94778,1,2,0:0:0:0:
203,55,94857,1,0,0:0:0:0:
277,64,94935,70,0,P|325:70|394:90,1,112.499996423721,4|0,0:0|0:0,0:0:0:0:
388,99,95249,2,0,L|397:148,1,37.4999988079071
472,85,95407,2,0,P|478:43|491:-6,1,74.9999976158143
492,202,95721,1,0,0:0:0:0:
492,202,95799,1,0,0:0:0:0:
492,202,95878,2,0,P|440:213|367:240,1,112.499996423721
375,236,96192,6,0,L|422:352,1,112.500000715256,0|0,3:2|3:2,0:0:0:0:
335,351,96427,1,0,3:2:0:0:
335,351,96506,2,0,L|288:235,1,112.500000715256,0|0,3:2|3:2,0:0:0:0:
211,260,96742,1,0,3:2:0:0:
211,260,96821,2,0,L|258:376,1,112.500000715256
60,227,97134,102,0,B|110:234|147:210|134:198|165:160|246:174,1,168.750001072884
290,148,97448,2,0,P|288:84|202:101,1,168.750001072884
204,95,97763,5,0,0:0:0:0:
127,121,97920,1,0,0:0:0:0:
123,114,97998,1,0,0:0:0:0:
118,106,98077,1,0,0:0:0:0:
0,44,98234,2,0,P|23:95|44:147,1,112.500000715256
36,233,98548,1,0,0:0:0:0:
90,366,98705,102,0,B|70:310|91:281|105:288|129:256|103:177,1,168.750001072884
120,206,99019,2,0,L|165:212,3,37.5000002384186
383,246,99333,6,0,P|297:247|211:266,1,168.750001072884
190,297,99647,102,0,P|284:274|426:275,1,224.999992847443
483,315,99962,5,2,0:0:0:0:
483,315,100119,1,0,0:0:0:0:
420,60,100276,101,2,0:0:0:0:
512,112,100433,1,0,0:0:0:0:
509,99,100511,1,0,0:0:0:0:
505,88,100590,2,0,B|460:73|420:91|428:100|400:133|327:110,1,168.750001072884,8|0,0:0|0:0,0:0:0:0:
269,110,100904,2,0,L|243:-19,1,112.500000715256,2|0,0:0|0:0,0:0:0:0:
235,179,101218,5,2,0:0:0:0:
344,114,101375,1,8,0:0:0:0:
235,179,101532,101,0,0:0:0:0:
233,190,101610,1,0,0:0:0:0:
231,201,101689,1,0,0:0:0:0:
229,212,101767,1,0,0:0:0:0:
226,222,101846,2,0,B|281:219|311:243|297:252|327:285|407:272,1,168.750001072884,2|0,0:0|0:0,0:0:0:0:
454,252,102160,5,2,0:0:0:0:
380,274,102318,1,0,0:0:0:0:
176,360,102475,102,0,P|159:288|119:172,1,168.750001072884,8|0,0:0|0:0,0:0:0:0:
114,123,102789,2,0,B|68:110|68:110|1:138,1,112.500000715256,2|8,0:0|0:0,0:0:0:0:
259,133,103103,1,0,0:0:0:0:
259,133,103260,6,0,P|217:155|209:163,1,56.2500003576279
275,215,103417,2,0,P|249:255|246:265,1,56.2500003576279
333,278,103574,2,0,P|331:325|333:336,1,56.2500003576279
412,312,103731,102,0,B|435:243|389:196|372:226|340:170|361:108,2,225.000001430512,2|2|8,0:0|0:0|0:0,0:0:0:0:
412,312,104674,5,2,0:0:0:0:
327,343,104831,1,8,0:0:0:0:
458,185,104988,101,2,0:0:0:0:
344,235,105145,1,0,0:0:0:0:
234,286,105302,1,0,0:0:0:0:
233,293,105380,1,0,0:0:0:0:
232,300,105459,1,0,0:0:0:0:
231,307,105537,1,0,0:0:0:0:
229,315,105616,6,0,P|149:333|60:373,1,168.750001072884,2|0,0:0|0:0,0:0:0:0:
4,325,105930,2,0,P|13:276|72:274,1,112.500000715256,2|0,0:0|0:0,0:0:0:0:
302,355,106244,101,8,0:0:0:0:
383,373,106401,2,0,L|427:380,3,28.125000178814
383,373,106558,6,0,P|376:299|361:217,1,149.999995231629
472,69,107030,1,0,0:0:0:0:
477,61,107108,1,0,0:0:0:0:
482,54,107187,5,0,0:0:0:0:
433,38,107265,1,0,0:0:0:0:
370,72,107344,1,0,0:0:0:0:
299,84,107422,1,0,0:0:0:0:
224,100,107501,6,0,P|212:67|178:0,1,89.9999943923952,2|0,0:0|0:0,0:0:0:0:
98,184,107658,2,0,P|70:210|94:210,1,89.9999943923952,2|0,0:0|0:0,0:0:0:0:
186,267,107815,2,0,B|166:208|193:167|210:193|241:148|217:72,1,179.99998878479,8|0,0:0|0:0,0:0:0:0:
86,14,108051,101,0,0:0:0:0:
99,13,108129,2,0,P|111:46|145:113,1,89.9999943923952
186,267,108286,1,2,0:0:0:0:
18,287,108443,2,0,P|144:301|291:351,1,269.999983177186,8|0,0:0|0:0,0:0:0:0:
277,352,108757,6,0,P|233:361|176:378,1,89.9999943923952,2|0,0:0|0:0,0:0:0:0:
281,253,108914,2,0,P|322:271|361:292,1,89.9999943923952,2|0,0:0|0:0,0:0:0:0:
437,379,109071,2,0,B|434:311|459:282|469:299|494:266|497:190,1,179.99998878479,8|0,0:0|0:0,0:0:0:0:
495,203,109307,1,0,0:0:0:0:
494,193,109386,1,0,0:0:0:0:
259,92,109543,102,0,L|212:2,1,89.9999943923952,2|0,0:0|0:0,0:0:0:0:
445,88,109700,2,0,B|510:94|510:94|403:106|305:161,1,269.999983177186,8|0,0:0|0:0,0:0:0:0:
258,266,110014,6,0,P|248:307|265:387,1,119.999996185303,2|0,0:0|0:0,0:0:0:0:
437,379,110171,2,0,P|449:343|430:258,1,119.999996185303,2|0,0:0|0:0,0:0:0:0:
43,204,110328,102,0,B|160:112|269:201|215:221|258:313|399:432|525:245|454:144|347:105|252:190,1,599.999980926514,8|0,0:0|0:0,0:0:0:0:
333,77,110799,6,0,P|283:85|241:131,1,89.9999943923952,2|0,0:0|0:0,0:0:0:0:
141,292,110956,2,0,B|78:274|60:193|97:191|74:102|-17:107|-12:189|79:225,1,269.999983177186,8|0,0:0|0:0,0:0:0:0:
160,212,111270,102,0,B|146:143|254:76|332:109|315:251|190:198,1,269.999983177186,2|0,2:3|0:0,0:0:0:0:
234,290,111585,54,0,P|238:307|227:292,1,44.9999985694886,8|0,2:3|0:0,0:0:0:0:
56,98,111899,85,0,3:2:0:0:
75,94,111977,1,0,3:2:0:0:
93,91,112056,1,0,3:2:0:0:
152,45,112134,1,0,3:2:0:0:
227,62,112213,1,0,3:2:0:0:
299,90,112291,1,0,3:2:0:0:
367,124,112370,6,0,B|443:79|531:81|531:81|472:60,1,225.000001430512,6|0,0:0|0:0,0:0:0:0:
339,236,112605,1,0,0:0:0:0:
354,231,112684,102,0,P|364:182|384:110,1,101.249997167587,2|0,0:0|0:0,0:0:0:0:
486,307,112841,2,0,P|394:316|262:347,1,202.499994335175,8|0,0:0|0:0,0:0:0:0:
230,279,113077,1,0,0:0:0:0:
230,279,113155,1,2,0:0:0:0:
71,37,113312,2,0,P|157:58|107:137,1,202.499994335175,8|0,0:0|0:0,0:0:0:0:
51,245,113548,1,0,0:0:0:0:
62,231,113626,6,0,B|95:175|76:123|58:141|33:97|82:17,1,202.499994335175,2|0,0:0|0:0,0:0:0:0:
82,319,113941,2,0,P|133:333|204:372,1,101.249997167587,2|0,0:0|0:0,0:0:0:0:
396,226,114098,2,0,B|300:238|275:340|330:361|354:317|330:278,1,202.499994335175,8|0,0:0|0:0,0:0:0:0:
270,189,114333,1,0,0:0:0:0:
261,199,114412,2,0,P|210:213|139:252,1,101.249997167587,2|0,0:0|0:0,0:0:0:0:
10,355,114569,2,0,B|26:323|26:323|-1:261,2,101.249997167587,8|0|0,0:0|0:0|0:0,0:0:0:0:
114,9,114883,102,0,L|72:245,1,202.499994335175,2|0,0:0|0:0,0:0:0:0:
447,33,115197,2,0,B|382:12|344:45|356:58|320:98|220:68,1,202.499994335175,2|8,0:0|0:0,0:0:0:0:
199,17,115433,1,0,0:0:0:0:
199,17,115511,1,0,0:0:0:0:
5,242,115668,1,2,0:0:0:0:
128,331,115825,2,0,P|129:251|80:112,1,202.499994335175,8|0,0:0|0:0,0:0:0:0:
24,73,116061,5,0,0:0:0:0:
44,73,116140,2,0,B|90:60|116:7|116:7|111:67|171:99,1,202.499994335175,2|0,0:0|0:0,0:0:0:0:
275,248,116375,1,0,3:2:0:0:
255,235,116454,2,0,B|232:201|232:201|245:138,1,101.249997167587,2|0,3:2|0:0,0:0:0:0:
392,81,116611,102,0,L|81:136,1,303.749991502762,8|0,3:2|0:0,0:0:0:0:
13,230,116925,1,2,3:2:0:0:
34,303,117003,1,0,3:2:0:0:
108,315,117082,1,8,3:2:0:0:
180,297,117160,1,0,3:2:0:0:
252,294,117239,1,2,3:2:0:0:
322,325,117318,1,0,3:2:0:0:
398,329,117396,6,0,B|428:248|385:211|377:222|328:188|360:122,1,202.499994335175,2|0,0:0|0:0,0:0:0:0:
466,48,117632,1,0,0:0:0:0:
471,61,117710,2,0,L|418:173,1,101.249997167587,2|0,0:0|0:0,0:0:0:0:
308,377,117867,2,0,P|403:344|504:334,1,202.499994335175,8|0,0:0|0:0,0:0:0:0:
497,251,118103,1,0,0:0:0:0:
497,251,118181,1,2,0:0:0:0:
252,294,118338,2,0,P|151:284|56:250,1,202.499994335175,8|0,0:0|0:0,0:0:0:0:
36,158,118574,1,0,0:0:0:0:
36,158,118653,102,0,P|72:101|115:189,1,202.499994335175,2|0,0:0|0:0,0:0:0:0:
87,350,118888,1,0,0:0:0:0:
78,352,118967,2,0,P|71:305|48:255,1,101.249997167587,2|0,0:0|0:0,0:0:0:0:
121,182,119124,2,0,B|179:160|216:186|210:198|248:232|331:205,1,202.499994335175,8|0,0:0|0:0,0:0:0:0:
333,58,119359,5,0,0:0:0:0:
333,58,119438,2,0,B|396:91|389:189|389:189|379:151|341:140,1,202.499994335175,2|8,0:0|0:0,0:0:0:0:
208,355,119752,2,0,B|240:291|338:298|338:298|301:308|290:346,1,202.499994335175,0|2,0:0|0:0,0:0:0:0:
496,370,119988,101,0,0:0:0:0:
496,370,120066,2,0,L|248:316,1,202.499994335175,0|2,0:0|0:0,0:0:0:0:
155,245,120302,1,0,0:0:0:0:
161,259,120380,2,0,L|52:291,1,101.249997167587,8|0,0:0|0:0,0:0:0:0:
30,173,120537,2,0,L|139:141,1,101.249997167587
208,7,120694,2,0,B|189:72|221:113|233:97|263:133|250:196,2,202.499994335175,2|8|0,0:0|0:0|0:0,0:0:0:0:
445,277,121166,6,0,B|372:242|372:242|234:298,1,202.499994335175,2|0,3:2|0:0,0:0:0:0:
90,363,121401,1,0,3:2:0:0:
103,370,121480,2,0,P|166:367|195:331,1,101.249997167587,2|0,3:2|0:0,0:0:0:0:
390,156,121637,102,0,L|413:53,2,101.249997167587,8|0|0,3:2|0:0|3:2,0:0:0:0:
445,277,121873,1,0,3:2:0:0:
444,285,121951,1,2,0:0:0:0:
494,41,122108,1,8,0:0:0:0:
390,156,122265,1,2,0:0:0:0:
65,220,122422,5,0,0:0:0:0:
143,224,122501,1,0,0:0:0:0:
199,285,122579,2,0,P|162:182|111:73,2,202.499994335175,2|2|8,0:0|0:0|0:0,0:0:0:0:
268,41,123051,101,0,0:0:0:0:
271,32,123129,1,0,0:0:0:0:
275,24,123208,1,0,0:0:0:0:
10,92,123365,2,0,B|72:100|114:65|86:58|120:16|216:23,2,202.499994335175,2|8|0,0:0|0:0|0:0,0:0:0:0:
367,18,123836,6,0,P|350:66|331:131,1,101.249997167587,2|0,0:0|0:0,0:0:0:0:
505,18,123993,2,0,P|472:57|432:111,1,101.249997167587,2|0,0:0|0:0,0:0:0:0:
378,321,124150,2,0,B|276:266|263:114|370:109|450:172|367:246,1,303.749991502762,8|0,0:0|0:0,0:0:0:0:
402,216,124464,102,0,B|338:250|281:224|304:205|260:166|153:202,1,225.000001430512,0|2,0:0|0:0,0:0:0:0:
6,165,124700,1,0,0:0:0:0:
6,165,124778,6,0,B|53:135|66:69|66:69|87:117|147:135,1,202.499994335175,8|0,0:0|0:0,0:0:0:0:
124,256,125092,102,0,L|204:62,2,202.499994335175,2|2|8,0:0|0:0|0:0,0:0:0:0:
157,5,125564,1,0,0:0:0:0:
25,298,125721,6,0,L|153:262,1,101.249997167587
307,91,125878,2,0,L|209:63,1,101.249997167587,2|0,0:0|0:0,0:0:0:0:
32,147,126035,1,8,0:0:0:0:
220,346,126192,102,0,B|220:277|258:246|264:267|305:237|305:162,1,202.499994335175,0|2,0:0|0:0,0:0:0:0:
387,15,126427,1,0,0:0:0:0:
373,20,126506,2,0,P|388:55|400:143,1,101.249997167587,2|0,0:0|0:0,0:0:0:0:
439,311,126663,2,0,B|390:286|370:236|370:236|361:283|292:331,2,202.499994335175,8|0|0,0:0|0:0|0:0,0:0:0:0:
314,314,127134,6,0,P|266:339|208:346,1,101.249997167587,2|0,0:0|0:0,0:0:0:0:
106,341,127291,1,8,0:0:0:0:
34,318,127370,1,0,0:0:0:0:
31,242,127448,1,0,0:0:0:0:
24,164,127527,1,0,0:0:0:0:
26,87,127605,102,0,B|64:73|64:73|120:96,1,101.249997167587,2|0,0:0|0:0,0:0:0:0:
243,24,127763,2,0,B|236:60|236:60|280:140,1,101.249997167587,2|0,0:0|0:0,0:0:0:0:
408,131,127920,2,0,P|328:142|203:208,1,202.499994335175,8|0,0:0|0:0,0:0:0:0:
165,360,128155,1,0,0:0:0:0:
177,356,128234,2,0,B|205:299|178:252|159:264|114:215|159:131,2,202.499994335175,0|2|8,0:0|0:0|0:0,0:0:0:0:
120,96,128705,1,0,0:0:0:0:
272,264,128862,6,0,P|322:271|384:300,1,101.249997167587,2|0,0:0|0:0,0:0:0:0:
474,142,129019,1,2,0:0:0:0:
487,152,129098,1,0,0:0:0:0:
500,162,129176,2,0,P|465:265|450:372,1,202.499994335175,8|0,0:0|0:0,0:0:0:0:
440,361,129412,102,0,L|375:372,2,56.2500003576279
407,191,129647,6,0,P|393:126|424:80,1,101.249997167587,2|0,0:0|0:0,0:0:0:0:
268,280,129804,1,8,0:0:0:0:
223,300,129883,1,0,0:0:0:0:
172,303,129962,1,0,0:0:0:0:
129,288,130041,1,0,0:0:0:0:
78,291,130119,102,0,P|44:307|-15:347,1,101.249997167587,2|0,0:0|0:0,0:0:0:0:
116,9,130276,2,0,P|132:49|157:130,1,101.249997167587,2|0,0:0|0:0,0:0:0:0:
282,161,130433,2,0,B|156:170|214:203|49:209,1,202.499994335175,8|0,0:0|0:0,0:0:0:0:
23,156,130668,1,0,0:0:0:0:
23,156,130747,1,0,0:0:0:0:
268,280,130904,1,2,0:0:0:0:
23,156,131061,2,0,P|5:110|-12:44,1,101.249997167587,8|0,3:2|0:0,0:0:0:0:
45,298,131218,6,0,B|6:245|68:212|106:229|145:274|111:352,1,202.499994335175,0|2,3:2|3:2,0:0:0:0:
327,357,131454,1,0,3:2:0:0:
306,361,131532,2,0,B|238:389|196:358|226:341|179:304|95:333,1,202.499994335175,8|0,3:2|3:2,0:0:0:0:
57,376,131768,1,0,3:2:0:0:
57,376,131846,1,0,0:0:0:0:
371,263,132003,101,0,0:0:0:0:
172,76,132160,1,2,0:0:0:0:
178,152,132239,1,0,0:0:0:0:
181,229,132318,1,2,0:0:0:0:
62,80,132475,2,0,L|188:65,1,101.249997167587,8|0,0:0|0:0,0:0:0:0:
239,23,132632,38,0,P|253:21|239:31,1,37.4999988079071,8|0,0:0|0:0,0:0:0:0:
285,129,132946,102,0,P|300:140|277:132,1,74.9999976158143
280,258,133260,53,0,0:0:0:0:
220,248,133338,1,0,0:0:0:0:
161,257,133417,1,0,0:0:0:0:
107,282,133495,1,0,0:0:0:0:
57,274,133574,1,0,0:0:0:0:
64,287,133653,1,0,0:0:0:0:
71,300,133731,1,0,0:0:0:0:
78,313,133809,1,0,0:0:0:0:
85,326,133888,6,0,P|167:337|286:368,2,179.99998878479,6|2|8,0:0|0:0|0:0,0:0:0:0:
458,248,134359,2,0,P|408:245|265:261,1,179.99998878479,2|0,0:0|0:0,0:0:0:0:
238,184,134595,1,0,0:0:0:0:
238,184,134674,2,0,L|211:84,1,89.9999943923952,2|0,0:0|0:0,0:0:0:0:
132,118,134831,2,0,L|159:218,1,89.9999943923952,8|0,0:0|0:0,0:0:0:0:
294,46,134988,1,0,0:0:0:0:
305,52,135066,1,0,0:0:0:0:
316,57,135145,102,0,B|372:72|408:50|396:40|439:14|503:40,2,179.99998878479,2|2|8,0:0|0:0|0:0,0:0:0:0:
160,24,135537,1,0,0:0:0:0:
160,24,135616,2,0,P|84:21|40:114,1,179.99998878479
101,357,135930,2,0,P|90:257|51:145,2,179.99998878479,2|8|0,0:0|0:0|0:0,0:0:0:0:
210,96,136401,6,0,P|195:137|187:195,1,89.9999943923952,2|0,0:0|0:0,0:0:0:0:
187,318,136558,1,2,0:0:0:0:
188,307,136637,1,0,0:0:0:0:
190,298,136715,2,0,B|260:276|260:276|375:331,1,179.99998878479,8|0,0:0|0:0,0:0:0:0:
482,280,136951,1,0,0:0:0:0:
482,280,137030,102,0,L|371:230,1,89.9999943923952
314,143,137187,1,2,0:0:0:0:
352,123,137265,1,0,0:0:0:0:
392,136,137344,1,8,0:0:0:0:
482,280,137501,1,0,0:0:0:0:
356,322,137658,6,0,L|472:377,1,119.999996185303,2|0,3:2|0:0,0:0:0:0:
474,178,137815,1,2,3:2:0:0:
490,124,137894,1,0,3:2:0:0:
464,72,137972,1,8,3:2:0:0:
311,45,138129,102,0,P|272:62|228:102,1,89.9999943923952,0|0,3:2|0:0,0:0:0:0:
182,8,138286,2,0,P|156:42|138:98,1,89.9999943923952,0|0,3:2|0:0,0:0:0:0:
9,165,138443,2,0,P|78:163|204:224,2,179.99998878479,2|8|0,0:0|3:2|0:0,0:0:0:0:
26,71,138836,1,0,0:0:0:0:
26,71,138914,6,0,P|46:44|18:61,1,89.9999943923952,2|0,0:0|0:0,0:0:0:0:
0,167,139071,2,0,P|12:212|20:269,1,89.9999943923952,2|0,0:0|0:0,0:0:0:0:
133,295,139229,2,0,B|172:312|172:312|108:311|33:345,1,179.99998878479,8|0,0:0|0:0,0:0:0:0:
26,348,139464,1,0,0:0:0:0:
15,354,139543,1,0,0:0:0:0:
301,186,139700,2,0,P|306:142|319:99,1,89.9999943923952,2|0,0:0|0:0,0:0:0:0:
406,112,139857,2,0,P|401:156|388:199,1,89.9999943923952,8|0,0:0|0:0,0:0:0:0:
409,380,140014,102,0,B|428:319|403:285|389:298|362:258|392:189,1,179.99998878479,0|2,0:0|0:0,0:0:0:0:
485,109,140249,1,0,0:0:0:0:
485,109,140328,2,0,P|464:54|417:35,1,89.9999943923952,2|0,0:0|0:0,0:0:0:0:
319,98,140485,2,0,L|76:141,2,179.99998878479,8|0|0,0:0|0:0|0:0,0:0:0:0:
39,158,140956,6,0,P|116:152|62:224,2,179.99998878479,2|8|0,0:0|0:0|0:0,0:0:0:0:
27,298,141349,1,0,0:0:0:0:
27,298,141427,102,0,P|73:301|114:329,1,89.9999943923952,2|0,0:0|0:0,0:0:0:0:
323,221,141585,1,2,0:0:0:0:
176,355,141742,2,0,B|240:373|269:343|258:333|298:299|347:320,1,179.99998878479,8|0,0:0|0:0,0:0:0:0:
428,380,141977,1,0,0:0:0:0:
418,377,142056,2,0,L|444:272,1,89.9999943923952
301,133,142213,2,0,L|322:220,1,89.9999943923952,2|0,0:0|0:0,0:0:0:0:
346,15,142370,1,8,0:0:0:0:
137,65,142527,6,0,B|179:10|253:11|301:20|251:92|211:42,1,179.99998878479,0|2,3:2|3:2,0:0:0:0:
130,184,142763,1,0,3:2:0:0:
63,140,142841,2,0,L|18:-35,1,119.999996185303,8|0,3:2|0:0,0:0:0:0:
22,374,142998,101,0,3:2:0:0:
96,363,143077,1,0,3:2:0:0:
170,339,143155,2,0,L|215:164,1,119.999996185303,2|0,3:2|0:0,0:0:0:0:
291,170,143312,2,0,B|215:193|172:164|184:150|137:110|44:145,1,239.999992370606,8|0,3:2|3:2,0:0:0:0:
0,261,143548,6,0,B|46:237|46:237|123:264,1,119.999996185303,2|0,3:2|0:0,0:0:0:0:
317,260,143705,1,2,3:2:0:0:
374,205,143784,2,0,B|398:159|398:159|371:82,1,119.999996185303,2|0,3:2|0:0,0:0:0:0:
265,4,143941,102,0,B|300:37|295:96|259:74|246:132|307:186,2,179.99998878479,2|2|8,0:0|0:0|0:0,0:0:0:0:
110,259,144412,2,0,L|405:199,1,269.999983177186,2|0,0:0|0:0,0:0:0:0:
461,188,144726,2,0,L|490:89,1,89.9999943923952,2|0,0:0|0:0,0:0:0:0:
373,337,144883,2,0,B|417:313|426:267|426:267|434:317|477:339,1,179.99998878479,8|0,0:0|0:0,0:0:0:0:
503,264,145119,1,0,0:0:0:0:
503,264,145197,5,2,0:0:0:0:
363,14,145354,2,0,L|388:100,1,89.9999943923952,2|0,0:0|0:0,0:0:0:0:
461,188,145511,2,0,B|411:169|373:190|382:206|344:235|282:204,1,179.99998878479,8|0,0:0|0:0,0:0:0:0:
141,139,145747,1,0,0:0:0:0:
141,139,145825,2,0,P|183:133|227:166,1,89.9999943923952
221,381,145982,2,0,P|180:301|168:212,2,179.99998878479,2|8|0,0:0|0:0|0:0,0:0:0:0:
12,54,146454,102,0,P|52:133|65:223,2,179.99998878479,2|2|8,0:0|0:0|0:0,0:0:0:0:
1,283,146925,2,0,B|47:255|100:291|79:298|128:335|193:289,1,179.99998878479
289,273,147160,1,0,0:0:0:0:
276,272,147239,2,0,L|258:160,1,89.9999943923952,2|0,0:0|0:0,0:0:0:0:
355,343,147396,2,0,P|269:315|181:295,1,179.99998878479,8|0,0:0|0:0,0:0:0:0:
470,327,147710,6,0,P|319:358|233:385,1,239.999992370606,2|2,3:2|3:2,0:0:0:0:
5,189,147946,1,0,3:2:0:0:
64,242,148024,2,0,L|181:205,1,119.999996185303,8|0,3:2|0:0,0:0:0:0:
225,120,148181,102,0,P|206:177|179:314,1,179.99998878479,2|0,0:0|3:2,0:0:0:0:
353,309,148417,1,0,0:0:0:0:
353,309,148496,2,0,B|296:330|260:314|272:298|238:274|167:298,2,179.99998878479,2|8|0,3:2|3:2|0:0,0:0:0:0:
103,310,148967,6,0,P|57:330|16:367,1,89.9999943923952,2|0,0:0|0:0,0:0:0:0:
18,139,149124,2,0,P|38:176|56:257,1,89.9999943923952,2|0,0:0|0:0,0:0:0:0:
152,384,149281,2,0,P|137:279|142:185,1,179.99998878479,8|0,0:0|0:0,0:0:0:0:
206,50,149516,1,0,0:0:0:0:
206,50,149595,2,0,B|247:125|203:188|140:211|77:159|100:99|158:98,1,269.999983177186
143,100,149909,2,0,B|215:51|286:110|252:131|317:184|392:140,1,269.999983177186,8|0,0:0|0:0,0:0:0:0:
484,37,150223,102,0,P|436:44|387:88,1,89.9999943923952,2|0,0:0|0:0,0:0:0:0:
420,231,150380,2,0,P|457:255|501:260,1,89.9999943923952,2|0,0:0|0:0,0:0:0:0:
385,143,150537,2,0,L|192:209,1,179.99998878479,8|0,0:0|0:0,0:0:0:0:
109,223,150773,1,0,0:0:0:0:
109,223,150852,2,0,P|87:183|54:132,1,89.9999943923952
84,47,151009,2,0,P|168:43|125:116,2,179.99998878479,2|8|0,0:0|0:0|0:0,0:0:0:0:
43,379,151480,6,0,L|89:273,1,89.9999943923952,2|0,0:0|0:0,0:0:0:0:
182,299,151637,2,0,L|136:405,1,89.9999943923952,2|0,0:0|0:0,0:0:0:0:
64,192,151794,1,8,0:0:0:0:
63,184,151873,1,0,0:0:0:0:
61,176,151951,1,0,0:0:0:0:
59,167,152030,1,0,0:0:0:0:
58,157,152108,101,0,0:0:0:0:
100,144,152186,1,0,0:0:0:0:
145,146,152265,1,2,0:0:0:0:
187,162,152343,1,0,0:0:0:0:
220,192,152422,1,8,0:0:0:0:
253,221,152500,1,0,0:0:0:0:
295,238,152579,1,0,0:0:0:0:
339,240,152657,1,0,0:0:0:0:
382,227,152736,6,0,B|417:185|406:131|383:148|380:100|417:56,2,179.99998878479,2|2|8,0:0|0:0|0:0,0:0:0:0:
340,15,153208,1,2,0:0:0:0:
452,321,153365,102,0,B|410:304|410:304|306:343,2,119.999992523194,2|2|10,0:0|0:0|0:0,0:0:0:0:
270,236,153679,2,0,B|312:253|312:253|416:214,2,119.999992523194,2|2|10,0:0|0:0|0:0,0:0:0:0:
270,236,153993,70,0,B|280:123|239:153|263:8,1,224.999992847443,8|0,2:3|0:0,0:0:0:0:
262,12,155249,2,0,B|239:153|280:123|270:236,1,224.999992847443
246,314,156349,102,0,B|156:305|67:348|67:348|127:297,1,262.49999165535
187,226,157605,2,0,B|200:186|182:144|166:167|144:127|161:84,1,149.999995231629
81,29,158391,6,0,P|68:63|66:92,1,56.2499982118607,2|0,2:3|0:0,0:0:0:0:
264,139,158705,102,0,P|276:173|276:248,1,97.4999924373631,2|0,2:3|0:0,0:0:0:0:
0,320,158862,86,0,B|117:267|26:207|154:156,1,225.000001430512,6|0,0:0|0:0,0:0:0:0:
165,258,159098,1,0,0:0:0:0:
165,258,159176,6,0,P|147:210|144:160,1,101.249997167587,2|0,0:0|0:0,0:0:0:0:
229,34,159333,2,0,B|277:12|318:54|318:54|362:98|421:72,1,202.499994335175,8|0,0:0|0:0,0:0:0:0:
466,10,159569,1,0,0:0:0:0:
466,10,159647,1,2,0:0:0:0:
496,210,159804,2,0,P|400:193|329:291,1,202.499994335175,8|0,0:0|0:0,0:0:0:0:
91,271,160119,102,0,P|188:279|231:392,1,202.499994335175,2|0,0:0|0:0,0:0:0:0:
293,168,160354,1,0,0:0:0:0:
269,155,160433,2,0,P|235:177|141:174,1,101.249997167587,2|0,0:0|0:0,0:0:0:0:
32,346,160590,2,0,L|82:109,2,202.499994335175,8|0|2,0:0|0:0|0:0,0:0:0:0:
8,84,161061,1,8,0:0:0:0:
201,26,161218,1,0,0:0:0:0:
268,53,161296,1,0,0:0:0:0:
336,77,161375,1,2,0:0:0:0:
405,52,161453,1,0,0:0:0:0:
473,24,161532,6,0,P|451:84|437:153,1,101.249997167587
201,124,161689,2,0,P|256:155|311:199,1,101.249997167587,2|0,0:0|0:0,0:0:0:0:
467,367,161846,2,0,B|467:253|383:303|383:166,1,202.499994335175,8|0,0:0|0:0,0:0:0:0:
268,53,162082,1,0,0:0:0:0:
268,53,162160,2,0,P|192:99|164:5,2,202.499994335175,2|2|8,0:0|0:0|0:0,0:0:0:0:
0,23,162632,102,0,P|55:68|126:204,1,202.499994335175,2|0,0:0|0:0,0:0:0:0:
26,297,162867,1,0,0:0:0:0:
1,303,162946,2,0,P|28:239|74:185,1,101.249997167587,2|0,0:0|0:0,0:0:0:0:
210,43,163103,2,0,B|336:19|282:98|412:70,1,202.499994335175,8|0,3:2|0:0,0:0:0:0:
491,293,163417,5,2,3:2:0:0:
432,341,163495,1,0,3:2:0:0:
356,342,163574,1,2,3:2:0:0:
297,292,163652,1,0,3:2:0:0:
238,243,163731,1,8,3:2:0:0:
196,307,163810,1,0,3:2:0:0:
156,372,163888,102,0,B|97:274|185:281|117:175,1,202.499994335175,0|0,3:2|0:0,0:0:0:0:
45,62,164124,1,0,0:0:0:0:
45,62,164202,2,0,P|14:102|42:151,1,101.249997167587,2|0,0:0|0:0,0:0:0:0:
238,243,164359,2,0,P|304:199|447:230,1,202.499994335175,8|0,0:0|0:0,0:0:0:0:
389,281,164595,1,0,0:0:0:0:
389,281,164674,1,2,0:0:0:0:
284,10,164831,2,0,P|283:89|159:96,1,202.499994335175,8|0,0:0|0:0,0:0:0:0:
0,283,165145,6,0,P|104:283|175:397,1,202.499994335175,2|0,0:0|0:0,0:0:0:0:
328,380,165380,1,0,0:0:0:0:
344,356,165459,2,0,L|322:234,1,101.249997167587,2|0,0:0|0:0,0:0:0:0:
284,10,165616,2,0,B|311:126|200:95|229:214,1,202.499994335175,8|0,0:0|0:0,0:0:0:0:
433,189,165852,101,0,0:0:0:0:
433,189,165930,2,0,B|468:158|468:158|288:181,1,202.499994335175,2|8,0:0|0:0,0:0:0:0:
284,375,166244,2,0,B|311:259|200:290|229:171,1,202.499994335175,0|2,0:0|0:0,0:0:0:0:
277,11,166480,5,0,0:0:0:0:
277,11,166558,2,0,P|258:76|115:33,1,202.499994335175,0|2,0:0|0:0,0:0:0:0:
12,39,166794,1,0,0:0:0:0:
27,24,166873,2,0,B|69:74|18:71|62:130,1,101.249997167587,8|0,0:0|0:0,0:0:0:0:
225,192,167030,2,0,B|183:242|234:239|190:298,1,101.249997167587
19,384,167187,2,0,B|-17:285|54:311|-5:177,2,202.499994335175,2|8|0,0:0|0:0|0:0,0:0:0:0:
139,81,167658,102,0,L|395:119,1,202.499994335175,2|0,3:2|0:0,0:0:0:0:
488,36,167893,1,0,0:0:0:0:
471,19,167972,2,0,P|452:21|430:99,1,101.249997167587,2|0,3:2|3:2,0:0:0:0:
435,294,168129,2,0,P|469:217|403:81,2,202.499994335175,8|0|2,3:2|3:2|3:2,0:0:0:0:
343,358,168522,5,0,0:0:0:0:
343,358,168600,2,0,P|296:331|210:318,1,101.249997167587,8|0,3:2|0:0,0:0:0:0:
21,284,168757,2,0,P|69:270|113:245,1,101.249997167587,0|0,3:2|0:0,0:0:0:0:
275,151,168914,2,0,P|228:124|142:111,1,101.249997167587
31,67,169071,102,0,B|101:29|183:55|155:170|78:127,2,225.000001430512,6|2|8,0:0|0:0|0:0,0:0:0:0:
140,313,169543,6,0,B|158:235|122:196|114:221|73:181|82:97,1,202.499994335175
196,11,169778,1,0,0:0:0:0:
206,13,169857,2,0,P|193:60|182:115,1,101.249997167587,2|0,0:0|0:0,0:0:0:0:
221,346,170014,1,8,0:0:0:0:
240,278,170092,1,0,0:0:0:0:
307,301,170171,1,0,0:0:0:0:
372,325,170249,1,0,0:0:0:0:
441,341,170328,102,0,P|469:243|507:137,2,202.499994335175,2|2|8,0:0|0:0|0:0,0:0:0:0:
395,20,170799,2,0,P|430:88|459:243,1,202.499994335175,2|0,0:0|0:0,0:0:0:0:
282,202,171035,1,0,0:0:0:0:
282,202,171113,2,0,P|319:165|390:173,1,101.249997167587,2|0,0:0|0:0,0:0:0:0:
458,210,171270,2,0,B|363:173|293:219|332:237|255:297|149:250,1,303.749991502762,8|0,0:0|0:0,0:0:0:0:
98,169,171585,6,0,P|81:121|44:63,1,101.249997167587,2|0,0:0|0:0,0:0:0:0:
215,0,171742,2,0,P|189:43|172:91,1,101.249997167587,2|0,0:0|0:0,0:0:0:0:
23,312,171899,2,0,B|79:243|145:232|164:279|145:333|76:277,1,202.499994335175,8|0,0:0|0:0,0:0:0:0:
88,374,172134,1,0,0:0:0:0:
88,374,172213,1,0,0:0:0:0:
98,169,172370,1,2,0:0:0:0:
307,221,172527,2,0,P|294:268|280:352,1,101.249997167587,8|0,0:0|0:0,0:0:0:0:
177,361,172684,102,0,P|251:345|408:345,1,202.499994335175,0|2,0:0|0:0,0:0:0:0:
443,203,172920,1,0,0:0:0:0:
439,191,172998,2,0,P|411:155|361:161,1,101.249997167587,2|0,0:0|0:0,0:0:0:0:
271,33,173155,2,0,B|315:84|304:132|279:118|261:169|315:232,2,202.499994335175,8|0|0,0:0|0:0|3:2,0:0:0:0:
205,341,173626,6,0,P|250:346|281:307,1,101.249997167587,2|0,3:2|0:0,0:0:0:0:
211,179,173784,1,8,3:2:0:0:
167,245,173862,1,0,3:2:0:0:
104,288,173941,1,0,3:2:0:0:
51,233,174019,1,0,3:2:0:0:
18,166,174098,102,0,P|3:123|-13:45,1,101.249997167587,2|0,3:2|0:0,0:0:0:0:
238,81,174255,2,0,P|227:131|211:179,1,101.249997167587,2|0,0:0|0:0,0:0:0:0:
61,371,174412,2,0,P|14:330|107:292,1,202.499994335175,8|0,0:0|0:0,0:0:0:0:
258,333,174647,1,0,0:0:0:0:
250,328,174726,2,0,B|176:309|140:341|169:356|113:387|40:365,2,202.499994335175,0|2|8,0:0|0:0|0:0,0:0:0:0:
144,96,175197,1,0,0:0:0:0:
359,252,175354,6,0,L|334:363,1,101.249997167587,2|0,0:0|0:0,0:0:0:0:
471,328,175511,1,2,0:0:0:0:
457,322,175590,1,0,0:0:0:0:
444,317,175668,2,0,L|490:100,1,202.499994335175,8|0,0:0|0:0,0:0:0:0:
464,6,175904,1,0,0:0:0:0:
464,6,175982,2,0,P|489:43|399:30,2,202.499994335175,0|2|8,0:0|0:0|0:0,0:0:0:0:
207,84,176454,102,0,B|269:108|313:75|289:58|349:17|427:53,1,202.499994335175,0|2,0:0|0:0,0:0:0:0:
415,185,176689,1,0,0:0:0:0:
398,188,176768,2,0,P|343:184|292:151,1,101.249997167587,2|0,0:0|0:0,0:0:0:0:
149,22,176925,2,0,P|93:28|68:87,1,101.249997167587,8|0,0:0|0:0,0:0:0:0:
52,313,177082,6,0,B|93:241|93:241|34:125,2,202.499994335175,0|0|2,0:0|0:0|0:0,0:0:0:0:
172,248,177475,1,0,0:0:0:0:
172,248,177553,2,0,L|302:267,1,101.249997167587,8|0,0:0|0:0,0:0:0:0:
305,360,177710,102,0,P|321:269|376:144,1,202.499994335175,0|2,3:2|3:2,0:0:0:0:
432,67,177946,1,0,3:2:0:0:
432,67,178024,2,0,P|509:77|440:137,1,202.499994335175,8|0,3:2|0:0,0:0:0:0:
362,167,178260,1,0,3:2:0:0:
362,167,178338,1,0,3:2:0:0:
172,241,178496,5,2,0:0:0:0:
327,19,178653,1,2,3:2:0:0:
345,92,178732,1,8,3:2:0:0:
362,167,178811,1,0,3:2:0:0:
496,288,178967,38,0,B|396:256|424:328|312:296,1,179.99998878479,6|2,0:0|0:0,0:0:0:0:
240,364,179752,2,0,P|224:332|208:280,1,89.9999943923952,8|0,0:0|0:0,0:0:0:0:
312,128,180223,2,0,P|299:171|280:211,2,89.9999943923952,2|2|2,0:0|0:0|0:0,0:0:0:0:
256,28,181009,6,0,L|192:36,1,44.9999971961976,8|0,0:0|0:0,0:0:0:0:
108,48,181323,2,0,L|44:56,1,44.9999971961976
0,172,181637,102,0,P|60:164|80:240,1,134.999991588593,2|2,0:0|0:0,0:0:0:0:
16,344,182265,2,0,P|0:304|16:252,1,89.9999943923952,8|0,0:0|0:0,0:0:0:0:
156,140,182736,2,0,P|196:156|252:160,2,89.9999943923952,2|2|2,0:0|0:0|0:0,0:0:0:0:
304,224,183522,5,8,0:0:0:0:
348,112,183679,1,0,0:0:0:0:
360,124,183757,1,0,0:0:0:0:
372,136,183836,2,0,L|384:96,1,22.4999985980988
484,104,183993,2,0,L|449:81,1,22.4999985980988
404,44,184150,102,0,L|440:192,1,134.999991588593,2|2,0:0|0:0,0:0:0:0:
480,364,184778,2,0,P|496:324|508:272,1,89.9999943923952,8|0,0:0|0:0,0:0:0:0:
304,172,185249,2,0,P|325:211|352:247,2,89.9999943923952,2|2|2,0:0|0:0|0:0,0:0:0:0:
248,20,186035,6,0,P|240:44|224:76,1,44.9999971961976,8|0,0:0|0:0,0:0:0:0:
184,180,186349,2,0,P|161:191|127:202,1,44.9999971961976
8,28,186663,102,0,P|64:40|136:92,1,134.999991588593,2|2,0:0|0:0,0:0:0:0:
304,172,187291,2,0,B|272:204|300:212|264:256,1,89.9999943923952,8|0,0:0|0:0,0:0:0:0:
108,288,187763,2,0,B|144:328|108:336|148:372,2,89.9999943923952,2|2|2,0:0|0:0|3:2,0:0:0:0:
8,200,188548,5,0,3:2:0:0:
128,116,188705,1,0,3:2:0:0:
140,128,188784,1,0,3:2:0:0:
152,140,188862,2,0,L|192:132,1,22.4999985980988,0|0,3:2|0:0,0:0:0:0:
272,84,189019,2,0,L|312:92,1,22.4999985980988,0|0,3:2|0:0,0:0:0:0:
333,163,189176,102,0,P|345:102|379:17,1,134.999991588593,2|2,0:0|0:0,0:0:0:0:
246,165,189804,2,0,P|262:204|278:266,1,89.9999943923952,8|0,0:0|0:0,0:0:0:0:
344,350,190276,2,0,P|352:300|371:256,2,89.9999943923952,2|2|2,0:0|0:0|0:0,0:0:0:0:
478,215,191061,6,0,L|424:227,1,44.9999971961976,8|0,0:0|0:0,0:0:0:0:
363,162,191375,2,0,L|309:150,1,44.9999971961976
249,223,191689,102,0,B|202:214|179:237|193:240|161:268|118:256,1,134.999991588593,2|2,0:0|0:0,0:0:0:0:
94,337,192318,2,0,P|55:331|50:277,1,89.9999943923952,8|0,0:0|0:0,0:0:0:0:
66,203,192789,2,0,P|52:161|26:101,2,89.9999943923952,2|2|2,0:0|0:0|3:2,0:0:0:0:
105,68,193574,5,0,3:2:0:0:
201,106,193731,1,0,3:2:0:0:
198,116,193810,1,0,3:2:0:0:
195,126,193888,2,0,L|188:163,1,22.4999985980988,0|0,3:2|0:0,0:0:0:0:
202,233,194045,2,0,L|209:270,1,22.4999985980988,0|0,3:2|0:0,0:0:0:0:
150,320,194202,102,0,L|296:292,1,134.999991588593,2|0,0:0|0:0,0:0:0:0:
370,267,194831,2,0,P|362:298|348:364,1,89.9999943923952,8|0,0:0|0:0,0:0:0:0:
469,249,195302,2,0,L|364:266,2,89.9999943923952,2|2|2,0:0|0:0|0:0,0:0:0:0:
490,126,196087,6,0,L|477:175,1,44.9999971961976,8|0,0:0|0:0,0:0:0:0:
413,74,196401,2,0,L|426:25,1,44.9999971961976
270,174,196715,102,0,B|312:192|339:173|331:162|364:141|412:160,1,134.999991588593,2|2,0:0|0:0,0:0:0:0:
413,74,197344,1,8,0:0:0:0:
318,89,197501,1,0,0:0:0:0:
309,92,197579,1,0,0:0:0:0:
301,95,197658,1,0,0:0:0:0:
192,67,197815,6,0,B|217:113|217:113|193:230,2,149.999995231629,2|2|2,0:0|0:0|0:0,0:0:0:0:
121,202,198600,1,8,0:0:0:0:
256,280,198757,2,0,P|212:291|173:310,2,74.9999976158143
456,320,199229,69,10,2:3:0:0:
340,372,199386,1,2,2:3:0:0:
336,212,199543,2,0,P|370:226|406:235,1,74.9999976158143,0|0,2:3|0:0,0:0:0:0:
406,235,199857,1,8,2:3:0:0:
512,96,200014,2,0,P|477:110|441:119,1,74.9999976158143
441,119,200328,1,0,0:0:0:0:
200,104,200485,5,2,2:3:0:0:
356,52,200642,1,0,0:0:0:0:
256,16,200799,101,0,0:0:0:0:
224,200,200956,1,0,0:0:0:0:
128,144,201113,6,0,B|91:116|125:103|68:60,1,74.9999976158143,2|0,2:3|0:0,0:0:0:0:
336,180,201427,2,0,B|378:162|349:141|415:114,1,74.9999976158143,2|0,2:3|0:0,0:0:0:0:
224,200,201742,101,2,2:3:0:0:
192,364,201899,1,2,2:3:0:0:
56,300,202056,2,0,P|90:285|126:276,1,74.9999976158143,2|0,2:3|0:0,0:0:0:0:
126,276,202370,1,8,2:3:0:0:
280,304,202527,2,0,P|309:326|335:353,1,74.9999976158143
335,352,202841,1,0,0:0:0:0:
500,208,202998,5,2,2:3:0:0:
348,232,203155,1,0,0:0:0:0:
416,64,203312,2,0,P|432:104|444:168,1,74.9999976158143,2|0,2:3|0:0,0:0:0:0:
236,200,203626,2,0,P|245:163|259:129,1,74.9999976158143,2|0,2:3|0:0,0:0:0:0:
344,16,203941,102,0,L|284:24,1,37.4999988079071,8|0,3:2|2:3,0:0:0:0:
184,84,204098,2,0,L|124:76,1,37.4999988079071,8|2,3:2|3:2,0:0:0:0:
36,28,204255,5,10,2:3:0:0:
128,104,204412,1,2,2:3:0:0:
8,200,204569,2,0,B|0:236|0:236|16:300,1,74.9999976158143,2|0,2:3|0:0,0:0:0:0:
9,272,204883,1,8,2:3:0:0:
216,360,205040,2,0,B|224:324|224:324|208:260,1,74.9999976158143
214,287,205354,1,0,0:0:0:0:
92,232,205511,101,2,2:3:0:0:
308,152,205668,1,0,0:0:0:0:
236,64,205825,5,0,2:3:0:0:
214,287,205982,1,0,0:0:0:0:
91,231,206140,102,0,P|125:215|157:196,1,74.9999976158143,2|0,2:3|0:0,0:0:0:0:
340,256,206454,2,0,P|310:232|284:206,1,74.9999976158143,2|0,2:3|0:0,0:0:0:0:
236,64,206768,5,2,2:3:0:0:
396,12,206925,1,2,2:3:0:0:
248,88,207082,2,0,L|164:76,1,74.9999976158143,2|0,2:3|0:0,0:0:0:0:
24,220,207396,1,8,2:3:0:0:
172,296,207553,2,0,L|256:284,1,74.9999976158143
340,380,207867,1,0,0:0:0:0:
504,240,208024,101,2,2:3:0:0:
364,364,208181,1,2,2:3:0:0:
468,156,208338,70,0,P|480:112|484:68,1,74.9999976158143,2|0,2:3|0:0,0:0:0:0:
352,196,208653,5,2,2:3:0:0:
352,196,208810,2,0,P|337:169|320:144,1,59.9999980926514,2|0,2:3|0:0,0:0:0:0:
284,304,209124,6,0,P|255:295|227:292,1,44.9999971961976,8|0,2:3|0:0,0:0:0:0:
