osu file format v14

[General]
AudioFilename: fall bn.mp3
AudioLeadIn: 0
PreviewTime: 54820
Countdown: 0
SampleSet: Soft
StackLeniency: 0.4
Mode: 0
LetterboxInBreaks: 0
WidescreenStoryboard: 0

[Editor]
Bookmarks: 10568,20940,41366,79554
DistanceSpacing: 1.15
BeatDivisor: 4
GridSize: 32
TimelineZoom: 1.9

[Metadata]
Title:white night story
TitleUnicode:white night story
Artist:Endorfin.
ArtistUnicode:Endorfin.
Creator:Cami
Version:holy night
Source:pop'n music うさぎと猫と少年の夢
Tags:browiec Peter PeterEU 藍月なくる Aitsuki Nakuru Stories of Eve konami usagi to neko to shounen no yume japanese jpop pop video rhythm game sky_delta aituki
BeatmapID:2243386
BeatmapSetID:1071795

[Difficulty]
HPDrainRate:5
CircleSize:3.8
OverallDifficulty:8
ApproachRate:9
SliderMultiplier:1.6
SliderTickRate:1

[Events]
//Background and Video events
0,0,"merry christmas!.jpg",0,0
//Break Periods
//Storyboard Layer 0 (Background)
//Storyboard Layer 1 (Fail)
//Storyboard Layer 2 (Pass)
//Storyboard Layer 3 (Foreground)
//Storyboard Layer 4 (Overlay)
//Storyboard Sound Samples

[TimingPoints]
565,319.148936170213,4,2,1,40,1,0
565,-142.857142857143,4,2,1,40,0,0
5671,-125,4,2,1,45,0,0
8224,-100,4,2,1,60,0,0
9979,-166.666666666667,4,2,1,60,0,0
10378,-166.666666666667,4,2,1,5,0,0
10458,-166.666666666667,4,2,1,60,0,0
10618,-100,4,2,1,60,0,0
16123,-100,4,2,1,5,0,0
16203,-100,4,2,1,60,0,0
20990,-111.111111111111,4,2,1,50,0,0
31203,-105.263157894737,4,2,1,55,0,0
31442,-105.263157894737,4,2,1,5,0,0
31522,-105.263157894737,4,2,1,55,0,0
41416,-117.64705882353,4,2,1,45,0,0
44846,-117.64705882353,4,2,1,5,0,0
44926,-117.64705882353,4,2,1,45,0,0
46522,-111.111111111111,4,2,1,50,0,0
49075,-95.2380952380952,4,2,1,60,0,0
49315,-117.64705882353,4,2,1,5,0,0
49394,-95.2380952380952,4,2,1,60,0,0
51868,-117.64705882353,4,2,1,5,0,0
51947,-95.2380952380952,4,2,1,60,0,0
53623,-95.2380952380952,4,2,1,5,0,0
53703,-95.2380952380952,4,2,1,60,0,0
54501,-117.647058823529,4,2,1,50,0,0
56575,-86.9565217391304,4,2,1,70,0,1
57054,-90.9090909090909,4,2,1,70,0,1
59527,-90.9090909090909,4,2,1,5,0,1
59607,-90.9090909090909,4,2,1,70,0,1
60804,-90.9090909090909,4,2,1,5,0,1
60884,-90.9090909090909,4,2,1,70,0,1
66947,-181.818181818182,4,2,1,70,0,1
67187,-181.818181818182,4,2,1,5,0,1
67267,-90.9090909090909,4,2,1,70,0,1
74447,-142.857142857143,4,2,1,50,0,0
75086,-142.857142857143,4,2,1,40,0,0

[Colours]
Combo1 : 179,221,170
Combo2 : 239,165,239
Combo3 : 146,208,216
Combo4 : 219,77,116

[HitObjects]
236,145,485,5,2,0:0:0:0:
227,137,565,2,0,L|102:129,1,111.999996582031,2|0,0:0|0:0,0:0:0:0:
52,175,1043,1,0,0:0:0:0:
52,175,1203,2,0,P|32:129|70:64,2,111.999996582031,2|0|8,0:3|0:0|0:0,0:0:0:0:
223,111,2001,5,2,0:0:0:0:
160,66,2161,1,0,0:0:0:0:
115,129,2320,1,2,0:3:0:0:
179,175,2479,2,0,P|200:209|188:289,1,111.999996582031,2|0,0:0|0:0,0:0:0:0:
131,326,2958,6,0,B|221:292|197:369|300:341,1,167.999994873047,2|0,0:0|0:0,0:0:0:0:
420,253,3756,2,0,P|432:224|427:180,1,55.9999982910157,2|0,0:0|0:0,0:0:0:0:
354,207,4075,1,0,0:0:0:0:
414,334,4235,6,0,P|445:329|480:303,1,55.9999982910157,2|0,0:0|0:0,0:0:0:0:
314,170,4554,2,0,P|302:199|307:243,1,55.9999982910157,2|0,0:0|0:0,0:0:0:0:
506,165,4873,2,0,P|486:140|446:122,1,55.9999982910157,2|0,0:0|0:0,0:0:0:0:
287,70,5192,5,0,1:0:0:0:
287,70,5272,1,0,1:0:0:0:
287,70,5352,1,0,1:0:0:0:
411,230,5511,5,2,0:0:0:0:
411,230,5591,1,2,0:0:0:0:
411,230,5671,2,0,B|307:205|329:278|228:256,1,192,4|0,3:2|3:0,0:0:0:0:
158,136,6309,2,0,P|162:168|163:200,1,64,8|0,0:0|0:0,0:0:0:0:
186,329,6628,5,2,0:0:0:0:
51,213,6788,2,0,P|118:181|178:216,1,128,2|0,0:0|0:0,0:0:0:0:
227,255,7267,1,0,0:0:0:0:
102,307,7426,1,2,0:0:0:0:
98,137,7586,1,8,0:0:0:0:
163,199,7745,1,2,0:0:0:0:
76,224,7905,1,2,0:0:0:0:
185,116,8065,1,0,3:0:0:0:
8,14,8224,5,6,1:2:0:0:
185,116,8384,2,0,P|225:110|282:98,1,80,0|0,1:0|3:0,0:0:0:0:
487,288,8703,6,0,P|407:276|293:252,1,160,4|0,1:2|1:0,0:0:0:0:
309,236,9102,1,0,1:0:0:0:
309,236,9182,2,0,P|323:166|414:132,1,160,6|0,3:2|1:0,0:0:0:0:
391,215,9660,5,2,0:0:0:0:
263,102,9820,1,8,0:0:0:0:
230,265,9979,6,0,P|255:300|237:257,1,119.999996337891,2|0,3:2|0:0,0:0:0:0:
214,185,10458,1,0,1:0:0:0:
118,354,10618,6,0,B|205:332|184:401|283:375,1,160,6|0,3:2|3:0,0:0:0:0:
470,265,11096,2,0,P|475:229|481:182,1,80,2|0,1:2|0:0,0:0:0:0:
271,126,11416,2,0,P|299:148|337:177,1,80,2|0,3:2|3:0,0:0:0:0:
490,23,11735,1,2,1:2:0:0:
233,46,11894,6,0,P|189:93|212:195,1,160,2|0,3:2|3:0,0:0:0:0:
391,281,12373,2,0,P|432:273|488:260,1,80,2|0,1:2|0:0,0:0:0:0:
221,309,12692,2,0,P|248:340|287:382,1,80,2|0,3:2|3:0,0:0:0:0:
111,175,13011,2,0,P|97:214|80:269,1,80,2|0,1:2|0:0,0:0:0:0:
302,266,13330,6,0,P|278:189|252:114,1,160,2|0,3:2|1:0,0:0:0:0:
205,48,13809,1,2,0:0:0:0:
333,98,13969,1,0,3:0:0:0:
182,172,14128,1,2,3:2:0:0:
288,22,14288,1,0,1:0:0:0:
182,172,14447,6,0,P|129:204|37:153,1,160,2|0,3:2|3:0,0:0:0:0:
252,114,14926,2,0,P|262:157|271:201,1,80,2|0,1:2|0:0,0:0:0:0:
128,357,15245,2,0,P|160:326|193:297,1,80,2|0,3:2|3:0,0:0:0:0:
401,342,15565,1,2,1:2:0:0:
276,280,15724,1,2,0:0:0:0:
276,280,15804,1,2,0:0:0:0:
276,280,15884,6,0,P|184:248|145:237,1,120,6|0,3:2|0:0,0:0:0:0:
131,247,16203,1,2,1:2:0:0:
255,177,16362,2,0,P|279:105|288:74,1,80,2|0,0:2|3:0,0:0:0:0:
187,24,16682,1,2,3:2:0:0:
368,100,16841,1,0,1:0:0:0:
187,24,17001,6,0,B|92:8|124:77|20:55,1,160,2|0,3:2|3:0,0:0:0:0:
170,108,17479,2,0,P|182:150|194:196,1,80,2|0,1:2|0:0,0:0:0:0:
335,13,17799,2,0,P|304:44|270:77,1,80,2|0,0:2|3:0,0:0:0:0:
471,180,18118,1,2,1:2:0:0:
368,100,18277,6,0,P|302:108|256:182,1,160,2|2,0:0|0:0,0:0:0:0:
351,279,18756,1,0,1:0:0:0:
295,194,18916,1,2,0:0:0:0:
266,336,19075,1,0,3:0:0:0:
351,279,19235,1,2,3:2:0:0:
209,250,19394,1,2,1:2:0:0:
407,209,19554,6,0,P|444:203|490:200,1,80,2|0,3:2|0:0,0:0:0:0:
286,106,19873,2,0,P|300:70|319:29,1,80,2|8,3:2|0:3,0:0:0:0:
136,158,20192,2,0,P|86:95|41:30,1,160,2|0,0:2|3:3,0:0:0:0:
215,146,20671,1,2,1:2:0:0:
137,243,20830,1,8,0:3:0:0:
229,300,20990,6,0,P|304:296|342:245,1,143.999995605469,4|2,3:2|1:2,0:0:0:0:
342,244,21628,1,2,0:0:0:0:
258,221,21788,1,0,3:0:0:0:
207,350,21947,1,2,1:2:0:0:
258,221,22107,6,0,P|261:198|266:145,1,71.9999978027344,2|0,0:0|3:0,0:0:0:0:
112,216,22426,2,0,P|130:230|173:260,1,71.9999978027344,2|0,0:0|1:0,0:0:0:0:
189,92,22745,2,0,P|146:109|49:154,1,143.999995605469,2|0,0:0|3:0,0:0:0:0:
91,38,23224,2,0,P|112:29|160:6,1,71.9999978027344,2|0,1:2|0:0,0:0:0:0:
365,95,23543,6,0,P|317:82|269:164,1,143.999995605469,2|0,3:2|1:0,0:0:0:0:
399,177,24022,2,0,P|433:172|481:163,1,71.9999978027344,2|0,0:0|0:0,0:0:0:0:
455,82,24341,1,2,3:2:0:0:
318,216,24501,1,0,1:0:0:0:
427,302,24660,6,0,P|422:336|413:384,1,71.9999978027344,2|0,0:0|3:0,0:0:0:0:
287,303,24979,1,2,0:0:0:0:
287,303,25139,2,0,B|201:284|229:345|138:324,1,143.999995605469,2|0,1:2|0:0,0:0:0:0:
45,242,25618,1,2,3:2:0:0:
198,135,25777,1,0,1:2:0:0:
198,135,26096,6,0,P|225:84|174:3,1,143.999995605469,2|2,3:2|1:2,0:0:0:0:
190,11,26735,1,2,0:0:0:0:
135,75,26894,1,0,3:0:0:0:
5,23,27054,1,0,1:0:0:0:
135,75,27213,6,0,P|168:97|197:115,1,71.9999978027344,2|0,0:0|3:0,0:0:0:0:
352,119,27533,2,0,P|316:136|286:152,1,71.9999978027344,2|0,0:0|1:0,0:0:0:0:
205,284,27852,2,0,P|209:212|212:140,1,143.999995605469,2|0,0:0|3:0,0:0:0:0:
118,279,28330,1,0,1:2:0:0:
248,371,28490,1,2,0:0:0:0:
118,279,28650,6,0,P|120:240|125:191,1,71.9999978027344,0|0,3:2|0:0,0:0:0:0:
244,115,28969,1,2,1:2:0:0:
184,50,29128,2,0,P|149:37|114:28,1,71.9999978027344,2|0,0:0|0:0,0:0:0:0:
330,95,29447,2,0,P|357:71|384:45,1,71.9999978027344,2|0,3:2|1:0,0:0:0:0:
217,199,29767,6,0,P|223:235|232:270,1,71.9999978027344,2|0,0:0|3:0,0:0:0:0:
369,345,30086,1,2,0:0:0:0:
369,345,30245,2,0,P|334:332|299:323,1,71.9999978027344,2|0,1:2|3:0,0:0:0:0:
196,346,30565,1,2,0:0:0:0:
123,207,30724,1,2,3:2:0:0:
0,339,30884,2,0,P|28:361|74:349,1,71.9999978027344,2|0,1:2|0:0,0:0:0:0:
212,176,31203,6,0,P|171:125|99:117,1,113.999996955872,4|0,3:1|0:0,0:0:0:0:
108,122,31522,2,0,P|143:139|193:112,1,75.9999979705811,2|0,1:2|0:0,0:0:0:0:
319,9,31841,1,2,3:2:0:0:
202,48,32001,1,0,3:0:0:0:
316,179,32160,1,0,1:0:0:0:
388,131,32320,6,0,P|399:89|408:55,1,75.9999979705811,2|0,0:0|3:0,0:0:0:0:
321,265,32639,2,0,P|350:295|376:320,1,75.9999979705811,2|0,0:0|1:0,0:0:0:0:
238,140,32958,2,0,P|154:160|86:181,1,151.999995941162,2|0,0:0|3:0,0:0:0:0:
247,285,33437,2,0,P|288:274|322:264,1,75.9999979705811,2|0,1:2|0:0,0:0:0:0:
138,277,33756,6,0,P|149:318|159:352,1,75.9999979705811,2|0,3:2|0:0,0:0:0:0:
345,146,34075,1,2,1:2:0:0:
199,186,34235,2,0,P|283:166|351:145,1,151.999995941162,2|0,0:0|3:0,0:0:0:0:
430,24,34713,1,0,1:0:0:0:
345,146,34873,6,0,P|334:191|327:233,1,75.9999979705811,2|0,0:0|3:0,0:0:0:0:
412,223,35192,1,2,0:0:0:0:
255,163,35352,2,0,P|210:152|168:145,1,75.9999979705811,0|2,1:2|0:0,0:0:0:0:
180,146,35591,1,2,0:0:0:0:
180,146,35671,1,2,0:0:0:0:
238,75,35830,1,0,3:0:0:0:
202,236,35990,1,2,1:2:0:0:
202,236,36309,6,0,P|128:255|54:273,1,151.999995941162,2|0,3:2|1:0,0:0:0:0:
255,163,36788,2,0,P|295:173|341:185,1,75.9999979705811,2|0,0:0|0:0,0:0:0:0:
113,227,37107,2,0,P|101:187|89:141,1,75.9999979705811,2|0,3:2|1:0,0:0:0:0:
240,318,37426,2,0,P|183:373|110:361,1,151.999995941162,2|0,0:0|0:0,0:0:0:0:
37,216,37905,2,0,P|70:219|119:228,1,75.9999979705811,2|2,1:2|0:0,0:0:0:0:
112,226,38144,1,2,0:0:0:0:
112,226,38224,1,2,0:0:0:0:
65,301,38384,1,0,3:2:0:0:
91,137,38543,2,0,P|94:103|103:55,1,75.9999979705811,2|0,1:2|0:0,0:0:0:0:
304,7,38862,6,0,P|359:39|344:127,1,151.999995941162,2|0,3:2|1:0,0:0:0:0:
226,179,39341,2,0,B|310:153|294:224|382:200,1,151.999995941162,2|0,0:0|3:0,0:0:0:0:
475,70,39820,2,0,P|416:99|412:130,1,75.9999979705811,2|0,1:2|0:0,0:0:0:0:
420,273,40139,5,2,3:2:0:0:
493,228,40299,2,0,L|482:140,1,75.9999979705811,2|0,0:0|1:0,0:0:0:0:
342,239,40618,1,2,3:2:0:0:
464,347,40777,1,2,0:0:0:0:
292,371,40937,1,2,3:0:0:0:
420,273,41096,1,2,1:2:0:0:
426,235,41175,1,0,1:0:0:0:
417,199,41255,1,0,1:0:0:0:
393,170,41335,1,0,1:0:0:0:
358,155,41416,6,0,B|277:142|305:195|222:185,1,136.000002593994,2|8,3:2|3:2,0:0:0:0:
151,56,41894,1,2,0:0:0:0:
229,33,42054,2,0,P|233:72|237:109,1,68.0000012969971,0|2,3:2|0:0,0:0:0:0:
148,219,42373,1,8,3:2:0:0:
148,219,42533,6,0,P|138:140|132:67,1,136.000002593994,2|2,0:0|0:0,0:0:0:0:
69,32,43011,2,0,P|36:35|2:40,1,68.0000012969971,8|2,0:0|0:0,0:0:0:0:
133,83,43330,1,0,3:0:0:0:
256,23,43490,1,8,0:0:0:0:
256,23,43650,1,8,3:2:0:0:
175,13,43809,1,2,0:0:0:0:
260,106,43969,6,0,P|297:178|282:254,1,136.000002593994,2|10,3:2|3:2,0:0:0:0:
292,230,44607,2,0,L|404:220,1,102.000001945496,2|0,3:2|0:0,0:0:0:0:
393,220,44926,1,10,3:2:0:0:
335,338,45086,6,0,P|267:339|210:305,1,136.000002593994,2|2,0:2|0:2,0:0:0:0:
276,163,45565,2,0,P|285:198|295:253,1,68.0000012969971,10|0,3:2|0:0,0:0:0:0:
136,243,45884,2,0,P|161:217|204:181,1,68.0000012969971,0|8,3:2|0:0,0:0:0:0:
328,93,46203,1,4,3:1:0:0:
404,192,46362,1,2,0:0:0:0:
328,93,46522,6,0,P|291:87|244:82,1,71.9999978027344,4|0,3:2|0:0,0:0:0:0:
135,162,46841,1,0,1:0:0:0:
48,58,47001,1,2,0:0:0:0:
193,1,47160,1,8,0:2:0:0:
48,58,47320,2,0,P|42:94|37:142,1,71.9999978027344,2|0,0:2|1:0,0:0:0:0:
136,243,47639,6,0,P|206:268|263:210,1,143.999995605469,2|8,0:0|0:0,0:0:0:0:
324,101,48118,1,2,1:2:0:0:
218,152,48277,1,8,0:0:0:0:
348,222,48437,1,10,0:0:0:0:
272,62,48596,1,0,1:0:0:0:
218,152,48756,2,0,P|222:187|227:231,1,71.9999978027344,8|4,0:3|0:3,0:0:0:0:
495,364,49075,6,0,P|499:281|504:210,1,125.999996154785,6|0,1:2|0:0,0:0:0:0:
511,212,49394,1,2,1:2:0:0:
406,303,49554,2,0,P|356:299|311:294,1,83.9999974365235,2|0,0:0|1:0,0:0:0:0:
324,101,49873,2,0,P|345:145|363:187,1,83.9999974365235,2|0,3:2|1:0,0:0:0:0:
191,274,50192,1,2,3:2:0:0:
187,189,50352,6,0,P|243:106|297:33,1,167.999994873047,0|0,1:2|1:0,0:0:0:0:
362,24,50830,1,0,3:0:0:0:
207,21,50990,2,0,P|154:16|119:11,1,83.9999974365235,0|0,1:0|3:0,0:0:0:0:
275,168,51309,2,0,P|327:172|363:178,1,83.9999974365235,2|0,1:2|0:0,0:0:0:0:
191,274,51628,6,0,P|109:267|53:258,1,125.999996154785,2|0,1:2|0:0,0:0:0:0:
65,260,51947,1,2,1:2:0:0:
187,189,52107,2,0,P|192:147|196:105,2,83.9999974365235,2|0|0,0:0|1:0|0:0,0:0:0:0:
367,260,52586,2,0,P|361:218|357:176,1,83.9999974365235,2|0,1:2|3:0,0:0:0:0:
153,24,52905,5,2,1:2:0:0:
109,104,53065,1,0,1:0:0:0:
109,104,53144,1,0,1:0:0:0:
109,104,53224,1,0,3:0:0:0:
288,154,53384,6,0,P|266:110|184:114,1,125.999996154785,2|0,1:2|0:0,0:0:0:0:
195,105,53703,1,0,3:0:0:0:
378,171,53862,1,0,1:0:0:0:
216,311,54022,1,0,1:0:0:0:
312,291,54182,6,0,L|324:220,2,55.9999982910157,2|0|0,3:2|1:0|1:0,0:0:0:0:
216,311,54501,6,0,L|225:366,2,45.3333341979981,8|4|4,0:3|0:3|0:3,0:0:0:0:
146,263,54820,5,2,0:0:0:0:
366,121,55458,1,2,0:0:0:0:
185,82,56096,1,2,0:0:0:0:
327,302,56416,1,0,1:0:0:0:
256,192,56575,6,0,B|156:155|182:235|68:206,1,184.000003509522,6|0,3:2|3:0,0:0:0:0:
272,101,57054,2,0,P|358:91|459:80,1,176.000005371094,0|0,1:0|3:0,0:0:0:0:
446,81,57533,5,0,3:0:0:0:
298,16,57692,1,2,1:2:0:0:
320,181,57852,2,0,P|329:268|339:355,1,176.000005371094,2|0,3:2|3:0,0:0:0:0:
214,142,58330,2,0,P|249:116|285:89,1,88.000002685547,2|0,1:2|0:0,0:0:0:0:
233,252,58650,2,0,P|193:235|152:217,1,88.000002685547,2|0,0:2|3:0,0:0:0:0:
17,62,58969,1,2,1:2:0:0:
17,62,59288,6,0,P|62:24|139:50,1,132.00000402832,2|0,3:2|0:0,0:0:0:0:
128,39,59607,2,0,P|171:34|221:26,1,88.000002685547,0|0,1:0|0:0,0:0:0:0:
254,183,59926,1,0,3:0:0:0:
254,183,60086,1,0,3:0:0:0:
156,199,60245,2,0,P|173:159|192:111,1,88.000002685547,0|0,1:0|3:0,0:0:0:0:
354,23,60565,6,0,P|380:85|409:159,1,132.00000402832,2|0,3:2|0:0,0:0:0:0:
404,145,60884,2,0,P|449:137|495:127,1,88.000002685547,2|0,1:2|0:0,0:0:0:0:
271,271,61203,2,0,P|255:313|241:358,1,88.000002685547,2|0,0:0|3:0,0:0:0:0:
229,92,61522,2,0,P|199:57|168:22,1,88.000002685547,2|0,1:2|0:0,0:0:0:0:
301,169,61841,6,0,P|377:165|407:73,1,176.000005371094,6|0,3:2|1:0,0:0:0:0:
413,84,62479,1,0,3:0:0:0:
413,84,62639,1,0,3:0:0:0:
468,213,62799,5,2,1:2:0:0:
301,169,62958,2,0,B|255:116|279:40|279:40|316:50|331:78,1,176.000005371094,2|0,3:2|3:0,0:0:0:0:
279,251,63437,2,0,P|235:278|198:274,1,88.000002685547,2|2,1:2|0:0,0:0:0:0:
200,274,63676,1,2,0:0:0:0:
200,274,63756,1,2,0:0:0:0:
139,219,63916,1,2,3:2:0:0:
172,51,64075,1,0,1:2:0:0:
233,106,64235,1,2,3:2:0:0:
218,193,64394,6,0,P|260:182|308:171,1,88.000002685547,2|0,0:0|3:0,0:0:0:0:
451,8,64713,2,0,P|439:50|426:92,1,88.000002685547,2|0,1:2|0:0,0:0:0:0:
496,301,65033,2,0,P|464:270|434:238,1,88.000002685547,2|0,0:2|3:0,0:0:0:0:
293,109,65352,1,0,1:0:0:0:
130,228,65511,6,0,P|108:287|119:328,1,88.000002685547,2|0,3:2|0:0,0:0:0:0:
270,192,65830,1,2,3:2:0:0:
207,80,65990,1,8,0:3:0:0:
193,285,66150,2,0,P|273:272|392:252,1,176.000005371094,6|4,3:2|0:3,0:0:0:0:
134,123,66628,2,0,P|91:99|45:107,1,88.000002685547,2|0,1:2|3:0,0:0:0:0:
16,199,66947,6,0,B|65:205|65:205|56:179,1,66.0000020141602,2|0,0:0|0:0,0:0:0:0:
16,199,67267,6,0,B|80:185|80:185|117:208|117:208|201:192,1,176.000005371094,6|0,1:2|3:0,0:0:0:0:
304,132,67745,1,0,3:0:0:0:
262,313,67905,1,2,1:2:0:0:
422,217,68065,6,0,P|346:177|269:212,1,176.000005371094,2|0,3:2|3:0,0:0:0:0:
38,288,68543,2,0,P|66:254|95:221,1,88.000002685547,2|0,1:2|3:0,0:0:0:0:
89,49,68862,2,0,P|103:90|117:132,1,88.000002685547,2|0,0:2|3:0,0:0:0:0:
270,213,69181,2,0,P|224:204|176:194,1,88.000002685547,2|0,1:2|0:0,0:0:0:0:
319,58,69501,6,0,P|405:40|491:24,1,176.000005371094,2|0,3:2|1:0,0:0:0:0:
491,23,69979,1,0,0:0:0:0:
450,217,70139,2,0,P|441:174|433:131,1,88.000002685547,2|0,3:2|3:0,0:0:0:0:
319,58,70458,1,0,1:0:0:0:
270,213,70618,6,0,P|338:213|358:105,1,176.000005371094,2|0,3:2|3:0,0:0:0:0:
189,33,71096,2,0,P|203:73|221:116,1,88.000002685547,2|0,1:2|3:0,0:0:0:0:
455,136,71416,2,0,P|412:128|367:122,1,88.000002685547,2|0,1:2|3:0,0:0:0:0:
232,314,71735,1,2,1:2:0:0:
290,178,71894,1,2,3:2:0:0:
232,314,72054,6,0,P|212:274|192:226,1,88.000002685547,4|2,3:2|0:0,0:0:0:0:
455,136,72373,2,0,P|420:216|381:295,1,176.000005371094,2|0,1:2|3:0,0:0:0:0:
304,264,72852,1,0,3:0:0:0:
241,62,73011,2,0,P|284:56|328:53,1,88.000002685547,2|0,1:2|3:0,0:0:0:0:
195,234,73330,6,0,B|91:213|124:284|11:266,1,176.000005371094,2|0,1:2|1:0,0:0:0:0:
276,158,73809,1,2,3:2:0:0:
276,158,73889,1,2,3:2:0:0:
276,158,73969,2,0,P|284:206|297:297,1,132.00000402832,2|0,1:2|3:0,0:0:0:0:
295,288,74288,1,2,1:2:0:0:
161,360,74447,6,0,B|62:336|117:292|22:266,1,167.999994873047,6|2,3:2|0:0,0:0:0:0:
256,192,75006,12,0,76841,0:0:0:0:
334,263,77001,5,2,3:2:0:0:
334,263,77080,1,2,3:2:0:0:
334,263,77160,2,0,P|456:227|508:211,1,167.999994873047,2|0,3:2|3:0,0:0:0:0:
374,143,77799,1,0,1:0:0:0:
374,143,78118,2,0,P|377:116|380:87,1,55.9999982910157,2|0,3:2|0:0,0:0:0:0:
459,131,78437,1,10,0:0:0:0:
299,186,78596,2,0,L|245:179,2,27.9999991455078,0|0|0,1:0|1:0|3:0,0:0:0:0:
299,186,78916,1,2,0:0:0:0:
129,259,79075,5,0,1:0:0:0:
249,101,79235,1,0,1:0:0:0:
272,266,79394,1,2,1:2:0:0:
124,177,79554,1,0,1:0:0:0:
