osu file format v14

[General]
AudioFilename: fall bn.mp3
AudioLeadIn: 0
PreviewTime: 54820
Countdown: 0
SampleSet: Soft
StackLeniency: 0.4
Mode: 0
LetterboxInBreaks: 0
WidescreenStoryboard: 1

[Editor]
Bookmarks: 10568,20940,41366,79554
DistanceSpacing: 1.5
BeatDivisor: 4
GridSize: 4
TimelineZoom: 1.9

[Metadata]
Title:white night story
TitleUnicode:white night story
Artist:Endorfin.
ArtistUnicode:Endorfin.
Creator:Cami
Version:browiec's hard
Source:pop'n music うさぎと猫と少年の夢
Tags:browiec Peter PeterEU 藍月なくる Aitsuki Nakuru Stories of Eve konami usagi to neko to shounen no yume japanese jpop pop video rhythm game sky_delta aituki
BeatmapID:2246577
BeatmapSetID:1071795

[Difficulty]
HPDrainRate:4.5
CircleSize:3.6
OverallDifficulty:6
ApproachRate:8
SliderMultiplier:1.4
SliderTickRate:1

[Events]
//Background and Video events
0,0,"merry christmas!.jpg",0,0
//Break Periods
//Storyboard Layer 0 (Background)
//Storyboard Layer 1 (Fail)
//Storyboard Layer 2 (Pass)
//Storyboard Layer 3 (Foreground)
//Storyboard Layer 4 (Overlay)
//Storyboard Sound Samples

[TimingPoints]
565,319.148936170213,4,2,1,40,1,0
565,-125,4,2,1,40,0,0
5671,-111.111111111111,4,2,1,45,0,0
8224,-105.263157894737,4,2,1,60,0,0
9979,-100,4,2,1,60,0,0
10378,-100,4,2,1,5,0,0
10458,-100,4,2,1,60,0,0
10618,-100,4,2,1,60,0,0
20990,-111.111111111111,4,2,1,50,0,0
31203,-100,4,2,1,55,0,0
41416,-111.111111111111,4,2,1,45,0,0
46522,-100,4,2,1,50,0,0
49075,-100,4,2,1,60,0,0
54501,-100,4,2,1,50,0,0
56096,-133.333333333333,4,2,1,40,0,0
56575,-90.9090909090909,4,2,1,70,0,0
74447,-181.818181818182,4,2,1,50,0,0
75086,-100,4,2,1,40,0,0
77001,-125,4,2,1,40,0,0

[Colours]
Combo1 : 179,221,170
Combo2 : 239,165,239
Combo3 : 146,208,216
Combo4 : 219,77,116

[HitObjects]
20,192,565,6,0,L|138:206,1,112,2|0,0:0|0:0,0:0:0:0:
192,256,1043,2,0,L|310:242,2,112,0|0|0,0:0|0:0|0:0,0:0:0:0:
160,100,2001,1,2,0:0:0:0:
160,100,2160,2,0,L|224:88,1,56,0|2,0:0|0:3,0:0:0:0:
292,104,2479,6,0,L|304:168,2,56,2|0|0,0:0|0:0|0:0,0:0:0:0:
344,36,2958,2,0,P|380:16|444:104,1,168,2|0,0:0|0:0,0:0:0:0:
368,232,3756,1,2,0:0:0:0:
368,232,3916,2,0,L|440:240,1,56,0|0,0:0|0:0,0:0:0:0:
472,316,4235,6,0,L|348:332,1,112,2|2,0:0|0:0,0:0:0:0:
216,244,4873,2,0,L|296:252,1,56,2|0,0:0|0:0,0:0:0:0:
344,200,5192,2,0,L|388:196,2,28,0|0|0,1:0|1:0|1:0,0:0:0:0:
284,140,5511,1,2,0:0:0:0:
284,140,5591,1,2,0:0:0:0:
284,140,5671,6,0,B|200:120|244:168|156:152,1,125.999996154785,4|0,3:2|0:0,0:0:0:0:
104,88,6150,1,0,3:0:0:0:
104,88,6309,2,0,P|80:120|76:164,1,62.9999980773926,8|0,0:0|0:0,0:0:0:0:
108,224,6628,1,2,0:0:0:0:
32,272,6788,6,0,P|72:308|160:304,1,125.999996154785,2|0,0:0|0:0,0:0:0:0:
196,244,7267,2,0,L|204:176,1,62.9999980773926,0|2,0:0|0:0,0:0:0:0:
252,108,7586,2,0,P|286:92|331:97,1,62.9999980773926,8|2,0:0|0:0,0:0:0:0:
383,140,7905,2,0,P|398:174|393:219,1,62.9999980773926,2|0,0:0|3:0,0:0:0:0:
384,300,8224,6,0,B|325:325|325:325|228:309,1,132.999996448517,6|0,1:2|3:0,0:0:0:0:
196,244,8703,2,0,B|120:216|148:280|48:248,1,132.999996448517,4|0,1:2|1:0,0:0:0:0:
12,172,9182,6,0,P|4:116|120:76,1,199.499994672775,6|2,3:2|0:0,0:0:0:0:
172,148,9820,1,8,0:0:0:0:
240,76,9979,2,0,B|313:63|313:63|363:77|363:77|449:60,1,210,2|0,3:2|1:0,0:0:0:0:
504,140,10618,6,0,B|524:184|524:184|488:292,1,140,6|0,3:2|3:0,0:0:0:0:
432,336,11096,2,0,P|384:336|360:324,1,70,2|0,1:2|0:0,0:0:0:0:
308,256,11416,1,2,3:2:0:0:
308,256,11575,1,0,3:0:0:0:
276,340,11735,1,2,1:2:0:0:
212,268,11894,6,0,L|48:252,1,140,2|0,3:2|3:0,0:0:0:0:
36,172,12373,2,0,L|116:168,1,70,2|0,1:2|0:0,0:0:0:0:
164,100,12692,2,0,L|244:104,1,70,2|0,3:2|3:0,0:0:0:0:
300,46,13011,2,0,L|378:61,1,70,2|0,1:2|0:0,0:0:0:0:
456,12,13330,6,0,P|424:52|432:148,1,140,2|0,3:2|1:0,0:0:0:0:
480,212,13809,1,2,0:0:0:0:
388,224,13969,1,0,3:0:0:0:
388,224,14128,1,2,3:2:0:0:
440,300,14288,1,0,1:0:0:0:
356,352,14447,6,0,B|288:364|288:364|208:344,1,140,2|0,3:2|3:0,0:0:0:0:
152,284,14926,2,0,P|144:240|156:204,1,70,2|0,1:2|0:0,0:0:0:0:
224,160,15245,2,0,P|232:116|220:80,1,70,2|0,3:2|3:0,0:0:0:0:
156,32,15565,1,2,1:2:0:0:
72,84,15724,1,2,0:0:0:0:
72,84,15804,1,2,0:0:0:0:
72,84,15884,6,0,L|68:168,1,70,6|0,3:2|0:0,0:0:0:0:
16,228,16203,2,0,P|64:244|156:188,1,140,2|0,1:2|3:0,0:0:0:0:
224,160,16682,1,2,3:2:0:0:
288,224,16841,1,0,1:0:0:0:
344,144,17001,6,0,B|448:128|388:196|504:172,1,140,2|0,3:2|3:0,0:0:0:0:
512,260,17479,2,0,P|472:268|444:296,1,70,2|0,1:2|0:0,0:0:0:0:
392,356,17799,2,0,P|360:364|316:352,1,70,2|0,0:2|3:0,0:0:0:0:
256,296,18118,1,2,1:2:0:0:
320,220,18277,6,0,L|332:64,1,140,2|2,0:0|0:0,0:0:0:0:
272,12,18756,1,0,1:0:0:0:
272,12,18916,1,2,0:0:0:0:
216,84,19075,2,0,L|140:88,1,70,0|2,3:0|3:2,0:0:0:0:
68,136,19394,1,2,1:2:0:0:
156,184,19554,6,0,B|188:220|188:220|160:324,1,140,2|2,3:2|3:2,0:0:0:0:
340,356,20192,2,0,P|304:328|404:280,1,210,2|2,0:2|1:2,0:0:0:0:
276,152,20990,5,4,3:2:0:0:
416,64,21309,2,0,L|412:136,1,62.9999980773926,2|0,1:2|0:0,0:0:0:0:
484,176,21628,2,0,L|488:312,1,125.999996154785,2|2,0:0|1:2,0:0:0:0:
428,368,22107,6,0,P|384:376|356:368,1,62.9999980773926,2|0,0:0|3:0,0:0:0:0:
304,312,22426,2,0,P|296:268|304:240,1,62.9999980773926,2|0,0:0|1:0,0:0:0:0:
360,188,22745,2,0,P|368:128|316:80,1,125.999996154785,2|0,0:0|3:0,0:0:0:0:
248,128,23224,1,2,1:2:0:0:
188,56,23384,6,0,L|48:48,1,125.999996154785,0|0,0:0|0:0,0:0:0:0:
16,124,23862,1,0,1:0:0:0:
16,124,24022,2,0,L|12:204,1,62.9999980773926,2|0,0:0|0:0,0:0:0:0:
84,236,24341,2,0,L|88:316,1,62.9999980773926,2|0,3:2|1:0,0:0:0:0:
148,364,24660,6,0,P|196:376|260:336,1,125.999996154785,2|2,0:0|0:0,0:0:0:0:
280,252,25139,1,2,1:2:0:0:
212,196,25299,2,0,B|188:136|188:136|204:68,1,125.999996154785,0|2,0:0|3:2,0:0:0:0:
276,28,25777,1,0,1:2:0:0:
440,124,26096,6,0,L|432:208,1,62.9999980773926,2|0,3:2|0:0,0:0:0:0:
380,256,26416,2,0,L|296:248,1,62.9999980773926,2|0,1:2|0:0,0:0:0:0:
260,320,26735,2,0,L|128:328,1,125.999996154785,2|0,0:0|1:0,0:0:0:0:
56,284,27213,6,0,P|44:248|48:216,1,62.9999980773926,2|0,0:0|3:0,0:0:0:0:
88,144,27533,2,0,P|124:132|156:136,1,62.9999980773926,2|0,0:0|1:0,0:0:0:0:
224,184,27852,2,0,B|304:192|280:152|352:160,1,125.999996154785,2|0,0:0|3:0,0:0:0:0:
424,124,28330,1,0,1:2:0:0:
356,56,28490,6,0,L|220:48,1,125.999996154785,2|0,0:0|0:0,0:0:0:0:
160,100,28969,1,2,1:2:0:0:
76,68,29128,2,0,L|80:148,1,62.9999980773926,2|0,0:0|0:0,0:0:0:0:
144,192,29447,2,0,L|140:254,1,62.9999980773926,2|0,3:2|1:0,0:0:0:0:
192,328,29767,6,0,B|256:344|256:344|336:332,1,125.999996154785,2|2,0:0|0:0,0:0:0:0:
380,276,30245,1,2,1:2:0:0:
324,208,30405,2,0,L|252:200,2,62.9999980773926,0|2|2,3:0|0:0|3:2,0:0:0:0:
396,156,30884,1,2,1:2:0:0:
232,24,31203,6,0,L|228:104,1,70,4|0,3:1|0:0,0:0:0:0:
144,148,31522,2,0,L|148:228,1,70,2|0,1:2|0:0,0:0:0:0:
220,284,31841,2,0,P|176:312|72:280,1,140,2|0,3:2|1:0,0:0:0:0:
52,208,32320,6,0,L|48:138,1,70,2|0,0:0|3:0,0:0:0:0:
100,56,32639,2,0,P|144:44|188:60,1,70,2|0,0:0|1:0,0:0:0:0:
236,120,32958,2,0,B|272:140|308:136|308:136|340:104|388:104,1,140,2|0,0:0|3:0,0:0:0:0:
460,128,33437,2,0,P|484:168|488:200,1,70,2|0,1:2|0:0,0:0:0:0:
428,280,33756,6,0,B|360:296|360:296|288:280,1,140,2|2,3:2|1:2,0:0:0:0:
224,208,34235,2,0,L|220:120,1,70,2|0,0:0|0:0,0:0:0:0:
164,56,34554,2,0,P|124:48|80:64,1,70,0|0,3:0|1:0,0:0:0:0:
28,128,34873,6,0,B|20:184|20:184|28:208|28:208|20:276,1,140,2|2,0:0|0:0,0:0:0:0:
64,352,35352,1,0,1:2:0:0:
64,352,35511,1,2,0:0:0:0:
116,268,35671,2,0,L|200:260,1,70,2|0,0:0|3:0,0:0:0:0:
268,316,35990,1,2,1:2:0:0:
344,120,36309,6,0,L|348:292,1,140,2|0,3:2|1:0,0:0:0:0:
380,352,36788,2,0,P|424:364|464:352,1,70,2|0,0:0|0:0,0:0:0:0:
500,276,37107,2,0,L|508:188,1,70,2|0,3:2|1:0,0:0:0:0:
504,108,37426,6,0,B|472:96|436:112|436:112|432:68|400:44,1,140,2|0,0:0|0:0,0:0:0:0:
312,28,37905,2,0,P|272:52|248:88,1,70,2|0,1:2|0:0,0:0:0:0:
252,168,38224,2,0,L|248:252,1,70,2|0,0:0|3:2,0:0:0:0:
160,276,38543,2,0,L|156:192,1,70,2|0,1:2|0:0,0:0:0:0:
124,104,38862,6,0,P|76:76|8:128,1,140,2|0,3:2|1:0,0:0:0:0:
32,212,39341,2,0,B|44:276|44:276|24:352,1,140,2|0,0:0|3:0,0:0:0:0:
120,328,39820,2,0,L|196:320,1,70,2|0,1:2|0:0,0:0:0:0:
252,248,40139,5,2,3:2:0:0:
252,248,40299,2,0,P|304:256|328:248,1,70,2|0,0:0|1:0,0:0:0:0:
376,172,40618,2,0,L|380:96,2,70,2|2|2,3:2|0:0|3:0,0:0:0:0:
416,260,41096,1,2,1:2:0:0:
416,260,41176,1,0,1:0:0:0:
416,260,41256,1,0,1:0:0:0:
364,340,41416,6,0,L|208:344,1,125.999996154785,2|8,3:2|3:2,0:0:0:0:
172,284,41894,1,2,0:0:0:0:
252,248,42054,2,0,L|336:244,2,62.9999980773926,2|0|8,3:2|0:0|3:2,0:0:0:0:
184,192,42533,6,0,P|172:148|176:120,1,62.9999980773926,2|0,0:0|3:0,0:0:0:0:
220,56,42852,2,0,P|264:44|292:48,1,62.9999980773926,2|8,0:0|3:2,0:0:0:0:
348,100,43171,1,2,0:0:0:0:
348,100,43330,2,0,P|360:144|356:172,1,62.9999980773926,2|8,3:2|0:0,0:0:0:0:
316,240,43650,2,0,P|316:271|326:300,1,62.9999980773926,8|2,3:2|0:0,0:0:0:0:
404,344,43969,6,0,B|328:328|352:376|264:364,1,125.999996154785,2|10,3:2|3:2,0:0:0:0:
152,248,44607,2,0,L|144:108,1,125.999996154785,2|10,3:2|3:2,0:0:0:0:
188,44,45086,6,0,P|232:44|264:124,1,125.999996154785,2|2,0:2|0:2,0:0:0:0:
256,196,45565,2,0,P|277:252|336:261,1,125.999996154785,10|0,3:2|3:2,0:0:0:0:
396,196,46043,1,8,0:0:0:0:
396,196,46203,2,0,L|400:112,1,62.9999980773926,4|2,3:1|0:0,0:0:0:0:
356,36,46522,5,4,3:2:0:0:
280,96,46682,2,0,P|240:104|192:88,1,70,0|0,0:0|1:0,0:0:0:0:
136,32,47001,1,2,0:0:0:0:
136,32,47160,1,8,0:2:0:0:
120,128,47320,2,0,L|128:212,1,70,2|0,0:2|1:0,0:0:0:0:
96,292,47639,6,0,B|188:312|156:252|260:280,1,140,2|8,0:0|0:0,0:0:0:0:
280,360,48118,1,2,1:2:0:0:
328,276,48277,1,8,0:0:0:0:
376,364,48437,2,0,P|424:372|456:360,1,70,10|0,0:0|1:0,0:0:0:0:
496,284,48756,1,8,0:3:0:0:
496,284,48916,1,4,0:3:0:0:
424,208,49075,6,0,L|424:64,1,140,6|2,1:2|1:2,0:0:0:0:
340,16,49554,2,0,L|332:104,1,70,2|0,0:0|1:0,0:0:0:0:
252,144,49873,2,0,L|260:232,1,70,2|0,3:2|1:0,0:0:0:0:
328,284,50192,1,2,3:2:0:0:
232,308,50352,6,0,L|152:312,1,70,0|0,1:2|0:0,0:0:0:0:
84,252,50671,2,0,L|80:172,1,70,0|0,1:0|3:0,0:0:0:0:
108,88,50990,1,0,1:0:0:0:
172,160,51150,1,0,3:0:0:0:
204,68,51309,2,0,P|240:56|276:60,1,70,2|0,1:2|0:0,0:0:0:0:
332,144,51628,6,0,L|336:224,1,70,2|0,1:2|0:0,0:0:0:0:
396,292,51947,1,2,1:2:0:0:
452,212,52107,2,0,L|455:142,1,70,2|0,0:0|1:0,0:0:0:0:
392,68,52426,1,0,0:0:0:0:
332,144,52586,2,0,P|284:152|252:140,1,70,2|0,1:2|3:0,0:0:0:0:
212,64,52905,5,2,1:2:0:0:
172,156,53065,1,0,1:0:0:0:
172,156,53144,1,0,1:0:0:0:
172,156,53224,1,0,3:0:0:0:
120,72,53384,2,0,P|76:64|16:128,1,140,2|0,1:2|3:0,0:0:0:0:
8,224,53862,1,0,1:0:0:0:
8,224,54022,1,0,1:0:0:0:
104,252,54182,6,0,L|160:256,2,46.6666666666667,2|0|0,3:2|1:0|1:0,0:0:0:0:
56,320,54501,2,0,L|0:324,2,46.6666666666667,8|4|4,0:3|0:3|0:3,0:0:0:0:
124,368,54820,5,2,0:0:0:0:
136,356,55458,5,2,0:0:0:0:
148,344,56096,6,0,L|268:340,1,105.000004005432,2|0,0:0|1:0,0:0:0:0:
348,288,56575,6,0,P|368:240|296:144,1,154.000004699707,6|0,3:2|3:0,0:0:0:0:
232,192,57054,2,0,P|180:196|144:180,1,77.0000023498536,0|0,1:0|0:0,0:0:0:0:
96,108,57373,1,0,3:0:0:0:
96,108,57533,1,0,3:0:0:0:
56,200,57692,1,2,1:2:0:0:
104,296,57852,6,0,B|180:320|180:320|268:304,1,154.000004699707,2|0,3:2|3:0,0:0:0:0:
324,236,58330,2,0,L|328:148,1,77.0000023498536,2|0,1:2|0:0,0:0:0:0:
372,68,58650,2,0,P|412:60|460:76,1,77.0000023498536,2|0,0:2|3:0,0:0:0:0:
484,160,58969,2,0,L|487:236,1,77.0000023498536,2|0,1:2|0:0,0:0:0:0:
472,344,59288,6,0,P|428:372|328:332,1,154.000004699707,2|0,3:2|1:0,0:0:0:0:
288,256,59767,1,0,0:0:0:0:
240,344,59926,1,0,3:0:0:0:
240,344,60086,1,0,3:0:0:0:
192,256,60245,2,0,L|188:168,1,77.0000023498536,0|0,1:0|3:0,0:0:0:0:
156,84,60565,6,0,P|120:60|76:60,1,77.0000023498536,2|0,3:2|0:0,0:0:0:0:
12,124,60884,2,0,L|8:208,1,77.0000023498536,2|0,1:2|0:0,0:0:0:0:
36,296,61203,1,2,0:0:0:0:
100,220,61362,1,0,3:0:0:0:
192,256,61522,2,0,L|284:264,1,77.0000023498536,2|0,1:2|0:0,0:0:0:0:
336,180,61841,6,0,B|416:168|416:168|500:208,1,154.000004699707,6|0,3:2|1:0,0:0:0:0:
508,296,62320,1,0,0:0:0:0:
424,348,62479,1,0,3:0:0:0:
424,348,62639,1,0,3:0:0:0:
352,276,62799,1,2,1:2:0:0:
280,356,62958,6,0,P|232:368|176:272,1,154.000004699707,2|0,3:2|3:0,0:0:0:0:
224,212,63437,2,0,L|232:120,1,77.0000023498536,2|2,1:2|0:0,0:0:0:0:
132,108,63756,2,0,L|140:200,1,77.0000023498536,2|2,0:0|3:2,0:0:0:0:
40,212,64075,2,0,L|48:120,1,77.0000023498536,2|0,1:2|0:0,0:0:0:0:
56,36,64394,5,2,0:0:0:0:
230,135,64713,2,0,P|290:147|326:135,1,77.0000023498536,2|0,1:2|0:0,0:0:0:0:
376,76,65033,2,0,P|414:73|450:85,1,77.0000023498536,2|0,0:2|3:0,0:0:0:0:
508,168,65352,1,0,1:0:0:0:
428,240,65511,6,0,B|360:244|360:244|336:260|336:260|256:264,1,154.000004699707,2|2,3:2|3:2,0:0:0:0:
204,328,65990,1,8,0:3:0:0:
144,240,66150,2,0,B|120:184|120:184|148:76,1,154.000004699707,6|4,3:2|0:3,0:0:0:0:
208,20,66628,2,0,P|252:12|288:28,1,77.0000023498536,2|0,1:2|3:0,0:0:0:0:
336,108,66947,5,2,0:0:0:0:
476,252,67267,2,0,L|300:264,1,154.000004699707,6|0,1:2|3:0,0:0:0:0:
276,352,67745,1,0,3:0:0:0:
220,268,67905,1,2,1:2:0:0:
148,348,68065,6,0,P|96:364|16:304,1,154.000004699707,2|0,3:2|3:0,0:0:0:0:
16,212,68543,2,0,P|56:196|100:200,1,77.0000023498536,2|0,1:2|3:0,0:0:0:0:
176,244,68862,2,0,P|214:244|249:229,1,77.0000023498536,2|0,0:2|3:0,0:0:0:0:
312,148,69182,2,0,P|312:109|297:74,1,77.0000023498536,2|0,1:2|0:0,0:0:0:0:
208,16,69501,6,0,B|160:52|160:52|180:156,1,154.000004699707,2|0,3:2|1:0,0:0:0:0:
176,244,69979,1,0,0:0:0:0:
260,296,70139,2,0,L|348:288,1,77.0000023498536,2|0,3:2|3:0,0:0:0:0:
396,208,70458,1,0,1:0:0:0:
468,288,70618,6,0,B|492:212|492:212|468:128,1,154.000004699707,2|0,3:2|3:0,0:0:0:0:
420,56,71096,2,0,P|368:48|336:60,1,77.0000023498536,2|0,1:2|3:0,0:0:0:0:
300,144,71416,1,2,1:2:0:0:
248,60,71575,1,0,3:0:0:0:
204,152,71735,1,2,1:2:0:0:
148,60,71894,6,0,B|48:44|48:44|-4:72,1,154.000004699707,2|2,3:2|0:0,0:0:0:0:
20,168,72373,2,0,L|24:272,1,77.0000023498536,2|0,1:2|0:0,0:0:0:0:
80,328,72692,1,0,3:0:0:0:
80,328,72852,1,0,3:0:0:0:
124,236,73011,2,0,P|168:228|208:240,1,77.0000023498536,2|0,1:2|3:0,0:0:0:0:
260,324,73330,6,0,B|324:312|324:312|356:320|356:320|436:300,1,154.000004699707,2|0,1:2|1:0,0:0:0:0:
472,228,73809,1,2,0:0:0:0:
401,157,73969,2,0,B|358:137|320:157|320:157|268:157|241:102,1,154.000004699707,2|2,1:2|1:2,0:0:0:0:
192,57,74447,6,0,P|74:231|259:131,1,577.500017623902,6|0,3:2|0:0,0:0:0:0:
276,48,77001,5,2,3:2:0:0:
276,48,77080,1,2,3:2:0:0:
276,48,77160,2,0,P|328:22|418:95,1,168,2|0,3:2|3:0,0:0:0:0:
424,160,77799,2,0,B|416:212|416:212|430:275,1,112,0|2,1:0|3:2,0:0:0:0:
476,340,78277,6,0,P|419:320|364:340,1,112,2|0,0:0|1:0,0:0:0:0:
300,380,78756,1,0,3:0:0:0:
252,220,79075,1,0,1:0:0:0:
212,296,79235,1,0,1:0:0:0:
168,224,79394,1,2,1:2:0:0:
128,300,79554,1,0,1:0:0:0:
