osu file format v14

[General]
AudioFilename: fall bn.mp3
AudioLeadIn: 0
PreviewTime: 54820
Countdown: 0
SampleSet: Soft
StackLeniency: 0.5
Mode: 0
LetterboxInBreaks: 0
WidescreenStoryboard: 1

[Editor]
Bookmarks: 10568,20940,41366,79554
DistanceSpacing: 1
BeatDivisor: 4
GridSize: 32
TimelineZoom: 1.9

[Metadata]
Title:white night story
TitleUnicode:white night story
Artist:Endorfin.
ArtistUnicode:Endorfin.
Creator:Cami
Version:peter's normal
Source:pop'n music うさぎと猫と少年の夢
Tags:browiec Peter PeterEU 藍月なくる Aitsuki Nakuru Stories of Eve konami usagi to neko to shounen no yume japanese jpop pop video rhythm game sky_delta aituki
BeatmapID:2244340
BeatmapSetID:1071795

[Difficulty]
HPDrainRate:4
CircleSize:3
OverallDifficulty:4
ApproachRate:6
SliderMultiplier:1
SliderTickRate:1

[Events]
//Background and Video events
0,0,"merry christmas!.jpg",0,0
//Break Periods
//Storyboard Layer 0 (Background)
//Storyboard Layer 1 (Fail)
//Storyboard Layer 2 (Pass)
//Storyboard Layer 3 (Foreground)
//Storyboard Layer 4 (Overlay)
//Storyboard Sound Samples

[TimingPoints]
565,319.148936170213,4,2,1,40,1,0
565,-100,4,2,1,40,0,0
5671,-100,4,2,1,45,0,0
8224,-100,4,2,1,60,0,0
9979,-100,4,2,1,60,0,0
10378,-100,4,2,1,5,0,0
10458,-100,4,2,1,60,0,0
10618,-100,4,2,1,60,0,0
16123,-100,4,2,1,5,0,0
16203,-100,4,2,1,60,0,0
20990,-100,4,2,1,50,0,0
31203,-100,4,2,1,55,0,0
31442,-100,4,2,1,5,0,0
31522,-100,4,2,1,55,0,0
41416,-100,4,2,1,45,0,0
44846,-100,4,2,1,5,0,0
44926,-100,4,2,1,45,0,0
46522,-100,4,2,1,50,0,0
49075,-100,4,2,1,60,0,0
49315,-100,4,2,1,5,0,0
49394,-100,4,2,1,60,0,0
51868,-100,4,2,1,5,0,0
51947,-100,4,2,1,60,0,0
53623,-100,4,2,1,5,0,0
53703,-100,4,2,1,60,0,0
54501,-100,4,2,1,50,0,0
56575,-100,4,2,1,70,0,1
57054,-100,4,2,1,70,0,1
59527,-100,4,2,1,5,0,1
59607,-100,4,2,1,70,0,1
60804,-100,4,2,1,5,0,1
60884,-100,4,2,1,70,0,1
64315,-100,4,2,1,5,0,1
64394,-100,4,2,1,70,0,1
74447,-100,4,2,1,50,0,0
74926,-125,4,2,1,40,0,0

[Colours]
Combo1 : 179,221,170
Combo2 : 239,165,239
Combo3 : 146,208,216
Combo4 : 219,77,116

[HitObjects]
96,258,565,6,0,L|209:245,1,100,2|0,0:0|0:0,0:0:0:0:
273,183,1203,2,0,L|386:196,1,100,2|0,0:3|0:0,0:0:0:0:
450,256,1841,1,8,0:0:0:0:
450,256,2001,2,0,L|442:305,2,50,2|0|2,0:0|0:0|0:3,0:0:0:0:
484,220,2479,1,2,0:0:0:0:
394,99,2958,6,0,P|316:97|290:161,1,150,2|0,0:0|0:0,0:0:0:0:
306,253,3756,2,0,L|320:353,1,100,2|0,0:0|0:0,0:0:0:0:
272,369,4235,1,2,0:0:0:0:
194,305,4554,1,2,0:0:0:0:
119,371,4873,1,2,0:0:0:0:
61,289,5192,2,0,L|66:219,1,50,0|0,1:0|1:0,0:0:0:0:
125,159,5671,6,0,P|109:106|68:59,1,100,4|0,3:2|0:0,0:0:0:0:
167,19,6309,1,8,0:0:0:0:
246,80,6628,1,2,0:0:0:0:
246,80,6788,2,0,P|296:75|346:71,2,100,2|0|2,0:0|0:0|0:0,0:0:0:0:
215,119,7586,2,0,B|194:163|194:163|211:216,1,100,8|2,0:0|0:0,0:0:0:0:
231,256,8065,1,0,3:0:0:0:
231,256,8224,5,6,1:2:0:0:
103,334,8703,1,4,1:2:0:0:
8,217,9182,2,0,P|37:149|124:147,1,150,6|2,3:2|0:0,0:0:0:0:
139,175,9820,1,8,0:0:0:0:
139,175,9979,1,2,3:2:0:0:
284,132,10458,1,0,1:0:0:0:
284,132,10618,6,0,P|337:127|398:125,1,100,6|0,3:2|3:0,0:0:0:0:
433,125,11096,2,0,L|406:237,1,100,2|2,1:2|3:2,0:0:0:0:
469,302,11735,1,2,1:2:0:0:
469,302,11894,2,0,L|371:324,1,100,2|0,3:2|3:0,0:0:0:0:
323,338,12373,1,2,1:2:0:0:
245,275,12692,1,2,3:2:0:0:
173,344,13011,1,2,1:2:0:0:
125,256,13330,6,0,L|140:149,1,100,2|0,3:2|1:0,0:0:0:0:
205,82,13969,1,0,3:0:0:0:
205,82,14128,2,0,L|258:74,2,50,2|0|2,3:2|1:0|3:2,0:0:0:0:
106,43,14767,1,0,3:0:0:0:
106,43,14926,2,0,P|60:39|15:87,1,100,2|2,1:2|3:2,0:0:0:0:
34,171,15565,1,2,1:2:0:0:
34,171,15724,6,0,L|21:237,1,50,2|6,0:0|3:2,0:0:0:0:
75,306,16203,2,0,L|195:284,1,100,2|0,1:2|3:0,0:0:0:0:
211,320,16682,2,0,L|282:332,2,50,2|0|2,3:2|1:0|3:2,0:0:0:0:
162,178,17479,1,2,1:2:0:0:
230,105,17799,1,2,0:2:0:0:
321,145,18118,1,2,1:2:0:0:
321,145,18277,6,0,L|431:127,1,100,2|2,0:0|0:0,0:0:0:0:
455,163,18756,2,0,L|507:178,2,50,0|2|0,1:0|0:0|3:0,0:0:0:0:
404,262,19394,1,2,1:2:0:0:
404,262,19554,2,0,L|426:372,1,100,2|2,3:2|3:2,0:0:0:0:
324,349,20192,2,0,L|216:372,1,100,2|0,0:2|3:3,0:0:0:0:
188,336,20671,2,0,L|79:318,1,100,2|4,1:2|3:2,0:0:0:0:
127,224,21309,5,2,1:2:0:0:
39,176,21628,2,0,B|56:143|56:143|46:67,1,100,2|2,0:0|1:2,0:0:0:0:
42,30,22107,1,2,0:0:0:0:
132,72,22426,2,0,B|166:69|166:69|190:78|190:78|245:67,1,100,2|2,0:0|0:0,0:0:0:0:
372,23,23225,1,2,1:2:0:0:
372,23,23384,6,0,L|485:44,1,100,0|0,0:0|0:0,0:0:0:0:
470,91,23862,1,0,1:0:0:0:
470,91,24022,2,0,L|453:202,1,100,2|2,0:0|3:2,0:0:0:0:
492,282,24660,2,0,L|378:262,1,100,2|2,0:0|0:0,0:0:0:0:
365,306,25139,2,0,L|257:324,1,100,2|0,1:2|0:0,0:0:0:0:
230,357,25618,2,0,L|167:348,1,50,2|0,3:2|1:2,0:0:0:0:
87,314,26096,5,2,3:2:0:0:
130,223,26416,1,2,1:2:0:0:
57,154,26735,2,0,L|69:45,1,100,2|0,0:0|1:0,0:0:0:0:
116,64,27213,1,2,0:0:0:0:
205,109,27533,2,0,B|312:85,1,100,2|2,0:0|0:0,0:0:0:0:
420,179,28330,1,0,1:2:0:0:
420,179,28490,2,0,L|395:298,1,100,2|0,0:0|0:0,0:0:0:0:
385,325,28969,6,0,L|316:312,1,50,2|2,1:2|0:0,0:0:0:0:
248,268,29447,2,0,L|149:290,1,100,2|2,3:2|0:0,0:0:0:0:
50,298,30086,1,2,0:0:0:0:
50,298,30245,2,0,L|36:181,1,100,2|2,1:2|0:0,0:0:0:0:
22,99,30884,1,2,1:2:0:0:
115,123,31203,6,0,L|232:140,1,100,4|2,3:1|1:2,0:0:0:0:
263,145,31682,1,0,0:0:0:0:
263,145,31841,2,0,P|238:103|253:43,1,100,2|0,3:2|1:0,0:0:0:0:
289,29,32320,2,0,L|411:44,1,100,2|2,0:0|0:0,0:0:0:0:
464,105,32958,2,0,L|445:226,1,100,2|0,0:0|3:0,0:0:0:0:
418,243,33437,2,0,B|382:222|382:222|309:227,1,100,2|2,1:2|3:2,0:0:0:0:
242,167,34075,1,2,1:2:0:0:
242,167,34235,2,0,L|123:181,1,100,2|0,0:0|3:0,0:0:0:0:
41,207,34873,6,0,L|67:322,1,100,2|2,0:0|0:0,0:0:0:0:
74,353,35352,1,0,1:2:0:0:
170,327,35671,2,0,L|222:340,2,50,2|0|2,0:0|3:0|1:2,0:0:0:0:
169,227,36309,2,0,L|278:252,1,100,2|0,3:2|1:0,0:0:0:0:
307,277,36788,2,0,L|426:261,1,100,2|2,0:0|3:2,0:0:0:0:
479,195,37426,6,0,L|447:78,1,100,2|0,0:0|0:0,0:0:0:0:
434,51,37905,2,0,L|328:87,1,100,2|2,1:2|0:0,0:0:0:0:
245,116,38543,1,2,1:2:0:0:
159,63,38862,2,0,P|125:72|107:141,1,100,2|0,3:2|1:0,0:0:0:0:
122,174,39341,2,0,L|114:284,1,100,2|0,0:0|3:0,0:0:0:0:
107,323,39820,1,2,1:2:0:0:
205,340,40139,6,0,L|210:283,1,50,2|2,3:2|0:0,0:0:0:0:
248,258,40458,2,0,P|297:289|336:278,1,100,0|2,1:0|0:0,0:0:0:0:
378,254,40937,1,2,3:0:0:0:
378,254,41096,2,0,L|358:139,1,100,2|2,1:2|3:2,0:0:0:0:
297,78,41735,5,8,3:2:0:0:
297,78,41894,2,0,L|227:91,2,50,2|0|2,0:0|3:2|0:0,0:0:0:0:
335,46,42373,2,0,L|401:53,1,50,8|2,3:2|0:0,0:0:0:0:
463,113,42852,1,2,0:0:0:0:
395,186,43171,1,2,0:0:0:0:
395,186,43330,2,0,L|419:304,1,100,0|8,3:0|3:2,0:0:0:0:
426,332,43809,1,2,0:0:0:0:
426,332,43969,6,0,P|355:308|316:317,1,100,2|10,3:2|3:2,0:0:0:0:
237,336,44607,2,0,L|172:344,1,50,2|0,3:2|0:0,0:0:0:0:
137,349,44926,1,10,3:2:0:0:
137,349,45086,2,0,P|146:285|118:246,1,100,2|2,0:2|0:2,0:0:0:0:
100,215,45565,1,10,3:2:0:0:
191,174,45884,2,0,L|296:201,1,100,0|4,3:2|3:1,0:0:0:0:
334,215,46362,1,2,0:0:0:0:
334,215,46522,6,0,L|304:98,1,100,4|0,3:2|1:0,0:0:0:0:
278,78,47001,2,0,L|280:6,2,50,2|8|2,0:0|0:2|0:2,0:0:0:0:
182,47,47639,2,0,L|75:72,1,100,2|8,0:0|0:0,0:0:0:0:
36,56,48118,2,0,L|22:104,1,50,2|8,1:2|0:0,0:0:0:0:
10,152,48437,2,0,L|33:256,1,100,10|8,0:0|0:3,0:0:0:0:
22,349,49075,6,0,B|84:355|71:322|140:330,1,100,6|2,1:2|1:2,0:0:0:0:
165,346,49554,1,2,0:0:0:0:
165,346,49713,1,0,1:0:0:0:
247,288,50033,1,0,1:0:0:0:
339,325,50352,2,0,P|394:343|419:390,1,100,0|0,1:2|1:0,0:0:0:0:
493,313,50990,1,0,1:0:0:0:
456,217,51309,2,0,L|461:144,1,50,2|0,1:2|0:0,0:0:0:0:
458,116,51628,6,0,L|357:134,1,100,2|2,1:2|1:2,0:0:0:0:
321,166,52107,1,2,0:0:0:0:
321,166,52267,2,0,L|213:146,1,100,0|2,1:0|1:2,0:0:0:0:
148,215,52905,2,0,L|156:282,1,50,2|0,1:2|1:0,0:0:0:0:
163,313,53224,1,0,3:0:0:0:
163,313,53384,2,0,L|282:341,1,100,2|0,1:2|3:0,0:0:0:0:
308,346,53862,1,0,1:0:0:0:
357,258,54182,6,0,L|342:189,2,50,2|0|8,3:2|0:0|0:3,0:0:0:0:
428,328,54820,1,2,0:0:0:0:
497,140,55458,1,2,0:0:0:0:
320,47,56096,2,0,L|369:37,2,50,2|0|0,0:0|0:0|1:0,0:0:0:0:
271,34,56575,6,0,L|152:58,1,100,6|0,3:2|3:0,0:0:0:0:
124,65,57054,2,0,B|146:113|146:113|131:182,1,100,0|0,1:0|3:0,0:0:0:0:
66,230,57692,2,0,L|82:299,1,50,2|2,1:2|3:2,0:0:0:0:
58,325,58011,1,0,0:0:0:0:
143,376,58330,1,2,1:2:0:0:
215,306,58650,1,2,0:2:0:0:
301,356,58969,1,2,1:2:0:0:
380,290,59288,6,0,L|349:179,1,100,2|0,3:2|1:0,0:0:0:0:
259,157,59926,2,0,L|271:52,1,100,0|0,3:0|1:0,0:0:0:0:
364,24,60565,2,0,L|412:41,1,50,2|0,3:2|0:0,0:0:0:0:
458,57,60884,1,2,1:2:0:0:
394,134,61203,1,2,0:0:0:0:
460,208,61522,1,2,1:2:0:0:
384,273,61841,6,0,L|415:376,1,100,6|0,3:2|1:0,0:0:0:0:
315,344,62479,2,0,L|243:354,1,50,0|0,3:0|3:0,0:0:0:0:
230,314,62799,1,2,1:2:0:0:
230,314,62958,2,0,L|116:329,1,100,2|0,3:2|3:0,0:0:0:0:
81,334,63437,1,2,1:2:0:0:
24,251,63756,2,0,L|49:136,1,100,2|0,0:0|1:2,0:0:0:0:
120,87,64394,6,0,B|189:101,1,50,2|0,0:0|3:0,0:0:0:0:
217,110,64713,1,2,1:2:0:0:
305,66,65033,2,0,L|411:98,1,100,2|0,0:2|1:0,0:0:0:0:
445,74,65511,2,0,L|464:185,1,100,2|2,3:2|3:2,0:0:0:0:
487,269,66150,2,0,L|378:251,1,100,6|4,3:2|0:3,0:0:0:0:
338,248,66628,1,2,1:2:0:0:
274,324,66947,6,0,B|219:318|237:295|162:301,1,100,2|6,0:0|1:2,0:0:0:0:
88,345,67586,1,0,3:0:0:0:
34,260,67905,1,2,1:2:0:0:
34,260,68065,2,0,L|55:138,1,100,2|0,3:2|3:0,0:0:0:0:
61,112,68543,1,2,1:2:0:0:
133,42,68862,1,2,0:2:0:0:
198,117,69182,1,2,1:2:0:0:
273,51,69501,6,0,P|336:85|349:130,1,100,2|0,3:2|1:0,0:0:0:0:
299,196,70139,2,0,L|290:313,1,100,2|0,3:2|1:0,0:0:0:0:
287,345,70618,2,0,L|389:322,1,100,2|0,3:2|3:0,0:0:0:0:
428,316,71096,1,2,1:2:0:0:
497,243,71416,1,2,1:2:0:0:
435,164,71735,1,2,1:2:0:0:
435,164,71894,6,0,L|444:63,1,100,2|2,3:2|0:0,0:0:0:0:
404,32,72373,2,0,L|288:45,1,100,2|0,1:2|3:0,0:0:0:0:
240,119,73011,1,2,1:2:0:0:
152,69,73330,2,0,L|57:112,1,100,2|0,1:2|1:0,0:0:0:0:
33,206,73969,2,0,L|70:305,1,100,2|2,1:2|1:2,0:0:0:0:
45,344,74447,2,0,L|166:363,1,100,6|0,3:2|0:0,0:0:0:0:
183,364,74926,6,0,B|251:284|314:395|422:350|422:350|496:250|438:174|387:165,1,480,2|0,0:0|0:0,0:0:0:0:
338,171,77001,6,0,L|322:130,1,40,2|2,3:2|3:2,0:0:0:0:
206,49,77639,1,0,3:0:0:0:
206,49,77799,2,0,L|121:36,1,80,0|2,1:0|3:2,0:0:0:0:
18,131,78596,1,0,1:0:0:0:
18,131,78756,1,0,3:0:0:0:
81,203,79075,2,0,L|76:250,1,40,0|0,1:0|1:0,0:0:0:0:
106,280,79394,2,0,L|102:328,1,40,0|0,1:0|1:0,0:0:0:0:
