osu file format v14

[General]
AudioFilename: audio.mp3
AudioLeadIn: 0
PreviewTime: 60721
Countdown: 0
SampleSet: Soft
StackLeniency: 0.7
Mode: 0
LetterboxInBreaks: 0
WidescreenStoryboard: 1

[Editor]
DistanceSpacing: 1.1
BeatDivisor: 4
GridSize: 4
TimelineZoom: 1.9

[Metadata]
Title:Sakurairo Prism
TitleUnicode:桜色プリズム
Artist:Endorfin.
ArtistUnicode:Endorfin.
Creator:Karen
Version:UjiMatcha's Insane
Source:
Tags:japanese pop sky_delta 藍月なくる aitsuki nakuru Horizon Note UjiMatcha lililing
BeatmapID:2331735
BeatmapSetID:1104027

[Difficulty]
HPDrainRate:4.5
CircleSize:4
OverallDifficulty:7
ApproachRate:9
SliderMultiplier:2.79999990463257
SliderTickRate:1

[Events]
//Background and Video events
0,0,"bg.jpg",0,0
//Break Periods
2,121637,131059
2,192748,205948
//Storyboard Layer 0 (Background)
//Storyboard Layer 1 (Fail)
//Storyboard Layer 2 (Pass)
//Storyboard Layer 3 (Foreground)
//Storyboard Layer 4 (Overlay)
//Storyboard Sound Samples

[TimingPoints]
14771,444.444444444444,4,2,1,80,1,0
18771,-100,4,2,1,80,0,0
18993,-100,4,2,1,80,0,0
20993,-100,4,2,1,80,0,0
21215,-100,4,2,1,80,0,0
25882,-100,4,2,2,80,0,0
26104,-100,4,2,1,80,0,0
28326,-100,4,2,1,70,0,0
28548,-100,4,2,1,60,0,0
28770,-100,4,2,1,50,0,0
31437,-100,4,2,1,60,0,0
31882,-100,4,2,1,70,0,0
32548,-133.333333333333,4,2,1,80,0,0
32770,-133.333333333333,4,2,1,70,0,0
39659,-133.333333333333,4,2,1,80,0,0
39881,-133.333333333333,4,2,1,70,0,0
46770,-100,4,2,1,80,0,0
46992,-100,4,2,1,70,0,0
53882,-100,4,2,1,80,0,0
54104,-100,4,2,1,70,0,0
58993,-100,4,2,1,80,0,0
59437,-100,4,2,1,60,0,0
59548,-100,4,2,1,5,0,0
59659,-100,4,2,1,65,0,0
59881,-100,4,2,1,70,0,0
60104,-100,4,2,1,75,0,0
60326,-100,4,2,1,80,0,0
60993,-83.3333333333333,4,2,1,90,0,0
83659,-83.3333333333333,4,2,1,90,0,0
83881,-83.3333333333333,4,2,1,90,0,0
89437,-133.333333333333,4,2,1,80,0,0
89659,-133.333333333333,4,2,0,40,0,0
92993,-133.333333333333,4,2,0,80,0,0
93215,-133.333333333333,4,2,0,50,0,0
95659,-133.333333333333,4,2,1,50,0,0
96548,-133.333333333333,4,2,0,80,0,0
96770,-133.333333333333,4,2,0,50,0,0
99215,-133.333333333333,4,2,1,50,0,0
100104,-133.333333333333,4,2,0,80,0,0
100326,-133.333333333333,4,2,0,50,0,0
102993,-133.333333333333,4,2,1,50,0,0
103659,-133.333333333333,4,2,0,80,0,0
103882,-133.333333333333,4,2,0,50,0,0
105770,-133.333333333333,4,2,0,60,0,0
106104,-133.333333333333,4,2,0,70,0,0
106437,-100,4,2,1,80,0,0
133437,-100,4,2,1,50,0,0
133659,-100,4,2,1,80,0,0
133993,-100,4,2,1,50,0,0
134326,-133.333333333333,4,2,1,60,0,0
134548,-133.333333333333,4,2,1,65,0,0
134770,-133.333333333333,4,2,1,70,0,0
134993,-133.333333333333,4,2,1,75,0,0
135659,-83.3333333333333,4,2,1,80,0,0
158326,-83.3333333333333,4,2,1,80,0,0
158548,-83.3333333333333,4,2,1,80,0,0
164548,-83.3333333333333,4,2,1,80,0,0
169882,-100,4,2,1,80,0,0
170326,-125,4,2,1,80,0,0
170770,-166.666666666667,4,2,1,80,0,0
171215,-100,4,2,1,80,0,0
174770,-83.3333333333333,4,2,3,80,0,0
174993,-100,4,2,1,80,0,0
176437,-83.3333333333333,4,2,1,80,0,0
178326,-133.333333333333,4,2,1,80,0,0
178437,-133.333333333333,4,2,1,50,0,0
181882,-133.333333333333,4,2,1,80,0,0
181993,-133.333333333333,4,2,1,50,0,0
185437,-133.333333333333,4,2,1,80,0,0
185548,-133.333333333333,4,2,1,50,0,0
188993,-133.333333333333,4,2,1,80,0,0
189104,-133.333333333333,4,2,1,50,0,0
206770,-166.666666666667,4,2,1,50,0,0
217882,-166.666666666667,4,2,1,5,0,0
218104,-166.666666666667,4,2,1,50,0,0
218326,-166.666666666667,4,2,1,5,0,0
218548,-166.666666666667,4,2,1,50,0,0
219215,-100,4,2,1,80,0,0
219437,-125,4,2,1,60,0,0
219548,-100,4,2,1,5,0,0
219659,-100,4,2,1,65,0,0
219770,-100,4,2,1,5,0,0
219881,-83.3333333333333,4,2,1,70,0,0
219993,-100,4,2,1,5,0,0
220104,-100,4,2,1,75,0,0
220326,-100,4,2,1,80,0,0
220770,-100,4,2,1,85,0,0
220993,-83.3333333333333,4,2,1,90,0,0
243659,-83.3333333333333,4,2,1,90,0,0
243882,-83.3333333333333,4,2,1,90,0,0
249437,-83.3333333333333,4,2,1,80,0,0
253437,-83.3333333333333,4,2,1,80,0,0
253659,-83.3333333333333,4,2,1,80,0,0
255659,-83.3333333333333,4,2,1,80,0,0
255881,-83.3333333333333,4,2,1,80,0,0
262770,-83.3333333333333,4,2,1,70,0,0
262993,-83.3333333333333,4,2,1,65,0,0
263215,-83.3333333333333,4,2,1,60,0,0
263437,-83.3333333333333,4,2,1,55,0,0

[Colours]
Combo1 : 253,189,199
Combo2 : 224,135,169

[HitObjects]
273,39,14771,6,0,P|212:67|203:162,1,140,4|0,0:2|0:0,0:0:0:0:
69,207,15104,1,2,0:0:0:0:
69,207,15215,2,0,L|153:203,1,70,0|0,1:0|0:0,0:0:0:0:
208,327,15437,2,0,L|211:257,1,70,2|0,0:0|0:0,0:0:0:0:
304,224,15659,6,0,L|297:363,1,140,2|0,3:2|0:0,0:0:0:0:
410,263,16104,1,0,1:0:0:0:
283,128,16326,1,2,0:0:0:0:
79,97,16548,6,0,P|63:127|61:162,1,70,0|0,3:0|0:0,0:0:0:0:
0,241,16771,2,0,P|30:258|65:259,1,70,2|0,0:0|0:0,0:0:0:0:
204,186,16993,2,0,P|170:187|139:203,1,70,0|0,1:0|0:0,0:0:0:0:
215,274,17215,1,2,0:0:0:0:
215,274,17326,2,0,P|276:245|295:180,1,140,2|0,0:0|0:0,0:0:0:0:
288,100,17659,1,0,0:0:0:0:
371,254,17882,2,0,P|440:257|510:268,1,140,0|2,1:0|0:0,0:0:0:0:
463,135,18326,6,0,P|447:218|438:365,2,210,0|2|2,3:0|0:0|0:0,0:0:0:0:
396,26,19215,1,0,3:0:0:0:
255,86,19437,1,2,0:0:0:0:
118,15,19659,2,0,P|128:84|132:154,1,140,0|2,1:0|0:0,0:0:0:0:
0,294,20104,5,0,3:0:0:0:
54,140,20326,1,2,0:0:0:0:
200,218,20548,1,0,1:0:0:0:
200,218,20659,2,0,P|215:248|216:283,1,70,2|0,0:0|0:0,0:0:0:0:
173,361,20882,2,0,B|294:381|251:311|384:328,1,210,2|0,0:0|0:0,3:0:0:0:
494,345,21437,1,0,1:0:0:0:
494,345,21548,1,0,0:0:0:0:
494,345,21659,1,0,3:0:0:0:
358,232,21882,6,0,P|364:127|383:23,2,210,4|2|2,0:2|0:0|0:0,0:0:0:0:
246,57,22770,2,0,P|235:126|232:196,1,140,0|0,3:0|0:0,0:0:0:0:
93,263,23104,1,0,0:0:0:0:
93,263,23215,2,0,L|163:260,1,70,0|0,1:0|0:0,0:0:0:0:
272,356,23437,2,0,L|275:286,1,70,2|0,0:0|0:0,0:0:0:0:
423,251,23659,6,0,P|392:234|358:233,1,70,0|0,3:0|0:0,0:0:0:0:
367,115,23882,2,0,P|333:117|303:134,1,70,2|0,0:0|0:0,0:0:0:0:
219,35,24104,2,0,P|201:65|199:100,1,70,0|0,1:0|0:0,0:0:0:0:
109,145,24326,1,2,0:0:0:0:
109,145,24437,2,0,P|47:115|29:50,1,140
120,55,24770,1,2,0:0:0:0:
189,200,24993,2,0,P|186:269|175:339,1,140,0|2,1:0|0:0,0:0:0:0:
408,128,25437,6,0,P|473:146|502:207,1,140,0|0,3:0|0:0,0:0:0:0:
403,359,25770,1,2,0:0:0:0:
403,359,25882,2,0,P|406:289|417:219,1,140,0|2,0:0|0:0,0:0:0:0:
299,63,26326,1,0,3:0:0:0:
299,63,26437,2,0,L|215:59,2,70,0|2|0,0:0|0:0|0:0,0:0:0:0:
392,43,26770,2,0,P|333:76|320:143,1,140,0|2,1:0|0:0,0:0:0:0:
494,292,27215,5,0,3:0:0:0:
328,155,27437,1,2,0:0:0:0:
171,208,27659,1,0,1:1:0:0:
52,149,27882,5,0,3:0:0:0:
54,135,27993,1,0,1:0:0:0:
57,121,28104,1,0,3:0:0:0:
171,222,28326,5,0,1:0:0:0:
172,235,28437,1,8,0:3:0:0:
174,248,28548,1,4,0:3:0:0:
175,261,28659,1,4,0:3:0:0:
177,274,28770,1,8,0:3:0:0:
326,169,28993,5,4,3:2:0:0:
61,109,29437,1,0,1:0:0:0:
343,155,29882,5,0,3:0:0:0:
70,208,30326,1,0,1:0:0:0:
360,143,30770,5,0,3:0:0:0:
87,308,31215,1,0,1:0:0:0:
257,338,31437,5,0,0:0:0:0:
257,338,31548,2,0,L|268:199,1,140,4|0,3:2|1:0,0:0:0:0:
379,130,31882,2,0,L|374:199,1,70,4|0,3:2|0:0,0:0:0:0:
478,207,32548,6,0,L|373:199,1,105.000004005432,4|8,3:2|0:0,0:0:0:0:
325,280,32882,1,0,0:0:0:0:
325,280,32993,2,0,L|328:332,2,52.5000020027161,0|0|8,1:0|0:0|0:0,0:0:0:0:
154,233,33437,6,0,P|200:209|252:212,1,105.000004005432,0|8,3:0|0:0,0:0:0:0:
305,137,33770,1,8,0:0:0:0:
305,137,33882,2,0,L|297:32,1,105.000004005432,0|8,1:0|0:0,0:0:0:0:
29,17,34326,6,0,L|32:69,1,52.5000020027161,0|0,3:0|0:0,0:0:0:0:
119,78,34548,2,0,L|116:26,1,52.5000020027161,8|0,0:0|0:0,0:0:0:0:
208,31,34770,1,0,1:0:0:0:
209,57,34881,1,0,0:0:0:0:
211,83,34992,1,8,0:0:0:0:
39,156,35215,5,0,3:0:0:0:
215,167,35437,1,8,0:0:0:0:
49,246,35659,1,0,1:0:0:0:
231,261,35882,6,0,L|283:258,1,52.5000020027161,8|8,0:0|0:0,0:0:0:0:
442,220,36104,2,0,P|395:192|343:195,1,105.000004005432,0|8,3:0|0:0,0:0:0:0:
377,286,36437,1,0,0:0:0:0:
377,286,36548,2,0,L|374:338,2,52.5000020027161,0|0|8,1:0|0:0|0:0,0:0:0:0:
394,113,36993,6,0,L|402:8,1,105.000004005432,0|8,3:0|0:0,0:0:0:0:
491,18,37326,1,8,0:0:0:0:
491,18,37437,2,0,L|483:123,1,105.000004005432,0|8,1:0|0:0,0:0:0:0:
301,115,37882,5,0,3:0:0:0:
278,117,37993,1,0,0:0:0:0:
255,119,38104,1,8,0:0:0:0:
232,121,38215,1,0,0:0:0:0:
210,124,38326,2,0,L|207:176,2,52.5000020027161,0|0|8,1:0|0:0|0:0,0:0:0:0:
52,38,38770,6,0,L|0:41,2,52.5000020027161,0|0|0,3:0|1:0|0:0,0:0:0:0:
114,123,39215,1,0,1:0:0:0:
112,146,39326,1,0,1:0:0:0:
110,169,39437,1,0,3:0:0:0:
22,307,39659,6,0,P|60:267|111:257,1,105.000004005432,4|8,3:2|0:0,0:0:0:0:
189,316,39993,1,0,0:0:0:0:
189,316,40104,2,0,L|192:368,2,52.5000020027161,0|0|8,1:0|0:0|0:0,0:0:0:0:
335,263,40437,5,0,0:0:0:0:
335,263,40548,2,0,P|288:235|236:238,1,105.000004005432,0|8,3:0|0:0,0:0:0:0:
387,342,40882,1,8,0:0:0:0:
387,342,40993,2,0,L|492:334,1,105.000004005432,0|8,1:0|0:0,0:0:0:0:
481,105,41437,6,0,L|429:108,1,52.5000020027161,0|0,3:0|0:0,0:0:0:0:
406,202,41659,2,0,L|458:199,1,52.5000020027161,8|0,0:0|0:0,0:0:0:0:
348,115,41881,1,0,1:0:0:0:
322,116,41992,1,0,0:0:0:0:
296,118,42103,1,8,0:0:0:0:
207,213,42326,5,0,3:0:0:0:
255,37,42548,1,0,0:0:0:0:
305,207,42770,1,0,1:0:0:0:
121,169,42993,1,8,0:0:0:0:
220,238,43215,6,0,P|228:294|229:378,1,105.000004005432,0|8,3:0|0:0,0:0:0:0:
143,359,43548,1,0,0:0:0:0:
143,359,43659,2,0,L|91:362,2,52.5000020027161,0|0|8,1:0|0:0|0:0,0:0:0:0:
324,356,44104,5,0,3:0:0:0:
387,253,44326,1,8,0:0:0:0:
396,244,44437,1,8,0:0:0:0:
407,239,44548,2,0,P|463:231|547:230,1,105.000004005432,0|8,1:0|0:0,0:0:0:0:
354,52,44993,6,0,L|351:0,2,52.5000020027161,2|0|8,3:2|0:0|0:0,0:0:0:0:
290,124,45326,1,2,0:2:0:0:
290,124,45437,2,0,L|238:121,1,52.5000020027161,0|0,1:0|0:0,0:0:0:0:
379,158,45659,2,0,P|417:118|468:108,1,105.000004005432,2|0,0:0|3:0,0:0:0:0:
511,201,45993,5,0,1:0:0:0:
511,201,46104,2,0,L|459:198,1,52.5000020027161,4|0,0:2|0:0,0:0:0:0:
277,240,46326,2,0,L|381:246,1,105.000004005432,0|0,1:0|3:0,0:0:0:0:
134,230,46770,6,0,L|142:369,1,140,4|0,0:0|0:0,0:0:0:0:
50,345,47104,1,8,0:0:0:0:
50,345,47215,2,0,L|45:261,1,70,0|0,1:0|0:0,0:0:0:0:
64,173,47437,2,0,P|89:148|134:142,1,70,8|0,0:0|0:0,0:0:0:0:
306,74,47659,6,0,P|268:130|201:139,1,140,0|8,3:0|0:0,0:0:0:0:
87,59,47992,1,8,0:0:0:0:
87,59,48104,2,0,P|157:58|243:66,1,140,0|8,1:0|0:0,0:0:0:0:
467,56,48548,5,0,3:0:0:0:
434,68,48659,1,0,0:0:0:0:
410,93,48770,1,8,0:0:0:0:
398,125,48881,1,0,0:0:0:0:
401,160,48993,2,0,L|412:265,2,70,0|0|8,1:0|0:0|0:0,0:0:0:0:
512,291,49437,6,0,L|507:360,1,70,0|0,3:0|0:0,0:0:0:0:
349,344,49659,2,0,P|380:323|421:319,1,70,8|8,0:0|0:0,0:0:0:0:
303,245,49882,2,0,P|273:226|239:219,1,70,0|0,1:0|0:0,0:0:0:0:
167,289,50104,5,8,0:0:0:0:
156,281,50215,1,0,0:0:0:0:
147,270,50326,2,0,P|146:200|154:114,1,140,0|8,3:0|0:0,0:0:0:0:
85,63,50659,1,0,0:0:0:0:
85,63,50770,2,0,P|116:42|157:38,1,70,0|0,1:0|0:0,0:0:0:0:
294,116,50993,2,0,P|260:109|232:90,1,70,8|0,0:0|0:0,0:0:0:0:
299,26,51215,5,0,3:0:0:0:
315,22,51437,2,0,P|384:30|453:44,2,140,8|0|8,0:0|1:0|0:0,0:0:0:0:
390,134,52104,5,0,3:0:0:0:
404,143,52326,2,0,P|412:179|417:210,1,70,8|0,0:0|0:0,0:0:0:0:
512,229,52548,2,0,P|498:297|489:367,1,140,0|8,1:0|0:0,0:0:0:0:
321,255,52993,6,0,P|286:259|252:268,2,70,0|0|8,3:0|1:0|0:0,0:0:0:0:
404,143,53326,1,8,0:0:0:0:
404,143,53437,2,0,P|412:179|417:210,1,70,4|0,1:2|0:0,0:0:0:0:
389,371,53659,2,0,P|393:336|402:302,1,70,4|0,3:0|0:0,0:0:0:0:
505,221,53882,6,0,B|446:181|361:192|361:192|404:194|439:230,1,210,4|0,3:2|0:0,0:0:0:0:
362,270,54326,2,0,P|293:278|224:294,1,140,0|8,1:0|0:0,0:0:0:0:
135,215,54770,2,0,P|120:283|112:352,1,140,0|8,3:0|0:0,0:0:0:0:
22,191,55215,2,0,P|13:121|-1:53,1,140,0|8,1:0|0:0,0:0:0:0:
145,73,55659,6,0,P|152:38|158:4,2,70,0|0|8,3:0|0:0|0:0,0:0:0:0:
256,135,56104,2,0,P|324:120|393:112,1,140,0|8,1:0|0:0,0:0:0:0:
509,61,56548,6,0,P|498:169|495:288,1,210,0|8,3:0|0:0,0:0:0:0:
445,358,56993,2,0,P|479:363|512:375,1,70,0|0,1:0|0:0,0:0:0:0:
394,269,57215,2,0,P|359:274|326:286,1,70,8|0,0:0|0:0,0:0:0:0:
242,341,57437,5,0,3:0:0:0:
208,343,57548,1,0,0:0:0:0:
175,331,57659,1,8,0:0:0:0:
150,305,57770,1,0,0:0:0:0:
138,271,57882,2,0,L|142:191,2,70,0|0|8,1:0|0:0|0:0,0:0:0:0:
61,184,58326,6,0,P|99:128|166:120,1,140,0|8,3:0|0:0,0:0:0:0:
316,95,58659,1,8,0:0:0:0:
316,95,58770,2,0,P|276:94|245:85,1,70,0|0,1:0|0:0,0:0:0:0:
402,19,58993,6,0,P|418:87|426:156,1,140,4|0,3:2|0:0,0:0:0:0:
493,278,59326,1,0,0:0:0:0:
493,278,59437,2,0,P|496:243|504:209,1,70,0|0,1:0|0:0,0:0:0:0:
360,221,59659,5,0,1:0:0:0:
325,219,59770,1,0,0:0:0:0:
293,233,59881,1,0,3:0:0:0:
268,257,59992,1,0,0:0:0:0:
259,292,60104,2,0,B|162:262|154:362|61:323,1,210,0|0,1:0|3:0,0:0:0:0:
100,242,60548,2,0,P|103:207|120:177,1,70,4|0,1:2|0:0,0:0:0:0:
173,110,60770,1,0,3:0:0:0:
258,129,60993,6,0,B|195:62|99:90|99:90|156:84|175:114,1,251.999992309571,4|0,0:0|0:0,0:0:0:0:
353,0,61437,2,0,L|345:84,1,83.9999974365235,0|0,1:0|0:0,0:0:0:0:
498,137,61659,2,0,L|414:145,1,83.9999974365235,2|0,0:0|0:0,0:0:0:0:
270,220,61882,6,0,P|310:209|352:204,1,83.9999974365235,0|0,3:0|0:0,0:0:0:0:
198,296,62104,2,0,P|237:308|275:327,1,83.9999974365235,2|0,0:0|0:0,0:0:0:0:
99,313,62326,2,0,P|125:345|146:381,1,83.9999974365235,0|0,1:0|0:0,0:0:0:0:
22,235,62548,2,0,L|14:151,1,83.9999974365235,2|0,0:0|0:0,0:0:0:0:
108,224,62770,6,0,P|70:305|-27:305,1,167.999994873047,0|2,3:0|0:0,0:0:0:0:
100,137,63104,1,0,0:0:0:0:
100,137,63215,2,0,P|140:126|182:121,1,83.9999974365235,0|0,1:0|0:0,0:0:0:0:
253,0,63437,2,0,P|264:40|269:82,1,83.9999974365235,2|0,0:0|0:0,0:0:0:0:
423,118,63659,6,0,P|381:119|343:137,1,83.9999974365235,0|0,3:0|0:0,0:0:0:0:
462,192,63882,1,2,0:0:0:0:
506,123,63993,2,0,P|472:49|392:36,1,167.999994873047
263,118,64326,2,0,P|300:135|342:137,1,83.9999974365235,2|0,0:0|0:0,0:0:0:0:
172,44,64548,6,0,P|155:128|142:228,1,167.999994873047,2|0,3:2|0:0,0:0:0:0:
66,291,64882,1,0,0:0:0:0:
66,291,64993,2,0,P|77:331|82:373,2,83.9999974365235,0|0|2,1:0|0:0|0:0,0:0:0:0:
241,342,65437,6,0,L|515:306,1,251.999992309571,0|0,3:0|0:0,0:0:0:0:
512,133,65882,2,0,L|499:232,1,83.9999974365235,0|0,1:0|0:0,0:0:0:0:
333,245,66104,2,0,L|416:234,1,83.9999974365235,2|0,0:0|0:0,0:0:0:0:
189,203,66326,6,0,P|166:238|159:279,1,83.9999974365235,0|0,3:0|0:0,0:0:0:0:
252,269,66549,1,2,0:0:0:0:
274,181,66660,2,0,P|222:119|141:127,1,167.999994873047,2|0,0:0|0:0,0:0:0:0:
7,223,66993,2,0,P|48:215|82:192,1,83.9999974365235,2|0,0:0|0:0,0:0:0:0:
72,24,67215,6,0,L|63:107,1,83.9999974365235,0|0,3:0|0:0,0:0:0:0:
175,296,67437,2,0,L|164:212,1,83.9999974365235,2|0,0:0|3:0,0:0:0:0:
298,109,67659,2,0,P|263:85|222:77,1,83.9999974365235,0|0,1:0|0:0,0:0:0:0:
404,189,67882,2,0,P|444:181|479:157,1,83.9999974365235,4|0,0:3|0:0,0:0:0:0:
293,218,68104,6,0,P|276:302|263:402,1,167.999994873047,4|0,0:0|0:0,0:0:0:0:
98,323,68548,6,0,P|133:301|174:295,1,83.9999974365235,0|0,1:0|0:0,0:0:0:0:
0,314,68770,2,0,P|15:275|45:246,1,83.9999974365235,2|0,0:0|0:0,0:0:0:0:
8,145,68993,6,0,P|59:132|105:127,1,83.9999974365235,0|0,3:0|0:0,0:0:0:0:
231,30,69214,1,2,0:0:0:0:
150,57,69326,2,0,P|132:139|121:222,1,167.999994873047,2|0,0:0|0:0,0:0:0:0:
192,378,69659,2,0,P|186:336|175:295,1,83.9999974365235,2|0,0:0|0:0,0:0:0:0:
55,289,69882,1,0,3:0:0:0:
40,296,70104,6,0,P|29:336|23:378,1,83.9999974365235,2|0,0:0|0:0,0:0:0:0:
120,222,70326,2,0,P|161:211|203:204,1,83.9999974365235,0|0,1:0|0:0,0:0:0:0:
90,127,70548,2,0,P|49:116|7:109,1,83.9999974365235,2|0,0:0|0:0,0:0:0:0:
116,34,70770,1,0,3:0:0:0:
131,26,70993,6,0,P|172:15|214:8,1,83.9999974365235,2|0,0:0|0:0,0:0:0:0:
407,95,71215,2,0,P|366:83|325:77,1,83.9999974365235,0|0,1:0|0:0,0:0:0:0:
213,169,71437,2,0,L|222:252,1,83.9999974365235,2|0,0:0|0:0,0:0:0:0:
128,175,71659,6,0,P|162:101|242:88,1,167.999994873047,0|0,3:0|0:0,0:0:0:0:
299,161,71993,1,0,0:0:0:0:
299,161,72104,2,0,L|308:244,2,83.9999974365235,0|0|2,1:0|0:0|0:0,0:0:0:0:
508,26,72548,6,0,P|489:108|478:191,1,167.999994873047,0|2,3:0|0:0,0:0:0:0:
430,303,72882,1,0,0:0:0:0:
430,303,72993,2,0,P|470:292|512:287,1,83.9999974365235,0|0,1:0|0:0,0:0:0:0:
327,369,73215,2,0,P|368:374|409:384,1,83.9999974365235,2|0,0:0|0:0,0:0:0:0:
264,298,73437,6,0,P|180:309|98:328,1,167.999994873047,0|2,3:0|0:0,0:0:0:0:
16,264,73770,1,0,0:0:0:0:
16,264,73881,2,0,P|5:304|0:346,1,83.9999974365235,2|0,1:2|0:0,0:0:0:0:
100,219,74103,2,0,P|94:177|84:136,1,83.9999974365235,0|0,3:0|3:0,0:0:0:0:
46,55,74326,5,4,3:2:0:0:
86,45,74437,1,0,1:0:0:0:
126,55,74548,1,0,3:0:0:0:
157,83,74659,1,0,1:0:0:0:
179,118,74770,5,0,1:0:0:0:
215,138,74882,1,0,1:0:0:0:
257,137,74992,1,0,1:0:0:0:
293,118,75103,1,0,1:0:0:0:
334,110,75215,6,0,P|315:191|304:275,1,167.999994873047,4|2,0:0|0:0,0:0:0:0:
303,275,75659,6,0,L|387:267,1,83.9999974365235,0|0,1:0|0:0,0:0:0:0:
290,370,75882,2,0,L|374:362,1,83.9999974365235,2|0,0:0|0:0,0:0:0:0:
123,351,76104,6,0,P|82:362|44:380,1,83.9999974365235,0|0,3:0|0:0,0:0:0:0:
161,259,76326,2,0,P|121:246|80:240,1,83.9999974365235,2|0,0:0|0:0,0:0:0:0:
245,212,76548,2,0,P|218:180|187:152,1,83.9999974365235,0|0,1:0|0:0,0:0:0:0:
47,111,76770,6,0,B|110:44|206:72|206:72|149:66|130:96,1,251.999992309571,2|0,0:0|0:0,0:0:0:0:
186,151,77215,2,0,P|269:162|351:182,1,167.999994873047,2|0,0:0|1:0,0:0:0:0:
350,181,77659,6,0,P|352:222|337:261,1,83.9999974365235,2|0,0:0|0:0,0:0:0:0:
178,299,77882,2,0,P|213:276|254:269,1,83.9999974365235,0|0,3:0|0:0,0:0:0:0:
244,362,78105,1,2,0:0:0:0:
156,384,78216,2,0,P|94:332|102:251,1,167.999994873047,2|0,0:0|0:0,0:0:0:0:
136,65,78548,2,0,P|158:99|166:140,1,83.9999974365235,2|0,0:0|0:0,0:0:0:0:
46,166,78770,6,0,B|114:134|177:155|158:186|219:212|286:188,1,251.999992309571,2|0,3:2|0:0,0:0:0:0:
254,25,79215,2,0,L|245:108,1,83.9999974365235,2|0,1:2|0:0,0:0:0:0:
342,0,79437,2,0,L|333:83,1,83.9999974365235,2|0,0:0|0:0,0:0:0:0:
482,158,79659,6,0,P|442:147|401:141,1,83.9999974365235,0|0,3:0|0:0,0:0:0:0:
396,293,79882,2,0,P|437:287|477:275,1,83.9999974365235,2|0,0:0|0:0,0:0:0:0:
294,274,80104,2,0,L|285:357,1,83.9999974365235,0|0,1:0|0:0,0:0:0:0:
161,357,80326,2,0,L|152:274,1,83.9999974365235,2|0,0:0|0:0,0:0:0:0:
72,224,80548,1,0,3:0:0:0:
83,211,80770,6,0,P|118:189|159:183,1,83.9999974365235,2|0,0:0|0:0,0:0:0:0:
144,84,80993,2,0,P|185:84|222:101,1,83.9999974365235,0|0,1:0|0:0,0:0:0:0:
262,11,81215,2,0,P|296:34|318:69,1,83.9999974365235,2|0,0:0|0:0,0:0:0:0:
505,75,81437,6,0,P|463:75|426:92,1,83.9999974365235,0|0,3:0|0:0,0:0:0:0:
327,166,81659,1,4,0:0:0:0:
413,182,81770,2,0,P|402:98|382:16,1,167.999994873047,2|0,0:0|0:0,0:0:0:0:
243,37,82104,2,0,P|277:60|318:69,1,83.9999974365235,4|0,0:0|0:0,0:0:0:0:
245,148,82326,6,0,P|228:232|215:332,1,167.999994873047,0|0,3:0|0:0,0:0:0:0:
414,323,82770,6,0,P|379:301|338:295,1,83.9999974365235,0|0,1:0|0:0,0:0:0:0:
512,314,82993,2,0,P|497:275|467:246,1,83.9999974365235,2|0,0:0|0:0,0:0:0:0:
290,125,83215,6,0,P|341:112|387:107,1,83.9999974365235,0|0,3:0|0:0,0:0:0:0:
496,15,83436,1,2,0:0:0:0:
415,42,83548,2,0,P|397:124|386:207,1,167.999994873047,2|0,0:0|0:0,3:0:0:0:
354,377,83881,2,0,P|348:335|337:294,1,83.9999974365235,2|0,0:0|0:0,0:0:0:0:
242,224,84104,1,0,3:0:0:0:
231,237,84326,6,0,P|220:277|214:319,1,83.9999974365235,2|0,0:0|0:0,0:0:0:0:
81,342,84548,2,0,P|40:349|0:360,1,83.9999974365235,0|0,1:0|0:0,0:0:0:0:
109,245,84770,2,0,P|70:228|31:216,1,83.9999974365235,2|0,0:0|0:0,0:0:0:0:
170,147,84992,1,0,3:0:0:0:
183,136,85215,6,0,P|224:125|266:118,1,83.9999974365235,2|0,0:0|0:0,0:0:0:0:
506,258,85437,2,0,P|464:251|424:240,1,83.9999974365235,0|0,1:0|0:0,0:0:0:0:
350,126,85659,2,0,L|341:209,1,83.9999974365235,2|0,0:0|0:0,0:0:0:0:
435,132,85881,6,0,P|401:58|321:45,1,167.999994873047,0|0,3:0|0:0,0:0:0:0:
264,118,86215,1,0,0:0:0:0:
264,118,86326,2,0,L|255:201,2,83.9999974365235,2|0|2,1:2|0:0|0:0,0:0:0:0:
0,40,86770,6,0,P|83:51|165:70,1,167.999994873047,0|0,3:0|0:0,0:0:0:0:
107,204,87215,6,0,P|125:241|134:282,1,83.9999974365235,2|0,1:2|0:0,0:0:0:0:
21,305,87437,2,0,B|88:281|149:307|130:338|193:359|261:327,1,251.999992309571,2|0,0:0|0:0,0:0:0:0:
431,324,87882,2,0,P|393:305|352:296,1,83.9999974365235,2|0,0:0|0:0,0:0:0:0:
199,151,88103,2,0,P|210:191|215:233,1,83.9999974365235,0|0,1:0|0:0,0:0:0:0:
255,60,88325,6,0,P|136:66|99:179,1,251.999992309571,2|0,0:0|1:3,0:0:0:0:
48,280,88770,2,0,P|90:274|131:263,1,83.9999974365235,2|8,0:0|0:3,0:0:0:0:
282,342,88993,2,0,P|241:331|199:325,1,83.9999974365235,0|0,3:3|3:0,0:0:0:0:
258,116,89437,6,0,L|242:262,1,105.000004005432,4|0,0:0|1:0,0:0:0:0:
344,203,89882,2,0,L|349:150,3,52.5000020027161,2|0|0|2,0:0|1:0|1:0|0:0,0:0:0:0:
427,139,90326,2,0,L|422:192,3,52.5000020027161,0|2|0|0,1:0|0:0|1:0|1:0,0:0:0:0:
500,181,90770,2,0,L|505:128,3,52.5000020027161,2|0|0|2,0:0|1:0|1:0|0:0,0:0:0:0:
509,29,91215,5,2,0:0:0:0:
485,17,91326,1,0,1:0:0:0:
459,16,91437,1,2,0:0:0:0:
434,26,91548,1,0,1:0:0:0:
416,43,91659,5,2,0:0:0:0:
396,61,91770,1,0,1:0:0:0:
370,71,91881,1,0,1:0:0:0:
345,69,91992,1,2,0:0:0:0:
322,58,92104,6,0,L|327:5,2,52.5000020027161,0|2|0,1:0|0:0|1:0,0:0:0:0:
222,74,92993,6,0,L|214:179,1,105.000004005432,4|2,0:1|0:0,0:0:0:0:
273,252,93327,1,0,0:0:0:0:
273,252,93437,2,0,L|276:304,2,52.5000020027161,0|0|2,0:0|0:0|0:0,0:0:0:0:
127,171,93882,6,0,P|80:147|29:149,1,105.000004005432,0|0,1:0|1:0,0:0:0:0:
7,239,94216,1,0,1:0:0:0:
7,239,94327,2,0,L|15:344,1,105.000004005432,0|0,0:0|1:0,0:0:0:0:
144,314,94770,5,0,0:0:0:0:
167,316,94881,1,0,1:0:0:0:
190,318,94992,1,0,0:0:0:0:
213,320,95103,1,0,1:0:0:0:
235,323,95214,2,0,L|238:375,2,52.5000020027161,0|0|0,0:0|1:0|1:0,0:0:0:0:
359,305,95659,5,0,3:0:0:0:
476,330,95882,2,0,L|479:382,2,52.5000020027161,0|0|0,1:0|3:0|3:0,0:0:0:0:
359,305,96327,6,0,L|362:253,1,52.5000020027161,0|0,3:0|3:0,0:0:0:0:
428,201,96549,2,0,P|381:173|329:176,1,105.000004005432,4|2,0:1|0:0,0:0:0:0:
257,216,96882,1,0,0:0:0:0:
257,216,96993,2,0,L|205:219,2,52.5000020027161,2|0|0,0:0|0:0|0:0,0:0:0:0:
253,47,97438,6,0,L|148:55,1,105.000004005432,0|0,1:0|1:0,0:0:0:0:
150,138,97771,1,0,1:0:0:0:
150,138,97882,2,0,L|255:130,1,105.000004005432,0|0,0:0|1:0,0:0:0:0:
401,136,98327,5,0,0:0:0:0:
424,138,98438,1,0,1:0:0:0:
447,140,98549,1,0,0:0:0:0:
470,142,98660,1,0,1:0:0:0:
492,145,98771,2,0,L|495:197,2,52.5000020027161,0|0|0,0:0|1:0|1:0,0:0:0:0:
384,49,99215,6,0,L|332:46,2,52.5000020027161,0|0|0,3:0|1:0|0:0,0:0:0:0:
484,12,99660,1,4,0:0:0:0:
486,35,99771,1,0,3:0:0:0:
488,58,99882,1,0,1:0:0:0:
340,130,100104,6,0,P|289:117|254:79,1,105.000004005432,4|2,0:0|0:0,0:0:0:0:
193,20,100438,1,0,0:0:0:0:
193,20,100548,2,0,L|88:28,1,105.000004005432,0|0,0:0|1:0,0:0:0:0:
31,97,100882,5,0,0:0:0:0:
31,97,100993,2,0,P|3:144|6:196,1,105.000004005432,0|0,1:0|1:0,0:0:0:0:
79,251,101327,1,0,1:0:0:0:
79,251,101438,2,0,L|184:243,1,105.000004005432,0|0,0:0|1:0,0:0:0:0:
346,281,101882,5,0,1:0:0:0:
348,304,101993,1,0,1:0:0:0:
349,327,102104,1,0,0:0:0:0:
351,350,102215,1,0,1:0:0:0:
353,372,102326,2,0,L|404:375,2,52.5000020027161,0|0|0,0:0|1:0|1:0,0:0:0:0:
275,236,102770,6,0,P|316:204|368:201,1,105.000004005432,0|0,0:0|3:0,0:0:0:0:
441,156,103104,1,0,0:0:0:0:
441,156,103215,2,0,P|401:122|349:116,1,105.000004005432,8|8,0:0|0:0,0:0:0:0:
198,14,103660,6,0,P|190:70|189:154,1,105.000004005432,4|2,0:1|0:0,0:0:0:0:
120,184,103993,1,0,0:0:0:0:
120,184,104104,2,0,L|68:187,2,52.5000020027161,0|0|0,0:0|0:0|1:0,0:0:0:0:
273,103,104549,5,0,1:0:0:0:
367,200,104771,1,0,1:0:0:0:
376,209,104882,1,0,1:0:0:0:
382,220,104993,2,0,P|390:271|393:324,1,105.000004005432,0|0,0:0|1:0,0:0:0:0:
312,298,105437,6,0,L|207:290,1,105.000004005432,0|0,1:0|0:0,0:0:0:0:
129,319,105770,2,0,L|132:371,2,52.5000020027161,2|0|0,0:0|0:0|0:0,0:0:0:0:
53,286,106104,2,0,P|91:246|142:236,1,105.000004005432,2|0,0:0|0:0,0:0:0:0:
209,133,106438,5,0,3:0:0:0:
209,133,106548,2,0,L|213:205,1,70,0|0,1:0|3:0,0:0:0:0:
207,290,106770,1,0,1:0:0:0:
233,287,106881,1,0,1:0:0:0:
257,277,106992,1,0,3:0:0:0:
277,261,107103,1,0,1:0:0:0:
292,239,107215,6,0,L|284:100,1,140,4|8,0:0|0:0,0:0:0:0:
380,120,107549,1,0,0:0:0:0:
380,120,107660,2,0,L|385:204,1,70,0|0,1:0|0:0,0:0:0:0:
503,314,107882,2,0,L|433:309,1,70,8|0,0:0|0:0,0:0:0:0:
351,293,108104,6,0,P|390:236|457:228,1,140,0|8,3:0|0:0,0:0:0:0:
302,370,108437,1,0,0:0:0:0:
302,370,108549,2,0,P|232:371|146:363,1,140,0|8,1:0|0:0,0:0:0:0:
69,211,108993,5,0,3:0:0:0:
36,223,109104,1,0,0:0:0:0:
12,248,109215,1,8,0:0:0:0:
0,280,109326,1,0,0:0:0:0:
3,315,109438,2,0,L|14:420,2,70,0|0|8,1:0|0:0|0:0,0:0:0:0:
105,315,109882,6,0,L|110:384,1,70,0|0,3:0|0:0,0:0:0:0:
176,233,110104,2,0,P|207:212|248:208,1,70,8|8,0:0|0:0,0:0:0:0:
76,178,110327,2,0,P|46:159|12:152,1,70,0|0,1:0|0:0,0:0:0:0:
167,100,110548,5,8,0:0:0:0:
175,89,110659,1,0,0:0:0:0:
186,80,110770,2,0,P|256:79|342:87,1,140,0|8,3:0|0:0,0:0:0:0:
393,18,111103,1,0,0:0:0:0:
393,18,111214,2,0,P|414:49|418:90,1,70,0|0,1:0|0:0,0:0:0:0:
351,228,111437,2,0,P|358:194|377:166,1,70,8|0,0:0|0:0,0:0:0:0:
468,162,111660,5,0,3:0:0:0:
476,172,111882,2,0,P|484:208|489:239,1,70,8|8,0:0|0:0,0:0:0:0:
457,331,112104,2,0,P|387:339|319:353,1,140,0|8,1:0|0:0,0:0:0:0:
51,342,112549,5,0,3:0:0:0:
64,339,112771,2,0,P|98:344|132:352,1,70,8|0,0:0|0:0,0:0:0:0:
231,384,112993,2,0,P|216:315|208:246,1,140,0|8,1:0|0:0,0:0:0:0:
176,85,113438,6,0,P|210:84|244:93,2,70,0|0|0,3:0|1:0|0:0,0:0:0:0:
102,140,113770,1,0,0:0:0:0:
102,140,113882,2,0,P|94:176|89:207,1,70,0|0,1:0|1:0,0:0:0:0:
117,368,114104,2,0,P|113:333|104:299,1,70,0|0,3:0|0:0,0:0:0:0:
1,218,114327,6,0,B|60:178|145:189|145:189|102:191|67:227,1,210,4|0,0:0|0:0,0:0:0:0:
147,270,114771,2,0,P|216:262|285:246,1,140,0|8,1:0|0:0,0:0:0:0:
394,231,115215,2,0,P|410:299|418:369,1,140,0|8,3:0|0:0,0:0:0:0:
490,190,115660,2,0,P|499:120|513:52,1,140,0|8,1:0|0:0,0:0:0:0:
363,68,116104,6,0,P|356:33|350:-1,2,70,0|0|8,3:0|0:0|0:0,0:0:0:0:
256,135,116549,2,0,P|188:120|119:112,1,140,0|8,1:0|0:0,0:0:0:0:
16,30,116993,6,0,P|5:138|2:257,1,210,0|8,3:0|0:0,0:0:0:0:
0,357,117438,2,0,P|32:344|67:339,1,70,0|0,1:0|0:0,0:0:0:0:
123,246,117660,2,0,P|158:251|191:263,1,70,8|0,0:0|0:0,0:0:0:0:
270,341,117882,5,0,3:0:0:0:
304,343,117993,1,0,0:0:0:0:
337,331,118104,1,8,0:0:0:0:
362,305,118215,1,0,0:0:0:0:
374,271,118327,2,0,L|370:191,2,70,0|0|8,1:0|0:0|0:0,0:0:0:0:
451,184,118771,6,0,P|413:128|346:120,1,140,0|8,3:0|0:0,0:0:0:0:
196,95,119104,1,8,0:0:0:0:
196,95,119215,2,0,P|236:94|267:85,1,70,0|0,1:0|0:0,0:0:0:0:
110,19,119438,6,0,P|94:87|86:156,1,140,8|0,0:0|3:0,0:0:0:0:
21,265,119771,1,0,0:0:0:0:
21,265,119882,2,0,P|18:230|10:196,1,70,8|0,0:0|0:0,0:0:0:0:
153,264,120104,2,0,P|156:229|164:195,2,70,0|0|4,1:0|0:0|0:0,0:0:0:0:
249,292,120437,5,0,0:0:0:0:
249,292,120548,2,0,P|318:283|386:267,1,140,0|0,3:0|1:0,3:0:0:0:
512,346,120881,1,8,0:3:0:0:
512,346,120992,2,0,P|477:338|443:335,1,70,0|4,0:0|3:0,0:0:0:0:
481,178,121215,2,0,L|464:271,1,70,0|0,3:0|1:0,0:0:0:0:
364,356,121437,5,4,0:0:0:0:
256,192,131659,12,4,133659,0:0:0:0:
252,130,134326,6,0,L|331:139,3,52.5000020027161,0|0|0|0,1:0|1:0|3:0|1:0,0:0:0:0:
196,197,134770,2,0,L|205:276,3,52.5000020027161,0|0|0|0,3:0|1:0|1:0|1:0,0:0:0:0:
173,113,135215,1,4,1:2:0:0:
162,113,135437,6,0,L|82:122,1,52.5000020027161,2|0,0:0|0:0,0:0:0:0:
29,102,135659,2,0,P|12:186|-1:286,1,167.999994873047,4|2,0:0|0:0,0:0:0:0:
0,267,136104,6,0,P|40:254|81:250,1,83.9999974365235,0|0,1:0|0:0,0:0:0:0:
164,107,136326,2,0,P|151:147|147:188,1,83.9999974365235,2|0,0:0|0:0,0:0:0:0:
318,208,136548,6,0,P|277:196|235:191,1,83.9999974365235,0|0,3:0|0:0,0:0:0:0:
385,280,136770,2,0,P|345:292|307:311,1,83.9999974365235,2|0,0:0|0:0,0:0:0:0:
483,316,136992,2,0,P|456:348|435:384,1,83.9999974365235,0|0,1:0|0:0,0:0:0:0:
449,196,137215,6,0,B|381:164|318:185|337:216|276:242|209:218,1,251.999992309571,2|0,0:0|0:0,0:0:0:0:
50,181,137659,2,0,P|66:263|78:346,1,167.999994873047,2|0,0:0|1:0,0:0:0:0:
288,199,138104,6,0,P|250:216|208:217,1,83.9999974365235,2|0,0:0|0:0,0:0:0:0:
91,105,138325,2,0,P|133:106|171:124,1,83.9999974365235,0|0,3:0|0:0,0:0:0:0:
50,181,138548,1,2,0:0:0:0:
8,110,138659,2,0,P|42:36|122:23,1,167.999994873047,2|0,0:0|0:0,0:0:0:0:
280,24,138992,2,0,P|242:40|201:41,1,83.9999974365235,2|0,0:0|0:0,0:0:0:0:
170,123,139214,6,0,P|153:207|140:307,1,167.999994873047,0|2,3:0|0:0,0:0:0:0:
82,367,139548,1,0,0:0:0:0:
82,367,139659,2,0,P|42:356|0:351,2,83.9999974365235,0|0|2,1:0|0:0|0:0,0:0:0:0:
265,181,140104,6,0,P|381:207|397:325,1,251.999992309571,0|0,3:0|0:0,0:0:0:0:
202,379,140549,2,0,L|285:368,1,83.9999974365235,0|0,1:0|0:0,0:0:0:0:
220,289,140771,2,0,L|303:278,1,83.9999974365235,2|0,0:0|0:0,0:0:0:0:
92,224,140993,6,0,P|62:253|46:292,1,83.9999974365235,0|0,3:0|0:0,0:0:0:0:
134,301,141216,1,2,0:0:0:0:
177,220,141327,2,0,P|139:148|58:139,1,167.999994873047,2|0,0:0|0:0,0:0:0:0:
6,58,141659,2,0,P|46:47|88:40,1,83.9999974365235,2|0,0:0|0:0,0:0:0:0:
269,19,141882,6,0,P|228:12|188:1,1,83.9999974365235,0|0,3:0|0:0,0:0:0:0:
242,97,142104,1,4,0:0:0:0:
328,84,142215,2,0,P|411:72|493:55,1,167.999994873047,0|0,0:0|1:0,0:0:0:0:
456,152,142549,2,0,P|432:186|423:227,1,83.9999974365235,0|0,3:0|0:0,0:0:0:0:
355,361,142771,6,0,P|343:277|326:195,1,167.999994873047,0|2,3:0|0:0,0:0:0:0:
512,293,143215,6,0,P|478:317|437:326,1,83.9999974365235,0|0,1:0|0:0,0:0:0:0:
198,317,143437,2,0,P|238:325|272:350,1,83.9999974365235,2|0,0:0|0:0,0:0:0:0:
115,368,143659,6,0,P|102:328|107:286,1,83.9999974365235,0|0,3:0|0:0,0:0:0:0:
119,207,143882,1,2,0:0:0:0:
196,231,143992,2,0,P|113:247|30:257,1,167.999994873047
220,144,144326,2,0,P|302:159|385:169,1,167.999994873047,2|0,0:0|3:0,0:0:0:0:
385,169,144771,6,0,P|397:209|402:250,1,83.9999974365235,2|0,0:0|0:0,0:0:0:0:
512,358,144993,2,0,P|471:347|430:340,1,83.9999974365235,0|0,1:0|0:0,0:0:0:0:
245,315,145215,2,0,P|285:305|326:298,1,83.9999974365235,2|0,0:0|0:0,0:0:0:0:
501,249,145437,1,0,3:0:0:0:
501,249,145660,6,0,P|494:207|483:167,1,83.9999974365235,2|0,0:0|0:0,0:0:0:0:
447,7,145882,2,0,P|435:47|429:88,1,83.9999974365235,0|0,1:0|0:0,0:0:0:0:
257,108,146104,2,0,P|297:119|338:125,1,83.9999974365235,2|0,0:0|0:0,0:0:0:0:
264,19,146326,6,0,P|190:52|176:131,1,167.999994873047,0|0,3:0|0:0,0:0:0:0:
246,200,146660,1,0,0:0:0:0:
246,200,146771,2,0,L|329:209,2,83.9999974365235,0|0|2,1:0|0:0|0:0,0:0:0:0:
4,26,147215,6,0,P|23:108|34:191,1,167.999994873047,0|2,3:0|0:0,0:0:0:0:
82,303,147549,1,0,0:0:0:0:
82,303,147660,2,0,P|42:292|0:287,1,83.9999974365235,0|0,1:0|0:0,0:0:0:0:
185,369,147882,2,0,P|144:374|103:384,1,83.9999974365235,2|0,0:0|0:0,0:0:0:0:
248,298,148104,6,0,P|332:309|414:328,1,167.999994873047,0|2,3:0|0:0,0:0:0:0:
512,365,148437,1,0,0:0:0:0:
512,365,148548,2,0,P|501:325|496:283,1,83.9999974365235,2|0,1:2|0:0,0:0:0:0:
421,222,148770,2,0,P|427:180|437:139,1,83.9999974365235,0|0,3:0|0:0,0:0:0:0:
492,58,148993,5,0,3:0:0:0:
454,41,149104,1,0,1:0:0:0:
413,44,149215,1,0,3:0:0:0:
377,66,149326,1,0,1:0:0:0:
350,96,149437,5,0,1:0:0:0:
311,110,149548,1,0,1:0:0:0:
269,102,149659,1,0,1:0:0:0:
237,77,149770,1,0,1:0:0:0:
194,73,149882,6,0,P|213:154|224:238,1,167.999994873047,4|2,0:0|0:0,0:0:0:0:
224,238,150326,6,0,L|140:230,1,83.9999974365235,0|0,1:0|0:0,0:0:0:0:
237,333,150549,2,0,L|153:325,1,83.9999974365235,2|0,0:0|0:0,0:0:0:0:
375,316,150771,6,0,P|402:348|423:385,1,83.9999974365235,0|0,3:0|0:0,0:0:0:0:
395,218,150993,2,0,P|435:230|472:248,1,83.9999974365235,2|0,0:0|0:0,0:0:0:0:
353,131,151215,2,0,P|393:120|434:115,1,83.9999974365235,0|0,1:0|0:0,0:0:0:0:
315,55,151437,6,0,B|252:-12|156:16|156:16|213:10|232:40,1,251.999992309571,2|0,0:0|0:0,0:0:0:0:
176,95,151882,2,0,P|93:106|11:126,1,167.999994873047,2|0,0:0|1:0,0:0:0:0:
11,125,152326,6,0,P|9:166|24:205,1,83.9999974365235,2|0,0:0|0:0,0:0:0:0:
183,243,152549,2,0,P|148:220|107:213,1,83.9999974365235,2|0,3:2|0:0,0:0:0:0:
117,306,152770,1,2,0:0:0:0:
205,328,152883,2,0,P|267:276|259:195,1,167.999994873047,2|0,0:0|0:0,0:0:0:0:
227,0,153215,2,0,P|205:34|197:75,1,83.9999974365235,2|0,0:0|0:0,0:0:0:0:
317,101,153437,6,0,B|249:69|186:90|205:121|144:147|77:123,1,251.999992309571,2|0,3:2|0:0,0:0:0:0:
47,5,153882,2,0,P|89:12|124:34,1,83.9999974365235,2|0,1:2|0:0,0:0:0:0:
259,195,154104,2,0,P|359:204|415:58,1,251.999992309571,2|0,0:0|0:0,0:0:0:0:
494,171,154549,6,0,P|506:211|512:252,1,83.9999974365235,2|0,0:0|0:0,0:0:0:0:
511,374,154770,2,0,P|470:361|429:356,1,83.9999974365235,0|0,1:0|0:0,0:0:0:0:
392,280,154993,2,0,P|350:284|310:297,1,83.9999974365235,2|0,0:0|0:0,0:0:0:0:
224,293,155215,1,0,3:0:0:0:
225,301,155437,6,0,L|236:384,1,83.9999974365235,2|0,0:0|0:0,0:0:0:0:
2,359,155659,2,0,P|43:358|81:376,1,83.9999974365235,0|0,1:0|0:0,0:0:0:0:
151,259,155882,2,0,P|113:276|71:276,1,83.9999974365235,2|0,0:0|0:0,0:0:0:0:
3,92,156104,6,0,P|45:92|82:109,1,83.9999974365235,0|0,3:0|0:0,0:0:0:0:
181,183,156326,1,4,0:0:0:0:
95,199,156437,2,0,P|106:115|126:33,1,167.999994873047,2|0,0:0|0:0,0:0:0:0:
275,68,156770,2,0,P|236:84|195:85,1,83.9999974365235,2|0,0:0|0:0,0:0:0:0:
323,0,156993,6,0,P|406:11|488:28,1,167.999994873047,0|0,3:0|0:0,0:0:0:0:
488,28,157437,6,0,P|449:42|420:72,1,83.9999974365235,2|0,1:2|0:0,0:0:0:0:
499,146,157660,2,0,P|476:181|471:222,1,83.9999974365235,2|0,0:0|0:0,0:0:0:0:
267,218,157882,6,0,P|308:224|349:235,1,83.9999974365235,0|0,3:0|0:0,0:0:0:0:
481,336,158103,1,2,0:0:0:0:
400,309,158215,2,0,P|382:227|371:144,1,167.999994873047,2|0,0:0|0:0,3:0:0:0:
285,24,158548,2,0,P|279:66|268:107,1,83.9999974365235,2|0,0:0|0:0,0:0:0:0:
198,165,158771,1,0,3:0:0:0:
193,171,158993,6,0,P|181:211|175:253,1,83.9999974365235,2|0,0:0|0:0,0:0:0:0:
0,272,159215,2,0,L|84:264,1,83.9999974365235,0|0,1:0|0:0,0:0:0:0:
100,174,159437,2,0,L|16:182,1,83.9999974365235,2|0,0:0|0:0,0:0:0:0:
33,95,159659,1,0,3:0:0:0:
41,92,159882,6,0,P|82:81|124:74,1,83.9999974365235,2|0,0:0|0:0,0:0:0:0:
364,214,160104,2,0,P|322:207|282:196,1,83.9999974365235,0|0,1:0|0:0,0:0:0:0:
208,82,160326,2,0,L|199:165,1,83.9999974365235,2|0,0:0|0:0,0:0:0:0:
293,88,160548,6,0,P|259:14|179:1,1,167.999994873047,0|0,3:0|0:0,0:0:0:0:
122,74,160882,1,0,0:0:0:0:
122,74,160993,2,0,L|113:157,2,83.9999974365235,0|0|2,1:0|0:0|0:0,0:0:0:0:
0,270,161437,6,0,P|81:251|165:239,1,167.999994873047,0|0,3:0|0:0,0:0:0:0:
381,218,161882,6,0,P|363:255|354:296,1,83.9999974365235,0|0,1:0|0:0,0:0:0:0:
467,319,162104,2,0,B|400:295|339:321|358:352|295:373|227:341,1,251.999992309571,2|0,0:0|0:0,0:0:0:0:
60,339,162549,2,0,P|100:325|142:322,1,83.9999974365235,2|0,0:0|0:0,0:0:0:0:
294,172,162770,2,0,P|283:212|278:254,1,83.9999974365235,2|0,1:2|0:0,0:0:0:0:
393,202,162992,6,0,P|355:89|236:83,1,251.999992309571,2|0,0:0|1:0,0:0:0:0:
56,154,163437,2,0,P|97:149|138:137,1,83.9999974365235,0|8,1:0|0:3,0:0:0:0:
276,225,163659,2,0,P|235:213|193:208,1,83.9999974365235,0|0,1:0|3:0,0:0:0:0:
59,272,163882,5,0,1:0:0:0:
71,283,163993,1,0,1:0:0:0:
79,297,164104,2,0,B|147:265|210:286|191:317|252:343|319:319,1,251.999992309571,4|0,1:0|0:0,0:0:0:0:
276,225,164548,2,0,L|282:163,5,55.9999963836671,0|2|2|2|2|0,1:0|0:0|0:0|0:0|0:0|0:0,0:0:0:0:
198,200,164993,1,0,3:0:0:0:
198,200,165104,2,0,L|207:117,1,83.9999974365235,2|0,0:0|0:0,0:0:0:0:
153,27,165326,2,0,P|271:33|309:145,1,251.999992309571,2|0,0:0|0:0,0:0:0:0:
449,239,165770,5,2,0:0:0:0:
449,239,165882,2,0,P|407:234|366:222,1,83.9999974365235,0|2,3:0|0:0,0:0:0:0:
219,309,166104,2,0,P|259:297|301:292,1,83.9999974365235,0|2,0:0|0:0,0:0:0:0:
123,318,166326,2,0,L|114:235,2,83.9999974365235,0|2|0,0:0|0:0|0:0,0:0:0:0:
38,363,166659,2,0,L|6:76,1,251.999992309571,2|2,0:0|0:0,0:0:0:0:
130,11,167215,5,0,1:0:0:0:
159,0,167326,1,2,0:0:0:0:
191,6,167437,1,0,0:0:0:0:
215,28,167548,1,2,0:0:0:0:
225,58,167659,6,0,L|234:141,1,83.9999974365235,0|2,3:0|0:0,0:0:0:0:
105,204,167882,2,0,L|188:213,1,83.9999974365235,0|2,0:0|0:0,0:0:0:0:
346,192,168104,2,0,P|304:196|271:221,1,83.9999974365235,0|2,1:0|0:0,0:0:0:0:
327,360,168437,5,2,0:0:0:0:
327,360,168548,2,0,L|336:277,1,83.9999974365235,0|2,3:0|0:0,0:0:0:0:
497,237,168770,2,0,L|414:246,1,83.9999974365235,0|2,0:0|0:0,0:0:0:0:
272,159,168993,2,0,P|313:165|345:192,1,83.9999974365235,0|2,1:0|0:0,0:0:0:0:
512,49,169326,5,2,0:0:0:0:
494,32,169437,1,0,0:0:0:0:
470,28,169548,1,2,0:0:0:0:
446,31,169659,1,2,0:0:0:0:
424,42,169770,1,0,0:0:0:0:
409,56,169882,6,0,L|396:147,3,70,0|2|2|0,1:0|0:0|0:0|0:0,0:0:0:0:
314,130,170326,2,0,L|321:74,3,56,2|2|4|0,3:2|0:0|0:0|0:0,0:0:0:0:
229,94,170770,2,0,L|221:150,3,41.9999987182618,2|2|0|2,1:2|1:2|3:0|0:0,0:0:0:0:
136,124,171215,6,0,L|66:131,1,70,2|0,3:2|0:0,0:0:0:0:
40,213,171437,2,0,L|110:206,1,70,2|0,0:0|0:0,0:0:0:0:
100,290,171659,6,0,L|30:297,1,70,2|0,1:2|0:0,0:0:0:0:
17,384,171882,2,0,L|87:377,1,70,2|0,0:0|0:0,0:0:0:0:
167,345,172104,5,0,3:0:0:0:
192,321,172215,1,2,0:0:0:0:
225,311,172326,1,0,0:0:0:0:
260,315,172437,1,2,0:0:0:0:
289,334,172548,5,0,1:0:0:0:
318,352,172659,1,2,0:0:0:0:
353,357,172770,1,2,0:0:0:0:
387,347,172881,1,0,0:0:0:0:
409,322,172993,6,0,P|422:253|426:183,1,140,0|2,3:0|0:0,0:0:0:0:
290,148,173437,5,0,1:0:0:0:
261,167,173548,1,0,0:0:0:0:
226,171,173659,1,2,0:0:0:0:
193,161,173770,1,2,0:0:0:0:
168,137,173882,2,0,P|155:60|152:-2,1,140,0|0,3:0|1:0,0:0:0:0:
294,70,174326,5,0,1:0:0:0:
334,80,174437,1,2,0:2:0:0:
363,110,174548,1,2,0:2:0:0:
373,150,174659,2,0,P|450:137|512:134,1,140,2|0,0:2|2:0,3:0:0:0:
500,312,174993,2,0,P|465:319|431:321,1,70,2|0,0:2|2:0,0:0:0:0:
415,232,175215,1,0,1:0:0:0:
415,232,175326,2,0,P|449:224|484:223,2,70,2|0|2,0:2|0:0|0:2,0:0:0:0:
340,294,175659,5,0,3:0:0:0:
306,304,175770,1,0,0:0:0:0:
272,300,175881,1,2,0:2:0:0:
242,283,175992,1,2,0:2:0:0:
221,254,176103,1,0,1:0:0:0:
214,220,176214,1,2,0:0:0:0:
264,122,176437,6,0,B|197:98|136:124|155:155|92:176|24:144,1,251.999992309571,2|2,0:0|0:0,0:0:0:0:
0,52,176882,1,0,0:0:0:0:
0,52,176993,2,0,L|83:43,1,83.9999974365235,0|0,1:0|2:0,0:0:0:0:
163,10,177215,2,0,L|246:1,1,83.9999974365235,4|0,3:2|2:0,0:0:0:0:
325,51,177437,5,4,0:3:0:0:
366,59,177548,1,0,1:0:0:0:
406,48,177659,1,0,1:0:0:0:
435,20,177770,1,8,0:3:0:0:
451,41,177882,5,0,1:0:0:0:
467,63,177993,1,0,3:0:0:0:
472,91,178104,1,0,3:0:0:0:
463,121,178215,1,0,1:0:0:0:
453,147,178326,6,0,P|440:198|433:250,1,105.000004005432,4|0,0:0|0:0,0:0:0:0:
463,376,178770,1,0,3:0:0:0:
391,331,178993,2,0,P|339:318|287:311,1,105.000004005432,2|0,0:0|3:0,0:0:0:0:
204,309,179437,5,2,0:0:0:0:
132,355,179659,1,0,3:0:0:0:
49,340,179882,2,0,P|41:288|29:236,1,105.000004005432,2|0,0:0|3:0,0:0:0:0:
58,158,180326,6,0,P|109:145|161:138,1,105.000004005432,2|0,0:0|3:0,0:0:0:0:
316,84,180770,2,0,P|264:76|212:64,1,105.000004005432,2|0,0:0|3:0,0:0:0:0:
144,16,181215,5,2,0:0:0:0:
61,28,181437,1,0,3:0:0:0:
6,92,181659,1,2,0:0:0:0:
58,158,181882,6,0,P|50:209|38:261,2,105.000004005432,4|2|0,3:2|0:0|3:0,0:0:0:0:
122,104,182548,2,0,P|173:91|225:84,1,105.000004005432,2|0,0:0|3:0,0:0:0:0:
309,82,182993,5,2,0:0:0:0:
383,121,183215,1,0,3:0:0:0:
436,185,183437,2,0,P|448:236|455:288,1,105.000004005432,2|0,0:0|3:0,0:0:0:0:
403,354,183882,6,0,P|351:341|299:334,1,105.000004005432,2|0,0:0|3:0,0:0:0:0:
145,280,184326,2,0,P|196:272|248:260,1,105.000004005432,2|0,0:0|3:0,0:0:0:0:
356,144,184770,2,0,P|343:195|336:247,1,105.000004005432,2|0,0:0|3:0,0:0:0:0:
493,44,185437,5,4,3:2:0:0:
409,25,185659,1,2,0:0:0:0:
326,44,185882,1,0,3:0:0:0:
259,96,186104,1,2,0:0:0:0:
175,115,186325,5,0,3:0:0:0:
92,96,186548,1,2,0:0:0:0:
25,44,186770,1,0,3:0:0:0:
81,106,186993,6,0,P|94:157|101:209,1,105.000004005432,2|0,0:0|3:0,0:0:0:0:
0,317,187437,2,0,P|52:304|104:297,1,105.000004005432,2|0,0:0|3:0,0:0:0:0:
282,273,187881,2,0,P|231:265|179:253,1,105.000004005432,2|0,0:0|3:0,0:0:0:0:
181,342,188326,6,0,P|232:350|283:361,2,105.000004005432,2|0|2,0:0|3:0|0:0,0:0:0:0:
179,253,188993,5,4,3:2:0:0:
198,169,189214,1,2,0:0:0:0:
282,145,189436,1,0,3:0:0:0:
344,208,189659,1,2,0:0:0:0:
259,229,189881,5,0,3:0:0:0:
282,145,190103,1,2,0:0:0:0:
338,81,190326,1,0,3:0:0:0:
415,46,190548,1,2,0:0:0:0:
256,192,190770,12,4,192548,0:0:0:0:
108,115,206548,5,0,0:0:0:0:
108,115,206770,2,0,P|148:112|206:145,1,83.9999945755007,4|2,0:0|0:0,0:0:0:0:
250,197,207215,2,0,P|290:199|348:166,1,83.9999945755007,0|2,0:0|0:0,0:0:0:0:
393,116,207659,2,0,L|403:32,2,83.9999945755007,0|2|0,0:0|0:0|0:0,0:0:0:0:
420,204,208326,2,0,P|407:286|399:370,1,167.999989151001,2|0,0:0|0:0,0:0:0:0:
395,368,209215,5,2,0:0:0:0:
319,327,209437,2,0,P|278:324|220:357,1,83.9999945755007,0|2,0:0|0:0,0:0:0:0:
212,364,209770,2,0,P|221:298|227:238,1,125.999991863251
21,175,210326,6,0,P|104:162|188:154,1,167.999989151001,2|0,0:0|0:0,0:0:0:0:
279,162,210993,1,2,0:0:0:0:
365,187,211215,2,0,P|368:145|353:107,1,83.9999945755007,0|2,0:0|0:0,0:0:0:0:
282,0,211659,2,0,P|266:38|269:80,1,83.9999945755007,0|2,0:0|0:0,0:0:0:0:
264,79,212326,5,0,0:0:0:0:
183,44,212548,2,0,P|144:28|102:31,1,83.9999945755007,2|0,0:0|0:0,0:0:0:0:
23,154,212993,2,0,P|64:156|103:141,1,83.9999945755007,2|0,0:0|0:0,0:0:0:0:
130,122,213326,2,0,P|139:188|145:248,1,125.999991863251,2|0,0:0|0:0,0:0:0:0:
136,345,213882,1,0,0:0:0:0:
139,343,214326,5,2,0:0:0:0:
221,310,214548,1,0,0:0:0:0:
302,353,214770,2,0,P|346:346|386:344,1,83.9999945755007,2|0,0:0|0:0,0:0:0:0:
431,349,215104,2,0,P|424:286|416:223,1,125.999991863251,2|2,0:0|0:0,0:0:0:0:
461,143,215659,5,0,0:0:0:0:
375,106,215882,1,0,0:0:0:0:
331,187,216104,2,0,P|289:185|247:178,1,83.9999945755007,0|2,0:0|0:0,0:0:0:0:
245,174,216770,5,2,0:0:0:0:
180,112,216993,2,0,P|181:71|188:29,1,83.9999945755007,0|2,0:0|0:0,0:0:0:0:
92,148,217437,6,0,P|104:230|112:314,1,167.999989151001,4|0,0:0|0:0,0:0:0:0:
188,375,218104,2,0,P|229:368|271:366,1,83.9999945755007
359,383,218548,2,0,P|326:294|244:283,1,167.999989151001,0|4,0:0|0:0,0:0:0:0:
204,213,219215,5,0,0:0:0:0:
204,213,219437,2,0,L|148:219,1,56,0|0,1:0|0:0,0:0:0:0:
17,171,219659,2,0,L|86:162,1,70,0|0,1:0|0:0,0:0:0:0:
112,0,219882,2,0,L|101:83,1,83.9999945755007,0|0,1:0|0:0,0:0:0:0:
185,87,220105,5,0,1:0:0:0:
223,70,220216,1,0,3:0:0:0:
264,73,220327,1,0,3:0:0:0:
300,95,220438,1,0,3:0:0:0:
327,125,220549,5,0,1:0:0:0:
366,139,220660,1,0,1:0:0:0:
408,131,220771,1,0,1:0:0:0:
440,106,220882,1,0,1:0:0:0:
483,102,220993,6,0,P|500:186|513:286,1,167.999994873047,4|2,0:0|0:0,0:0:0:0:
512,267,221438,6,0,P|472:254|431:250,1,83.9999974365235,0|0,1:0|0:0,0:0:0:0:
327,125,221660,2,0,P|339:164|343:206,1,83.9999974365235,2|0,0:0|0:0,0:0:0:0:
165,204,221882,6,0,P|206:192|248:187,1,83.9999974365235,0|0,3:0|0:0,0:0:0:0:
98,276,222104,2,0,P|138:288|176:307,1,83.9999974365235,2|0,0:0|0:0,0:0:0:0:
0,312,222326,2,0,P|27:344|48:380,1,83.9999974365235,0|0,1:0|0:0,0:0:0:0:
34,192,222549,6,0,B|102:160|165:181|146:212|207:238|274:214,1,251.999992309571,2|0,0:0|0:0,0:0:0:0:
377,219,222993,2,0,P|361:301|349:384,1,167.999994873047,2|0,0:0|1:0,0:0:0:0:
195,195,223438,6,0,P|233:212|275:213,1,83.9999974365235,2|0,0:0|0:0,0:0:0:0:
421,105,223659,2,0,P|379:106|341:124,1,83.9999974365235,0|0,3:0|0:0,0:0:0:0:
462,181,223882,1,2,0:0:0:0:
504,110,223993,2,0,P|470:36|390:23,1,167.999994873047,2|0,0:0|0:0,0:0:0:0:
231,24,224326,2,0,P|268:41|310:43,1,83.9999974365235,2|0,0:0|0:0,0:0:0:0:
342,123,224548,6,0,P|359:207|372:307,1,167.999994873047,0|0,3:0|0:0,0:0:0:0:
430,367,224882,1,0,0:0:0:0:
430,367,224993,2,0,P|470:356|512:351,2,83.9999974365235,0|0|2,1:0|0:0|0:0,0:0:0:0:
247,181,225438,6,0,P|131:207|115:325,1,251.999992309571,0|0,3:0|0:0,0:0:0:0:
310,379,225883,2,0,L|227:368,1,83.9999974365235,0|0,1:0|0:0,0:0:0:0:
292,289,226105,2,0,L|209:278,1,83.9999974365235,2|0,0:0|0:0,0:0:0:0:
420,224,226327,6,0,P|450:253|466:292,1,83.9999974365235,0|0,3:0|0:0,0:0:0:0:
378,301,226548,1,2,0:0:0:0:
335,220,226659,2,0,P|373:148|454:139,1,167.999994873047,2|0,0:0|0:0,0:0:0:0:
506,58,226993,2,0,P|466:47|424:40,1,83.9999974365235,2|0,0:0|0:0,0:0:0:0:
243,19,227216,6,0,P|284:12|324:1,1,83.9999974365235,0|0,3:0|0:0,0:0:0:0:
270,97,227438,1,4,0:0:0:0:
184,84,227549,2,0,P|101:72|19:55,1,167.999994873047
56,152,227883,2,0,P|80:186|89:227,1,83.9999974365235,4|0,0:3|0:0,0:0:0:0:
157,361,228105,6,0,P|169:277|186:195,1,167.999994873047,4|0,0:0|0:0,0:0:0:0:
0,293,228549,6,0,P|34:317|75:326,1,83.9999974365235,0|0,1:0|0:0,0:0:0:0:
314,317,228771,2,0,P|274:325|240:350,1,83.9999974365235,2|0,0:0|0:0,0:0:0:0:
397,368,228993,6,0,P|410:328|405:286,1,83.9999974365235,0|0,3:0|0:0,0:0:0:0:
393,208,229214,1,2,0:0:0:0:
316,231,229326,2,0,P|399:247|482:257,1,167.999994873047
292,144,229660,2,0,P|210:159|127:169,1,167.999994873047,2|0,0:0|3:0,0:0:0:0:
127,169,230105,6,0,P|115:209|110:250,1,83.9999974365235,2|0,0:0|0:0,0:0:0:0:
0,358,230327,2,0,P|41:347|82:340,1,83.9999974365235,0|0,1:0|0:0,0:0:0:0:
267,315,230549,2,0,P|227:305|186:298,1,83.9999974365235,2|0,0:0|0:0,0:0:0:0:
11,249,230771,1,0,3:0:0:0:
11,249,230994,6,0,P|18:207|29:167,1,83.9999974365235,2|0,0:0|0:0,0:0:0:0:
65,7,231216,2,0,P|77:47|83:88,1,83.9999974365235,0|0,1:0|0:0,0:0:0:0:
255,108,231438,2,0,P|215:119|174:125,1,83.9999974365235,2|0,0:0|0:0,0:0:0:0:
248,19,231660,6,0,P|322:52|336:131,1,167.999994873047,0|0,3:0|0:0,0:0:0:0:
266,200,231994,1,0,0:0:0:0:
266,200,232105,2,0,L|183:209,2,83.9999974365235,0|0|2,1:0|0:0|0:0,0:0:0:0:
508,26,232549,6,0,P|489:108|478:191,1,167.999994873047,0|2,3:0|0:0,0:0:0:0:
430,303,232883,1,0,0:0:0:0:
430,303,232994,2,0,P|470:292|512:287,1,83.9999974365235,0|0,1:0|0:0,0:0:0:0:
327,369,233216,2,0,P|368:374|409:384,1,83.9999974365235,2|0,0:0|0:0,0:0:0:0:
264,298,233438,6,0,P|180:309|98:328,1,167.999994873047,0|8,3:0|0:3,0:0:0:0:
0,365,233771,1,0,0:0:0:0:
0,365,233882,2,0,P|11:325|16:283,1,83.9999974365235,0|8,1:0|0:3,0:0:0:0:
91,222,234104,2,0,P|85:180|75:139,1,83.9999974365235,0|4,1:0|0:3,0:0:0:0:
20,58,234327,5,0,1:0:0:0:
58,41,234438,1,8,3:0:0:0:
99,44,234549,1,0,1:0:0:0:
135,66,234660,1,4,3:0:0:0:
162,96,234771,5,0,1:0:0:0:
201,110,234882,1,0,1:0:0:0:
243,102,234993,1,4,0:3:0:0:
275,77,235104,1,4,3:0:0:0:
318,73,235216,6,0,P|299:154|288:238,1,167.999994873047,4|2,0:0|0:0,0:0:0:0:
288,238,235660,6,0,L|372:230,1,83.9999974365235,0|0,1:0|0:0,0:0:0:0:
275,333,235883,2,0,L|359:325,1,83.9999974365235,2|0,0:0|0:0,0:0:0:0:
137,316,236105,6,0,P|110:348|89:385,1,83.9999974365235,0|0,3:0|0:0,0:0:0:0:
117,218,236327,2,0,P|77:230|40:248,1,83.9999974365235,2|0,0:0|0:0,0:0:0:0:
159,131,236549,2,0,P|119:120|78:115,1,83.9999974365235,0|0,1:0|0:0,0:0:0:0:
197,55,236771,6,0,B|260:-12|356:16|356:16|299:10|280:40,1,251.999992309571,2|0,0:0|0:0,0:0:0:0:
336,95,237216,2,0,P|419:106|501:126,1,167.999994873047,2|0,0:0|1:0,0:0:0:0:
501,125,237660,6,0,P|503:166|488:205,1,83.9999974365235,2|0,0:0|0:0,0:0:0:0:
329,243,237883,2,0,P|364:220|405:213,1,83.9999974365235,0|0,3:0|0:0,0:0:0:0:
395,306,238104,1,2,0:0:0:0:
307,328,238215,2,0,P|245:276|253:195,1,167.999994873047,2|0,0:0|0:0,0:0:0:0:
285,0,238549,2,0,P|307:34|315:75,1,83.9999974365235,2|0,0:0|0:0,0:0:0:0:
195,101,238771,6,0,B|263:69|326:90|307:121|368:147|435:123,1,251.999992309571,0|0,3:0|0:0,0:0:0:0:
465,5,239216,2,0,P|423:12|388:34,1,83.9999974365235,0|0,1:0|0:0,0:0:0:0:
253,195,239438,2,0,P|153:204|97:58,1,251.999992309571,2|0,0:0|0:0,0:0:0:0:
18,171,239883,6,0,P|6:211|0:252,1,83.9999974365235,2|0,0:0|0:0,0:0:0:0:
1,374,240104,2,0,P|42:361|83:356,1,83.9999974365235,0|0,1:0|0:0,0:0:0:0:
120,280,240327,2,0,P|162:284|202:297,1,83.9999974365235,2|0,0:0|0:0,0:0:0:0:
288,293,240549,1,0,3:0:0:0:
287,301,240771,6,0,L|276:384,1,83.9999974365235,2|0,0:0|0:0,0:0:0:0:
510,359,240993,2,0,P|469:358|431:376,1,83.9999974365235,2|0,1:2|0:0,0:0:0:0:
361,259,241216,2,0,P|399:276|441:276,1,83.9999974365235,2|0,0:0|0:0,0:0:0:0:
509,92,241438,6,0,P|467:92|430:109,1,83.9999974365235,0|0,3:0|0:0,0:0:0:0:
331,183,241660,1,4,0:0:0:0:
417,199,241771,2,0,P|406:115|386:33,1,167.999994873047,2|0,0:0|0:0,0:0:0:0:
237,68,242104,2,0,P|276:84|317:85,1,83.9999974365235,4|0,0:2|0:0,0:0:0:0:
189,0,242327,6,0,P|106:11|24:28,1,167.999994873047,0|0,3:0|0:0,0:0:0:0:
24,28,242771,6,0,P|63:42|92:72,1,83.9999974365235,0|0,1:0|0:0,0:0:0:0:
13,146,242994,2,0,P|36:181|41:222,1,83.9999974365235,2|0,0:0|0:0,0:0:0:0:
245,218,243216,6,0,P|204:224|163:235,1,83.9999974365235,0|0,3:0|0:0,0:0:0:0:
31,336,243437,1,2,0:0:0:0:
112,309,243549,2,0,P|130:227|141:144,1,167.999994873047,2|0,0:0|0:0,3:0:0:0:
227,24,243882,2,0,P|233:66|244:107,1,83.9999974365235,2|0,0:0|0:0,0:0:0:0:
314,165,244105,1,0,3:0:0:0:
319,171,244327,6,0,P|331:211|337:253,1,83.9999974365235,2|0,0:0|0:0,0:0:0:0:
512,272,244549,2,0,L|428:264,1,83.9999974365235,0|0,1:0|0:0,0:0:0:0:
412,174,244771,2,0,L|496:182,1,83.9999974365235,2|0,0:0|0:0,0:0:0:0:
479,95,244993,1,0,3:0:0:0:
471,92,245216,6,0,P|430:81|388:74,1,83.9999974365235,2|0,0:0|0:0,0:0:0:0:
148,214,245438,2,0,P|190:207|230:196,1,83.9999974365235,0|0,1:0|0:0,0:0:0:0:
304,82,245660,2,0,L|313:165,1,83.9999974365235,2|0,0:0|0:0,0:0:0:0:
219,88,245882,6,0,P|253:14|333:1,1,167.999994873047,0|0,3:0|0:0,0:0:0:0:
390,74,246216,1,0,0:0:0:0:
390,74,246327,2,0,L|399:157,2,83.9999974365235,0|0|2,1:0|0:0|0:0,0:0:0:0:
512,270,246771,6,0,P|431:251|347:239,1,167.999994873047,0|0,3:0|0:0,0:0:0:0:
131,218,247216,6,0,P|149:255|158:296,1,83.9999974365235,2|0,1:2|0:0,0:0:0:0:
45,319,247438,2,0,B|112:295|173:321|154:352|217:373|285:341,1,251.999992309571,2|0,0:0|0:0,0:0:0:0:
452,339,247883,2,0,P|412:325|370:322,1,83.9999974365235,2|0,0:0|0:0,0:0:0:0:
218,172,248104,2,0,P|229:212|234:254,1,83.9999974365235,0|0,1:0|0:0,0:0:0:0:
116,199,248326,6,0,P|153:87|272:80,1,251.999992309571,2|0,0:0|1:0,0:0:0:0:
462,158,248770,2,0,L|379:149,1,83.9999974365235,0|8,3:0|0:3,0:0:0:0:
350,232,248993,2,0,L|433:241,2,83.9999945755007,0|0|0,1:0|3:0|1:0,0:0:0:0:
392,65,249437,6,0,P|325:76|292:165,1,167.999989151001,4|2,0:2|0:0,0:0:0:0:
119,202,249770,1,0,0:0:0:0:
119,202,249881,2,0,L|202:191,1,83.9999945755007,0|0,1:0|0:0,0:0:0:0:
261,343,250104,2,0,L|271:259,1,83.9999945755007,2|0,0:0|0:0,0:0:0:0:
369,203,250326,6,0,L|347:369,1,167.999989151001,2|0,3:2|0:0,0:0:0:0:
470,288,250770,1,0,1:0:0:0:
273,127,250992,1,2,0:0:0:0:
128,210,251214,6,0,P|107:246|103:288,1,83.9999945755007,0|0,3:0|0:0,0:0:0:0:
37,345,251437,2,0,P|78:368|126:369,1,83.9999945755007,2|0,0:0|0:0,0:0:0:0:
271,259,251659,2,0,P|229:259|191:276,1,83.9999945755007,0|0,1:0|0:0,0:0:0:0:
254,344,251881,1,2,0:0:0:0:
254,344,251993,2,0,P|320:332|353:243,1,167.999989151001
293,153,252325,1,2,0:0:0:0:
471,217,252548,6,0,P|481:300|484:384,1,167.999989151001,0|2,1:0|0:0,0:0:0:0:
484,131,252993,6,0,P|406:153|386:231,1,167.999989151001,0|0,3:0|0:0,0:0:0:0:
300,237,253326,2,0,P|294:195|293:153,2,83.9999945755007,2|0|0,0:0|1:0|0:0,3:0:0:0:
224,288,253659,2,0,P|213:204|210:120,1,167.999989151001,2|0,0:0|3:0,0:0:0:0:
326,3,254104,5,2,0:0:0:0:
496,48,254326,1,0,1:0:0:0:
292,153,254548,1,2,0:0:0:0:
393,78,254770,6,0,P|413:114|417:156,1,83.9999945755007,0|0,3:0|0:0,0:0:0:0:
480,218,254993,2,0,P|443:238|401:242,1,83.9999945755007,2|0,0:0|0:0,0:0:0:0:
240,255,255215,1,0,1:0:0:0:
240,255,255326,2,0,P|281:259|318:279,1,83.9999945755007,2|0,0:0|0:0,0:0:0:0:
500,332,255548,2,0,B|433:308|372:334|391:365|328:386|260:354,1,251.999983726502,2|4,0:0|0:0,3:0:0:0:
126,347,256104,5,0,1:0:0:0:
106,349,256215,1,0,3:0:0:0:
86,352,256326,1,0,3:0:0:0:
67,356,256437,1,0,0:0:0:0:
48,362,256548,6,0,P|59:278|62:194,1,167.999989151001,4|0,3:2|0:0,0:0:0:0:
120,121,256882,2,0,P|114:79|112:37,2,83.9999945755007,2|0|0,0:0|1:0|0:0,0:0:0:0:
184,182,257215,2,0,P|225:187|267:189,1,83.9999945755007,2|0,0:0|0:0,0:0:0:0:
367,178,257437,6,0,P|288:196|265:273,1,167.999989151001,0|0,3:0|0:0,0:0:0:0:
361,344,257770,1,0,0:0:0:0:
361,344,257881,2,0,L|350:261,1,83.9999945755007,0|0,1:0|0:0,0:0:0:0:
512,250,258104,2,0,L|428:240,1,83.9999945755007,2|0,0:0|0:0,0:0:0:0:
289,152,258326,6,0,P|330:156|366:177,1,83.9999945755007,0|0,3:0|0:0,0:0:0:0:
512,92,258548,2,0,P|472:107|443:136,1,83.9999945755007,2|0,0:0|0:0,0:0:0:0:
315,28,258770,2,0,P|348:52|369:88,1,83.9999945755007,0|0,1:0|0:0,0:0:0:0:
221,78,258992,1,2,0:0:0:0:
221,78,259104,2,0,P|146:108|128:186,1,167.999994873047,2|0,0:0|0:0,0:0:0:0:
166,268,259436,1,2,0:0:0:0:
29,212,259659,6,0,P|18:128|15:44,1,167.999989151001,0|2,1:0|0:0,0:0:0:0:
216,168,260104,6,0,P|290:198|308:276,1,167.999994873047,0|0,3:0|0:0,0:0:0:0:
302,369,260437,2,0,L|219:380,2,83.9999945755007,2|0|0,0:0|1:0|0:0,0:0:0:0:
387,324,260770,2,0,L|395:240,1,83.9999945755007,2|0,0:0|0:0,0:0:0:0:
389,161,260993,5,0,3:0:0:0:
426,160,261104,1,0,0:0:0:0:
458,177,261215,1,2,0:0:0:0:
477,208,261326,1,0,0:0:0:0:
477,244,261437,2,0,L|468:327,2,83.9999945755007,0|0|2,1:0|0:0|0:0,0:0:0:0:
322,12,261882,6,0,P|302:48|300:89,1,83.9999945755007,0|0,3:0|0:0,0:0:0:0:
385,251,262104,2,0,P|383:210|362:174,1,83.9999945755007,2|0,0:0|0:0,0:0:0:0:
187,208,262326,2,0,P|228:205|264:184,1,83.9999945755007,0|0,1:0|0:0,0:0:0:0:
475,101,262548,2,0,P|439:81|398:79,1,83.9999945755007,2|0,0:0|0:0,0:0:0:0:
300,89,262770,5,4,1:3:0:0:
287,112,262882,1,0,1:0:0:0:
276,135,262992,1,0,1:0:0:0:
265,161,263104,1,8,0:3:0:0:
263,186,263214,1,0,1:0:0:0:
260,211,263326,1,0,1:0:0:0:
264,238,263436,1,4,1:2:0:0:
