osu file format v14

[General]
AudioFilename: audio.mp3
AudioLeadIn: 0
PreviewTime: 60721
Countdown: 0
SampleSet: Soft
StackLeniency: 0.7
Mode: 0
LetterboxInBreaks: 0
WidescreenStoryboard: 0

[Editor]
DistanceSpacing: 1.1
BeatDivisor: 4
GridSize: 4
TimelineZoom: 2.2

[Metadata]
Title:Sakurairo Prism
TitleUnicode:桜色プリズム
Artist:Endorfin.
ArtistUnicode:Endorfin.
Creator:Karen
Version:Expert
Source:
Tags:japanese pop sky_delta 藍月なくる aitsuki nakuru Horizon Note UjiMatcha lililing
BeatmapID:2306852
BeatmapSetID:1104027

[Difficulty]
HPDrainRate:5
CircleSize:4
OverallDifficulty:8
ApproachRate:9.2
SliderMultiplier:2.79999990463257
SliderTickRate:1

[Events]
//Background and Video events
0,0,"bg.jpg",0,0
//Break Periods
2,121637,131978
2,192748,206200
//Storyboard Layer 0 (Background)
//Storyboard Layer 1 (Fail)
//Storyboard Layer 2 (Pass)
//Storyboard Layer 3 (Foreground)
//Storyboard Layer 4 (Overlay)
//Storyboard Sound Samples

[TimingPoints]
14771,444.444444444444,4,2,1,80,1,0
18993,-100,4,2,1,80,0,0
25882,-100,4,2,2,80,0,0
26104,-100,4,2,1,80,0,0
28326,-100,4,2,1,70,0,0
28548,-100,4,2,1,60,0,0
28770,-100,4,2,1,50,0,0
28993,-133.333333333333,4,2,1,50,0,0
31437,-100,4,2,1,60,0,0
31882,-100,4,2,1,70,0,0
32548,-100,4,2,1,80,0,0
32770,-100,4,2,1,70,0,0
39659,-100,4,2,1,80,0,0
39881,-100,4,2,1,70,0,0
46770,-100,4,2,1,80,0,0
46992,-100,4,2,1,70,0,0
53882,-100,4,2,1,80,0,0
54104,-100,4,2,1,70,0,0
58993,-100,4,2,1,80,0,0
59437,-100,4,2,1,60,0,0
59548,-100,4,2,1,5,0,0
59659,-100,4,2,1,65,0,0
59770,-100,4,2,1,5,0,0
59881,-100,4,2,1,70,0,0
59993,-100,4,2,1,5,0,0
60104,-100,4,2,1,75,0,0
60215,-100,4,2,1,5,0,0
60326,-100,4,2,1,80,0,0
60993,-83.3333333333333,4,2,1,90,0,0
74993,-83.3333333333333,4,2,1,90,0,0
89437,-83.3333333333333,4,2,1,80,0,0
89659,-83.3333333333333,4,2,0,40,0,0
92993,-100,4,2,0,80,0,0
93215,-100,4,2,0,50,0,0
95659,-100,4,2,1,50,0,0
96548,-100,4,2,0,80,0,0
96770,-100,4,2,0,50,0,0
99215,-100,4,2,1,50,0,0
100104,-100,4,2,0,80,0,0
100326,-100,4,2,0,50,0,0
102993,-100,4,2,1,50,0,0
103659,-100,4,2,0,80,0,0
103882,-100,4,2,0,50,0,0
105770,-100,4,2,0,60,0,0
106104,-100,4,2,0,70,0,0
106437,-100,4,2,1,80,0,0
133437,-100,4,2,1,50,0,0
133659,-100,4,2,1,80,0,0
133993,-100,4,2,1,50,0,0
134326,-100,4,2,1,60,0,0
134548,-100,4,2,1,65,0,0
134770,-100,4,2,1,70,0,0
134993,-100,4,2,1,75,0,0
135659,-83.3333333333333,4,2,1,80,0,0
164548,-100,4,2,1,80,0,0
174770,-100,4,2,3,80,0,0
174993,-100,4,2,1,80,0,0
178326,-133.333333333333,4,2,1,80,0,0
178437,-133.333333333333,4,2,1,50,0,0
181882,-133.333333333333,4,2,1,80,0,0
181993,-133.333333333333,4,2,1,50,0,0
185437,-133.333333333333,4,2,1,80,0,0
185548,-133.333333333333,4,2,1,50,0,0
188993,-133.333333333333,4,2,1,80,0,0
189104,-133.333333333333,4,2,1,50,0,0
219215,-100,4,2,1,80,0,0
219437,-100,4,2,1,60,0,0
219548,-100,4,2,1,5,0,0
219659,-100,4,2,1,65,0,0
219770,-100,4,2,1,5,0,0
219881,-100,4,2,1,70,0,0
219993,-100,4,2,1,5,0,0
220104,-100,4,2,1,75,0,0
220215,-100,4,2,1,5,0,0
220326,-100,4,2,1,80,0,0
220770,-100,4,2,1,85,0,0
220993,-76.9230769230769,4,2,1,90,0,0
249437,-100,4,2,1,80,0,0
262770,-100,4,2,1,70,0,0
262993,-100,4,2,1,65,0,0
263215,-100,4,2,1,60,0,0
263437,-100,4,2,1,55,0,0

[Colours]
Combo1 : 253,189,199
Combo2 : 224,135,169

[HitObjects]
30,197,14771,6,0,P|101:177|151:243,1,140,4|0,0:2|0:0,0:0:0:0:
158,355,15104,1,2,0:0:0:0:
220,310,15215,2,0,P|218:273|222:224,1,70,0|0,1:0|0:0,0:0:0:0:
415,239,15437,2,0,P|416:273|414:308,1,70,2|0,0:0|0:0,0:0:0:0:
386,384,15659,2,0,P|317:297|312:134,1,280,2|0,3:2|1:0,0:0:0:0:
428,91,16326,1,2,0:0:0:0:
246,20,16548,6,0,L|161:33,1,70,0|0,3:0|0:0,0:0:0:0:
0,146,16771,1,2,0:0:0:0:
14,221,16882,1,0,0:0:0:0:
28,296,16993,2,0,P|103:303|137:232,1,140,0|2,1:0|0:0,0:0:0:0:
110,84,17326,1,2,0:0:0:0:
185,114,17437,2,0,B|242:144|242:144|215:369,1,280,0|0,3:0|1:0,0:0:0:0:
210,365,18104,1,2,0:0:0:0:
498,262,18326,6,0,P|424:243|395:174,1,140,0|0,3:0|0:0,0:0:0:0:
144,252,18659,2,0,P|217:233|247:164,1,140,2|0,0:0|0:0,3:0:0:0:
333,57,18993,2,0,L|328:131,1,70,2|0,0:0|0:0,0:0:0:0:
327,367,19215,1,0,3:0:0:0:
327,367,19326,1,0,0:0:0:0:
362,288,19437,2,0,P|323:279|282:288,1,70,2|0,0:0|0:0,0:0:0:0:
440,298,19659,2,0,P|410:270|370:258,1,70,0|0,1:0|0:0,0:0:0:0:
501,354,19882,2,0,P|489:315|461:284,1,70,2|0,0:0|0:0,0:0:0:0:
512,145,20104,6,0,P|438:143|377:200,1,140,0|2,3:0|0:0,0:0:0:0:
194,222,20437,1,0,0:0:0:0:
186,139,20548,2,0,L|174:59,2,70,0|2|0,1:0|0:0|0:0,0:0:0:0:
267,154,20882,2,0,L|243:3,1,140,2|0,0:0|1:0,3:0:0:0:
101,115,21215,1,0,0:0:0:0:
101,115,21326,1,0,0:0:0:0:
70,37,21437,2,0,P|33:33|-5:50,1,70,0|0,1:0|0:0,0:0:0:0:
15,202,21659,2,0,P|51:205|90:189,1,70,0|0,3:0|0:0,0:0:0:0:
348,163,21882,6,0,B|266:91|266:91|177:147,1,210,4|2,0:2|0:0,0:0:0:0:
223,208,22326,2,0,L|295:217,1,70,0|0,1:0|0:0,0:0:0:0:
437,345,22548,2,0,P|367:314|362:234,1,140,2|0,0:0|3:0,0:0:0:0:
420,203,22882,2,0,P|490:234|495:314,1,140,2|0,0:0|0:0,0:0:0:0:
395,347,23215,2,0,P|365:325|343:289,1,70,0|0,1:0|0:0,0:0:0:0:
459,196,23437,2,0,P|489:218|511:254,1,70,2|0,0:0|0:0,0:0:0:0:
260,343,23659,6,0,P|254:306|264:265,1,70,0|0,3:0|0:0,0:0:0:0:
328,182,23882,1,2,0:0:0:0:
329,105,23993,1,0,0:0:0:0:
328,28,24104,2,0,P|257:14|202:85,1,140,0|2,1:0|0:0,0:0:0:0:
72,200,24437,1,0,0:0:0:0:
72,200,24548,2,0,L|45:43,1,140,4|2,3:0|0:0,0:0:0:0:
103,7,24882,1,0,0:0:0:0:
143,148,24993,2,0,L|233:131,1,70,0|0,1:0|0:0,0:0:0:0:
81,283,25215,2,0,L|12:295,1,70,2|0,0:0|0:0,0:0:0:0:
231,215,25437,6,0,L|254:352,1,140,0|0,3:0|0:0,0:0:0:0:
443,336,25770,2,0,L|419:198,1,140,2|0,0:0|0:0,3:0:0:0:
353,130,26104,2,0,P|318:122|279:148,1,70,2|0,0:0|0:0,0:0:0:0:
338,332,26326,5,0,3:0:0:0:
414,327,26437,1,0,0:0:0:0:
463,267,26548,1,2,0:0:0:0:
469,190,26659,1,0,0:0:0:0:
434,121,26770,2,0,P|430:85|434:43,1,70,0|0,1:0|0:0,0:0:0:0:
512,53,26993,2,0,P|514:87|510:122,1,70,2|0,0:0|0:0,0:0:0:0:
345,234,27215,5,0,3:0:0:0:
345,234,27437,2,0,L|263:228,1,70,2|2,0:0|0:0,0:0:0:0:
206,185,27659,1,0,1:1:0:0:
16,298,27882,1,0,3:0:0:0:
44,226,27993,2,0,P|123:223|165:285,1,140,0|0,1:0|3:0,0:0:0:0:
217,369,28326,5,0,1:0:0:0:
293,373,28437,1,8,0:3:0:0:
345,316,28548,1,4,0:3:0:0:
344,239,28659,1,4,0:3:0:0:
294,180,28770,2,0,P|258:174|217:187,1,69.9999976158143,8|8,0:3|0:3,0:0:0:0:
263,262,28993,6,0,P|264:155|272:53,3,210.000008010865,4|0|0|0,3:2|1:0|3:0|1:0,0:0:0:0:
23,53,30770,2,0,P|31:157|32:262,1,210.000008010865,0|0,3:0|1:0,0:0:0:0:
99,346,31548,6,0,P|123:322|173:327,1,70,4|0,3:2|0:0,0:0:0:0:
232,357,31770,1,0,1:0:0:0:
114,233,31882,2,0,P|146:224|187:253,1,70,4|0,3:2|0:0,0:0:0:0:
476,338,32548,6,0,P|400:349|341:293,1,140,4|8,3:2|0:0,0:0:0:0:
356,236,32882,1,0,0:0:0:0:
279,371,32993,2,0,L|269:282,1,70,0|0,1:0|0:0,0:0:0:0:
216,158,33215,1,8,0:0:0:0:
216,158,33326,1,0,0:0:0:0:
285,191,33437,6,0,L|435:178,1,140,0|8,3:0|0:0,0:0:0:0:
197,275,33770,1,8,0:0:0:0:
258,322,33882,2,0,L|408:309,1,140,0|8,1:0|0:0,0:0:0:0:
459,57,34326,5,0,3:0:0:0:
447,82,34437,1,0,0:0:0:0:
421,93,34548,1,8,0:0:0:0:
393,91,34659,1,0,0:0:0:0:
372,71,34770,2,0,L|381:0,1,70,0|0,1:0|0:0,0:0:0:0:
291,74,34993,2,0,L|300:3,1,70,8|0,0:0|0:0,0:0:0:0:
333,152,35215,6,0,P|408:156|453:212,2,140,0|8|0,3:0|0:0|1:0,0:0:0:0:
63,339,35882,1,8,0:0:0:0:
63,339,35993,1,8,0:0:0:0:
63,339,36104,6,0,L|43:188,1,140,0|8,3:0|0:0,0:0:0:0:
216,128,36437,1,0,0:0:0:0:
195,207,36548,2,0,L|119:207,1,70,0|0,1:0|0:0,0:0:0:0:
77,35,36770,1,8,0:0:0:0:
77,35,36882,1,0,0:0:0:0:
0,68,36993,6,0,P|48:115|115:106,1,140,0|8,3:0|0:0,0:0:0:0:
164,46,37326,1,8,0:0:0:0:
299,64,37437,2,0,L|284:214,1,140,0|8,1:0|0:0,0:0:0:0:
512,368,37882,5,0,3:0:0:0:
494,346,37993,1,0,0:0:0:0:
468,334,38104,1,8,0:0:0:0:
440,335,38215,1,0,0:0:0:0:
414,346,38326,2,0,P|420:305|420:261,1,70,0|0,1:0|0:0,0:0:0:0:
339,268,38548,2,0,P|333:309|333:353,1,70,8|0,0:0|0:0,0:0:0:0:
478,205,38770,5,0,3:0:0:0:
462,129,38882,2,0,P|398:99|322:139,1,140,0|0,1:0|0:0,0:0:0:0:
228,214,39215,1,0,1:0:0:0:
243,289,39326,1,0,1:0:0:0:
214,136,39437,1,0,3:0:0:0:
219,129,39659,6,0,L|65:108,1,140,4|8,3:2|0:0,0:0:0:0:
0,286,39993,1,0,0:0:0:0:
57,346,40104,2,0,P|123:337|159:279,1,140,0|8,1:0|0:0,0:0:0:0:
309,234,40437,1,0,0:0:0:0:
252,351,40548,6,0,L|238:262,1,70,0|0,3:0|0:0,0:0:0:0:
67,204,40770,2,0,L|77:273,1,70,8|8,0:0|0:0,0:0:0:0:
335,313,40993,2,0,P|406:297|494:284,1,140,0|8,1:0|0:0,0:0:0:0:
457,128,41437,5,0,3:0:0:0:
435,110,41548,1,0,0:0:0:0:
408,102,41659,1,8,0:0:0:0:
380,101,41770,1,0,0:0:0:0:
353,111,41882,2,0,L|341:194,1,70,0|0,1:0|0:0,0:0:0:0:
109,173,42104,2,0,L|119:103,1,70,8|0,0:0|0:0,0:0:0:0:
281,36,42326,6,0,B|217:19|217:19|255:190,1,210,0|8,3:0|0:0,0:0:0:0:
258,167,42770,2,0,L|180:144,1,70,0|0,1:0|0:0,0:0:0:0:
31,106,42993,1,8,0:0:0:0:
253,253,43215,6,0,L|175:230,1,70,0|0,3:0|0:0,0:0:0:0:
0,282,43437,1,8,0:0:0:0:
34,350,43548,1,0,0:0:0:0:
79,288,43659,2,0,L|66:212,2,70,0|0|8,1:0|0:0|0:0,0:0:0:0:
348,291,44104,2,0,L|361:215,1,70,0|0,3:0|0:0,0:0:0:0:
441,384,44326,1,8,0:0:0:0:
365,369,44437,1,8,0:0:0:0:
290,348,44548,2,0,L|213:330,1,70,0|0,1:0|0:0,0:0:0:0:
496,318,44770,2,0,L|419:300,1,70,8|0,0:0|0:0,0:0:0:0:
206,250,44993,5,2,3:2:0:0:
174,179,45104,1,0,0:0:0:0:
216,114,45215,1,8,0:0:0:0:
292,109,45326,2,0,P|298:143|293:188,2,70,2|0|0,0:2|1:0|0:0,0:0:0:0:
72,100,45659,2,0,P|66:134|71:179,1,70,2|0,0:0|0:0,0:0:0:0:
200,276,45882,5,0,3:0:0:0:
200,276,45993,1,0,1:0:0:0:
200,276,46104,2,0,L|115:271,1,70,4|0,0:2|0:0,0:0:0:0:
224,30,46326,2,0,L|154:25,1,70,0|0,1:0|1:0,0:0:0:0:
12,173,46548,1,0,3:0:0:0:
1,183,46770,6,0,B|44:171|44:171|13:377,1,210,4|8,0:0|0:0,0:0:0:0:
93,366,47215,2,0,L|105:280,1,70,0|0,1:0|0:0,0:0:0:0:
257,241,47437,1,8,0:0:0:0:
257,241,47548,1,0,0:0:0:0:
333,246,47659,6,0,L|506:259,1,140,0|8,3:0|0:0,0:0:0:0:
482,86,47993,1,8,0:0:0:0:
411,55,48104,2,0,P|388:123|430:193,1,140,0|8,1:0|0:0,0:0:0:0:
386,369,48548,6,0,L|403:289,2,70,0|0|8,3:0|0:0|0:0,0:0:0:0:
239,373,48882,1,0,0:0:0:0:
167,339,48993,2,0,L|184:259,2,70,0|0|8,1:0|0:0|0:0,0:0:0:0:
327,120,49437,6,0,L|297:268,1,140,0|8,3:0|0:0,0:0:0:0:
321,330,49770,1,8,0:0:0:0:
459,215,49882,2,0,L|368:225,1,70,0|0,1:0|0:0,0:0:0:0:
241,144,50104,1,8,0:0:0:0:
225,219,50215,1,0,0:0:0:0:
245,135,50326,6,0,L|79:153,1,140,0|8,3:0|0:0,0:0:0:0:
66,84,50659,1,0,0:0:0:0:
115,25,50770,2,0,L|199:38,2,70,0|0|8,1:0|0:0|0:0,0:0:0:0:
438,129,51215,6,0,P|364:130|336:66,1,140,0|8,3:0|0:0,0:0:0:0:
451,215,51548,1,8,0:0:0:0:
512,159,51659,2,0,P|521:126|512:93,1,70,0|0,1:0|0:0,0:0:0:0:
250,81,51882,2,0,P|250:150|288:209,1,140,8|0,0:0|3:0,0:0:0:0:
361,233,52215,5,0,0:0:0:0:
387,305,52326,1,8,0:0:0:0:
347,370,52437,1,0,0:0:0:0:
270,370,52548,2,0,L|199:363,2,70,0|0|8,1:0|0:0|0:0,0:0:0:0:
99,144,52993,6,0,L|116:231,1,70,0|0,3:0|1:0,0:0:0:0:
121,384,53215,1,8,0:0:0:0:
121,384,53326,1,8,0:0:0:0:
145,300,53437,2,0,P|107:293|62:328,1,70,4|0,1:2|0:0,0:0:0:0:
52,64,53659,2,0,P|90:71|135:36,1,70,4|0,3:0|0:0,0:0:0:0:
136,206,53882,6,0,P|62:196|26:140,1,140,4|8,3:2|0:0,0:0:0:0:
197,15,54215,1,0,0:0:0:0:
258,60,54326,2,0,P|254:92|249:146,1,70,0|0,1:0|0:0,0:0:0:0:
240,282,54548,2,0,P|244:247|247:212,1,70,8|0,0:0|0:0,0:0:0:0:
328,166,54770,6,0,L|467:151,1,140,0|8,3:0|0:0,0:0:0:0:
435,80,55104,1,8,0:0:0:0:
442,254,55215,2,0,L|354:240,1,70,0|0,1:0|0:0,0:0:0:0:
451,76,55437,2,0,L|363:62,1,70,8|0,0:0|0:0,0:0:0:0:
255,304,55659,6,0,L|243:126,1,140,0|8,3:0|0:0,0:0:0:0:
191,97,55993,1,0,0:0:0:0:
216,24,56104,2,0,P|248:18|295:48,2,70,0|0|8,1:0|0:0|0:0,0:0:0:0:
0,218,56437,1,0,0:0:0:0:
15,293,56548,6,0,P|70:320|143:276,1,140,0|8,3:0|0:0,0:0:0:0:
114,61,56882,1,8,0:0:0:0:
112,137,56993,2,0,L|108:220,2,70,0|0|8,1:0|0:0|0:0,0:0:0:0:
361,250,57437,6,0,L|221:226,1,140,0|8,3:0|0:0,0:0:0:0:
134,379,57770,1,0,0:0:0:0:
65,339,57882,2,0,P|58:302|81:269,1,70,0|0,1:0|0:0,0:0:0:0:
221,305,58104,2,0,P|228:342|205:375,1,70,8|0,0:0|0:0,0:0:0:0:
131,210,58326,6,0,L|223:230,1,70,0|0,3:0|0:0,0:0:0:0:
436,225,58548,1,8,0:0:0:0:
434,301,58659,1,8,0:0:0:0:
369,259,58770,2,0,L|300:244,1,70,0|0,1:0|0:0,0:0:0:0:
483,154,58993,2,0,L|414:139,1,70,4|0,3:2|0:0,0:0:0:0:
229,62,59215,5,0,0:0:0:0:
231,75,59326,1,0,0:0:0:0:
234,87,59437,2,0,P|244:58|222:14,1,70,0|0,1:0|0:0,0:0:0:0:
142,26,59659,2,0,P|132:55|154:99,1,70,0|0,1:0|0:0,0:0:0:0:
303,128,59882,6,0,P|331:103|342:61,1,70,0|0,3:0|0:0,0:0:0:0:
28,64,60104,2,0,P|40:96|67:119,1,70,0|0,1:0|0:0,0:0:0:0:
193,236,60326,1,0,3:0:0:0:
194,151,60437,1,0,3:0:0:0:
186,37,60548,1,4,1:2:0:0:
190,46,60770,5,0,3:0:0:0:
194,56,60993,6,0,P|114:6|44:34,1,167.999994873047,4|2,0:0|0:0,0:0:0:0:
0,233,61326,1,0,0:0:0:0:
35,309,61437,2,0,B|75:328|75:328|125:298,1,83.9999974365235,0|0,1:0|0:0,0:0:0:0:
101,153,61659,2,0,B|61:134|61:134|11:164,1,83.9999974365235,2|0,0:0|0:0,0:0:0:0:
297,203,61882,6,0,L|118:230,2,167.999994873047,0|2|0,3:0|0:0|1:0,0:0:0:0:
454,345,62437,1,0,0:0:0:0:
454,345,62548,2,0,L|460:251,1,83.9999974365235,2|0,0:0|0:0,0:0:0:0:
456,88,62770,6,0,P|378:65|320:143,1,167.999994873047,0|2,3:0|0:0,0:0:0:0:
382,239,63104,1,0,0:0:0:0:
512,177,63215,2,0,L|405:167,1,83.9999974365235,0|0,1:0|0:0,0:0:0:0:
297,203,63437,2,0,L|190:193,1,83.9999974365235,2|0,0:0|0:0,0:0:0:0:
37,141,63659,6,0,P|87:125|130:88,1,83.9999974365235,0|0,3:0|0:0,0:0:0:0:
122,22,63882,1,2,0:0:0:0:
43,150,63993,2,0,P|93:134|136:97,1,83.9999974365235,0|0,0:0|1:0,0:0:0:0:
246,83,64215,1,0,0:0:0:0:
135,214,64326,2,0,L|124:311,1,83.9999974365235,2|0,0:0|0:0,0:0:0:0:
193,366,64548,6,0,L|8:328,1,167.999994873047,2|0,3:2|0:0,0:0:0:0:
14,73,64882,1,0,0:0:0:0:
77,128,64993,1,0,1:0:0:0:
83,207,65104,1,0,0:0:0:0:
12,252,65215,2,0,P|1:208|14:157,1,83.9999974365235,2|0,0:0|0:0,0:0:0:0:
224,134,65437,6,0,B|137:121|148:219|73:207,1,167.999994873047,0|0,3:0|0:0,0:0:0:0:
77,128,65770,1,0,0:0:0:0:
214,217,65882,2,0,L|202:300,1,83.9999974365235,0|0,1:0|0:0,0:0:0:0:
297,191,66104,2,0,L|285:274,1,83.9999974365235,2|0,0:0|0:0,0:0:0:0:
424,342,66326,6,0,L|327:338,2,83.9999974365235,0|0|2,3:0|0:0|0:0,0:0:0:0:
479,278,66659,1,2,0:0:0:0:
442,202,66770,2,0,L|396:115,2,83.9999974365235,0|0|2,1:0|0:0|0:0,0:0:0:0:
479,278,67104,1,0,0:0:0:0:
284,274,67215,6,0,L|316:109,1,167.999994873047,0|2,3:0|0:0,0:0:0:0:
276,35,67548,1,0,3:0:0:0:
323,120,67659,2,0,L|223:117,1,83.9999974365235,0|0,1:0|0:0,0:0:0:0:
122,299,67882,2,0,L|205:301,1,83.9999974365235,4|0,0:3|0:0,0:0:0:0:
163,54,68104,5,4,0:0:0:0:
154,46,68326,2,0,P|151:81|144:136,1,83.9999974365235
20,146,68548,2,0,B|-19:66|-19:66|43:1,1,167.999994873047,0|2,1:0|0:0,0:0:0:0:
76,81,68882,1,0,0:0:0:0:
83,225,68993,6,0,L|0:222,1,83.9999974365235,0|0,3:0|0:0,0:0:0:0:
63,366,69215,1,2,0:0:0:0:
63,366,69326,1,2,0:0:0:0:
0,303,69437,2,0,B|74:288|68:382|158:359,1,167.999994873047,0|2,1:0|0:0,0:0:0:0:
338,258,69770,1,0,0:0:0:0:
341,342,69882,6,0,P|251:350|216:268,1,167.999994873047,0|2,3:0|0:0,0:0:0:0:
226,40,70215,1,0,0:0:0:0:
285,99,70326,2,0,L|381:88,1,83.9999974365235,0|0,1:0|0:0,0:0:0:0:
191,113,70548,2,0,L|107:122,1,83.9999974365235,2|0,0:0|0:0,0:0:0:0:
226,40,70770,6,0,L|228:226,1,167.999994873047,0|2,3:0|0:0,0:0:0:0:
356,341,71104,1,0,0:0:0:0:
297,282,71215,2,0,L|201:293,1,83.9999974365235,0|0,1:0|0:0,0:0:0:0:
391,268,71437,2,0,L|474:258,1,83.9999974365235,2|0,0:0|0:0,0:0:0:0:
356,341,71659,6,0,L|354:155,1,167.999994873047,0|0,3:0|0:0,0:0:0:0:
389,26,71993,1,0,0:0:0:0:
509,158,72104,2,0,P|468:173|430:153,1,83.9999974365235,0|0,1:0|0:0,0:0:0:0:
282,142,72326,1,2,0:0:0:0:
282,142,72437,1,0,0:0:0:0:
240,69,72548,6,0,P|278:58|335:83,1,83.9999974365235,0|0,3:0|0:0,0:0:0:0:
325,340,72770,1,2,0:0:0:0:
339,256,72882,1,0,0:0:0:0:
354,173,72993,1,0,1:0:0:0:
36,231,73215,1,2,0:0:0:0:
354,173,73437,6,0,L|270:168,1,83.9999974365235,0|0,3:0|0:0,0:0:0:0:
36,231,73659,2,0,L|119:235,1,83.9999974365235,2|0,0:0|0:0,0:0:0:0:
185,78,73882,5,2,1:2:0:0:
192,161,73993,1,0,0:0:0:0:
200,244,74104,1,0,3:0:0:0:
207,327,74215,2,0,P|157:334|115:308,1,83.9999974365235,0|4,3:0|0:0,0:0:0:0:
246,171,74437,6,0,P|167:146|94:183,2,167.999994873047,4|8|0,1:3|1:3|3:0,0:0:0:0:
438,168,74993,1,0,3:0:0:0:
438,168,75104,1,0,3:0:0:0:
438,168,75215,6,0,B|388:232|388:232|432:339,1,167.999994873047,4|2,0:0|0:0,0:0:0:0:
498,278,75548,1,0,0:0:0:0:
343,149,75659,2,0,L|249:152,1,83.9999974365235,0|0,1:0|0:0,0:0:0:0:
351,352,75882,2,0,L|257:355,1,83.9999974365235,2|0,0:0|0:0,0:0:0:0:
400,270,76104,6,0,P|319:239|231:271,2,167.999994873047,0|2|0,3:0|0:0|1:0,0:0:0:0:
512,357,76659,1,0,0:0:0:0:
479,256,76770,2,0,P|484:212|485:162,1,83.9999974365235,2|0,0:0|0:0,0:0:0:0:
427,40,76993,6,0,B|375:61|375:61|389:215,1,167.999994873047,0|2,3:0|0:0,0:0:0:0:
398,255,77326,1,0,0:0:0:0:
396,165,77437,2,0,L|289:155,1,83.9999974365235,0|0,1:0|0:0,0:0:0:0:
347,326,77659,2,0,L|240:316,1,83.9999974365235,2|0,0:0|0:0,0:0:0:0:
19,224,77882,6,0,P|9:182|35:139,1,83.9999974365235,0|0,3:0|0:0,0:0:0:0:
94,98,78104,1,2,0:0:0:0:
6,223,78215,2,0,P|-4:181|22:138,1,83.9999974365235,2|0,0:0|1:0,0:0:0:0:
141,270,78437,1,0,0:0:0:0:
221,245,78548,2,0,P|238:207|228:167,1,83.9999974365235,2|0,0:0|0:0,0:0:0:0:
138,28,78770,6,0,L|107:230,1,167.999994873047,2|0,3:2|0:0,0:0:0:0:
0,317,79104,1,0,0:0:0:0:
58,377,79215,2,0,L|163:377,1,83.9999974365235,2|0,1:2|0:0,0:0:0:0:
355,351,79437,6,0,P|268:337|248:260,1,167.999994873047,2|0,0:0|3:0,0:0:0:0:
286,195,79770,1,0,0:0:0:0:
168,296,79882,2,0,L|84:296,1,83.9999974365235,2|0,0:0|0:0,0:0:0:0:
0,140,80104,6,0,B|17:29|17:29|99:17,2,167.999994873047,0|2|0,1:0|0:0|3:0,0:0:0:0:
272,89,80770,1,2,0:0:0:0:
272,89,80882,1,0,0:0:0:0:
214,150,80993,2,0,P|172:165|110:136,1,83.9999974365235,0|0,1:0|0:0,0:0:0:0:
318,151,81215,2,0,P|360:166|422:137,1,83.9999974365235,2|0,0:0|0:0,0:0:0:0:
268,383,81437,6,0,P|251:284|278:201,1,167.999994873047,0|4,3:0|0:0,0:0:0:0:
472,184,81770,1,2,0:0:0:0:
510,259,81882,2,0,P|513:305|505:348,1,83.9999974365235,0|0,1:0|0:0,0:0:0:0:
337,341,82104,2,0,P|334:295|342:252,1,83.9999974365235,4|0,0:0|0:0,0:0:0:0:
423,108,82326,5,0,3:0:0:0:
131,199,82548,1,0,0:0:0:0:
131,199,82659,1,0,0:0:0:0:
131,199,82770,2,0,P|80:206|24:179,1,83.9999974365235,0|0,1:0|0:0,0:0:0:0:
57,106,82993,2,0,P|108:99|164:126,1,83.9999974365235,2|0,0:0|0:0,0:0:0:0:
207,310,83215,6,0,P|210:259|216:215,1,83.9999974365235,0|0,3:0|0:0,0:0:0:0:
293,200,83437,1,2,0:0:0:0:
289,362,83548,2,0,P|201:338|122:388,1,167.999994873047,2|0,0:0|0:0,3:0:0:0:
53,351,83882,1,2,0:0:0:0:
46,358,84104,6,0,L|35:262,1,83.9999974365235,0|0,3:0|0:0,0:0:0:0:
178,234,84326,2,0,L|83:215,1,83.9999974365235,2|0,0:0|0:0,0:0:0:0:
174,106,84548,2,0,L|82:137,1,83.9999974365235,0|0,1:0|0:0,0:0:0:0:
11,0,84770,2,0,L|20:83,1,83.9999974365235,2|0,0:0|0:0,0:0:0:0:
0,285,84993,5,0,3:0:0:0:
44,355,85104,1,0,0:0:0:0:
117,314,85215,2,0,L|207:332,1,83.9999974365235,2|0,0:0|0:0,0:0:0:0:
208,241,85437,2,0,L|125:224,1,83.9999974365235,0|0,1:0|0:0,0:0:0:0:
357,377,85659,2,0,P|295:295|305:212,1,167.999994873047,2|0,0:0|3:0,0:0:0:0:
390,55,85993,5,0,0:0:0:0:
470,78,86104,1,0,0:0:0:0:
491,159,86215,1,0,0:0:0:0:
460,236,86326,2,0,L|369:226,1,83.9999974365235,2|0,1:2|0:0,0:0:0:0:
312,134,86548,1,2,0:0:0:0:
312,134,86659,1,0,0:0:0:0:
216,211,86770,6,0,L|133:202,1,83.9999974365235,0|0,3:0|0:0,0:0:0:0:
290,384,86993,2,0,P|288:340|304:199,1,167.999994873047,0|2,0:0|1:2,0:0:0:0:
312,134,87326,1,0,0:0:0:0:
271,60,87437,2,0,P|186:36|108:79,1,167.999994873047,2|0,0:0|3:0,0:0:0:0:
14,234,87770,5,0,0:0:0:0:
14,234,87882,2,0,P|13:190|2:147,1,83.9999974365235,2|0,0:0|0:0,0:0:0:0:
105,232,88104,2,0,P|95:191|94:149,1,83.9999974365235,0|0,1:0|0:0,0:0:0:0:
207,359,88326,2,0,P|116:355|60:283,1,167.999994873047,2|4,0:0|0:3,0:0:0:0:
273,223,88659,5,0,1:3:0:0:
303,302,88770,2,0,L|290:385,1,83.9999974365235,2|8,0:0|0:3,0:0:0:0:
412,235,88993,1,0,3:3:0:0:
380,157,89104,1,0,3:0:0:0:
298,138,89215,1,0,1:0:0:0:
218,163,89326,1,0,1:0:0:0:
189,241,89437,5,4,0:0:0:0:
5,186,89659,1,0,1:0:0:0:
189,241,89882,1,2,0:0:0:0:
176,262,89993,1,0,1:0:0:0:
152,270,90104,1,0,1:0:0:0:
127,273,90215,1,2,0:0:0:0:
103,264,90326,1,0,1:0:0:0:
80,209,90437,5,2,0:0:0:0:
104,155,90548,1,0,1:0:0:0:
162,154,90659,1,0,1:0:0:0:
199,199,90770,5,2,0:0:0:0:
193,205,90882,1,0,1:0:0:0:
238,183,90993,5,0,1:0:0:0:
269,232,91104,1,2,0:0:0:0:
250,287,91215,1,2,0:0:0:0:
205,325,91326,1,0,1:0:0:0:
180,301,91437,1,2,0:0:0:0:
147,291,91548,1,0,1:0:0:0:
98,305,91659,5,2,0:0:0:0:
97,355,91770,1,0,1:0:0:0:
144,373,91882,1,0,1:0:0:0:
178,336,91993,1,2,0:0:0:0:
160,251,92104,6,0,L|153:161,2,83.9999974365235,0|2|0,1:0|0:0|1:0,0:0:0:0:
280,348,92993,6,0,L|428:339,1,140,4|2,0:1|0:0,0:0:0:0:
495,364,93326,1,0,0:0:0:0:
494,357,93437,1,0,0:0:0:0:
407,153,93659,1,2,0:0:0:0:
471,270,93882,2,0,L|488:121,1,139.999995231629,0|0,1:0|1:0,0:0:0:0:
407,153,94215,2,0,L|399:249,1,69.9999976158143,0|0,1:0|0:0,0:0:0:0:
266,249,94548,6,0,P|213:197|150:212,1,140,0|0,1:0|0:0,0:0:0:0:
117,277,94882,2,0,L|122:350,1,69.9999976158143,0|0,1:0|0:0,0:0:0:0:
198,346,95104,2,0,L|193:276,1,69.9999976158143,0|0,1:0|0:0,0:0:0:0:
154,208,95326,1,0,1:0:0:0:
155,214,95437,5,0,1:0:0:0:
26,312,95659,1,0,3:0:0:0:
26,312,95882,2,0,L|22:226,1,70,0|0,1:0|3:0,0:0:0:0:
19,163,96104,2,0,L|15:77,1,70,0|0,3:0|1:0,0:0:0:0:
20,14,96326,1,0,3:0:0:0:
20,14,96437,1,0,3:0:0:0:
20,14,96548,6,0,P|97:23|113:83,1,140,4|2,0:1|0:0,0:0:0:0:
200,80,96882,1,0,0:0:0:0:
200,80,96993,2,0,L|200:-17,2,69.9999976158143,2|0|0,0:0|0:0|0:0,0:0:0:0:
367,183,97437,6,0,L|286:186,1,70,0|0,1:0|0:0,0:0:0:0:
149,148,97659,2,0,L|68:151,2,70,0|0|0,1:0|1:0|0:0,0:0:0:0:
218,203,97993,1,0,0:0:0:0:
218,203,98104,6,0,P|225:272|226:342,1,140,0|0,1:0|0:0,0:0:0:0:
152,363,98437,2,0,L|82:357,1,69.9999976158143,0|0,1:0|0:0,1:0:0:0:
148,282,98659,2,0,L|78:276,1,69.9999976158143,0|0,1:0|0:0,1:0:0:0:
22,221,98882,1,0,1:0:0:0:
21,144,98993,6,0,P|90:154|172:143,1,140,0|0,1:0|3:0,0:0:0:0:
279,95,99326,2,0,P|269:58|284:22,1,70,0|0,1:0|0:0,0:0:0:0:
468,143,99659,1,4,0:0:0:0:
468,143,99770,1,0,3:0:0:0:
420,68,99882,2,0,B|390:51|390:51|347:64,1,70,0|0,1:0|0:0,0:0:0:0:
375,279,100104,6,0,P|385:192|376:121,1,140,4|2,0:0|0:0,0:0:0:0:
309,184,100437,1,0,0:0:0:0:
309,184,100548,2,0,L|225:189,2,70,0|0|0,0:0|0:0|1:0,0:0:0:0:
494,296,100993,5,0,1:0:0:0:
335,367,101215,1,0,1:0:0:0:
309,378,101326,1,0,1:0:0:0:
282,370,101437,1,0,0:0:0:0:
136,223,101659,2,0,P|133:254|134:299,1,70,0|0,1:0|0:0,0:0:0:0:
189,356,101882,5,0,1:0:0:0:
189,349,101993,1,0,1:0:0:0:
249,221,102215,1,0,1:0:0:0:
297,356,102437,1,0,1:0:0:0:
338,290,102548,2,0,L|493:309,1,140,0|0,1:0|0:0,0:0:0:0:
342,122,102993,5,0,3:0:0:0:
345,142,103104,1,0,1:0:0:0:
349,162,103215,1,8,0:0:0:0:
397,371,103437,1,8,0:0:0:0:
429,191,103659,6,0,P|436:127|449:52,1,140,4|2,0:1|0:0,0:0:0:0:
379,10,103993,1,0,0:0:0:0:
379,10,104104,2,0,P|342:22|303:11,2,70,0|0|0,0:0|0:0|1:0,0:0:0:0:
512,159,104548,1,0,1:0:0:0:
328,128,104770,1,0,1:0:0:0:
324,122,104882,2,0,L|171:108,1,140,0|0,1:0|0:0,0:0:0:0:
3,86,105215,2,0,L|72:92,1,70,0|0,1:0|0:0,0:0:0:0:
129,32,105437,5,0,1:0:0:0:
147,177,105770,1,2,0:0:0:0:
160,323,106104,1,2,0:0:0:0:
160,323,106437,6,0,L|118:316,2,35,0|0|0,3:0|3:0|1:0,3:0:0:0:
201,258,106659,1,0,3:0:0:0:
277,247,106770,1,0,1:0:0:0:
334,299,106882,2,0,P|329:329|326:373,1,70,0|0,1:0|3:0,0:0:0:0:
499,275,107104,1,0,1:0:0:0:
505,360,107215,6,0,P|438:338|417:258,1,140,4|8,0:0|0:0,0:0:0:0:
503,107,107548,1,0,0:0:0:0:
469,37,107659,2,0,L|382:50,2,70,0|0|8,1:0|0:0|0:0,0:0:0:0:
320,56,107993,1,0,0:0:0:0:
364,127,108104,6,0,L|503:107,2,140,0|8|0,3:0|0:0|1:0,0:0:0:0:
68,80,108770,1,8,0:0:0:0:
68,80,108882,1,0,0:0:0:0:
68,80,108993,6,0,P|72:112|69:153,1,70,0|0,3:0|0:0,0:0:0:0:
36,337,109215,1,8,0:0:0:0:
96,384,109326,1,0,0:0:0:0:
146,326,109437,2,0,L|231:342,2,70,0|0|8,1:0|0:0|0:0,0:0:0:0:
90,272,109770,1,0,0:0:0:0:
128,204,109882,6,0,P|202:192|241:275,1,140,0|8,3:0|0:0,0:0:0:0:
362,303,110215,1,8,0:0:0:0:
390,231,110326,2,0,P|358:226|307:248,1,70,0|0,1:0|0:0,0:0:0:0:
333,375,110548,2,0,P|365:380|416:358,1,70,8|0,0:0|0:0,0:0:0:0:
512,161,110770,6,0,L|334:130,1,140,0|8,3:0|0:0,0:0:0:0:
256,45,111104,1,0,0:0:0:0:
322,5,111215,1,0,1:0:0:0:
384,49,111326,1,0,0:0:0:0:
381,125,111437,2,0,L|463:114,2,70,8|0|0,0:0|0:0|3:0,0:0:0:0:
127,98,111882,6,0,P|134:62|120:21,1,70,8|8,0:0|0:0,0:0:0:0:
52,7,112104,1,0,1:0:0:0:
4,67,112215,1,0,0:0:0:0:
52,126,112326,1,8,0:0:0:0:
233,191,112548,1,0,3:0:0:0:
0,337,112770,6,0,P|-7:301|7:260,1,70,8|0,0:0|0:0,0:0:0:0:
75,246,112993,1,0,1:0:0:0:
123,306,113103,1,0,0:0:0:0:
75,365,113215,1,8,0:0:0:0:
314,288,113437,5,0,3:0:0:0:
360,210,113548,1,0,1:0:0:0:
399,282,113659,2,0,L|393:361,1,70
478,272,113882,2,0,L|472:351,1,70,0|0,1:0|1:0,0:0:0:0:
499,189,114104,6,0,L|351:212,1,140,0|4,3:0|0:0,0:0:0:0:
117,137,114548,1,8,0:0:0:0:
117,137,114659,1,0,0:0:0:0:
117,137,114770,2,0,P|118:94|127:49,2,70,0|0|8,1:0|0:0|0:0,0:0:0:0:
196,177,115104,1,0,0:0:0:0:
275,145,115215,6,0,P|280:110|280:75,2,70,0|0|8,3:0|0:0|0:0,0:0:0:0:
196,177,115548,1,8,0:0:0:0:
217,320,115659,2,0,L|293:305,1,70,0|0,1:0|0:0,0:0:0:0:
492,184,115882,1,8,0:0:0:0:
428,141,115993,1,0,0:0:0:0:
355,166,116104,6,0,P|348:202|361:248,1,70,0|0,3:0|0:0,0:0:0:0:
501,355,116326,1,8,0:0:0:0:
501,355,116437,1,0,0:0:0:0:
508,273,116548,2,0,B|466:270|466:270|423:309|423:309|368:308,1,140,0|8,1:0|0:0,0:0:0:0:
253,196,116882,1,0,0:0:0:0:
196,248,116993,6,0,P|136:258|80:191,1,140,0|8,3:0|0:0,0:0:0:0:
59,133,117326,1,8,0:0:0:0:
30,266,117437,2,0,P|31:296|28:337,2,70,0|0|8,1:0|0:0|0:0,0:0:0:0:
0,192,117770,1,0,0:0:0:0:
67,55,117882,6,0,B|135:36|135:36|199:86,1,140,0|8,3:0|0:0,0:0:0:0:
273,204,118215,1,0,0:0:0:0:
273,204,118326,2,0,L|194:188,1,70,0|0,1:0|0:0,0:0:0:0:
331,130,118548,2,0,L|252:114,1,70,8|0,0:0|0:0,0:0:0:0:
128,172,118770,5,0,3:0:0:0:
147,247,118882,1,0,0:0:0:0:
221,264,118993,1,8,0:0:0:0:
240,339,119104,1,8,0:0:0:0:
314,353,119215,2,0,L|392:341,1,70,0|0,1:0|0:0,0:0:0:0:
461,209,119437,2,0,L|383:221,1,70,8|0,0:0|0:0,0:0:0:0:
298,104,119659,6,0,P|288:67|304:26,2,70,0|0|8,3:0|0:0|0:0,0:0:0:0:
362,146,119993,1,0,0:0:0:0:
309,201,120104,2,0,L|323:289,1,70,0|0,1:0|0:0,0:0:0:0:
121,299,120326,2,0,L|110:229,1,70,4|0,0:0|0:0,0:0:0:0:
220,40,120548,6,0,P|168:43|144:65,1,70,0|4,3:0|0:3,3:0:0:0:
111,118,120770,1,0,1:0:0:0:
0,37,120882,2,0,P|52:40|76:62,1,70,8|0,0:3|0:0,0:0:0:0:
120,196,121104,1,4,3:0:0:0:
67,252,121215,1,0,3:0:0:0:
92,324,121326,1,0,1:0:0:0:
145,268,121437,5,4,0:0:0:0:
256,192,132548,12,0,133437,3:0:0:0:
365,369,133659,5,4,0:0:0:0:
297,320,133993,5,0,1:0:0:0:
297,320,134104,2,0,P|289:283|293:235,1,70,0|0,1:0|0:0,0:0:0:0:
424,312,134326,1,0,1:0:0:0:
424,312,134437,2,0,P|424:278|417:244,1,70,0|0,1:0|3:0,0:0:0:0:
371,71,134659,1,0,1:0:0:0:
311,119,134770,5,0,3:0:0:0:
351,185,134882,2,0,L|426:166,1,70,0|0,1:0|1:0,0:0:0:0:
319,10,135104,1,0,1:0:0:0:
371,71,135215,2,0,L|438:53,1,70,4|0,1:2|0:0,0:0:0:0:
503,208,135437,1,2,0:0:0:0:
497,217,135659,6,0,L|523:26,1,167.999994873047,4|2,0:0|0:0,0:0:0:0:
512,294,135992,1,0,0:0:0:0:
420,248,136104,2,0,L|325:259,1,83.9999974365235,0|0,1:0|0:0,0:0:0:0:
465,355,136326,2,0,L|370:366,1,83.9999974365235,2|0,0:0|0:0,0:0:0:0:
145,308,136548,6,0,L|326:336,2,167.999994873047,0|2|0,3:0|0:0|1:0,0:0:0:0:
0,176,137103,1,0,0:0:0:0:
0,176,137215,2,0,P|32:142|95:160,1,83.9999974365235,2|0,0:0|0:0,0:0:0:0:
38,384,137437,6,0,P|60:292|66:201,1,167.999994873047,0|2,3:0|0:0,0:0:0:0:
14,71,137770,1,0,0:0:0:0:
63,13,137882,2,0,L|146:20,1,83.9999974365235,0|0,1:0|0:0,0:0:0:0:
224,220,138104,2,0,B|181:239|181:239|117:210,1,83.9999974365235,2|0,0:0|0:0,0:0:0:0:
222,66,138326,6,0,P|203:99|218:164,1,83.9999974365235,0|0,3:0|0:0,0:0:0:0:
305,169,138548,1,2,0:0:0:0:
211,62,138659,2,0,P|192:95|207:160,1,83.9999974365235,2|0,0:0|1:0,0:0:0:0:
305,253,138881,1,0,0:0:0:0:
262,325,138993,2,0,L|170:331,1,83.9999974365235,2|0,0:0|0:0,0:0:0:0:
106,115,139215,6,0,P|131:193|202:233,1,167.999994873047,0|2,3:0|0:0,0:0:0:0:
387,175,139548,1,0,0:0:0:0:
468,196,139659,1,0,1:0:0:0:
483,278,139770,1,0,0:0:0:0:
430,344,139882,2,0,P|386:344|340:315,1,83.9999974365235,2|0,0:0|0:0,0:0:0:0:
302,101,140104,6,0,B|284:149|284:149|314:209|314:209|294:267,1,167.999994873047,0|0,3:0|0:0,0:0:0:0:
136,364,140436,1,0,0:0:0:0:
61,267,140548,2,0,P|105:263|148:290,1,83.9999974365235,0|0,1:0|0:0,0:0:0:0:
188,164,140770,2,0,P|213:200|211:250,1,83.9999974365235,2|0,0:0|0:0,0:0:0:0:
328,234,140993,6,0,P|309:274|264:297,2,83.9999974365235,0|0|2,3:0|0:0|0:0,0:0:0:0:
369,161,141325,1,2,0:0:0:0:
411,231,141437,2,0,P|427:268|462:292,2,83.9999974365235,0|0|2,1:0|0:0|0:0,0:0:0:0:
382,80,141770,1,0,0:0:0:0:
462,52,141882,6,0,L|287:61,1,167.999994873047,0|4,3:0|0:0,0:0:0:0:
186,196,142214,1,0,0:0:0:0:
258,239,142326,2,0,P|272:277|258:323,1,83.9999945755007,0|0,1:0|1:0,0:0:0:0:
117,384,142548,1,0,3:0:0:0:
35,366,142659,1,0,0:0:0:0:
32,282,142770,5,0,3:0:0:0:
43,277,142993,2,0,L|43:191,1,83.9999974365235,2|0,0:0|0:0,0:0:0:0:
0,71,143215,6,0,P|59:118|148:93,1,167.999994873047,0|2,1:0|0:0,0:0:0:0:
242,17,143548,1,0,0:0:0:0:
242,17,143659,6,0,L|234:108,1,83.9999974365235,0|0,3:0|0:0,0:0:0:0:
369,251,143882,1,2,0:0:0:0:
369,251,143992,1,0,0:0:0:0:
403,172,144104,2,0,B|284:162|284:162|244:218,1,167.999994873047,0|2,1:0|0:0,0:0:0:0:
146,363,144436,1,0,0:0:0:0:
72,321,144548,6,0,P|75:233|69:137,1,167.999994873047,0|2,3:0|0:0,0:0:0:0:
289,304,144881,1,0,0:0:0:0:
243,232,144993,2,0,P|202:222|147:250,1,83.9999974365235,0|0,1:0|0:0,0:0:0:0:
330,233,145215,2,0,P|370:242|425:214,1,83.9999974365235,2|0,0:0|0:0,0:0:0:0:
418,29,145437,6,0,P|321:24|283:86,1,167.999994873047,0|2,3:0|0:0,0:0:0:0:
287,159,145770,1,0,0:0:0:0:
202,86,145882,2,0,L|191:-3,1,83.9999974365235,0|0,1:0|0:0,0:0:0:0:
10,124,146104,2,0,L|-1:35,1,83.9999974365235,2|0,0:0|0:0,0:0:0:0:
194,165,146326,6,0,P|102:127|90:50,1,167.999994873047,0|0,3:0|0:0,0:0:0:0:
268,215,146659,1,0,0:0:0:0:
193,252,146770,2,0,P|148:245|86:244,1,83.9999974365235,0|0,1:0|0:0,0:0:0:0:
343,252,146993,2,0,P|388:245|450:244,1,83.9999974365235,2|0,0:0|0:0,0:0:0:0:
268,382,147215,6,0,P|261:329|269:281,2,83.9999974365235,0|0|2,3:0|0:0|0:0,0:0:0:0:
268,215,147548,1,0,0:0:0:0:
268,215,147659,2,0,P|257:113|265:37,1,167.999994873047,0|2,1:0|0:0,0:0:0:0:
376,29,147993,1,0,0:0:0:0:
417,101,148104,2,0,P|369:114|317:82,1,83.9999974365235,0|0,3:0|0:0,0:0:0:0:
185,185,148326,2,0,P|136:172|107:118,1,83.9999974365235,2|0,0:0|0:0,0:0:0:0:
184,12,148548,5,2,1:2:0:0:
378,193,148770,1,0,3:0:0:0:
184,12,148993,5,0,3:0:0:0:
100,17,149104,1,0,1:0:0:0:
37,72,149215,1,0,3:0:0:0:
28,155,149326,1,0,1:0:0:0:
79,221,149437,5,0,1:0:0:0:
94,227,149548,1,0,1:0:0:0:
109,220,149659,1,0,1:0:0:0:
118,206,149770,1,0,1:0:0:0:
114,124,149882,6,0,B|26:109|26:109|0:202,1,167.999994873047,4|2,0:0|0:0,0:0:0:0:
137,306,150214,1,0,0:0:0:0:
81,369,150326,2,0,P|38:355|-10:350,1,83.9999974365235,0|0,1:0|0:0,0:0:0:0:
224,288,150548,2,0,P|214:243|194:199,1,83.9999974365235,2|0,0:0|0:0,0:0:0:0:
351,349,150770,6,0,P|406:310|452:205,2,167.999994873047,0|2|0,3:0|0:0|1:0,0:0:0:0:
331,266,151325,1,0,0:0:0:0:
455,372,151437,2,0,P|487:342|509:287,1,83.9999974365235,2|0,0:0|0:0,0:0:0:0:
512,132,151659,6,0,P|410:125|370:52,1,167.999994873047,0|2,3:0|0:0,0:0:0:0:
424,9,151992,1,0,0:0:0:0:
296,64,152104,2,0,P|259:47|204:60,1,83.9999974365235,0|0,1:0|0:0,0:0:0:0:
342,227,152326,6,0,L|329:124,1,83.9999974365235,2|0,0:0|0:0,0:0:0:0:
219,315,152548,2,0,L|309:297,1,83.9999974365235,2|0,3:2|0:0,0:0:0:0:
364,349,152770,1,2,0:0:0:0:
204,309,152882,2,0,L|294:291,1,83.9999974365235,2|0,0:0|1:0,0:0:0:0:
320,150,153103,1,0,0:0:0:0:
261,212,153215,2,0,L|178:228,1,83.9999974365235,2|0,0:0|0:0,0:0:0:0:
14,376,153437,6,0,P|31:294|31:210,1,167.999994873047,2|0,3:2|0:0,0:0:0:0:
108,132,153770,1,0,0:0:0:0:
101,48,153882,2,0,B|136:26|136:26|206:48,1,83.9999974365235,2|0,1:2|0:0,0:0:0:0:
387,279,154104,6,0,P|300:265|280:188,1,167.999994873047,2|0,0:0|3:0,0:0:0:0:
330,131,154436,1,0,0:0:0:0:
191,214,154548,2,0,L|205:100,1,83.9999974365235,2|0,0:0|0:0,0:0:0:0:
398,196,154770,2,0,L|412:82,1,83.9999974365235,0|0,1:0|0:0,0:0:0:0:
273,370,154993,2,0,L|287:256,1,83.9999974365235,2|0,0:0|0:0,0:0:0:0:
297,179,155215,5,0,3:0:0:0:
66,344,155437,1,2,0:0:0:0:
66,344,155548,1,0,0:0:0:0:
24,270,155659,2,0,P|61:267|107:260,1,83.9999974365235,0|0,1:0|0:0,0:0:0:0:
97,20,155882,2,0,P|59:22|13:29,1,83.9999974365235,2|0,0:0|0:0,0:0:0:0:
125,161,156104,6,0,P|25:161|0:95,1,167.999994873047,0|4,3:0|0:0,0:0:0:0:
155,87,156437,1,2,0:0:0:0:
227,130,156548,6,0,P|222:172|225:232,1,83.9999974365235,0|0,1:0|0:0,0:0:0:0:
58,251,156770,2,0,P|62:208|60:149,1,83.9999974365235,2|0,0:0|0:0,0:0:0:0:
136,7,156993,5,0,3:0:0:0:
330,194,157214,1,0,0:0:0:0:
330,194,157325,1,0,0:0:0:0:
330,194,157437,2,0,P|375:200|423:176,1,83.9999974365235,2|0,1:2|0:0,0:0:0:0:
402,91,157659,2,0,P|357:85|309:109,1,83.9999974365235,2|0,0:0|0:0,0:0:0:0:
291,349,157882,6,0,L|272:255,1,83.9999974365235,0|0,3:0|0:0,0:0:0:0:
512,303,158103,1,2,0:0:0:0:
472,377,158215,2,0,L|488:209,1,167.999994873047,2|0,0:0|0:0,3:0:0:0:
383,276,158548,1,2,0:0:0:0:
373,269,158770,6,0,L|389:351,1,83.9999974365235,0|0,3:0|0:0,0:0:0:0:
267,372,158993,2,0,P|234:351|181:358,1,83.9999974365235,2|0,0:0|0:0,0:0:0:0:
249,241,159215,2,0,P|209:239|167:271,1,83.9999974365235,0|0,1:0|0:0,0:0:0:0:
155,143,159437,2,0,P|120:161|99:210,1,83.9999974365235,2|0,0:0|0:0,0:0:0:0:
47,370,159659,5,0,3:0:0:0:
29,288,159770,1,0,0:0:0:0:
14,204,159882,2,0,L|-4:109,1,83.9999974365235,2|0,0:0|0:0,0:0:0:0:
270,175,160104,2,0,L|252:80,1,83.9999974365235,0|0,1:0|0:0,0:0:0:0:
230,252,160326,2,0,B|159:272|155:148|66:168,1,167.999994873047,2|0,0:0|3:0,0:0:0:0:
0,378,160659,5,0,0:0:0:0:
83,382,160770,1,0,0:0:0:0:
137,318,160881,1,0,0:0:0:0:
85,250,160993,2,0,P|44:264|-8:253,1,83.9999974365235,0|0,1:0|0:0,0:0:0:0:
154,193,161215,1,2,0:0:0:0:
154,193,161325,1,0,0:0:0:0:
218,247,161437,6,0,P|259:261|311:250,1,83.9999974365235,0|0,3:0|0:0,0:0:0:0:
512,208,161659,1,0,0:0:0:0:
429,194,161770,1,0,0:0:0:0:
384,266,161882,2,0,P|385:300|393:349,1,83.9999974365235,0|0,1:0|0:0,0:0:0:0:
414,107,162104,2,0,P|330:135|245:66,1,167.999994873047,2|0,0:0|3:0,0:0:0:0:
104,25,162436,5,0,0:0:0:0:
104,25,162548,2,0,L|201:13,1,83.9999974365235,2|0,0:0|0:0,0:0:0:0:
0,120,162770,2,0,L|97:108,1,83.9999974365235,2|0,1:2|0:0,0:0:0:0:
168,335,162993,2,0,B|139:313|139:313|163:183,1,167.999994873047,2|4,0:0|0:3,0:0:0:0:
176,100,163326,5,0,1:0:0:0:
246,198,163437,2,0,L|228:287,2,83.9999974365235,0|8|0,1:0|0:3|1:0,0:0:0:0:
314,149,163770,1,0,3:0:0:0:
392,180,163882,1,0,1:0:0:0:
410,261,163993,1,0,1:0:0:0:
364,331,164104,6,0,P|330:252|398:85,1,251.999992309571,4|0,1:0|0:0,0:0:0:0:
431,39,164548,2,0,P|447:52|477:57,5,46.6666666666667,0|2|2|2|2|0,1:0|0:0|0:0|0:0|0:0|0:0,0:0:0:0:
339,26,164993,5,0,3:0:0:0:
332,38,165104,2,0,P|301:43|248:31,1,69.9999976158143,2|0,0:0|0:0,0:0:0:0:
194,68,165326,1,2,0:0:0:0:
121,41,165437,1,0,1:2:0:0:
256,358,165659,1,0,0:0:0:0:
243,350,165770,1,2,0:0:0:0:
230,343,165882,6,0,P|219:311|239:261,1,70,0|2,3:0|0:0,0:0:0:0:
276,218,166104,1,0,0:0:0:0:
248,146,166215,1,2,0:0:0:0:
148,365,166437,1,2,0:0:0:0:
16,230,166659,1,0,0:0:0:0:
55,164,166770,6,0,L|35:16,2,140,2|2|0,3:2|0:0|1:0,0:0:0:0:
111,217,167326,1,2,0:0:0:0:
173,171,167437,1,0,0:0:0:0:
244,200,167548,1,2,0:0:0:0:
257,275,167659,6,0,L|176:273,1,70,0|2,3:0|0:0,0:0:0:0:
0,384,167882,1,0,0:0:0:0:
33,314,167993,1,2,0:0:0:0:
77,376,168104,1,0,1:0:0:0:
110,306,168215,1,2,0:0:0:0:
209,39,168437,6,0,P|166:31|122:53,2,70,2|0|2,0:0|3:0|0:0,0:0:0:0:
228,113,168770,1,0,0:0:0:0:
305,118,168882,1,2,0:0:0:0:
345,52,168993,1,0,1:0:0:0:
422,57,169105,1,2,0:0:0:0:
427,65,169326,5,2,0:0:0:0:
432,73,169548,5,2,0:0:0:0:
453,146,169659,1,2,0:0:0:0:
419,215,169770,1,0,0:0:0:0:
342,228,169882,2,0,L|352:327,2,70,0|2|2,1:0|0:0|0:0,0:0:0:0:
225,94,170215,5,0,0:0:0:0:
218,169,170326,1,2,3:2:0:0:
264,230,170437,1,2,0:0:0:0:
342,228,170548,1,4,0:0:0:0:
369,156,170659,2,0,L|292:154,1,70,0|2,0:0|1:2,0:0:0:0:
273,310,170882,2,0,L|196:308,1,70,2|0,1:2|3:0,0:0:0:0:
4,219,171104,1,2,0:0:0:0:
4,219,171215,6,0,P|1:179|11:139,1,70,2|0,3:2|0:0,0:0:0:0:
181,150,171437,2,0,P|184:190|174:230,1,70,2|0,0:0|0:0,0:0:0:0:
59,87,171659,2,0,P|99:84|139:94,1,70,2|0,1:2|0:0,0:0:0:0:
126,282,171882,2,0,P|86:285|46:275,1,70,2|0,0:0|0:0,0:0:0:0:
0,180,172104,5,0,3:0:0:0:
12,174,172215,1,2,0:0:0:0:
90,183,172326,5,0,0:0:0:0:
102,177,172437,1,2,0:0:0:0:
185,177,172548,5,0,1:0:0:0:
241,229,172659,1,2,0:0:0:0:
317,230,172770,1,2,0:0:0:0:
387,196,172882,1,0,0:0:0:0:
400,120,172993,5,0,3:0:0:0:
400,120,173215,1,2,0:0:0:0:
228,305,173437,5,0,1:0:0:0:
241,229,173548,1,0,0:0:0:0:
311,195,173659,1,2,0:0:0:0:
387,196,173770,5,2,0:0:0:0:
443,248,173882,1,0,3:0:0:0:
443,248,174104,1,0,1:0:0:0:
333,369,174326,2,0,P|334:326|343:285,2,70,0|2|2,1:0|0:2|0:2,0:0:0:0:
360,219,174659,6,0,P|368:151|349:72,1,140,2|0,0:2|2:0,3:0:0:0:
422,278,174993,2,0,L|501:266,1,70,2|0,0:2|2:0,0:0:0:0:
298,279,175215,1,0,1:0:0:0:
279,204,175326,2,0,P|216:184|146:218,1,140,2|2,0:2|0:2,0:0:0:0:
19,358,175659,6,0,L|8:283,1,70,0|0,3:0|0:0,0:0:0:0:
8,95,175882,1,2,0:2:0:0:
70,50,175993,1,2,0:2:0:0:
125,105,176104,1,0,1:0:0:0:
64,152,176215,2,0,L|74:221,1,70,2|0,0:0|2:0,0:0:0:0:
242,384,176437,1,2,0:0:0:0:
242,384,176548,6,0,L|84:368,1,140,0|2,3:0|0:0,0:0:0:0:
276,305,176882,1,0,0:0:0:0:
199,297,176993,2,0,L|120:288,1,70,0|0,1:0|2:0,0:0:0:0:
134,199,177215,2,0,L|55:190,1,70,4|0,3:2|2:0,0:0:0:0:
0,57,177437,5,4,0:3:0:0:
76,68,177548,1,0,1:0:0:0:
152,78,177659,1,0,1:0:0:0:
228,88,177770,1,8,0:3:0:0:
304,98,177882,5,0,1:0:0:0:
292,131,177993,1,0,3:0:0:0:
281,164,178104,1,0,3:0:0:0:
268,196,178215,1,0,1:0:0:0:
343,209,178326,5,4,0:0:0:0:
349,215,178770,1,0,3:0:0:0:
411,158,178993,1,2,0:0:0:0:
363,382,179215,1,0,3:0:0:0:
425,325,179438,1,2,0:0:0:0:
265,206,179659,2,0,L|279:322,1,105.000004005432,0|2,3:0|0:0,0:0:0:0:
93,351,180104,5,0,3:0:0:0:
46,293,180326,1,2,0:0:0:0:
46,293,180437,1,0,0:0:0:0:
46,293,180548,1,0,3:0:0:0:
151,164,180770,1,2,0:0:0:0:
102,34,180993,2,0,L|-15:59,3,105.000004005432,0|2|0|2,3:0|0:0|3:0|0:0,0:0:0:0:
237,176,181882,5,4,3:2:0:0:
289,115,182104,1,2,0:0:0:0:
289,115,182215,1,0,0:0:0:0:
289,115,182326,1,0,3:0:0:0:
438,175,182548,1,2,0:0:0:0:
379,75,182770,2,0,L|369:136,2,52.5000020027161,0|0|2,3:0|0:0|0:0,0:0:0:0:
322,196,183215,1,0,3:0:0:0:
464,94,183437,1,2,0:0:0:0:
495,267,183659,6,0,L|367:244,1,105.000004005432,0|2,3:0|0:0,0:0:0:0:
212,342,184104,2,0,L|143:330,2,52.5000020027161,0|0|2,3:0|0:0|0:0,0:0:0:0:
229,229,184548,1,0,3:0:0:0:
286,383,184770,1,2,0:0:0:0:
391,248,184993,1,0,3:0:0:0:
298,299,185215,1,0,0:0:0:0:
298,299,185326,1,0,0:0:0:0:
298,299,185437,6,0,L|312:182,1,105.000004005432,4|2,3:2|0:0,0:0:0:0:
330,39,185882,1,0,3:0:0:0:
330,39,186104,1,2,0:0:0:0:
257,76,186326,1,0,3:0:0:0:
257,76,186437,1,0,0:0:0:0:
257,76,186548,1,2,0:0:0:0:
390,215,186770,1,0,3:0:0:0:
452,118,186993,1,2,0:0:0:0:
233,159,187215,6,0,L|109:146,1,105.000004005432,0|2,3:0|0:0,0:0:0:0:
128,148,187548,1,0,0:0:0:0:
128,148,187659,1,0,3:0:0:0:
50,56,187882,1,2,0:0:0:0:
78,223,188104,1,0,3:0:0:0:
136,67,188326,1,2,0:0:0:0:
158,211,188548,1,0,3:0:0:0:
179,140,188770,1,2,0:0:0:0:
0,128,188993,5,4,3:2:0:0:
86,315,189215,1,2,0:0:0:0:
86,315,189326,1,0,0:0:0:0:
86,315,189437,1,0,3:0:0:0:
161,289,189659,1,2,0:0:0:0:
51,238,189882,2,0,L|-15:225,2,52.5000020027161,0|0|2,3:0|0:0|0:0,0:0:0:0:
235,156,190326,1,0,3:0:0:0:
235,156,190548,1,2,0:0:0:0:
256,192,190770,12,4,192548,0:0:0:0:
509,41,206770,6,0,L|384:34,1,105.000004005432,4|2,0:0|0:0,0:0:0:0:
512,119,207215,2,0,L|387:112,1,105.000004005432,0|2,0:0|0:0,0:0:0:0:
353,163,207659,2,0,P|360:211|354:296,2,105.000004005432,0|2|0,0:0|0:0|0:0,0:0:0:0:
286,130,208326,1,2,0:0:0:0:
410,356,208548,6,0,P|338:281|229:305,1,210.000008010865
182,340,209215,1,2,0:0:0:0:
49,266,209437,1,0,0:0:0:0:
90,372,209659,1,2,0:0:0:0:
90,372,209770,2,0,B|135:259|135:259|103:201,1,157.500006008148
0,25,210326,6,0,P|72:112|176:87,1,210.000008010865,2|0,0:0|0:0,0:0:0:0:
351,134,210993,2,0,P|379:97|369:26,1,105.000004005432,2|0,0:0|0:0,0:0:0:0:
185,5,211437,1,2,0:0:0:0:
185,5,211659,1,0,0:0:0:0:
284,186,211882,1,2,0:0:0:0:
284,186,212326,5,0,0:0:0:0:
327,255,212548,2,0,L|432:240,1,105.000004005432,2|0,0:0|0:0,0:0:0:0:
352,12,212993,2,0,L|404:10,1,52.5000020027161,2|0,0:0|0:0,0:0:0:0:
408,14,213215,1,0,0:0:0:0:
412,18,213326,2,0,L|374:183,1,157.500006008148,2|0,0:0|0:0,0:0:0:0:
314,373,213882,5,0,0:0:0:0:
314,373,214326,1,2,0:0:0:0:
473,325,214548,1,0,0:0:0:0:
314,373,214770,2,0,P|261:348|212:360,1,105.000004005432,2|0,0:0|0:0,0:0:0:0:
217,357,215104,1,2,0:0:0:0:
217,357,215215,1,0,0:0:0:0:
132,261,215437,1,2,0:0:0:0:
298,232,215659,6,0,P|225:242|146:352,1,210.000008010865
80,377,216326,2,0,P|53:348|50:283,1,105.000004005432,2|0,0:0|0:0,0:0:0:0:
52,275,216696,2,0,L|17:271,2,35.0000013351441,0|2|0,0:0|0:0|0:0,0:0:0:0:
34,195,216993,2,0,L|54:80,1,105.000004005432,0|2,0:0|0:0,0:0:0:0:
158,19,217437,5,4,0:0:0:0:
256,192,217548,12,4,218993,0:0:0:0:
265,184,219215,5,0,0:0:0:0:
253,173,219326,1,0,0:0:0:0:
242,158,219437,2,0,P|243:187|252:237,1,70,0|0,1:0|0:0,0:0:0:0:
343,217,219659,2,0,P|342:188|333:138,1,70,0|0,1:0|0:0,0:0:0:0:
131,274,219882,6,0,L|200:291,1,70,0|0,1:0|0:0,0:0:0:0:
473,244,220104,2,0,L|404:274,1,70,0|0,1:0|0:0,0:0:0:0:
320,377,220326,1,0,3:0:0:0:
320,377,220437,1,0,3:0:0:0:
309,292,220548,2,0,L|298:163,1,70,0|0,1:0|0:0,0:0:0:0:
507,384,220770,2,0,L|518:255,1,70,0|0,1:0|0:0,0:0:0:0:
410,181,220993,6,0,L|414:-12,1,181.999991668702,4|2,0:0|0:0,0:0:0:0:
383,253,221326,1,0,0:0:0:0:
339,141,221437,2,0,P|293:146|250:122,1,90.9999958343508,0|0,1:0|0:0,0:0:0:0:
189,280,221659,2,0,P|146:261|121:219,1,90.9999958343508,2|0,0:0|0:0,0:0:0:0:
62,45,221882,6,0,P|159:92|169:183,2,181.999991668702,0|2|0,3:0|0:0|1:0,0:0:0:0:
7,277,222437,1,0,0:0:0:0:
7,277,222548,2,0,P|15:228|22:170,1,90.9999958343508,2|0,0:0|0:0,0:0:0:0:
157,297,222770,6,0,B|79:273|79:382|-4:362,1,181.999991668702,0|2,3:0|0:0,0:0:0:0:
201,372,223104,1,0,0:0:0:0:
291,362,223215,2,0,B|310:322|310:322|298:265,1,90.9999958343508,0|0,1:0|0:0,0:0:0:0:
106,208,223437,2,0,L|204:221,1,90.9999958343508,2|0,0:0|0:0,0:0:0:0:
455,295,223659,6,0,P|403:271|381:233,1,90.9999958343508,0|0,3:0|0:0,0:0:0:0:
447,177,223882,1,2,0:0:0:0:
448,304,223993,2,0,P|396:280|374:242,1,90.9999958343508,2|0,0:0|1:0,0:0:0:0:
266,121,224215,1,0,0:0:0:0:
352,90,224326,2,0,P|354:41|366:-20,1,90.9999958343508,2|0,0:0|0:0,0:0:0:0:
498,118,224548,6,0,B|452:115|452:115|380:173|380:173|313:168,1,181.999991668702,0|0,3:0|0:0,0:0:0:0:
189,287,224882,1,0,0:0:0:0:
100,268,224993,1,0,1:0:0:0:
78,179,225104,1,0,0:0:0:0:
140,112,225215,2,0,B|183:101|183:101|233:139,1,90.9999958343508,2|0,0:0|0:0,0:0:0:0:
169,368,225437,6,0,P|175:259|154:172,1,181.999991668702,0|0,3:0|0:0,0:0:0:0:
255,348,225770,1,0,0:0:0:0:
100,268,225882,2,0,L|2:284,1,90.9999958343508,0|0,1:0|0:0,0:0:0:0:
198,99,226104,2,0,L|100:115,1,90.9999958343508,2|0,0:0|0:0,0:0:0:0:
378,251,226326,6,0,L|280:267,2,90.9999958343508,0|0|2,3:0|0:0|0:0,0:0:0:0:
446,311,226659,1,2,0:0:0:0:
410,171,226770,2,0,L|347:94,2,90.9999958343508,0|0|2,1:0|0:0|0:0,0:0:0:0:
501,162,227104,1,0,0:0:0:0:
366,19,227215,6,0,P|266:32|213:112,1,181.999991668702,0|4,3:0|0:0,0:0:0:0:
187,177,227548,1,0,0:0:0:0:
147,33,227659,5,0,1:0:0:0:
143,370,227882,1,4,0:3:0:0:
147,33,228104,5,4,0:0:0:0:
148,23,228326,2,0,L|48:7,1,90.9999958343508
17,248,228548,2,0,P|87:151|56:62,1,181.999991668702,0|2,1:0|0:0,0:0:0:0:
147,352,228882,1,0,0:0:0:0:
147,352,228993,6,0,P|119:323|47:331,1,90.9999958343508,0|0,3:0|0:0,0:0:0:0:
2,378,229215,1,2,0:0:0:0:
2,378,229326,1,0,0:0:0:0:
17,248,229437,2,0,B|57:202|57:202|184:211,1,181.999991668702,0|2,1:0|0:0,0:0:0:0:
394,157,229770,1,0,0:0:0:0:
436,239,229882,6,0,P|354:286|276:258,1,181.999991668702,0|2,3:0|0:0,0:0:0:0:
261,169,230215,1,0,0:0:0:0:
200,293,230326,2,0,P|206:339|202:386,1,90.9999958343508,0|0,1:0|0:0,0:0:0:0:
261,169,230548,2,0,P|257:123|263:78,1,90.9999958343508,2|0,0:0|0:0,0:0:0:0:
0,187,230770,6,0,L|195:213,1,181.999991668702,0|2,3:0|0:0,0:0:0:0:
346,159,231104,1,0,0:0:0:0:
398,233,231215,2,0,B|430:263|430:263|491:246,1,90.9999958343508,0|0,1:0|0:0,0:0:0:0:
327,283,231437,2,0,B|332:326|332:326|389:352,1,90.9999958343508,2|0,0:0|0:0,0:0:0:0:
272,216,231659,6,0,B|200:192|200:192|156:296,1,181.999991668702,0|0,3:0|0:0,0:0:0:0:
208,364,231993,1,0,0:0:0:0:
80,312,232104,2,0,P|52:280|-16:288,1,90.9999958343508,0|0,1:0|0:0,0:0:0:0:
184,192,232326,2,0,P|168:160|188:84,1,90.9999958343508,2|0,0:0|0:0,0:0:0:0:
7,54,232548,6,0,P|48:48|95:31,2,90.9999958343508,0|0|2,3:0|0:0|0:0,0:0:0:0:
3,145,232882,1,0,0:0:0:0:
72,203,232993,2,0,P|168:174|193:88,1,181.999991668702,0|2,1:0|0:0,0:0:0:0:
330,45,233327,1,0,0:0:0:0:
388,201,233437,2,0,P|374:160|384:109,1,90.9999958343508,0|0,3:0|0:0,0:0:0:0:
511,114,233659,2,0,P|518:158|504:201,1,90.9999958343508,8|0,0:3|0:0,0:0:0:0:
362,349,233882,5,0,1:0:0:0:
270,359,233993,1,8,0:3:0:0:
197,306,234104,1,0,1:0:0:0:
190,215,234215,1,4,0:3:0:0:
274,197,234326,5,0,1:0:0:0:
278,245,234437,1,8,3:0:0:0:
317,273,234548,1,0,1:0:0:0:
365,268,234659,1,4,3:0:0:0:
374,178,234770,5,0,1:0:0:0:
362,179,234882,1,0,1:0:0:0:
352,172,234993,1,4,0:3:0:0:
352,161,235103,1,4,3:0:0:0:
402,102,235215,6,0,P|392:128|358:293,1,181.999991668702,4|2,0:0|0:0,0:0:0:0:
370,24,235548,1,0,0:0:0:0:
267,167,235659,2,0,P|264:213|275:268,1,90.9999958343508,0|0,1:0|0:0,0:0:0:0:
480,226,235882,2,0,P|463:278|428:317,1,90.9999958343508,2|0,0:0|0:0,0:0:0:0:
303,352,236104,6,0,P|225:281|151:305,2,181.999991668702,0|2|0,3:0|0:0|1:0,0:0:0:0:
129,378,236659,1,0,0:0:0:0:
45,343,236770,2,0,P|42:289|32:237,1,90.9999958343508,2|0,0:0|0:0,0:0:0:0:
194,72,236993,6,0,B|131:84|131:84|118:221,1,181.999991668702,0|2,3:0|0:0,0:0:0:0:
155,284,237326,1,0,0:0:0:0:
40,159,237437,2,0,L|51:57,1,90.9999958343508,0|0,1:0|0:0,0:0:0:0:
238,258,237659,2,0,L|249:156,1,90.9999958343508,2|0,0:0|0:0,0:0:0:0:
432,113,237882,6,0,P|407:76|334:75,1,90.9999958343508,0|0,3:0|0:0,0:0:0:0:
331,176,238104,1,2,0:0:0:0:
441,105,238215,2,0,P|416:68|343:67,1,90.9999958343508,2|0,0:0|1:0,0:0:0:0:
183,111,238437,1,0,0:0:0:0:
214,24,238548,2,0,L|313:4,1,90.9999958343508,2|0,0:0|0:0,0:0:0:0:
243,279,238770,6,0,L|272:78,1,181.999991668702,0|0,3:0|0:0,0:0:0:0:
333,194,239104,1,0,0:0:0:0:
166,250,239215,2,0,P|120:250|81:211,1,90.9999958343508,0|0,1:0|0:0,0:0:0:0:
86,380,239437,6,0,P|13:337|5:232,1,181.999991668702,2|0,0:0|3:0,0:0:0:0:
99,109,239770,1,0,0:0:0:0:
28,50,239882,6,0,P|23:93|8:144,1,90.9999958343508,2|0,0:0|0:0,0:0:0:0:
247,150,240104,2,0,P|234:106|229:61,1,90.9999958343508,0|0,1:0|0:0,0:0:0:0:
79,222,240326,2,0,B|121:195|121:195|164:216,1,90.9999958343508,2|0,0:0|0:0,0:0:0:0:
277,311,240549,5,0,3:0:0:0:
465,140,240770,1,2,0:0:0:0:
465,140,240882,1,0,0:0:0:0:
458,225,240993,2,0,L|342:207,1,90.9999958343508,2|0,1:2|0:0,0:0:0:0:
202,167,241215,1,2,0:0:0:0:
180,78,241326,1,0,0:0:0:0:
253,23,241437,6,0,P|345:14|403:89,1,181.999991668702,0|4,3:0|0:0,0:0:0:0:
297,272,241770,1,2,0:0:0:0:
288,180,241882,2,0,P|300:132|314:80,1,90.9999958343508,0|0,1:0|0:0,0:0:0:0:
105,134,242104,2,0,P|93:86|79:34,1,90.9999958343508,4|0,0:2|0:0,0:0:0:0:
183,249,242326,5,0,3:0:0:0:
9,232,242548,1,0,0:0:0:0:
9,232,242659,1,0,0:0:0:0:
9,232,242771,2,0,P|54:238|111:209,1,90.9999958343508,0|0,1:0|0:0,0:0:0:0:
357,217,242993,2,0,P|312:211|256:238,1,90.9999958343508,2|0,0:0|0:0,0:0:0:0:
196,102,243215,6,0,L|186:206,1,90.9999958343508,0|0,3:0|0:0,0:0:0:0:
206,384,243437,1,2,0:0:0:0:
226,302,243548,2,0,B|156:282|119:390|49:368,1,181.999991668702,2|0,0:0|0:0,3:0:0:0:
0,308,243882,1,2,0:0:0:0:
11,300,244104,6,0,B|32:258|32:258|9:207,1,90.9999958343508,0|0,3:0|0:0,0:0:0:0:
12,34,244326,2,0,L|1:143,1,90.9999927349095,2|0,0:0|0:0,0:0:0:0:
124,198,244548,2,0,L|113:302,1,90.9999927349095,0|0,1:0|0:0,0:0:0:0:
263,0,244770,2,0,L|252:90,1,90.9999927349095,2|0,0:0|0:0,0:0:0:0:
168,107,244993,5,0,3:0:0:0:
168,107,245104,1,0,0:0:0:0:
230,174,245215,2,0,L|348:162,1,90.9999958343508,2|0,0:0|0:0,0:0:0:0:
512,308,245438,2,0,L|495:203,1,90.9999958343508,0|0,1:0|0:0,0:0:0:0:
399,220,245659,6,0,P|331:284|350:369,1,181.999991668702,2|0,0:0|3:0,0:0:0:0:
193,378,245993,1,0,0:0:0:0:
102,380,246104,1,0,0:0:0:0:
48,306,246215,1,0,0:0:0:0:
80,220,246326,2,0,P|126:202|179:219,1,90.9999958343508,0|0,1:0|0:0,0:0:0:0:
237,305,246548,1,2,0:0:0:0:
237,305,246659,1,0,0:0:0:0:
228,151,246770,6,0,L|216:54,1,90.9999958343508,0|0,3:0|0:0,0:0:0:0:
342,17,246993,1,0,0:0:0:0:
424,54,247104,1,0,0:0:0:0:
398,141,247215,2,0,L|300:119,1,90.9999958343508,2|0,1:2|0:0,0:0:0:0:
436,280,247437,2,0,P|363:218|264:230,1,181.999991668702,2|0,0:0|3:0,0:0:0:0:
297,313,247770,5,0,0:0:0:0:
297,313,247882,2,0,P|328:337|379:341,1,90.9999958343508,2|0,0:0|0:0,0:0:0:0:
191,361,248104,2,0,P|192:314|225:262,1,90.9999958343508,0|0,1:0|0:0,0:0:0:0:
20,301,248326,2,0,P|118:252|162:179,1,181.999991668702,2|4,0:0|0:3,0:0:0:0:
133,57,248659,5,0,1:0:0:0:
233,152,248770,2,0,P|223:108|218:57,2,90.9999958343508,0|8|0,3:0|0:3|1:0,0:0:0:0:
455,241,249104,1,0,3:0:0:0:
367,214,249216,1,0,1:0:0:0:
281,246,249327,1,0,1:0:0:0:
266,332,249437,6,0,P|348:360|406:328,1,140,4|2,0:2|0:0,0:0:0:0:
186,357,249770,1,0,0:0:0:0:
117,320,249882,2,0,P|76:316|31:339,1,70,0|0,1:0|0:0,0:0:0:0:
205,205,250104,2,0,P|199:239|199:298,1,70,2|0,0:0|0:0,0:0:0:0:
247,128,250326,6,0,B|205:66|205:66|131:86,1,140,2|0,3:2|0:0,0:0:0:0:
64,36,250659,1,0,0:0:0:0:
64,36,250770,2,0,L|68:113,1,70,0|0,1:0|0:0,0:0:0:0:
333,137,250993,2,0,L|329:67,1,70,2|0,0:0|0:0,0:0:0:0:
70,205,251215,6,0,P|39:182|-8:185,1,70,0|0,3:0|0:0,0:0:0:0:
129,373,251438,1,2,0:0:0:0:
139,296,251549,1,0,0:0:0:0:
151,220,251659,2,0,P|271:191|295:246,1,140,0|2,1:0|0:0,0:0:0:0:
358,357,251993,1,0,0:0:0:0:
407,297,252104,6,0,L|492:311,2,70,0|0|2,3:0|0:0|0:0,0:0:0:0:
370,229,252437,1,0,0:0:0:0:
278,332,252548,2,0,L|296:253,1,70,0|0,1:0|0:0,0:0:0:0:
410,158,252770,2,0,L|428:79,1,70,2|0,0:0|0:0,0:0:0:0:
284,21,252993,6,0,B|216:0|216:0|146:61,1,140,0|0,3:0|0:0,0:0:0:0:
200,205,253326,2,0,B|268:226|268:226|319:180,1,140,2|0,0:0|0:0,3:0:0:0:
280,107,253659,2,0,L|198:122,1,70,2|0,0:0|0:0,0:0:0:0:
68,168,253882,5,0,3:0:0:0:
68,168,253993,1,0,0:0:0:0:
23,101,254104,2,0,P|32:67|11:17,1,70,2|0,0:0|0:0,0:0:0:0:
216,26,254326,2,0,P|159:31|115:99,1,140,0|2,1:0|0:0,0:0:0:0:
97,280,254659,1,0,0:0:0:0:
159,235,254770,6,0,L|6:207,1,140,0|2,3:0|0:0,0:0:0:0:
221,284,255104,1,0,0:0:0:0:
274,228,255215,2,0,P|279:193|298:149,2,70,0|2|0,1:0|0:0|0:0,0:0:0:0:
469,264,255548,6,0,P|471:203|430:108,1,140,2|0,0:0|1:0,3:0:0:0:
373,166,255882,2,0,P|385:198|388:233,1,70,4|0,0:0|0:0,0:0:0:0:
466,376,256104,5,0,1:0:0:0:
413,319,256215,1,0,3:0:0:0:
339,297,256326,1,0,3:0:0:0:
262,299,256437,1,0,0:0:0:0:
207,352,256548,6,0,P|137:334|125:250,1,140,4|0,3:2|0:0,0:0:0:0:
46,204,256882,1,2,0:0:0:0:
46,204,256993,2,0,P|37:239|34:282,2,70,0|0|2,1:0|0:0|0:0,0:0:0:0:
169,103,257326,1,0,0:0:0:0:
101,66,257437,6,0,L|12:79,1,70,0|2,3:0|0:0,0:0:0:0:
196,181,257659,2,0,L|107:194,1,70
251,120,257882,2,0,L|238:31,1,70,0|0,1:0|0:0,0:0:0:0:
55,222,258104,2,0,L|42:133,1,70,2|0,0:0|0:0,0:0:0:0:
74,18,258326,6,0,P|154:59|168:119,1,140,0|2,3:0|0:0,0:0:0:0:
268,250,258659,1,0,0:0:0:0:
320,193,258770,2,0,L|399:211,1,70,0|0,1:0|0:0,0:0:0:0:
463,68,258993,1,2,0:0:0:0:
400,23,259104,1,2,0:0:0:0:
325,43,259215,6,0,L|338:128,1,70,0|0,3:0|0:0,0:0:0:0:
450,269,259437,2,0,L|463:354,1,70,2|0,0:0|0:0,0:0:0:0:
504,160,259659,2,0,L|349:189,2,140,0|2|0,1:0|0:0|3:0,0:0:0:0:
512,384,260215,5,0,0:0:0:0:
435,384,260326,1,0,0:0:0:0:
385,324,260437,1,2,0:0:0:0:
417,254,260548,2,0,P|452:249|491:266,1,70,0|0,1:0|0:0,0:0:0:0:
285,359,260770,2,0,P|289:322|320:282,1,70,2|0,0:0|0:0,0:0:0:0:
341,121,260993,6,0,L|363:210,2,70,0|0|2,3:0|0:0|0:0,0:0:0:0:
274,83,261326,1,0,0:0:0:0:
282,219,261437,2,0,P|222:185|137:216,2,140,0|2|0,1:0|0:0|3:0,0:0:0:0:
224,363,261993,6,0,P|178:363|142:341,1,70,0|2,0:0|0:0,0:0:0:0:
137,278,262215,1,0,0:0:0:0:
69,384,262326,2,0,L|52:240,1,140,0|2,1:0|0:0,0:0:0:0:
129,85,262659,1,0,0:0:0:0:
80,25,262770,6,0,P|54:54|66:111,1,70,4|0,1:3|1:0,0:0:0:0:
178,230,262993,1,0,1:0:0:0:
297,191,263104,1,8,0:3:0:0:
178,153,263215,1,0,1:0:0:0:
252,254,263326,1,0,1:0:0:0:
252,129,263437,1,4,1:2:0:0:
