osu file format v14

[General]
AudioFilename: audio.mp3
AudioLeadIn: 0
PreviewTime: 60767
Countdown: 0
SampleSet: Soft
StackLeniency: 0.7
Mode: 3
LetterboxInBreaks: 0
EpilepsyWarning: 1
SpecialStyle: 0
WidescreenStoryboard: 1

[Editor]
Bookmarks: 545,14767,28989,32544,46767,60989,89433,92989,107211,121433,135656,164100,178322,192544,220989,249433
DistanceSpacing: 1
BeatDivisor: 4
GridSize: 32
TimelineZoom: 1.9

[Metadata]
Title:Sakurairo Prism
TitleUnicode:桜色プリズム
Artist:Endorfin.
ArtistUnicode:Endorfin.
Creator:[RT]Alleyne
Version:Madoka's Hard
Source:
Tags:Horizon Note sky_delta 藍月なくる pop electric j-pop pops Tokyo pop LN Madoka2574 dudehacker Drum-Hitnormal Calvaria Japanese
BeatmapID:2514724
BeatmapSetID:1110686

[Difficulty]
HPDrainRate:7.5
CircleSize:4
OverallDifficulty:7
ApproachRate:5
SliderMultiplier:1.4
SliderTickRate:1

[Events]
//Background and Video events
0,0,"bg.jpg",0,0
//Break Periods
//Storyboard Layer 0 (Background)
//Storyboard Layer 1 (Fail)
//Storyboard Layer 2 (Pass)
//Storyboard Layer 3 (Foreground)
Sprite,Foreground,Centre,"sb\title.png",320,240 S,0,7656,,0.621118 F,1,7656,9100,1 F,1,9100,9322,1,0
Sprite,Foreground,Centre,"sb\title22.png",320,240 S,0,9433,,0.447205 F,1,9433,10878,1 F,1,10878,11100,1,0
Sprite,Foreground,Centre,"sb\logo.png",320,240 S,0,11211,,0.6 F,1,11211,14322,1
Sprite,Foreground,Centre,"sb\logo2.png",320,240 S,0,14322,,0.6 F,1,14322,14767,1 F,1,14767,263433,0 F,1,263433,265656,1,0
//Storyboard Layer 4 (Overlay)
//Storyboard Sound Samples
Sample,28211,0,"soft-hitwhistle.wav",0
Sample,106489,0,"soft-hitclap.wav",35
Sample,124767,0,"HHOpen.wav",70
Sample,128544,0,"Ride.wav",70
Sample,131878,0,"HHOpen.wav",70
Sample,132100,0,"Ride.wav",70
Sample,133952,0,"soft-hitclap.wav",0
Sample,134026,0,"soft-hitclap.wav",0
Sample,220378,0,"soft-hitclap.wav",0
Sample,220794,0,"soft-hitclap.wav",0
Sample,234989,0,"Splash.wav",70

[TimingPoints]
545,444.444444444444,4,2,1,70,1,0
60989,-100.0,4,2,1,70,0,1
89433,-100.0,4,2,1,70,0,0
135656,-100.0,4,2,1,70,0,1
164100,-100.0,4,2,1,70,0,0
220989,-100.0,4,2,1,70,0,1
249433,-100.0,4,2,1,70,0,0

[HitObjects]
64,192,461,1,0,0:0:0:0:
192,192,489,1,0,0:0:0:0:
320,192,545,1,0,0:0:0:0:
448,192,545,1,0,0:0:0:0:
64,192,989,1,0,0:0:0:0:
192,192,1211,1,0,0:0:0:0:
448,192,1211,1,0,0:0:0:0:
320,192,1656,1,0,0:0:0:0:
64,192,1878,1,0,0:0:0:0:
448,192,1989,1,0,0:0:0:0:
64,192,2322,1,0,0:0:0:0:
192,192,2322,1,0,0:0:0:0:
192,192,2961,1,0,0:0:0:0:
320,192,2961,1,0,0:0:0:0:
320,192,3350,1,0,0:0:0:0:
448,192,3406,1,0,0:0:0:0:
64,192,3628,1,0,0:0:0:0:
192,192,3878,1,0,0:0:0:0:
320,192,4100,1,0,0:0:0:0:
448,192,4100,1,0,0:0:0:0:
192,192,4544,1,0,0:0:0:0:
64,192,4767,1,0,0:0:0:0:
320,192,4767,1,0,0:0:0:0:
448,192,5211,1,0,0:0:0:0:
320,192,5433,1,0,0:0:0:0:
64,192,5656,1,0,0:0:0:0:
192,192,5656,1,0,0:0:0:0:
320,192,6322,1,0,0:0:0:0:
64,192,6544,1,0,0:0:0:0:
448,192,6767,1,0,0:0:0:0:
320,192,7100,1,0,0:0:0:0:
192,192,7433,1,0,0:0:0:0:
64,192,7656,1,0,0:0:0:0:
448,192,7656,1,0,0:0:0:0:
192,192,7878,1,0,0:0:0:0:
448,192,8100,1,0,0:0:0:0:
64,192,8322,1,0,0:0:0:0:
320,192,8544,1,0,0:0:0:0:
448,192,8767,1,0,0:0:0:0:
192,192,8989,1,0,0:0:0:0:
448,192,9100,1,0,0:0:0:0:
64,192,9211,1,0,0:0:0:0:
192,192,9433,1,0,0:0:0:0:
320,192,9433,1,0,0:0:0:0:
448,192,9656,1,0,0:0:0:0:
64,192,9878,1,0,0:0:0:0:
192,192,10100,1,0,0:0:0:0:
448,192,10322,1,0,0:0:0:0:
320,192,10461,1,0,0:0:0:0:
448,192,10517,1,0,0:0:0:0:
64,192,10544,1,0,0:0:0:0:
192,192,10767,1,0,0:0:0:0:
320,192,10989,1,0,0:0:0:0:
64,192,11211,1,0,0:0:0:0:
448,192,11211,1,0,0:0:0:0:
192,192,11433,1,0,0:0:0:0:
320,192,11656,1,0,0:0:0:0:
64,192,11878,1,0,0:0:0:0:
448,192,12100,1,0,0:0:0:0:
192,192,12322,1,0,0:0:0:0:
448,192,12544,1,0,0:0:0:0:
64,192,12767,1,0,0:0:0:0:
320,192,12767,1,0,0:0:0:0:
192,192,12989,1,0,0:0:0:0:
64,192,13211,1,0,0:0:0:0:
320,192,13433,1,0,0:0:0:0:
448,192,13656,128,0,13878:0:0:0:0:
64,192,13878,1,0,0:0:0:0:
192,192,14100,1,2,0:0:0:0:
448,192,14100,128,0,14322:0:0:0:0:
64,192,14322,1,8,0:0:0:0:
320,192,14322,1,0,0:0:0:0:
192,192,14544,1,0,0:0:0:0:
64,192,14767,128,2,15100:0:0:0:0:
320,192,14767,1,4,0:0:0:0:
448,192,14767,1,0,0:0:0:0:
320,192,15100,128,0,15433:0:0:0:0:
64,192,15211,1,8,0:0:0:0:
192,192,15211,1,0,0:0:0:0:
448,192,15433,128,0,15767:0:0:0:0:
64,192,15656,1,2,0:0:0:0:
320,192,15656,1,0,0:0:0:0:
192,192,15767,128,0,16100:0:0:0:0:
64,192,16100,128,8,16544:0:0:0:0:
448,192,16100,1,0,0:0:0:0:
320,192,16322,128,0,16544:0:0:0:0:
192,192,16544,128,2,16767:0:0:0:0:
448,192,16544,1,0,0:0:0:0:
64,192,16767,128,0,16989:0:0:0:0:
192,192,16989,1,8,0:0:0:0:
448,192,16989,128,0,17322:0:0:0:0:
320,192,17211,128,0,17322:0:0:0:0:
64,192,17322,128,0,17656:0:0:0:0:
320,192,17433,1,2,0:0:0:0:
448,192,17433,1,0,0:0:0:0:
192,192,17656,128,0,17878:0:0:0:0:
64,192,17878,128,8,18322:0:0:0:0:
320,192,17878,1,0,0:0:0:0:
448,192,18100,128,0,18322:0:0:0:0:
192,192,18322,1,2,0:0:0:0:
320,192,18322,128,0,18656:0:0:0:0:
448,192,18656,128,0,18989:0:0:0:0:
64,192,18767,1,8,0:0:0:0:
192,192,18767,1,0,0:0:0:0:
64,192,18989,128,0,19433:0:0:0:0:
192,192,19211,128,2,19656:0:0:0:0:
320,192,19211,1,0,0:0:0:0:
448,192,19433,128,0,19878:0:0:0:0:
64,192,19656,1,8,0:0:0:0:
320,192,19656,128,0,20100:0:0:0:0:
64,192,19878,128,0,20322:0:0:0:0:
192,192,20100,128,2,20322:0:0:0:0:
448,192,20100,1,0,0:0:0:0:
320,192,20322,128,0,20544:0:0:0:0:
192,192,20544,1,8,0:0:0:0:
448,192,20544,128,0,20878:0:0:0:0:
64,192,20656,128,0,20767:0:0:0:0:
192,192,20767,128,0,20878:0:0:0:0:
320,192,20878,128,0,21433:0:0:0:0:
64,192,20989,1,2,0:0:0:0:
192,192,20989,1,0,0:0:0:0:
448,192,21211,128,0,21433:0:0:0:0:
64,192,21433,1,8,0:0:0:0:
192,192,21433,1,0,0:0:0:0:
448,192,21544,1,0,0:0:0:0:
192,192,21656,1,0,0:0:0:0:
64,192,21878,1,2,0:0:0:0:
320,192,21878,128,4,22211:0:0:0:0:
448,192,21878,1,0,0:0:0:0:
64,192,22211,128,0,22544:0:0:0:0:
192,192,22322,1,8,0:0:0:0:
320,192,22322,1,0,0:0:0:0:
448,192,22544,128,0,22878:0:0:0:0:
64,192,22767,1,2,0:0:0:0:
192,192,22767,1,0,0:0:0:0:
320,192,22878,128,0,23211:0:0:0:0:
64,192,23211,128,8,23656:0:0:0:0:
448,192,23211,1,0,0:0:0:0:
192,192,23433,128,0,23656:0:0:0:0:
320,192,23656,1,2,0:0:0:0:
448,192,23656,128,0,23878:0:0:0:0:
64,192,23878,128,0,24100:0:0:0:0:
320,192,24100,128,8,24433:0:0:0:0:
448,192,24100,1,0,0:0:0:0:
64,192,24433,128,0,24767:0:0:0:0:
192,192,24544,1,2,0:0:0:0:
448,192,24544,1,0,0:0:0:0:
320,192,24767,128,0,24989:0:0:0:0:
64,192,24989,1,8,0:0:0:0:
192,192,24989,128,0,25211:0:0:0:0:
448,192,25211,128,0,25433:0:0:0:0:
64,192,25433,1,2,0:0:0:0:
320,192,25433,128,0,25767:0:0:0:0:
192,192,25767,128,0,26100:0:0:0:0:
64,192,25878,1,8,0:0:0:0:
448,192,25878,1,0,0:0:0:0:
320,192,26100,128,0,26989:0:0:0:0:
64,192,26322,1,2,0:0:0:0:
192,192,26322,1,0,0:0:0:0:
448,192,26544,1,0,0:0:0:0:
64,192,26767,1,8,0:0:0:0:
448,192,26767,1,0,0:0:0:0:
192,192,26989,128,0,27211:0:0:0:0:
64,192,27211,1,2,0:0:0:0:
448,192,27211,1,0,0:0:0:0:
192,192,27433,1,0,0:0:0:0:
320,192,27656,1,8,0:0:0:0:
448,192,27656,128,0,27878:0:0:0:0:
64,192,27878,1,0,0:0:0:0:
192,192,27989,1,8,0:0:0:0:
320,192,28100,1,2,0:0:0:0:
448,192,28100,1,0,0:0:0:0:
64,192,28322,128,8,28544:0:0:0:0:
192,192,28322,1,0,0:0:0:0:
320,192,28433,1,8,0:0:0:0:
448,192,28544,1,8,0:0:0:0:
192,192,28656,1,8,0:0:0:0:
64,192,28767,1,8,0:0:0:0:
320,192,28878,1,8,0:0:0:0:
64,192,28989,1,2,0:0:0:0:
192,192,28989,1,4,0:0:0:0:
448,192,28989,1,0,0:0:0:0:
320,192,29211,1,0,0:0:0:0:
448,192,29322,1,0,0:0:0:0:
64,192,29433,1,8,0:0:0:0:
192,192,29544,1,0,0:0:0:0:
448,192,29767,1,0,0:0:0:0:
192,192,29878,1,2,0:0:0:0:
320,192,29989,1,0,0:0:0:0:
448,192,30100,1,0,0:0:0:0:
64,192,30211,1,0,0:0:0:0:
448,192,30322,1,8,0:0:0:0:
320,192,30433,1,0,0:0:0:0:
192,192,30544,1,0,0:0:0:0:
64,192,30767,1,2,0:0:0:0:
448,192,30878,1,0,0:0:0:0:
320,192,30989,1,0,0:0:0:0:
192,192,31100,1,0,0:0:0:0:
448,192,31211,1,8,0:0:0:0:
64,192,31322,1,0,0:0:0:0:
192,192,31433,1,0,0:0:0:0:
320,192,31544,1,2,0:0:0:0:
448,192,31544,1,0,0:0:0:40:LR_CymbalFSU.wav
192,192,31767,1,8,0:0:0:0:
320,192,31878,1,2,0:0:0:0:
448,192,31878,1,0,0:0:0:40:LR_CymbalFSU.wav
192,192,32322,128,0,32544:0:0:0:0:
64,192,32544,1,4,0:0:0:0:
320,192,32544,1,2,0:0:0:0:
448,192,32544,128,0,32767:0:0:0:0:
192,192,32767,128,0,32878:0:0:0:0:
320,192,32878,128,0,32989:0:0:0:0:
64,192,32989,1,8,0:0:0:0:
448,192,32989,1,0,0:0:0:0:
192,192,33211,128,0,33322:0:0:0:0:
64,192,33322,128,0,33433:0:0:0:0:
320,192,33433,1,2,0:0:0:0:
448,192,33433,1,0,0:0:0:0:
192,192,33656,128,0,33767:0:0:0:0:
448,192,33767,128,0,33878:0:0:0:0:
64,192,33878,1,8,0:0:0:0:
320,192,33878,1,0,0:0:0:0:
192,192,34100,128,0,34322:0:0:0:0:
64,192,34322,1,2,0:0:0:0:
448,192,34322,1,0,0:0:0:0:
320,192,34433,1,0,0:0:0:0:
192,192,34544,1,0,0:0:0:0:
448,192,34656,1,0,0:0:0:0:
320,192,34767,1,8,0:0:0:0:
64,192,34878,1,0,0:0:0:0:
192,192,34989,1,0,0:0:0:0:
320,192,35211,1,2,0:0:0:0:
448,192,35211,1,0,0:0:0:0:
192,192,35433,1,0,0:0:0:0:
64,192,35656,1,8,0:0:0:0:
448,192,35656,1,0,0:0:0:0:
320,192,35878,128,0,35989:0:0:0:0:
448,192,35989,128,0,36100:0:0:0:0:
64,192,36100,1,2,0:0:0:0:
192,192,36100,128,0,36322:0:0:0:0:
320,192,36322,128,0,36433:0:0:0:0:
64,192,36433,128,0,36544:0:0:0:0:
192,192,36544,1,8,0:0:0:0:
448,192,36544,1,0,0:0:0:0:
192,192,36767,128,0,36878:0:0:0:0:
320,192,36878,128,0,36989:0:0:0:0:
64,192,36989,1,2,0:0:0:0:
448,192,36989,1,0,0:0:0:0:
448,192,37211,128,0,37322:0:0:0:0:
64,192,37433,128,8,37544:0:0:0:0:
320,192,37433,1,0,0:0:0:0:
192,192,37544,128,0,37656:0:0:0:0:
448,192,37767,128,0,38100:0:0:0:0:
64,192,37878,1,2,0:0:0:0:
192,192,37878,1,0,0:0:0:0:
320,192,38100,128,0,38322:0:0:0:0:
64,192,38322,1,8,0:0:0:0:
448,192,38322,1,0,0:0:0:0:
192,192,38433,1,0,0:0:0:0:
320,192,38544,1,0,0:0:0:0:
64,192,38767,1,2,0:0:0:0:
192,192,38767,1,0,0:0:0:0:
320,192,38878,1,8,0:0:0:0:
448,192,38878,1,0,0:0:0:0:
320,192,39211,1,8,0:0:0:0:
448,192,39211,1,0,0:0:0:0:
64,192,39322,1,8,0:0:0:0:
192,192,39433,128,2,39544:0:0:0:0:
320,192,39544,128,0,39656:0:0:0:0:
64,192,39656,128,4,39878:0:0:0:0:
192,192,39656,1,2,0:0:0:0:
448,192,39656,1,0,0:0:0:0:
448,192,39878,128,0,39989:0:0:0:0:
192,192,39989,128,0,40100:0:0:0:0:
64,192,40100,1,8,0:0:0:0:
320,192,40100,1,0,0:0:0:0:
64,192,40322,128,0,40433:0:0:0:0:
448,192,40433,128,0,40544:0:0:0:0:
192,192,40544,1,2,0:0:0:0:
320,192,40544,1,0,0:0:0:0:
320,192,40767,128,0,40878:0:0:0:0:
64,192,40878,128,0,40989:0:0:0:0:
192,192,40989,1,8,0:0:0:0:
448,192,40989,1,0,0:0:0:0:
320,192,41211,128,0,41433:0:0:0:0:
64,192,41433,1,2,0:0:0:0:
448,192,41433,1,0,0:0:0:0:
192,192,41544,1,0,0:0:0:0:
320,192,41656,1,0,0:0:0:0:
64,192,41767,1,0,0:0:0:0:
192,192,41878,1,8,0:0:0:0:
448,192,41989,1,0,0:0:0:0:
320,192,42100,128,0,42322:0:0:0:0:
64,192,42322,128,2,42656:0:0:0:0:
448,192,42322,1,0,0:0:0:0:
448,192,42656,128,0,42989:0:0:0:0:
64,192,42767,1,8,0:0:0:0:
192,192,42767,1,0,0:0:0:0:
320,192,42989,128,0,43211:0:0:0:0:
192,192,43211,1,2,0:0:0:0:
448,192,43211,1,0,0:0:0:0:
448,192,43433,128,0,43656:0:0:0:0:
64,192,43656,128,8,43878:0:0:0:0:
320,192,43656,1,0,0:0:0:0:
192,192,43878,128,0,44100:0:0:0:0:
320,192,44100,1,2,0:0:0:0:
448,192,44100,1,0,0:0:0:0:
64,192,44322,128,0,44544:0:0:0:0:
192,192,44544,1,8,0:0:0:0:
448,192,44544,128,0,44767:0:0:0:0:
320,192,44767,128,0,44989:0:0:0:0:
64,192,44989,1,2,0:0:0:0:
192,192,44989,128,0,45100:0:0:0:0:
448,192,45100,1,0,0:0:0:0:
320,192,45211,1,0,0:0:0:0:
64,192,45322,128,0,45433:0:0:0:0:
192,192,45433,1,8,0:0:0:0:
320,192,45544,1,0,0:0:0:0:
448,192,45656,128,0,45767:0:0:0:0:
64,192,45878,1,2,0:0:0:0:
448,192,45989,1,8,0:0:0:0:
192,192,46100,128,0,46211:0:0:0:70:Splash.wav
320,192,46100,1,0,0:0:0:0:
64,192,46322,1,8,0:0:0:0:
192,192,46433,1,0,0:0:0:0:
320,192,46544,128,0,46767:0:0:0:0:
64,192,46767,1,2,0:0:0:0:
192,192,46767,1,4,0:0:0:0:
448,192,46767,128,0,46989:0:0:0:0:
64,192,46989,128,0,47100:0:0:0:0:
320,192,47100,128,0,47211:0:0:0:0:
192,192,47211,1,8,0:0:0:0:
448,192,47211,1,0,0:0:0:0:
448,192,47433,128,0,47544:0:0:0:0:
64,192,47544,128,0,47656:0:0:0:0:
192,192,47656,1,2,0:0:0:0:
320,192,47656,1,0,0:0:0:0:
192,192,47822,128,0,47933:0:0:0:0:
320,192,47933,128,0,48100:0:0:0:0:
64,192,48100,1,8,0:0:0:0:
448,192,48100,1,0,0:0:0:0:
448,192,48322,128,0,48544:0:0:0:70:HHOpen.wav
192,192,48544,1,2,0:0:0:0:
320,192,48544,1,0,0:0:0:0:
64,192,48656,1,0,0:0:0:0:
448,192,48767,1,0,0:0:0:0:
320,192,48878,1,0,0:0:0:0:
64,192,48989,1,8,0:0:0:0:
192,192,49100,1,0,0:0:0:0:
448,192,49211,128,0,49433:0:0:0:0:
64,192,49433,128,2,49656:0:0:0:0:
192,192,49433,1,0,0:0:0:0:
320,192,49656,128,0,49878:0:0:0:0:
64,192,49878,1,8,0:0:0:0:
448,192,49878,128,0,50100:0:0:0:0:
192,192,50100,128,0,50211:0:0:0:70:HHOpen.wav
320,192,50211,128,0,50322:0:0:0:0:
64,192,50322,128,2,50544:0:0:0:0:
192,192,50322,1,0,0:0:0:0:
320,192,50544,128,0,50656:0:0:0:0:
192,192,50656,128,0,50767:0:0:0:0:
320,192,50767,1,8,0:0:0:0:
448,192,50767,1,0,0:0:0:0:
64,192,50878,128,0,50989:0:0:0:0:
448,192,50989,128,0,51211:0:0:0:0:
64,192,51211,1,2,0:0:0:0:
192,192,51211,1,0,0:0:0:0:
448,192,51433,128,0,51656:0:0:0:0:
64,192,51656,128,8,51878:0:0:0:0:
192,192,51656,1,0,0:0:0:0:
320,192,51878,128,0,52100:0:0:0:70:HHOpen.wav
192,192,52100,1,2,0:0:0:0:
448,192,52100,1,0,0:0:0:0:
448,192,52322,128,0,52544:0:0:0:0:
64,192,52544,128,8,52656:0:0:0:0:
320,192,52544,1,0,0:0:0:0:
192,192,52656,128,0,52767:0:0:0:0:
320,192,52767,128,0,52989:0:0:0:0:
192,192,52989,1,2,0:0:0:0:
448,192,52989,1,0,0:0:0:0:
64,192,53211,128,0,53433:0:0:0:0:
320,192,53433,1,8,0:0:0:0:
448,192,53433,128,0,53656:0:0:0:0:
192,192,53656,128,2,53878:0:0:0:0:
64,192,53878,1,2,0:0:0:0:
320,192,53878,1,4,0:0:0:0:
448,192,53878,1,0,0:0:0:0:
192,192,54100,1,0,0:0:0:0:
64,192,54322,128,8,54767:0:0:0:0:
320,192,54322,1,0,0:0:0:0:
448,192,54544,1,0,0:0:0:70:HHOpen.wav
192,192,54767,1,2,0:0:0:0:
320,192,54767,128,0,55211:0:0:0:0:
64,192,54989,1,0,0:0:0:70:HHOpen.wav
192,192,55211,1,8,0:0:0:0:
448,192,55211,128,0,55656:0:0:0:0:
320,192,55433,1,0,0:0:0:70:HHOpen.wav
64,192,55656,128,2,56100:0:0:0:0:
192,192,55656,1,0,0:0:0:0:
448,192,55878,1,0,0:0:0:70:HHOpen.wav
192,192,56100,1,8,0:0:0:0:
320,192,56100,128,0,56544:0:0:0:0:
64,192,56322,1,0,0:0:0:70:HHOpen.wav
192,192,56544,128,2,56989:0:0:0:0:
448,192,56544,1,0,0:0:0:0:
320,192,56767,1,0,0:0:0:70:HHOpen.wav
64,192,56989,1,8,0:0:0:0:
448,192,56989,128,0,57211:0:0:0:0:
320,192,57211,128,0,57878:0:0:0:70:HHOpen.wav
192,192,57433,1,2,0:0:0:0:
448,192,57433,1,0,0:0:0:0:
64,192,57656,1,0,0:0:0:70:HHOpen.wav
192,192,57878,128,8,58100:0:0:0:0:
448,192,57878,1,0,0:0:0:0:
64,192,58100,128,0,58767:0:0:0:70:HHOpen.wav
192,192,58322,1,2,0:0:0:0:
448,192,58322,1,0,0:0:0:0:
320,192,58544,1,0,0:0:0:70:HHOpen.wav
192,192,58767,1,8,0:0:0:0:
448,192,58767,1,0,0:0:0:0:
64,192,58989,1,2,0:0:0:0:
320,192,58989,1,4,0:0:0:0:
448,192,58989,1,0,0:0:0:0:
64,192,59433,1,8,0:0:0:0:
192,192,59433,1,0,0:0:0:0:
192,192,59656,1,8,0:0:0:0:
320,192,59656,1,0,0:0:0:0:
320,192,59878,1,8,0:0:0:0:
448,192,59878,1,0,0:0:0:0:
64,192,60100,1,8,0:0:0:0:
448,192,60100,1,0,0:0:0:0:
64,192,60322,1,8,0:0:0:0:
192,192,60433,1,0,0:0:0:0:
320,192,60544,1,2,0:0:0:0:
448,192,60544,1,0,0:0:0:70:Splash.wav
192,192,60767,128,8,60989:0:0:0:0:
64,192,60989,1,4,0:0:0:0:
320,192,60989,1,2,0:0:0:0:
448,192,60989,128,0,61433:0:0:0:0:
64,192,61211,128,0,61433:0:0:0:70:HHOpen.wav
192,192,61433,1,8,0:0:0:0:
320,192,61433,128,0,61878:0:0:0:0:
448,192,61656,128,0,61878:0:0:0:70:HHOpen.wav
64,192,61878,1,2,0:0:0:0:
192,192,61878,128,0,62322:0:0:0:0:
320,192,62100,128,0,62322:0:0:0:70:HHOpen.wav
64,192,62322,128,8,62544:0:0:0:0:
448,192,62322,1,0,0:0:0:0:
448,192,62544,128,0,62989:0:0:0:70:HHOpen.wav
64,192,62767,1,2,0:0:0:0:
192,192,62767,1,0,0:0:0:0:
320,192,62989,128,0,63211:0:0:0:70:HHOpen.wav
64,192,63211,1,8,0:0:0:0:
448,192,63211,1,0,0:0:0:0:
192,192,63433,128,0,63656:0:0:0:70:HHOpen.wav
320,192,63656,1,2,0:0:0:0:
448,192,63656,128,0,63878:0:0:0:0:
64,192,63878,128,0,64322:0:0:0:70:HHOpen.wav
192,192,63989,128,0,64322:0:0:0:0:
320,192,64100,1,8,0:0:0:0:
448,192,64100,1,0,0:0:0:0:
320,192,64322,128,0,64544:0:0:0:70:HHOpen.wav
64,192,64544,128,2,65211:0:0:0:0:
448,192,64544,128,0,64767:0:0:0:0:
192,192,64767,128,0,64989:0:0:0:70:HHOpen.wav
320,192,64989,128,8,65211:0:0:0:0:
448,192,64989,1,0,0:0:0:0:
192,192,65211,128,0,65656:0:0:0:70:HHOpen.wav
448,192,65211,128,0,65433:0:0:0:0:
64,192,65433,128,2,65656:0:0:0:0:
320,192,65433,1,0,0:0:0:0:
448,192,65656,128,0,65878:0:0:0:70:HHOpen.wav
192,192,65878,1,8,0:0:0:0:
320,192,65878,128,0,66322:0:0:0:0:
64,192,66100,128,0,66322:0:0:0:70:HHOpen.wav
192,192,66322,128,2,66544:0:0:0:0:
448,192,66322,1,0,0:0:0:0:
448,192,66544,128,0,66989:0:0:0:70:HHOpen.wav
320,192,66656,128,0,66989:0:0:0:0:
64,192,66767,1,8,0:0:0:0:
192,192,66767,1,0,0:0:0:0:
192,192,66989,128,0,67211:0:0:0:70:HHOpen.wav
64,192,67211,128,2,67433:0:0:0:0:
448,192,67211,1,0,0:0:0:0:
320,192,67433,128,0,67878:0:0:0:70:Splash.wav
448,192,67544,128,0,67878:0:0:0:0:
64,192,67656,1,8,0:0:0:0:
192,192,67656,1,0,0:0:0:0:
192,192,67878,128,2,68100:0:0:0:0:
64,192,68100,1,2,0:0:0:0:
320,192,68100,1,4,0:0:0:0:
448,192,68100,1,0,0:0:0:0:
192,192,68322,1,0,0:0:0:70:HHOpen.wav
64,192,68544,1,8,0:0:0:0:
320,192,68544,128,0,68767:0:0:0:0:
192,192,68767,128,0,68989:0:0:0:70:HHOpen.wav
64,192,68989,1,2,0:0:0:0:
448,192,68989,128,0,69211:0:0:0:0:
192,192,69211,128,0,69656:0:0:0:70:HHOpen.wav
64,192,69322,128,0,69656:0:0:0:0:
320,192,69433,1,8,0:0:0:0:
448,192,69433,1,0,0:0:0:0:
320,192,69656,128,0,69878:0:0:0:70:HHOpen.wav
64,192,69878,1,2,0:0:0:0:
448,192,69878,1,0,0:0:0:0:
192,192,70100,128,0,70322:0:0:0:70:HHOpen.wav
320,192,70322,1,8,0:0:0:0:
448,192,70322,128,0,70767:0:0:0:0:
64,192,70544,128,0,70767:0:0:0:70:HHOpen.wav
192,192,70767,1,2,0:0:0:0:
320,192,70767,1,0,0:0:0:0:
192,192,70989,128,0,71211:0:0:0:70:HHOpen.wav
320,192,71211,1,8,0:0:0:0:
448,192,71211,128,0,71433:0:0:0:0:
64,192,71433,128,0,72100:0:0:0:0:
192,192,71433,1,0,0:0:0:0:
320,192,71656,1,2,0:0:0:0:
448,192,71656,1,0,0:0:0:0:
192,192,71878,1,0,0:0:0:70:HHOpen.wav
320,192,72100,1,8,0:0:0:0:
448,192,72100,128,0,72322:0:0:0:0:
192,192,72322,128,0,72544:0:0:0:70:HHOpen.wav
64,192,72544,1,2,0:0:0:0:
448,192,72544,1,0,0:0:0:0:
320,192,72656,1,0,0:0:0:0:
192,192,72767,128,0,73211:0:0:0:70:HHOpen.wav
320,192,72989,1,8,0:0:0:0:
448,192,72989,1,0,0:0:0:0:
64,192,73211,128,0,73656:0:0:0:0:
192,192,73433,1,2,0:0:0:0:
320,192,73433,1,0,0:0:0:0:
448,192,73656,128,0,73878:0:0:0:70:HHOpen.wav
64,192,73878,1,8,0:0:0:0:
320,192,73878,128,0,74322:0:0:0:0:
192,192,74100,1,2,0:0:0:0:
64,192,74322,1,2,0:0:0:0:
448,192,74322,1,0,0:0:0:0:
192,192,74433,1,8,0:0:0:0:
320,192,74544,1,8,0:0:0:0:
448,192,74656,1,8,0:0:0:0:
64,192,74767,1,8,0:0:0:0:
192,192,74878,1,2,0:0:0:0:
320,192,74989,128,0,75211:0:0:0:0:
64,192,75100,1,8,0:0:0:0:
192,192,75211,1,4,0:0:0:0:
448,192,75211,128,2,75656:0:0:0:0:
320,192,75433,128,0,75656:0:0:0:70:HHOpen.wav
64,192,75656,128,8,76100:0:0:0:0:
192,192,75656,1,0,0:0:0:0:
192,192,75878,128,0,76100:0:0:0:70:HHOpen.wav
320,192,76100,128,2,76544:0:0:0:0:
448,192,76100,1,0,0:0:0:0:
448,192,76322,128,0,76544:0:0:0:70:HHOpen.wav
64,192,76544,128,8,76767:0:0:0:0:
192,192,76544,1,0,0:0:0:0:
448,192,76767,128,0,77211:0:0:0:70:HHOpen.wav
64,192,76989,1,2,0:0:0:0:
320,192,76989,1,0,0:0:0:0:
192,192,77211,128,0,77433:0:0:0:70:HHOpen.wav
320,192,77433,1,8,0:0:0:0:
448,192,77433,1,0,0:0:0:0:
64,192,77656,128,0,77878:0:0:0:70:HHOpen.wav
192,192,77878,1,2,0:0:0:0:
448,192,77878,128,0,78100:0:0:0:0:
320,192,78100,128,0,78544:0:0:0:70:HHOpen.wav
192,192,78211,128,0,78544:0:0:0:0:
64,192,78322,1,8,0:0:0:0:
448,192,78322,1,0,0:0:0:0:
64,192,78544,128,0,78767:0:0:0:70:HHOpen.wav
192,192,78767,1,2,0:0:0:0:
448,192,78767,128,0,79211:0:0:0:0:
64,192,78989,128,0,79211:0:0:0:70:HHOpen.wav
192,192,79211,128,8,79656:0:0:0:0:
320,192,79211,1,0,0:0:0:0:
64,192,79433,128,0,79878:0:0:0:70:HHOpen.wav
320,192,79656,1,2,0:0:0:0:
448,192,79656,128,0,80100:0:0:0:0:
320,192,79878,128,0,80322:0:0:0:70:HHOpen.wav
64,192,80100,128,8,80544:0:0:0:0:
192,192,80100,1,0,0:0:0:0:
192,192,80322,128,0,80544:0:0:0:70:HHOpen.wav
320,192,80544,1,2,0:0:0:0:
448,192,80544,1,0,0:0:0:0:
64,192,80767,128,0,80878:0:0:0:70:HHOpen.wav
192,192,80989,128,8,81100:0:0:0:0:
448,192,80989,1,0,0:0:0:0:
320,192,81211,128,0,81322:0:0:0:70:HHOpen.wav
64,192,81433,1,2,0:0:0:0:
192,192,81433,128,0,81544:0:0:0:0:
320,192,81656,128,0,82100:0:0:0:70:Splash.wav
448,192,81767,128,0,82100:0:0:0:0:
64,192,81878,1,8,0:0:0:0:
192,192,81878,1,0,0:0:0:0:
64,192,82100,128,2,82322:0:0:0:0:
192,192,82322,1,2,0:0:0:0:
320,192,82322,1,4,0:0:0:0:
448,192,82322,1,0,0:0:0:0:
448,192,82544,1,0,0:0:0:70:HHOpen.wav
64,192,82767,128,8,82989:0:0:0:0:
320,192,82767,1,0,0:0:0:0:
192,192,82989,128,0,83211:0:0:0:70:HHOpen.wav
64,192,83211,1,2,0:0:0:0:
448,192,83211,128,0,83433:0:0:0:0:
320,192,83433,128,0,83878:0:0:0:70:HHOpen.wav
448,192,83544,128,0,83878:0:0:0:0:
64,192,83656,1,8,0:0:0:0:
192,192,83656,1,0,0:0:0:0:
192,192,83878,128,0,84100:0:0:0:70:HHOpen.wav
64,192,84100,1,2,0:0:0:0:
448,192,84100,1,0,0:0:0:0:
320,192,84322,128,0,84544:0:0:0:70:HHOpen.wav
192,192,84544,128,8,84989:0:0:0:0:
448,192,84544,1,0,0:0:0:0:
64,192,84767,128,0,84989:0:0:0:70:HHOpen.wav
320,192,84989,1,2,0:0:0:0:
448,192,84989,1,0,0:0:0:0:
64,192,85211,128,0,85433:0:0:0:70:HHOpen.wav
192,192,85433,1,8,0:0:0:0:
320,192,85433,128,0,85656:0:0:0:0:
64,192,85656,1,0,0:0:0:0:
448,192,85656,128,0,86322:0:0:0:0:
192,192,85878,1,2,0:0:0:0:
320,192,85878,1,0,0:0:0:0:
64,192,86100,1,0,0:0:0:70:HHOpen.wav
64,192,86322,1,8,0:0:0:0:
320,192,86322,128,0,86544:0:0:0:0:
192,192,86544,128,0,86767:0:0:0:70:HHOpen.wav
64,192,86767,1,2,0:0:0:0:
448,192,86767,1,0,0:0:0:0:
320,192,86989,1,0,0:0:0:70:HHOpen.wav
64,192,87211,128,8,87433:0:0:0:0:
448,192,87211,1,0,0:0:0:0:
192,192,87433,128,0,87878:0:0:0:70:HHOpen.wav
64,192,87656,1,2,0:0:0:0:
320,192,87656,1,0,0:0:0:0:
448,192,87878,128,0,88100:0:0:0:70:HHOpen.wav
64,192,88100,128,8,88322:0:0:0:0:
192,192,88100,1,0,0:0:0:0:
320,192,88322,128,0,88767:0:0:0:70:HHOpen.wav
64,192,88544,1,2,0:0:0:0:
448,192,88544,1,0,0:0:0:0:
192,192,88767,1,8,0:0:0:0:
448,192,88878,1,8,0:0:0:0:
64,192,88989,1,8,0:0:0:0:
192,192,89100,1,2,0:0:0:0:
320,192,89100,1,0,0:0:0:0:
448,192,89322,1,8,0:0:0:0:
64,192,89433,1,4,0:0:0:0:
192,192,89433,1,2,0:0:0:0:
320,192,89433,1,0,0:0:0:0:
448,192,89656,1,0,0:0:0:0:
320,192,89767,1,0,0:0:0:0:
64,192,89878,1,0,0:0:0:0:
192,192,89989,1,0,0:0:0:0:
320,192,90211,1,0,0:0:0:0:
448,192,90433,1,0,0:0:0:0:
320,192,90544,1,0,0:0:0:0:
192,192,90656,1,0,0:0:0:0:
64,192,90878,1,0,0:0:0:0:
448,192,90989,1,0,0:0:0:0:
320,192,91100,1,0,0:0:0:0:
64,192,91211,1,0,0:0:0:0:
192,192,91322,1,0,0:0:0:0:
320,192,91433,1,0,0:0:0:0:
448,192,91544,1,0,0:0:0:0:
192,192,91656,1,0,0:0:0:0:
64,192,91767,1,0,0:0:0:0:
320,192,91878,1,0,0:0:0:0:
448,192,91989,1,0,0:0:0:0:
64,192,92100,1,0,0:0:0:0:
320,192,92211,1,0,0:0:0:0:
64,192,92322,128,0,92544:0:0:0:0:
192,192,92767,1,0,0:0:0:0:
64,192,92989,1,2,0:0:0:0:
320,192,92989,1,4,0:0:0:0:
448,192,92989,1,0,0:0:0:0:
320,192,93211,1,0,0:0:0:0:
64,192,93322,1,0,0:0:0:0:
192,192,93433,1,0,0:0:0:0:
448,192,93544,1,0,0:0:0:0:
320,192,93656,1,0,0:0:0:0:
64,192,93767,1,0,0:0:0:0:
192,192,93878,1,0,0:0:0:0:
64,192,94100,1,0,0:0:0:0:
320,192,94211,1,0,0:0:0:0:
448,192,94322,1,0,0:0:0:0:
64,192,94544,1,0,0:0:0:0:
320,192,94767,1,0,0:0:0:0:
192,192,94878,1,0,0:0:0:0:
448,192,94989,1,0,0:0:0:0:
320,192,95100,1,0,0:0:0:0:
64,192,95211,1,0,0:0:0:0:
192,192,95322,1,0,0:0:0:0:
320,192,95433,1,0,0:0:0:0:
448,192,95656,1,0,0:0:0:0:
320,192,95878,1,0,0:0:0:0:
64,192,95989,1,2,0:0:0:0:
192,192,95989,1,0,0:0:0:0:
448,192,96100,1,0,0:0:0:0:
192,192,96322,1,0,0:0:0:0:
320,192,96433,1,0,0:0:0:0:
64,192,96544,1,2,0:0:0:0:
448,192,96544,1,0,0:0:0:0:
320,192,96767,1,0,0:0:0:0:
192,192,96878,1,0,0:0:0:0:
64,192,96989,1,0,0:0:0:0:
320,192,97100,1,0,0:0:0:0:
448,192,97211,1,0,0:0:0:0:
192,192,97433,1,0,0:0:0:0:
448,192,97544,1,0,0:0:0:0:
320,192,97656,1,0,0:0:0:0:
64,192,97767,1,0,0:0:0:0:
192,192,97878,1,0,0:0:0:0:
320,192,98100,1,0,0:0:0:0:
64,192,98322,1,0,0:0:0:0:
192,192,98433,1,0,0:0:0:0:
448,192,98544,1,0,0:0:0:0:
320,192,98656,1,0,0:0:0:0:
192,192,98767,1,0,0:0:0:0:
64,192,98878,1,0,0:0:0:0:
320,192,98989,1,0,0:0:0:0:
192,192,99211,1,2,0:0:0:0:
448,192,99211,1,0,0:0:0:0:
64,192,99322,1,8,0:0:0:0:
320,192,99433,1,0,0:0:0:0:
192,192,99656,1,0,0:0:0:0:
64,192,99767,1,2,0:0:0:0:
320,192,99878,1,8,0:0:0:0:
448,192,99878,1,0,0:0:0:0:
64,192,100100,1,2,0:0:0:0:
192,192,100100,1,4,0:0:0:0:
448,192,100100,1,0,0:0:0:0:
320,192,100322,1,0,0:0:0:0:
448,192,100433,1,0,0:0:0:0:
192,192,100544,1,0,0:0:0:0:
320,192,100656,1,0,0:0:0:0:
64,192,100767,1,0,0:0:0:0:
448,192,100878,1,0,0:0:0:0:
192,192,100989,1,0,0:0:0:0:
320,192,101100,1,0,0:0:0:0:
448,192,101211,1,0,0:0:0:0:
192,192,101322,1,0,0:0:0:0:
320,192,101433,1,0,0:0:0:0:
64,192,101656,1,2,0:0:0:0:
448,192,101656,1,0,0:0:0:0:
192,192,101878,1,2,0:0:0:0:
320,192,101878,1,0,0:0:0:0:
64,192,101989,1,0,0:0:0:0:
448,192,102100,1,0,0:0:0:0:
320,192,102211,1,0,0:0:0:0:
64,192,102322,1,0,0:0:0:0:
192,192,102433,1,0,0:0:0:0:
320,192,102544,1,0,0:0:0:0:
64,192,102767,1,0,0:0:0:0:
320,192,102989,1,2,0:0:0:0:
448,192,102989,1,0,0:0:0:0:
192,192,103100,1,0,0:0:0:0:
64,192,103211,1,0,0:0:0:0:
320,192,103433,1,0,0:0:0:0:
64,192,103656,1,2,0:0:0:0:
448,192,103656,1,0,0:0:0:0:
192,192,103878,1,0,0:0:0:0:
320,192,103989,1,0,0:0:0:0:
64,192,104100,1,0,0:0:0:0:
192,192,104211,1,0,0:0:0:0:
448,192,104322,1,0,0:0:0:0:
320,192,104544,1,0,0:0:0:0:
192,192,104656,1,0,0:0:0:0:
320,192,104767,1,0,0:0:0:0:
64,192,104878,1,2,0:0:0:0:
448,192,104878,1,0,0:0:0:0:
192,192,104989,1,0,0:0:0:0:
448,192,105211,1,0,0:0:0:70:HHOpen.wav
64,192,105433,1,2,0:0:0:0:
320,192,105433,128,0,105544:0:0:0:0:
192,192,105767,128,0,105878:0:0:0:0:
448,192,106100,128,0,106211:0:0:0:0:
192,192,106433,1,8,0:0:0:35:
64,192,106544,128,8,106656:0:0:0:35:
320,192,106656,1,2,0:0:0:0:
448,192,106656,1,0,0:0:0:0:
192,192,106767,1,8,0:0:0:0:
64,192,106878,1,8,0:0:0:0:
320,192,106989,128,0,107100:0:0:0:0:
192,192,107100,1,8,0:0:0:0:
64,192,107211,1,2,0:0:0:0:
320,192,107211,1,4,0:0:0:0:
448,192,107211,1,0,0:0:0:0:
192,192,107433,128,0,107544:0:0:0:0:
320,192,107544,128,0,107656:0:0:0:0:
64,192,107656,1,8,0:0:0:0:
448,192,107656,1,0,0:0:0:0:
192,192,107878,128,0,107989:0:0:0:0:
64,192,107989,128,0,108100:0:0:0:0:
320,192,108100,1,2,0:0:0:0:
448,192,108100,1,0,0:0:0:0:
192,192,108322,128,0,108433:0:0:0:0:
448,192,108433,128,0,108544:0:0:0:0:
64,192,108544,1,8,0:0:0:0:
320,192,108544,1,0,0:0:0:0:
448,192,108767,128,0,108989:0:0:0:0:
64,192,108989,1,2,0:0:0:0:
192,192,108989,1,0,0:0:0:0:
320,192,109211,1,0,0:0:0:0:
64,192,109433,1,8,0:0:0:0:
448,192,109433,1,0,0:0:0:0:
192,192,109656,128,0,109878:0:0:0:0:
64,192,109878,1,2,0:0:0:0:
448,192,109878,128,0,110100:0:0:0:0:
320,192,110100,128,0,110322:0:0:0:0:
64,192,110322,128,8,110544:0:0:0:0:
448,192,110322,1,0,0:0:0:0:
192,192,110544,128,0,110767:0:0:0:70:HHOpen.wav
64,192,110767,1,2,0:0:0:0:
448,192,110767,128,0,110989:0:0:0:0:
192,192,110989,128,0,111100:0:0:0:0:
320,192,111100,128,0,111211:0:0:0:0:
64,192,111211,1,8,0:0:0:0:
448,192,111211,1,0,0:0:0:0:
192,192,111322,128,0,111433:0:0:0:0:
320,192,111433,128,0,111656:0:0:0:0:
64,192,111656,1,2,0:0:0:0:
448,192,111656,1,0,0:0:0:0:
64,192,111878,128,0,112100:0:0:0:0:
192,192,112100,1,8,0:0:0:0:
448,192,112100,128,0,112211:0:0:0:0:
320,192,112211,128,0,112322:0:0:0:0:
192,192,112322,128,0,112544:0:0:0:70:HHOpen.wav
64,192,112544,1,2,0:0:0:0:
448,192,112544,1,0,0:0:0:0:
320,192,112767,128,0,112989:0:0:0:0:
64,192,112989,1,8,0:0:0:0:
448,192,112989,128,0,113211:0:0:0:0:
192,192,113211,128,0,113433:0:0:0:0:
320,192,113433,1,2,0:0:0:0:
448,192,113433,1,0,0:0:0:0:
64,192,113656,128,0,113878:0:0:0:0:
320,192,113878,1,8,0:0:0:0:
448,192,113878,128,0,113989:0:0:0:0:
192,192,113989,128,0,114100:0:0:0:0:
320,192,114100,128,2,114322:0:0:0:0:
64,192,114322,1,2,0:0:0:0:
192,192,114322,1,4,0:0:0:0:
448,192,114322,1,0,0:0:0:0:
192,192,114544,1,0,0:0:0:70:HHOpen.wav
64,192,114767,128,8,115211:0:0:0:0:
320,192,114767,1,0,0:0:0:0:
448,192,114989,1,0,0:0:0:70:HHOpen.wav
192,192,115211,1,2,0:0:0:0:
320,192,115211,128,0,115656:0:0:0:0:
64,192,115433,1,0,0:0:0:70:HHOpen.wav
192,192,115656,128,8,116100:0:0:0:0:
448,192,115656,1,0,0:0:0:0:
320,192,115878,1,0,0:0:0:70:HHOpen.wav
64,192,116100,1,2,0:0:0:0:
448,192,116100,128,0,116544:0:0:0:0:
320,192,116322,1,0,0:0:0:70:HHOpen.wav
64,192,116544,128,8,116989:0:0:0:0:
192,192,116544,1,0,0:0:0:0:
320,192,116767,1,0,0:0:0:70:HHOpen.wav
192,192,116989,128,2,117433:0:0:0:0:
448,192,116989,1,0,0:0:0:0:
320,192,117211,1,0,0:0:0:70:HHOpen.wav
64,192,117433,1,8,0:0:0:0:
448,192,117433,128,0,117656:0:0:0:0:
320,192,117656,128,0,118322:0:0:0:70:HHOpen.wav
64,192,117878,1,2,0:0:0:0:
448,192,117878,1,0,0:0:0:0:
192,192,118100,1,0,0:0:0:70:HHOpen.wav
64,192,118322,128,8,118544:0:0:0:0:
448,192,118322,1,0,0:0:0:0:
192,192,118544,128,0,119211:0:0:0:70:HHOpen.wav
64,192,118767,1,2,0:0:0:0:
448,192,118767,1,0,0:0:0:0:
320,192,118989,1,0,0:0:0:70:HHOpen.wav
64,192,119211,1,8,0:0:0:0:
448,192,119211,1,0,0:0:0:0:
192,192,119433,1,0,0:0:0:70:HHOpen.wav
320,192,119656,1,2,0:0:0:0:
448,192,119656,1,0,0:0:0:0:
448,192,119878,128,0,119989:0:0:0:70:HHOpen.wav
64,192,120100,1,8,0:0:0:0:
192,192,120100,128,0,120211:0:0:0:0:
64,192,120322,128,2,120433:0:0:0:0:
448,192,120322,1,4,0:0:0:0:
320,192,120544,1,2,0:0:0:0:
448,192,120544,128,0,120656:0:0:0:0:
192,192,120656,1,2,0:0:0:0:
64,192,120767,1,8,0:0:0:0:
320,192,120878,128,8,120989:0:0:0:0:
64,192,121100,1,2,0:0:0:0:
192,192,121211,128,0,121322:0:0:0:0:
320,192,121322,1,8,0:0:0:0:
64,192,121433,1,4,0:0:0:0:
192,192,121433,1,2,0:0:0:0:
448,192,121433,1,0,0:0:0:0:
320,192,121544,1,0,0:0:0:0:
64,192,121656,1,0,0:0:0:0:
192,192,121767,1,0,0:0:0:0:
448,192,121878,1,2,0:0:0:0:
320,192,121989,1,0,0:0:0:0:
192,192,122100,1,0,0:0:0:0:
448,192,122322,1,2,0:0:0:0:
64,192,122544,1,0,0:0:0:0:
448,192,122767,1,2,0:0:0:0:
192,192,122989,1,0,0:0:0:0:
320,192,123100,1,0,0:0:0:0:
64,192,123211,1,2,0:0:0:0:
192,192,123322,1,0,0:0:0:0:
448,192,123433,1,0,0:0:0:0:
320,192,123544,1,0,0:0:0:0:
64,192,123656,1,2,0:0:0:0:
192,192,123767,1,0,0:0:0:0:
320,192,123878,1,0,0:0:0:0:
64,192,124100,1,2,0:0:0:0:
448,192,124322,1,0,0:0:0:0:
64,192,124544,1,2,0:0:0:0:
320,192,124878,1,0,0:0:0:0:
192,192,124989,1,2,0:0:0:0:
320,192,125211,1,0,0:0:0:0:
448,192,125322,1,0,0:0:0:0:
192,192,125433,1,2,0:0:0:0:
320,192,125544,1,0,0:0:0:0:
64,192,125767,1,0,0:0:0:0:
192,192,125878,1,2,0:0:0:0:
320,192,125989,1,0,0:0:0:0:
448,192,126100,1,0,0:0:0:0:
192,192,126322,1,2,0:0:0:0:
448,192,126544,1,0,0:0:0:0:
320,192,126767,1,2,0:0:0:0:
192,192,126878,1,0,0:0:0:0:
64,192,126989,1,0,0:0:0:0:
320,192,127211,1,2,0:0:0:0:
448,192,127322,1,0,0:0:0:0:
64,192,127433,1,0,0:0:0:70:Splash.wav
192,192,127433,1,0,0:0:0:0:
320,192,127656,1,2,0:0:0:0:
64,192,127878,1,0,0:0:0:0:
320,192,128100,1,2,0:0:0:0:
192,192,128322,1,0,0:0:0:70:HHOpen.wav
320,192,128433,1,0,0:0:0:0:
448,192,128544,128,2,128656:0:0:0:0:
192,192,128767,1,0,0:0:0:0:
64,192,128989,128,2,129100:0:0:0:0:
448,192,129211,1,0,0:0:0:0:
192,192,129322,1,0,0:0:0:0:
320,192,129433,128,2,129544:0:0:0:0:
64,192,129544,1,0,0:0:0:0:
448,192,129656,1,0,0:0:0:0:
192,192,129878,128,2,129989:0:0:0:0:
320,192,130100,1,0,0:0:0:0:
64,192,130211,1,0,0:0:0:70:Ride.wav
448,192,130322,128,6,130433:0:0:0:0:
192,192,130433,1,0,0:0:0:0:
320,192,130544,1,0,0:0:0:0:
192,192,130767,128,2,130878:0:0:0:0:
448,192,130989,1,0,0:0:0:0:
64,192,131100,1,0,0:0:0:0:
320,192,131211,128,2,131322:0:0:0:0:
192,192,131322,1,0,0:0:0:0:
64,192,131433,1,0,0:0:0:0:
448,192,131656,128,2,131767:0:0:0:0:
192,192,131767,1,0,0:0:0:0:
320,192,131989,1,0,0:0:0:0:
64,192,132100,128,2,132211:0:0:0:0:
192,192,132322,1,0,0:0:0:0:
448,192,132433,1,0,0:0:0:0:
320,192,132544,128,2,132656:0:0:0:0:
64,192,132656,1,0,0:0:0:0:
448,192,132767,1,0,0:0:0:0:
320,192,132878,1,0,0:0:0:0:
64,192,132989,128,2,133100:0:0:0:0:
448,192,133100,1,0,0:0:0:0:
192,192,133211,128,0,133322:0:0:0:0:
320,192,133322,1,0,0:0:0:0:
64,192,133433,1,2,0:0:0:0:
448,192,133433,128,0,133544:0:0:0:0:
64,192,133656,128,2,133767:0:0:0:0:
320,192,133656,1,4,0:0:0:0:
448,192,133656,1,0,0:0:0:0:
192,192,133989,1,0,0:0:0:0:
320,192,134044,1,0,0:0:0:0:
448,192,134100,1,8,0:0:0:0:
64,192,134322,1,8,0:0:0:0:
192,192,134433,1,8,0:0:0:0:
320,192,134544,1,2,0:0:0:0:
448,192,134656,1,8,0:0:0:0:
64,192,134767,1,2,0:0:0:0:
192,192,134878,1,8,0:0:0:0:
448,192,134989,1,2,0:0:0:0:
320,192,135100,1,2,0:0:0:0:
64,192,135211,1,2,0:0:0:0:
192,192,135211,1,0,0:0:0:70:Splash.wav
320,192,135433,128,2,135656:0:0:0:0:
64,192,135656,128,4,136100:0:0:0:0:
192,192,135656,1,2,0:0:0:0:
448,192,135656,1,0,0:0:0:0:
448,192,135878,128,0,136100:0:0:0:70:HHOpen.wav
192,192,136100,128,8,136544:0:0:0:0:
320,192,136100,1,0,0:0:0:0:
320,192,136322,128,0,136544:0:0:0:70:HHOpen.wav
64,192,136544,128,2,136989:0:0:0:0:
448,192,136544,1,0,0:0:0:0:
320,192,136767,128,0,136989:0:0:0:70:HHOpen.wav
192,192,136989,1,8,0:0:0:0:
448,192,136989,128,0,137211:0:0:0:0:
64,192,137211,128,0,137656:0:0:0:70:HHOpen.wav
320,192,137433,1,2,0:0:0:0:
448,192,137433,1,0,0:0:0:0:
192,192,137656,128,0,137878:0:0:0:70:HHOpen.wav
64,192,137878,1,8,0:0:0:0:
448,192,137878,1,0,0:0:0:0:
320,192,138100,128,0,138322:0:0:0:70:HHOpen.wav
64,192,138322,128,2,138544:0:0:0:0:
192,192,138322,1,0,0:0:0:0:
448,192,138544,128,0,138989:0:0:0:70:HHOpen.wav
320,192,138656,128,0,138989:0:0:0:0:
64,192,138767,1,8,0:0:0:0:
192,192,138767,1,0,0:0:0:0:
192,192,138989,128,0,139211:0:0:0:70:HHOpen.wav
64,192,139211,128,2,139433:0:0:0:0:
448,192,139211,128,0,139878:0:0:0:0:
320,192,139433,128,0,139656:0:0:0:70:HHOpen.wav
64,192,139656,1,8,0:0:0:0:
192,192,139656,128,0,139878:0:0:0:0:
64,192,139878,128,0,140100:0:0:0:70:HHOpen.wav
320,192,139878,128,0,140322:0:0:0:0:
192,192,140100,1,2,0:0:0:0:
448,192,140100,128,0,140322:0:0:0:0:
64,192,140322,128,0,140544:0:0:0:70:HHOpen.wav
320,192,140544,1,8,0:0:0:0:
448,192,140544,128,0,140989:0:0:0:0:
192,192,140767,128,0,140989:0:0:0:70:HHOpen.wav
64,192,140989,1,2,0:0:0:0:
320,192,140989,128,0,141211:0:0:0:0:
64,192,141211,128,0,141656:0:0:0:70:HHOpen.wav
192,192,141322,128,0,141656:0:0:0:0:
320,192,141433,1,8,0:0:0:0:
448,192,141433,1,0,0:0:0:0:
320,192,141656,128,0,141878:0:0:0:70:HHOpen.wav
64,192,141878,1,2,0:0:0:0:
448,192,141878,128,0,142100:0:0:0:0:
192,192,142100,128,0,142544:0:0:0:70:Splash.wav
64,192,142211,128,0,142544:0:0:0:0:
320,192,142322,1,8,0:0:0:0:
448,192,142322,1,0,0:0:0:0:
320,192,142544,128,2,142767:0:0:0:0:
64,192,142767,1,2,0:0:0:0:
192,192,142767,1,4,0:0:0:0:
448,192,142767,1,0,0:0:0:0:
320,192,142989,1,0,0:0:0:70:HHOpen.wav
192,192,143211,128,8,143433:0:0:0:0:
448,192,143211,1,0,0:0:0:0:
320,192,143433,128,0,143656:0:0:0:70:HHOpen.wav
64,192,143656,128,2,143878:0:0:0:0:
448,192,143656,1,0,0:0:0:0:
320,192,143878,128,0,144322:0:0:0:70:HHOpen.wav
448,192,143989,128,0,144322:0:0:0:0:
64,192,144100,1,8,0:0:0:0:
192,192,144100,1,0,0:0:0:0:
192,192,144322,128,0,144544:0:0:0:70:HHOpen.wav
64,192,144544,1,2,0:0:0:0:
448,192,144544,1,0,0:0:0:0:
320,192,144767,128,0,144989:0:0:0:70:HHOpen.wav
64,192,144989,128,8,145433:0:0:0:0:
192,192,144989,1,0,0:0:0:0:
448,192,145211,128,0,145433:0:0:0:70:HHOpen.wav
192,192,145433,1,2,0:0:0:0:
320,192,145433,1,0,0:0:0:0:
320,192,145656,128,0,145878:0:0:0:70:HHOpen.wav
64,192,145878,128,8,146100:0:0:0:0:
192,192,145878,1,0,0:0:0:0:
320,192,146100,1,0,0:0:0:0:
448,192,146100,128,0,146767:0:0:0:0:
64,192,146322,1,2,0:0:0:0:
192,192,146322,1,0,0:0:0:0:
320,192,146544,1,0,0:0:0:70:HHOpen.wav
64,192,146767,128,8,146989:0:0:0:0:
192,192,146767,1,0,0:0:0:0:
320,192,146989,128,0,147211:0:0:0:70:HHOpen.wav
64,192,147211,1,2,0:0:0:0:
448,192,147211,1,0,0:0:0:0:
320,192,147433,128,0,147878:0:0:0:70:HHOpen.wav
64,192,147656,1,8,0:0:0:0:
448,192,147656,1,0,0:0:0:0:
64,192,147878,128,0,148322:0:0:0:0:
192,192,148100,1,2,0:0:0:0:
320,192,148100,1,0,0:0:0:0:
448,192,148322,128,0,148544:0:0:0:70:HHOpen.wav
192,192,148544,128,8,148989:0:0:0:0:
320,192,148767,1,2,0:0:0:0:
64,192,148989,1,2,0:0:0:0:
448,192,148989,1,0,0:0:0:0:
320,192,149100,1,8,0:0:0:0:
192,192,149211,1,8,0:0:0:0:
64,192,149322,1,8,0:0:0:0:
448,192,149433,1,8,0:0:0:0:
320,192,149544,1,2,0:0:0:0:
192,192,149656,128,0,149878:0:0:0:0:
448,192,149767,1,8,0:0:0:0:
64,192,149878,128,4,150322:0:0:0:0:
320,192,149878,1,2,0:0:0:0:
192,192,150100,128,0,150322:0:0:0:70:HHOpen.wav
320,192,150322,1,8,0:0:0:0:
448,192,150322,128,0,150767:0:0:0:0:
320,192,150544,128,0,150767:0:0:0:70:HHOpen.wav
64,192,150767,1,2,0:0:0:0:
192,192,150767,128,0,151211:0:0:0:0:
64,192,150989,128,0,151211:0:0:0:70:HHOpen.wav
320,192,151211,1,8,0:0:0:0:
448,192,151211,128,0,151433:0:0:0:0:
64,192,151433,128,0,151878:0:0:0:70:HHOpen.wav
192,192,151656,1,2,0:0:0:0:
448,192,151656,1,0,0:0:0:0:
320,192,151878,128,0,152100:0:0:0:70:HHOpen.wav
64,192,152100,1,8,0:0:0:0:
192,192,152100,1,0,0:0:0:0:
448,192,152322,128,0,152544:0:0:0:70:HHOpen.wav
64,192,152544,128,2,152767:0:0:0:0:
320,192,152544,1,0,0:0:0:0:
192,192,152767,128,0,153211:0:0:0:70:HHOpen.wav
320,192,152878,128,0,153211:0:0:0:0:
64,192,152989,1,8,0:0:0:0:
448,192,152989,1,0,0:0:0:0:
448,192,153211,128,0,153433:0:0:0:70:HHOpen.wav
64,192,153433,128,2,153878:0:0:0:0:
320,192,153433,1,0,0:0:0:0:
448,192,153656,128,0,153878:0:0:0:70:HHOpen.wav
192,192,153878,1,8,0:0:0:0:
320,192,153878,128,0,154322:0:0:0:0:
448,192,154100,128,0,154544:0:0:0:70:HHOpen.wav
64,192,154322,1,2,0:0:0:0:
192,192,154322,1,0,0:0:0:0:
192,192,154544,128,0,154989:0:0:0:70:HHOpen.wav
320,192,154767,128,8,155211:0:0:0:0:
448,192,154767,1,0,0:0:0:0:
64,192,154989,128,0,155211:0:0:0:70:HHOpen.wav
192,192,155211,1,2,0:0:0:0:
448,192,155211,1,0,0:0:0:0:
448,192,155433,128,0,155544:0:0:0:70:HHOpen.wav
64,192,155656,1,8,0:0:0:0:
320,192,155656,128,0,155767:0:0:0:0:
192,192,155878,128,0,155989:0:0:0:70:HHOpen.wav
320,192,156100,128,2,156211:0:0:0:0:
448,192,156100,1,0,0:0:0:0:
192,192,156322,128,0,156767:0:0:0:70:Splash.wav
64,192,156433,128,0,156767:0:0:0:0:
320,192,156544,1,8,0:0:0:0:
448,192,156544,1,0,0:0:0:0:
448,192,156767,128,2,156989:0:0:0:0:
64,192,156989,1,2,0:0:0:0:
192,192,156989,1,4,0:0:0:0:
320,192,156989,1,0,0:0:0:0:
64,192,157211,1,0,0:0:0:70:HHOpen.wav
192,192,157433,128,8,157656:0:0:0:0:
448,192,157433,1,0,0:0:0:0:
320,192,157656,128,0,157878:0:0:0:70:HHOpen.wav
64,192,157878,1,2,0:0:0:0:
448,192,157878,128,0,158100:0:0:0:0:
192,192,158100,128,0,158544:0:0:0:70:HHOpen.wav
64,192,158211,128,0,158544:0:0:0:0:
320,192,158322,1,8,0:0:0:0:
448,192,158322,1,0,0:0:0:0:
320,192,158544,128,0,158767:0:0:0:70:HHOpen.wav
64,192,158767,1,2,0:0:0:0:
448,192,158767,1,0,0:0:0:0:
192,192,158989,128,0,159211:0:0:0:70:HHOpen.wav
64,192,159211,1,8,0:0:0:0:
320,192,159211,128,0,159656:0:0:0:0:
448,192,159433,128,0,159656:0:0:0:70:HHOpen.wav
64,192,159656,1,2,0:0:0:0:
192,192,159656,1,0,0:0:0:0:
192,192,159878,128,0,160100:0:0:0:70:HHOpen.wav
64,192,160100,1,8,0:0:0:0:
320,192,160100,128,0,160322:0:0:0:0:
64,192,160322,128,0,160989:0:0:0:0:
448,192,160322,1,0,0:0:0:0:
192,192,160544,1,2,0:0:0:0:
320,192,160544,1,0,0:0:0:0:
448,192,160767,1,0,0:0:0:70:HHOpen.wav
192,192,160989,1,8,0:0:0:0:
448,192,160989,1,0,0:0:0:0:
320,192,161211,128,0,161433:0:0:0:70:HHOpen.wav
64,192,161433,1,2,0:0:0:0:
448,192,161433,1,0,0:0:0:0:
192,192,161656,1,0,0:0:0:70:HHOpen.wav
64,192,161878,128,8,162100:0:0:0:0:
320,192,161878,1,0,0:0:0:0:
448,192,162100,128,0,162544:0:0:0:70:HHOpen.wav
192,192,162322,1,2,0:0:0:0:
320,192,162322,1,0,0:0:0:0:
64,192,162544,128,0,162767:0:0:0:70:HHOpen.wav
320,192,162767,1,8,0:0:0:0:
448,192,162767,128,0,162989:0:0:0:0:
192,192,162989,128,0,163433:0:0:0:70:HHOpen.wav
64,192,163211,1,2,0:0:0:0:
448,192,163211,1,0,0:0:0:0:
320,192,163433,1,8,0:0:0:0:
64,192,163544,1,8,0:0:0:0:
448,192,163656,1,8,0:0:0:0:
64,192,163767,1,2,0:0:0:0:
192,192,163767,1,0,0:0:0:0:
320,192,163989,1,8,0:0:0:0:
64,192,164100,1,4,0:0:0:0:
192,192,164100,1,2,0:0:0:0:
448,192,164100,128,0,164544:0:0:0:0:
320,192,164322,1,0,0:0:0:0:
64,192,164544,1,8,0:0:0:0:
192,192,164619,1,0,0:0:0:0:
320,192,164693,1,0,0:0:0:0:
448,192,164767,1,0,0:0:0:0:
64,192,164841,1,0,0:0:0:0:
192,192,164915,1,0,0:0:0:0:
320,192,164989,128,2,165100:0:0:0:0:
64,192,165100,128,0,165211:0:0:0:0:
448,192,165211,128,0,165322:0:0:0:0:
192,192,165322,128,0,165544:0:0:0:0:
320,192,165433,1,8,0:0:0:0:
64,192,165544,128,0,165656:0:0:0:0:
448,192,165656,1,0,0:0:0:0:
320,192,165767,128,0,165878:0:0:0:0:
64,192,165878,128,2,165989:0:0:0:0:
448,192,165989,128,0,166100:0:0:0:0:
320,192,166100,128,0,166211:0:0:0:0:
192,192,166211,128,0,166322:0:0:0:0:
64,192,166322,1,8,0:0:0:0:
320,192,166433,128,0,166544:0:0:0:0:
448,192,166656,128,0,166989:0:0:0:0:
64,192,166767,1,2,0:0:0:0:
192,192,166767,1,0,0:0:0:0:
64,192,166989,128,0,167211:0:0:0:0:
192,192,167211,1,8,0:0:0:0:
448,192,167211,1,0,0:0:0:0:
320,192,167322,128,0,167433:0:0:0:0:
64,192,167433,128,0,167544:0:0:0:0:
192,192,167544,128,0,167656:0:0:0:0:
320,192,167656,128,2,167878:0:0:0:0:
448,192,167656,1,0,0:0:0:0:
192,192,167878,128,0,167989:0:0:0:0:
64,192,167989,128,0,168100:0:0:0:0:
448,192,168100,128,8,168211:0:0:0:0:
192,192,168211,128,0,168322:0:0:0:0:
448,192,168433,128,0,168656:0:0:0:0:
64,192,168544,1,2,0:0:0:0:
320,192,168656,128,0,168767:0:0:0:0:
192,192,168767,128,0,168878:0:0:0:0:
64,192,168878,128,0,168989:0:0:0:0:
320,192,168989,128,8,169100:0:0:0:0:
448,192,169100,128,0,169211:0:0:0:0:
192,192,169211,1,0,0:0:0:0:
320,192,169322,128,0,169433:0:0:0:0:
448,192,169433,128,2,169544:0:0:0:0:
192,192,169544,128,0,169656:0:0:0:0:
64,192,169656,128,0,169767:0:0:0:0:
448,192,169767,128,0,169878:0:0:0:0:
320,192,169878,128,8,169989:0:0:0:0:
64,192,169989,128,0,170100:0:0:0:0:
192,192,170100,128,0,170211:0:0:0:0:
320,192,170211,128,0,170322:0:0:0:0:
448,192,170322,128,2,170433:0:0:0:0:
64,192,170433,128,0,170544:0:0:0:0:
192,192,170544,128,0,170656:0:0:0:0:
320,192,170656,128,0,170767:0:0:0:0:
192,192,170767,128,8,170878:0:0:0:0:
448,192,170878,128,0,170989:0:0:0:0:
64,192,170989,128,2,171100:0:0:0:0:
320,192,171100,128,0,171211:0:0:0:0:
192,192,171211,128,2,171433:0:0:0:0:
448,192,171211,1,0,0:0:0:0:
448,192,171433,128,0,171544:0:0:0:0:
192,192,171544,128,0,171656:0:0:0:0:
320,192,171656,128,8,171767:0:0:0:0:
64,192,171767,128,0,171878:0:0:0:0:
448,192,171878,128,0,171989:0:0:0:0:
192,192,171989,128,0,172100:0:0:0:0:
320,192,172100,128,2,172211:0:0:0:0:
64,192,172211,128,0,172322:0:0:0:0:
448,192,172322,128,0,172433:0:0:0:0:
192,192,172433,128,0,172544:0:0:0:0:
64,192,172544,128,8,172656:0:0:0:0:
320,192,172656,128,0,172767:0:0:0:0:
448,192,172767,128,0,172878:0:0:0:0:
192,192,172878,128,0,172989:0:0:0:0:
64,192,172989,1,2,0:0:0:0:
320,192,172989,1,0,0:0:0:0:
192,192,173211,1,0,0:0:0:0:
64,192,173433,1,8,0:0:0:0:
320,192,173544,128,0,173656:0:0:0:0:
448,192,173656,128,0,173767:0:0:0:0:
192,192,173767,128,0,173878:0:0:0:0:
64,192,173878,1,2,0:0:0:0:
320,192,173878,1,0,0:0:0:0:
320,192,174100,128,0,174211:0:0:0:0:
64,192,174322,128,8,174433:0:0:0:0:
448,192,174322,1,0,0:0:0:0:
192,192,174433,128,0,174544:0:0:0:0:
320,192,174544,128,0,174656:0:0:0:0:
448,192,174656,128,0,174989:0:0:0:0:
192,192,174767,1,2,0:0:0:0:
320,192,174989,128,0,175100:0:0:0:0:
64,192,175211,128,8,175322:0:0:0:0:
448,192,175211,1,0,0:0:0:0:
192,192,175322,128,0,175433:0:0:0:0:
320,192,175544,128,0,175767:0:0:0:0:
64,192,175656,1,2,0:0:0:0:
448,192,175767,128,0,175878:0:0:0:0:
192,192,175878,128,0,175989:0:0:0:0:
320,192,175989,128,0,176100:0:0:0:0:
64,192,176100,128,8,176211:0:0:0:0:
448,192,176211,128,0,176322:0:0:0:0:
192,192,176433,128,0,176767:0:0:0:0:
320,192,176544,1,2,0:0:0:0:
448,192,176544,1,0,0:0:0:0:
64,192,176767,128,0,177433:0:0:0:0:
320,192,176989,1,8,0:0:0:0:
320,192,177211,1,2,0:0:0:0:
448,192,177433,1,2,0:0:0:0:
320,192,177544,1,2,0:0:0:0:
64,192,177656,1,8,0:0:0:0:
192,192,177767,1,8,0:0:0:0:
448,192,177878,1,0,0:0:0:0:
64,192,177989,1,2,0:0:0:0:
320,192,178100,1,0,0:0:0:0:
192,192,178211,1,8,0:0:0:0:
64,192,178322,1,4,0:0:0:0:
320,192,178322,1,2,0:0:0:0:
448,192,178322,1,0,0:0:0:0:
192,192,178544,128,0,178656:0:0:0:0:
64,192,178767,1,2,0:0:0:0:
448,192,178767,128,0,178878:0:0:0:0:
320,192,178989,128,0,179100:0:0:0:0:
64,192,179211,1,2,0:0:0:0:
192,192,179433,128,0,179544:0:0:0:0:
64,192,179656,1,2,0:0:0:0:
448,192,179656,128,0,179767:0:0:0:0:
320,192,179878,128,0,179989:0:0:0:0:
64,192,180100,1,2,0:0:0:0:
192,192,180322,128,0,180433:0:0:0:0:
64,192,180544,1,2,0:0:0:0:
448,192,180767,128,0,180878:0:0:0:0:
64,192,180989,1,2,0:0:0:0:
192,192,181211,1,0,0:0:0:0:
64,192,181433,1,2,0:0:0:0:
448,192,181433,128,0,181544:0:0:0:0:
320,192,181656,128,0,181767:0:0:0:0:
64,192,181878,1,2,0:0:0:0:
192,192,181878,1,0,0:0:0:0:
448,192,181878,1,0,0:0:0:0:
64,192,182100,128,0,182211:0:0:0:0:
320,192,182322,128,2,182433:0:0:0:0:
448,192,182322,1,0,0:0:0:0:
192,192,182544,128,0,182656:0:0:0:0:
448,192,182767,1,2,0:0:0:0:
64,192,182989,128,0,183100:0:0:0:0:
320,192,183211,128,2,183322:0:0:0:0:
448,192,183211,1,0,0:0:0:0:
192,192,183433,128,0,183544:0:0:0:0:
448,192,183656,1,2,0:0:0:0:
64,192,183878,128,0,183989:0:0:0:0:
448,192,184100,1,2,0:0:0:0:
320,192,184322,128,0,184433:0:0:0:0:
448,192,184544,1,2,0:0:0:0:
192,192,184767,128,0,184878:0:0:0:0:
448,192,184989,1,2,0:0:0:0:
320,192,185211,1,0,0:0:0:0:
64,192,185433,1,2,0:0:0:0:
192,192,185433,1,0,0:0:0:0:
448,192,185433,1,0,0:0:0:0:
64,192,185656,128,0,185767:0:0:0:0:
192,192,185878,1,2,0:0:0:0:
448,192,185878,128,0,185989:0:0:0:0:
320,192,186100,128,0,186211:0:0:0:0:
192,192,186322,1,2,0:0:0:0:
64,192,186544,128,0,186656:0:0:0:0:
192,192,186767,1,2,0:0:0:0:
448,192,186767,128,0,186878:0:0:0:0:
320,192,186989,128,0,187100:0:0:0:0:
192,192,187211,1,2,0:0:0:0:
64,192,187433,128,0,187544:0:0:0:0:
192,192,187656,1,2,0:0:0:0:
448,192,187878,128,0,187989:0:0:0:0:
192,192,188100,1,2,0:0:0:0:
64,192,188322,1,0,0:0:0:0:
192,192,188544,1,2,0:0:0:0:
448,192,188544,128,0,188656:0:0:0:0:
320,192,188767,128,0,188878:0:0:0:0:
64,192,188989,1,2,0:0:0:0:
320,192,188989,1,0,0:0:0:0:
448,192,188989,1,0,0:0:0:0:
64,192,189211,128,0,189322:0:0:0:0:
320,192,189433,1,2,0:0:0:0:
448,192,189433,128,0,189544:0:0:0:0:
192,192,189656,128,0,189767:0:0:0:0:
320,192,189878,1,2,0:0:0:0:
64,192,190100,128,0,190211:0:0:0:0:
320,192,190322,1,2,0:0:0:0:
448,192,190322,128,0,190433:0:0:0:0:
192,192,190544,128,0,190656:0:0:0:0:
64,192,190767,128,0,192100:0:0:0:0:
448,192,191544,128,0,192100:0:0:0:0:
320,192,192322,1,0,0:0:0:0:
64,192,192461,1,0,0:0:0:0:
192,192,192489,1,0,0:0:0:0:
320,192,192544,1,0,0:0:0:0:
448,192,192544,1,0,0:0:0:0:
64,192,192767,1,0,0:0:0:0:
448,192,192989,1,0,0:0:0:0:
64,192,193211,1,0,0:0:0:0:
320,192,193433,1,0,0:0:0:0:
192,192,193656,1,0,0:0:0:0:
64,192,193878,1,0,0:0:0:0:
320,192,193989,1,0,0:0:0:0:
448,192,194100,128,0,194544:0:0:0:0:
192,192,194322,1,0,0:0:0:0:
64,192,194544,128,0,194767:0:0:0:0:
320,192,194989,1,0,0:0:0:0:
192,192,195211,1,0,0:0:0:0:
320,192,195350,1,0,0:0:0:0:
448,192,195406,1,0,0:0:0:0:
64,192,195433,1,0,0:0:0:0:
192,192,195544,1,0,0:0:0:0:
320,192,195656,1,0,0:0:0:0:
192,192,195878,1,0,0:0:0:0:
64,192,196100,1,0,0:0:0:0:
448,192,196100,1,0,0:0:0:0:
320,192,196322,1,0,0:0:0:0:
192,192,196544,1,0,0:0:0:0:
64,192,196767,128,0,197211:0:0:0:0:
320,192,197211,1,0,0:0:0:0:
64,192,197433,1,0,0:0:0:0:
192,192,197656,1,0,0:0:0:0:
448,192,197878,1,0,0:0:0:0:
320,192,198100,1,0,0:0:0:0:
64,192,198211,1,0,0:0:0:0:
448,192,198322,1,0,0:0:0:0:
192,192,198544,1,0,0:0:0:0:
320,192,198767,1,0,0:0:0:0:
64,192,198989,1,0,0:0:0:0:
448,192,199100,1,0,0:0:0:0:
320,192,199433,1,0,0:0:0:0:
64,192,199656,1,0,0:0:0:0:
448,192,199656,1,0,0:0:0:0:
192,192,200100,1,0,0:0:0:0:
320,192,200322,1,0,0:0:0:0:
448,192,200544,1,0,0:0:0:0:
64,192,200767,1,0,0:0:0:0:
320,192,200878,1,0,0:0:0:0:
192,192,200989,1,0,0:0:0:0:
448,192,201100,1,0,0:0:0:0:
64,192,201211,1,0,0:0:0:0:
192,192,201433,1,0,0:0:0:0:
320,192,201433,1,0,0:0:0:0:
64,192,201656,1,0,0:0:0:0:
448,192,201878,1,0,0:0:0:0:
320,192,202100,1,0,0:0:0:0:
192,192,202322,1,0,0:0:0:0:
320,192,202544,1,0,0:0:0:0:
64,192,202656,1,0,0:0:0:0:
448,192,202767,1,0,0:0:0:0:
64,192,202989,1,0,0:0:0:0:
192,192,202989,128,0,203433:0:0:0:0:
192,192,203656,1,0,0:0:0:0:
448,192,203878,1,0,0:0:0:0:
64,192,204322,1,0,0:0:0:0:
320,192,204322,1,0,0:0:0:0:
448,192,204433,1,0,0:0:0:0:
192,192,204544,1,0,0:0:0:0:
64,192,204767,128,0,205211:0:0:0:0:
448,192,204989,1,0,0:0:0:0:
320,192,205211,1,0,0:0:0:0:
448,192,205433,128,0,205878:0:0:0:0:
192,192,205656,1,0,0:0:0:0:
192,192,206100,1,0,0:0:0:0:
448,192,206544,1,0,0:0:0:0:
64,192,206767,1,0,0:0:0:0:
448,192,206767,1,0,0:0:0:0:
320,192,206989,1,0,0:0:0:0:
64,192,207211,1,0,0:0:0:0:
192,192,207433,1,0,0:0:0:0:
448,192,207656,1,0,0:0:0:0:
192,192,207878,1,0,0:0:0:0:
64,192,208100,1,0,0:0:0:0:
320,192,208322,1,0,0:0:0:0:
64,192,208544,1,0,0:0:0:0:
448,192,208544,1,0,0:0:0:0:
192,192,208767,1,0,0:0:0:0:
448,192,208989,1,0,0:0:0:0:
64,192,209211,1,0,0:0:0:0:
320,192,209433,1,0,0:0:0:0:
192,192,209572,1,0,0:0:0:0:
64,192,209628,1,0,0:0:0:0:
320,192,209656,1,0,0:0:0:0:
448,192,209767,1,0,0:0:0:0:
192,192,210100,1,0,0:0:0:0:
64,192,210322,1,0,0:0:0:0:
448,192,210322,128,0,210767:0:0:0:0:
192,192,210767,1,0,0:0:0:0:
320,192,210989,1,0,0:0:0:0:
448,192,211211,1,0,0:0:0:0:
192,192,211433,1,0,0:0:0:0:
320,192,211656,1,0,0:0:0:0:
64,192,211878,1,0,0:0:0:0:
192,192,212322,1,0,0:0:0:0:
320,192,212544,1,0,0:0:0:0:
448,192,212767,1,0,0:0:0:0:
192,192,212989,1,0,0:0:0:0:
448,192,213211,1,0,0:0:0:0:
320,192,213322,1,0,0:0:0:0:
64,192,213656,1,0,0:0:0:0:
192,192,213878,1,0,0:0:0:0:
448,192,213878,1,0,0:0:0:0:
320,192,214322,1,0,0:0:0:0:
64,192,214544,1,0,0:0:0:0:
448,192,214767,1,0,0:0:0:0:
192,192,214989,1,0,0:0:0:0:
448,192,215100,1,0,0:0:0:0:
64,192,215211,1,0,0:0:0:0:
320,192,215433,1,0,0:0:0:0:
64,192,215656,1,0,0:0:0:0:
320,192,215878,1,0,0:0:0:0:
192,192,216100,1,0,0:0:0:0:
448,192,216322,1,0,0:0:0:0:
320,192,216683,1,0,0:0:0:0:
64,192,216739,1,0,0:0:0:0:
192,192,216767,1,0,0:0:0:0:
448,192,216989,1,0,0:0:0:0:
320,192,217211,1,0,0:0:0:0:
64,192,217433,128,0,218767:0:0:0:0:
192,192,217433,1,0,0:0:0:0:
448,192,218100,1,0,0:0:0:0:
320,192,218544,1,0,0:0:0:0:
192,192,218989,1,0,0:0:0:0:
448,192,218989,128,0,220100:0:0:0:0:
64,192,219433,1,8,0:0:0:0:
192,192,219433,1,0,0:0:0:0:
64,192,219656,1,8,0:0:0:0:
192,192,219656,1,0,0:0:0:0:
64,192,219878,1,8,0:0:0:0:
192,192,219878,1,0,0:0:0:0:
64,192,220100,1,8,0:0:0:0:
192,192,220100,1,0,0:0:0:0:
320,192,220396,1,0,0:0:0:0:
448,192,220396,1,0,0:0:0:0:
64,192,220544,1,2,0:0:0:0:
192,192,220544,1,0,0:0:0:0:
320,192,220767,128,0,220989:0:0:0:0:
64,192,220989,128,4,221211:0:0:0:0:
192,192,220989,1,2,0:0:0:0:
448,192,220989,128,0,221433:0:0:0:0:
320,192,221211,128,0,221433:0:0:0:70:HHOpen.wav
64,192,221433,128,8,221656:0:0:0:0:
192,192,221433,128,0,221878:0:0:0:0:
448,192,221656,128,0,221878:0:0:0:70:HHOpen.wav
64,192,221878,128,2,222322:0:0:0:0:
320,192,221878,128,0,222100:0:0:0:0:
192,192,222100,128,0,222322:0:0:0:70:HHOpen.wav
320,192,222322,1,8,0:0:0:0:
448,192,222322,128,0,222433:0:0:0:0:
192,192,222544,128,0,222767:0:0:0:70:HHOpen.wav
448,192,222544,128,0,222989:0:0:0:0:
64,192,222767,128,2,223211:0:0:0:0:
320,192,222767,1,0,0:0:0:0:
320,192,222989,128,0,223211:0:0:0:70:HHOpen.wav
192,192,223211,1,8,0:0:0:0:
448,192,223211,1,0,0:0:0:0:
320,192,223433,128,0,223544:0:0:0:70:HHOpen.wav
192,192,223656,128,2,223878:0:0:0:0:
320,192,223656,128,0,224100:0:0:0:0:
64,192,223878,128,0,224322:0:0:0:70:HHOpen.wav
192,192,223989,128,0,224322:0:0:0:0:
448,192,224100,128,8,224322:0:0:0:0:
320,192,224322,128,0,224544:0:0:0:70:HHOpen.wav
64,192,224544,128,2,224989:0:0:0:0:
448,192,224544,128,0,224767:0:0:0:0:
192,192,224767,128,0,224989:0:0:0:70:HHOpen.wav
320,192,224989,128,8,225211:0:0:0:0:
448,192,224989,128,0,225433:0:0:0:0:
192,192,225211,128,0,225656:0:0:0:70:HHOpen.wav
64,192,225433,128,2,225878:0:0:0:0:
320,192,225433,1,0,0:0:0:0:
448,192,225656,128,0,225878:0:0:0:70:HHOpen.wav
192,192,225878,128,8,226100:0:0:0:0:
320,192,225878,128,0,226322:0:0:0:0:
448,192,226100,128,0,226322:0:0:0:70:HHOpen.wav
64,192,226322,128,2,226544:0:0:0:0:
192,192,226322,128,0,226767:0:0:0:0:
448,192,226544,128,0,226989:0:0:0:70:HHOpen.wav
320,192,226656,128,0,226989:0:0:0:0:
64,192,226767,128,8,226989:0:0:0:0:
192,192,226989,128,0,227211:0:0:0:70:HHOpen.wav
64,192,227211,128,2,227656:0:0:0:0:
448,192,227211,128,0,227433:0:0:0:0:
320,192,227433,128,0,227878:0:0:0:70:Splash.wav
448,192,227544,128,0,227878:0:0:0:0:
192,192,227656,128,8,227878:0:0:0:0:
64,192,227878,128,2,228100:0:0:0:0:
192,192,228100,1,2,0:0:0:0:
320,192,228100,1,4,0:0:0:0:
448,192,228100,128,0,228544:0:0:0:0:
192,192,228322,1,0,0:0:0:70:HHOpen.wav
64,192,228544,128,8,228989:0:0:0:0:
320,192,228544,128,0,228767:0:0:0:0:
192,192,228767,128,0,228989:0:0:0:70:HHOpen.wav
320,192,228989,128,2,229211:0:0:0:0:
448,192,228989,128,0,229433:0:0:0:0:
192,192,229211,128,0,229656:0:0:0:70:HHOpen.wav
64,192,229322,128,0,229656:0:0:0:0:
320,192,229433,128,8,229656:0:0:0:0:
448,192,229656,128,0,229878:0:0:0:70:HHOpen.wav
64,192,229878,128,2,230322:0:0:0:0:
320,192,229878,1,0,0:0:0:0:
192,192,230100,128,0,230322:0:0:0:70:HHOpen.wav
320,192,230322,128,8,230544:0:0:0:0:
448,192,230322,128,0,230767:0:0:0:0:
64,192,230544,128,0,230767:0:0:0:70:HHOpen.wav
192,192,230767,1,2,0:0:0:0:
320,192,230767,128,0,231211:0:0:0:0:
64,192,230989,128,0,231211:0:0:0:70:HHOpen.wav
192,192,231211,128,8,231433:0:0:0:0:
448,192,231211,128,0,231656:0:0:0:0:
64,192,231433,128,0,232100:0:0:0:0:
320,192,231433,1,0,0:0:0:0:
192,192,231656,1,2,0:0:0:0:
320,192,231656,128,0,231878:0:0:0:0:
192,192,231878,128,0,232100:0:0:0:70:HHOpen.wav
320,192,232100,1,8,0:0:0:0:
448,192,232100,128,0,232322:0:0:0:0:
192,192,232322,128,0,232544:0:0:0:70:HHOpen.wav
64,192,232544,128,2,232989:0:0:0:0:
448,192,232544,128,0,232767:0:0:0:0:
320,192,232767,128,0,233211:0:0:0:70:HHOpen.wav
192,192,232989,128,8,233211:0:0:0:0:
448,192,232989,1,0,0:0:0:0:
64,192,233211,128,0,233656:0:0:0:0:
320,192,233433,1,2,0:0:0:0:
448,192,233433,1,0,0:0:0:0:
192,192,233656,1,8,0:0:0:0:
64,192,233878,1,8,0:0:0:0:
320,192,233878,1,0,0:0:0:0:
448,192,233989,1,8,0:0:0:0:
192,192,234100,1,0,0:0:0:0:
320,192,234211,1,8,0:0:0:0:
64,192,234322,1,0,0:0:0:0:
448,192,234433,1,8,0:0:0:0:
192,192,234544,1,0,0:0:0:0:
64,192,234767,1,8,0:0:0:0:
448,192,234767,1,0,0:0:0:0:
320,192,234989,128,2,235211:0:0:0:0:
64,192,235211,1,0,0:0:0:0:
192,192,235211,128,0,235433:0:0:0:0:
448,192,235211,128,0,235656:0:0:0:0:
320,192,235433,128,0,235656:0:0:0:0:
64,192,235656,128,8,235878:0:0:0:0:
192,192,235656,128,0,236100:0:0:0:0:
448,192,235878,128,0,236100:0:0:0:0:
64,192,236100,128,2,236322:0:0:0:0:
320,192,236100,128,0,236544:0:0:0:0:
448,192,236322,128,0,236544:0:0:0:0:
64,192,236544,128,8,236656:0:0:0:0:
192,192,236544,1,0,0:0:0:0:
64,192,236767,128,0,237211:0:0:0:0:
448,192,236767,128,0,236989:0:0:0:0:
192,192,236989,128,2,237433:0:0:0:0:
320,192,236989,1,0,0:0:0:0:
320,192,237211,128,0,237433:0:0:0:0:
64,192,237433,1,8,0:0:0:0:
448,192,237433,1,0,0:0:0:0:
192,192,237656,128,0,237767:0:0:0:0:
192,192,237878,128,2,238322:0:0:0:0:
320,192,237878,128,0,238100:0:0:0:0:
448,192,238100,128,0,238544:0:0:0:0:
320,192,238211,128,0,238544:0:0:0:0:
64,192,238322,128,8,238544:0:0:0:0:
192,192,238544,128,0,238767:0:0:0:0:
320,192,238767,128,2,239211:0:0:0:0:
448,192,238767,128,0,238989:0:0:0:0:
64,192,238989,128,0,239211:0:0:0:0:
192,192,239211,128,8,239433:0:0:0:0:
448,192,239211,1,0,0:0:0:0:
64,192,239433,128,0,239878:0:0:0:0:
320,192,239433,128,0,239656:0:0:0:0:
192,192,239656,1,2,0:0:0:0:
448,192,239656,128,0,240100:0:0:0:0:
320,192,239878,128,0,240100:0:0:0:0:
64,192,240100,128,8,240544:0:0:0:0:
192,192,240100,128,0,240322:0:0:0:0:
320,192,240322,128,0,240544:0:0:0:0:
192,192,240544,1,2,0:0:0:0:
448,192,240544,128,0,240989:0:0:0:0:
64,192,240767,128,0,240989:0:0:0:0:
192,192,240989,128,8,241211:0:0:0:0:
320,192,240989,128,0,241433:0:0:0:0:
448,192,241211,128,0,241433:0:0:0:0:
64,192,241433,128,2,241656:0:0:0:0:
192,192,241433,128,0,241878:0:0:0:0:
320,192,241656,128,0,242100:0:0:0:70:Splash.wav
448,192,241767,128,0,242100:0:0:0:0:
64,192,241878,128,8,242100:0:0:0:0:
192,192,242100,128,2,242322:0:0:0:0:
64,192,242322,1,2,0:0:0:0:
320,192,242322,128,4,242767:0:0:0:0:
448,192,242322,1,0,0:0:0:0:
448,192,242544,1,0,0:0:0:70:HHOpen.wav
64,192,242767,128,8,242989:0:0:0:0:
192,192,242767,128,0,243211:0:0:0:0:
448,192,242989,128,0,243211:0:0:0:70:HHOpen.wav
64,192,243211,128,2,243656:0:0:0:0:
320,192,243211,128,0,243433:0:0:0:0:
448,192,243433,128,0,243878:0:0:0:70:HHOpen.wav
320,192,243544,128,0,243878:0:0:0:0:
192,192,243656,128,8,243878:0:0:0:0:
64,192,243878,128,0,244100:0:0:0:70:HHOpen.wav
192,192,244100,128,2,244544:0:0:0:0:
448,192,244100,1,0,0:0:0:0:
320,192,244322,128,0,244544:0:0:0:70:HHOpen.wav
64,192,244544,128,8,244989:0:0:0:0:
448,192,244544,128,0,244767:0:0:0:0:
192,192,244767,128,0,244989:0:0:0:70:HHOpen.wav
320,192,244989,1,2,0:0:0:0:
448,192,244989,128,0,245433:0:0:0:0:
64,192,245211,128,0,245433:0:0:0:70:HHOpen.wav
192,192,245433,128,8,245878:0:0:0:0:
320,192,245433,128,0,245656:0:0:0:0:
64,192,245656,1,0,0:0:0:0:
448,192,245656,128,0,246322:0:0:0:0:
64,192,245878,128,2,246100:0:0:0:0:
320,192,245878,1,0,0:0:0:0:
192,192,246100,128,0,246322:0:0:0:70:HHOpen.wav
64,192,246322,1,8,0:0:0:0:
320,192,246322,128,0,246544:0:0:0:0:
192,192,246544,128,0,246989:0:0:0:70:HHOpen.wav
64,192,246767,1,2,0:0:0:0:
448,192,246767,128,0,246989:0:0:0:0:
320,192,246989,128,0,247211:0:0:0:70:HHOpen.wav
64,192,247211,128,8,247433:0:0:0:0:
448,192,247211,128,0,247656:0:0:0:0:
192,192,247433,128,0,247878:0:0:0:70:HHOpen.wav
64,192,247656,1,2,0:0:0:0:
320,192,247656,128,0,247878:0:0:0:0:
448,192,247878,128,0,248100:0:0:0:70:HHOpen.wav
64,192,248100,128,8,248322:0:0:0:0:
192,192,248100,128,0,248322:0:0:0:0:
320,192,248322,128,0,248767:0:0:0:70:HHOpen.wav
64,192,248544,1,2,0:0:0:0:
192,192,248544,1,0,0:0:0:0:
448,192,248767,1,8,0:0:0:0:
64,192,248878,1,8,0:0:0:0:
192,192,248989,1,8,0:0:0:0:
320,192,249100,1,2,0:0:0:0:
448,192,249100,1,0,0:0:0:0:
448,192,249322,1,8,0:0:0:0:
64,192,249433,1,4,0:0:0:0:
192,192,249433,128,2,249767:0:0:0:0:
320,192,249433,1,0,0:0:0:0:
64,192,249767,128,0,250100:0:0:0:0:
320,192,249878,128,8,250100:0:0:0:0:
448,192,249878,1,0,0:0:0:0:
448,192,250100,128,0,250433:0:0:0:0:
64,192,250322,1,2,0:0:0:0:
320,192,250322,1,0,0:0:0:0:
192,192,250433,128,0,250767:0:0:0:0:
64,192,250767,128,8,251211:0:0:0:0:
448,192,250767,128,0,250989:0:0:0:0:
320,192,250989,128,0,251211:0:0:0:0:
192,192,251211,128,2,251433:0:0:0:0:
448,192,251211,128,0,251656:0:0:0:0:
64,192,251433,128,0,251656:0:0:0:0:
192,192,251656,1,8,0:0:0:0:
320,192,251656,128,0,251989:0:0:0:0:
64,192,251878,1,0,0:0:0:0:
192,192,251989,1,0,0:0:0:0:
320,192,252100,1,2,0:0:0:0:
448,192,252100,128,0,252544:0:0:0:0:
64,192,252322,128,0,252544:0:0:0:0:
192,192,252544,128,8,252989:0:0:0:0:
320,192,252544,1,0,0:0:0:0:
448,192,252767,128,0,252989:0:0:0:0:
64,192,252989,128,2,253322:0:0:0:0:
320,192,252989,1,0,0:0:0:0:
320,192,253322,128,0,253656:0:0:0:0:
64,192,253433,1,8,0:0:0:0:
192,192,253433,128,0,253656:0:0:0:0:
64,192,253656,128,0,254100:0:0:0:0:
448,192,253656,1,0,0:0:0:0:
192,192,253878,128,2,254100:0:0:0:0:
448,192,253878,128,0,254322:0:0:0:0:
320,192,254100,128,0,254544:0:0:0:0:
64,192,254322,1,8,0:0:0:0:
192,192,254322,128,0,254767:0:0:0:0:
64,192,254544,128,0,254989:0:0:0:0:
320,192,254767,1,2,0:0:0:0:
448,192,254767,128,0,254989:0:0:0:0:
320,192,254989,128,0,255211:0:0:0:0:
64,192,255211,128,8,255322:0:0:0:0:
448,192,255211,128,0,255544:0:0:0:0:
192,192,255322,128,0,255544:0:0:0:0:
320,192,255544,128,0,256100:0:0:0:0:
64,192,255656,1,2,0:0:0:0:
192,192,255656,1,0,0:0:0:0:
448,192,255878,128,0,256100:0:0:0:70:Splash.wav
192,192,255989,128,0,256100:0:0:0:0:
64,192,256100,1,8,0:0:0:0:
320,192,256211,128,8,256544:0:0:0:0:
192,192,256322,128,2,256544:0:0:0:0:
64,192,256544,1,2,0:0:0:0:
448,192,256544,128,4,256878:0:0:0:0:
64,192,256878,128,0,257211:0:0:0:0:
192,192,256989,128,8,257211:0:0:0:0:
320,192,256989,1,0,0:0:0:0:
448,192,257211,128,0,257544:0:0:0:0:
64,192,257433,1,2,0:0:0:0:
192,192,257433,1,0,0:0:0:0:
320,192,257544,128,0,257878:0:0:0:0:
64,192,257878,128,8,258322:0:0:0:0:
448,192,257878,1,0,0:0:0:0:
192,192,258100,128,0,258322:0:0:0:0:
320,192,258322,128,2,258767:0:0:0:0:
448,192,258322,1,0,0:0:0:0:
64,192,258544,128,0,258767:0:0:0:0:
192,192,258767,1,8,0:0:0:0:
448,192,258767,128,0,259100:0:0:0:0:
64,192,258989,1,0,0:0:0:0:
192,192,259100,128,0,259433:0:0:0:0:
320,192,259211,1,2,0:0:0:0:
448,192,259211,128,0,259656:0:0:0:0:
64,192,259433,128,0,259878:0:0:0:0:
192,192,259656,128,8,259878:0:0:0:0:
320,192,259656,1,0,0:0:0:0:
448,192,259878,128,0,260100:0:0:0:0:
64,192,260100,1,2,0:0:0:0:
192,192,260100,1,0,0:0:0:0:
448,192,260322,1,0,0:0:0:0:
320,192,260433,1,0,0:0:0:0:
64,192,260544,1,8,0:0:0:0:
192,192,260656,1,0,0:0:0:0:
448,192,260767,1,0,0:0:0:0:
320,192,260989,1,2,0:0:0:0:
192,192,261100,1,0,0:0:0:0:
320,192,261211,1,0,0:0:0:0:
192,192,261322,1,0,0:0:0:0:
64,192,261433,1,8,0:0:0:0:
448,192,261433,1,0,0:0:0:0:
320,192,261656,1,0,0:0:0:0:
64,192,261878,1,2,0:0:0:0:
192,192,261878,1,0,0:0:0:0:
448,192,261989,1,8,0:0:0:0:
320,192,262100,1,0,0:0:0:0:
64,192,262211,1,0,0:0:0:0:
192,192,262322,128,8,262433:0:0:0:0:
448,192,262433,1,0,0:0:0:0:
320,192,262544,128,0,262656:0:0:0:0:
64,192,262656,1,8,0:0:0:0:
448,192,262767,128,2,262878:0:0:0:0:
192,192,262989,128,8,263100:0:0:0:0:
320,192,263100,1,2,0:0:0:0:
64,192,263211,128,2,263322:0:0:0:0:
192,192,263322,1,8,0:0:0:0:
320,192,263433,128,4,263656:0:0:0:0:
448,192,263433,128,2,263656:0:0:0:0:
