osu file format v14

[General]
AudioFilename: audio.mp3
AudioLeadIn: 0
PreviewTime: 66292
Countdown: 0
SampleSet: Normal
StackLeniency: 0.7
Mode: 1
LetterboxInBreaks: 0
EpilepsyWarning: 1
WidescreenStoryboard: 1

[Editor]
Bookmarks: 15010,25010,47432,66891,86351
DistanceSpacing: 3
BeatDivisor: 4
GridSize: 16
TimelineZoom: 1.3

[Metadata]
Title:M:routine
TitleUnicode:M:routine
Artist:Endorfin.
ArtistUnicode:Endorfin.
Creator:Faputa
Version:Kantan
Source:
Tags:Stories of Eve 7th Mini Album 藍月なくる Aitsuki Nakuru sky_delta M3-44 秋 Autumn EDCD-0007 冬 winter Electronic Japanese Storyboard SB Morning
BeatmapID:2239063
BeatmapSetID:1069628

[Difficulty]
HPDrainRate:8
CircleSize:2
OverallDifficulty:2.5
ApproachRate:10
SliderMultiplier:1.4
SliderTickRate:1

[Events]
//Background and Video events
0,0,"bg2.jpg",0,200
//Break Periods
2,45000,46991
//Storyboard Layer 0 (Background)
//Storyboard Layer 1 (Fail)
//Storyboard Layer 2 (Pass)
//Storyboard Layer 3 (Foreground)
//Storyboard Layer 4 (Overlay)
//Storyboard Sound Samples

[TimingPoints]
9,416.666666666667,6,1,0,50,1,0
5009,416.666666666667,6,1,0,50,1,0
14800,-100,6,1,0,60,0,0
23550,-100,6,1,0,30,0,0
24904,-100,6,1,0,65,0,0
45009,405.405405405405,6,1,0,60,1,0
47036,-100,6,1,0,50,0,0
47441,405.405405405405,6,1,0,50,1,0
57170,-100,6,1,0,60,0,0
66900,-100,6,1,0,75,0,1
105819,-100,6,1,0,75,0,0
106022,-100,6,1,0,50,0,0

[HitObjects]
256,192,5009,5,8,0:0:0:0:
256,192,7509,1,8,0:0:0:0:
256,192,10009,1,0,0:0:0:0:
256,192,11259,1,8,0:0:0:0:
256,192,12509,1,0,0:0:0:0:
256,192,15009,1,8,0:0:0:0:
256,192,17509,1,8,0:0:0:0:
256,192,20009,1,0,0:0:0:0:
256,192,21259,1,8,0:0:0:0:
256,192,22509,1,0,0:0:0:0:
256,192,23759,12,0,24592,0:0:0:0:
256,192,25009,5,8,0:0:0:0:
256,192,25842,1,0,0:0:0:0:
256,192,26259,1,8,0:0:0:0:
256,192,26675,1,8,0:0:0:0:
256,192,27509,1,0,0:0:0:0:
256,192,27925,1,8,0:0:0:0:
256,192,30009,1,8,0:0:0:0:
256,192,31259,1,0,0:0:0:0:
256,192,31675,1,8,0:0:0:0:
256,192,32092,1,0,0:0:0:0:
256,192,32509,1,8,0:0:0:0:
256,192,33759,1,8,0:0:0:0:
256,192,34175,1,8,0:0:0:0:
256,192,34592,1,8,0:0:0:0:
256,192,35009,1,0,0:0:0:0:
256,192,36259,1,0,0:0:0:0:
256,192,37509,1,8,0:0:0:0:
256,192,37925,1,8,0:0:0:0:
256,192,38342,1,0,0:0:0:0:
256,192,38759,1,8,0:0:0:0:
181,59,40009,2,0,L|426:328,2,350
256,192,42925,1,8,0:0:0:0:
256,192,44175,1,8,0:0:0:0:
256,192,47441,5,8,0:0:0:0:
256,192,49873,1,8,0:0:0:0:
256,192,52306,1,0,0:0:0:0:
256,192,53522,1,8,0:0:0:0:
256,192,54738,1,0,0:0:0:0:
256,192,56360,1,8,0:0:0:0:
256,192,57171,1,8,0:0:0:0:
256,192,58387,1,0,0:0:0:0:
256,192,59198,1,0,0:0:0:0:
256,192,59603,1,8,0:0:0:0:
256,192,60819,1,0,0:0:0:0:
256,192,62036,1,8,0:0:0:0:
256,192,62440,1,8,0:0:0:0:
256,192,63252,1,8,0:0:0:0:
256,192,63657,1,0,0:0:0:0:
256,192,64468,1,0,0:0:0:0:
256,192,65684,1,0,0:0:0:0:
256,192,66089,1,0,0:0:0:0:
256,192,66495,1,0,0:0:0:0:
256,192,66900,1,12,0:0:0:0:
256,192,67711,1,8,0:0:0:0:
256,192,68117,1,0,0:0:0:0:
256,192,68927,1,8,0:0:0:0:
256,192,69333,1,8,0:0:0:0:
256,192,71765,1,8,0:0:0:0:
256,192,72171,1,0,0:0:0:0:
256,192,72576,1,8,0:0:0:0:
256,192,72981,1,8,0:0:0:0:
256,192,73792,1,8,0:0:0:0:
256,192,74198,1,8,0:0:0:0:
256,192,76225,1,0,0:0:0:0:
256,192,76630,1,8,0:0:0:0:
256,192,77441,1,8,0:0:0:0:
256,192,77846,1,0,0:0:0:0:
256,192,78252,1,8,0:0:0:0:
256,192,78657,1,8,0:0:0:0:
256,192,79063,1,8,0:0:0:0:
256,192,80279,1,8,0:0:0:0:
256,192,80684,1,0,0:0:0:0:
256,192,81090,1,8,0:0:0:0:
256,192,81495,1,0,0:0:0:0:
256,192,82711,1,8,0:0:0:0:
256,192,83522,1,8,0:0:0:0:
256,192,83927,1,0,0:0:0:0:
256,192,85144,1,8,0:0:0:0:
256,192,86360,1,4,0:0:0:0:
256,192,86765,1,8,0:0:0:0:
256,192,87171,1,8,0:0:0:0:
256,192,87576,1,0,0:0:0:0:
256,192,88387,1,8,0:0:0:0:
256,192,88792,1,8,0:0:0:0:
256,192,91224,1,0,0:0:0:0:
256,192,91630,1,8,0:0:0:0:
256,192,92036,1,8,0:0:0:0:
256,192,92441,1,0,0:0:0:0:
256,192,93252,1,8,0:0:0:0:
256,192,93657,1,8,0:0:0:0:
256,192,94873,1,12,0:0:0:0:
256,192,95481,1,12,0:0:0:0:
256,192,96090,1,4,0:0:0:0:
256,192,96900,1,8,0:0:0:0:
256,192,97306,1,0,0:0:0:0:
256,192,97711,1,8,0:0:0:0:
256,192,98117,1,8,0:0:0:0:
256,192,98522,1,0,0:0:0:0:
256,192,99332,1,0,0:0:0:0:
256,192,99738,1,8,0:0:0:0:
256,192,100143,1,12,0:0:0:0:
256,192,100954,1,0,0:0:0:0:
256,192,102171,1,8,0:0:0:0:
256,192,102981,1,0,0:0:0:0:
256,192,103387,1,8,0:0:0:0:
256,192,104603,1,8,0:0:0:0:
256,192,105819,1,8,0:0:0:0:
256,192,108657,5,8,0:0:0:0:
256,192,111090,1,8,0:0:0:0:
256,192,113522,1,8,0:0:0:0:
