osu file format v14

[General]
AudioFilename: audio.mp3
AudioLeadIn: 0
PreviewTime: 66292
Countdown: 0
SampleSet: Normal
StackLeniency: 0.7
Mode: 1
LetterboxInBreaks: 0
EpilepsyWarning: 1
WidescreenStoryboard: 1

[Editor]
Bookmarks: 15010,25010,47432,66891,86351
DistanceSpacing: 3
BeatDivisor: 4
GridSize: 16
TimelineZoom: 1.3

[Metadata]
Title:M:routine
TitleUnicode:M:routine
Artist:Endorfin.
ArtistUnicode:Endorfin.
Creator:Faputa
Version:Futsuu
Source:
Tags:Stories of Eve 7th Mini Album 藍月なくる Aitsuki Nakuru sky_delta M3-44 秋 Autumn EDCD-0007 冬 winter Electronic Japanese Storyboard SB Morning
BeatmapID:2239062
BeatmapSetID:1069628

[Difficulty]
HPDrainRate:7
CircleSize:2
OverallDifficulty:3.5
ApproachRate:10
SliderMultiplier:1.4
SliderTickRate:1

[Events]
//Background and Video events
0,0,"bg2.jpg",0,200
//Break Periods
2,45000,46991
//Storyboard Layer 0 (Background)
//Storyboard Layer 1 (Fail)
//Storyboard Layer 2 (Pass)
//Storyboard Layer 3 (Foreground)
//Storyboard Layer 4 (Overlay)
//Storyboard Sound Samples

[TimingPoints]
9,416.666666666667,6,1,0,50,1,0
5009,416.666666666667,6,1,0,50,1,0
14800,-100,6,1,0,60,0,0
23550,-100,6,1,0,30,0,0
24904,-100,6,1,0,65,0,0
45009,405.405405405405,6,1,0,60,1,0
47036,-100,6,1,0,50,0,0
47441,405.405405405405,6,1,0,50,1,0
57170,-100,6,1,0,60,0,0
66900,-100,6,1,0,75,0,1
105819,-100,6,1,0,75,0,0
106022,-100,6,1,0,50,0,0

[HitObjects]
256,192,5009,5,8,0:0:0:0:
256,192,5425,1,8,0:0:0:0:
256,192,5634,1,8,0:0:0:0:
256,192,7092,1,0,0:0:0:0:
256,192,7509,1,8,0:0:0:0:
256,192,7925,1,8,0:0:0:0:
256,192,10009,1,0,0:0:0:0:
256,192,10425,1,8,0:0:0:0:
256,192,11259,1,8,0:0:0:0:
256,192,11675,1,0,0:0:0:0:
256,192,12509,1,0,0:0:0:0:
256,192,12925,1,8,0:0:0:0:
256,192,15009,1,8,0:0:0:0:
256,192,15425,1,8,0:0:0:0:
256,192,15634,1,8,0:0:0:0:
256,192,17092,1,0,0:0:0:0:
256,192,17509,1,8,0:0:0:0:
256,192,17925,1,8,0:0:0:0:
256,192,19800,1,0,0:0:0:0:
256,192,20009,1,0,0:0:0:0:
256,192,20425,1,8,0:0:0:0:
256,192,21259,1,8,0:0:0:0:
256,192,21675,1,0,0:0:0:0:
256,192,22300,1,8,0:0:0:0:
256,192,22509,1,0,0:0:0:0:
256,192,22925,1,8,0:0:0:0:
256,192,23759,12,0,24592,0:0:0:0:
256,192,25009,5,8,0:0:0:0:
256,192,25425,1,8,0:0:0:0:
256,192,25842,1,0,0:0:0:0:
256,192,26050,1,8,0:0:0:0:
256,192,26259,1,0,0:0:0:0:
256,192,26675,1,8,0:0:0:0:
256,192,27092,1,0,0:0:0:0:
256,192,27509,1,8,0:0:0:0:
256,192,27925,1,8,0:0:0:0:
256,192,29175,1,8,0:0:0:0:
256,192,29592,1,0,0:0:0:0:
256,192,29800,1,0,0:0:0:0:
256,192,30009,1,8,0:0:0:0:
256,192,30425,1,0,0:0:0:0:
256,192,31050,1,8,0:0:0:0:
256,192,31259,1,8,0:0:0:0:
256,192,31675,1,8,0:0:0:0:
256,192,32092,1,0,0:0:0:0:
256,192,32509,1,8,0:0:0:0:
256,192,33342,1,0,0:0:0:0:
256,192,33550,1,8,0:0:0:0:
256,192,33759,1,8,0:0:0:0:
256,192,34175,1,8,0:0:0:0:
256,192,34592,1,8,0:0:0:0:
256,192,35009,1,0,0:0:0:0:
256,192,35425,1,8,0:0:0:0:
256,192,36259,1,0,0:0:0:0:
256,192,36675,1,8,0:0:0:0:
256,192,37509,1,8,0:0:0:0:
256,192,37925,1,8,0:0:0:0:
256,192,38342,1,0,0:0:0:0:
256,192,38759,1,8,0:0:0:0:
256,192,39175,1,0,0:0:0:0:
256,192,40009,1,8,0:0:0:0:
256,192,40425,1,8,0:0:0:0:
256,192,41259,1,0,0:0:0:0:
256,192,41675,1,8,0:0:0:0:
256,192,42509,1,8,0:0:0:0:
256,192,42925,1,8,0:0:0:0:
256,192,43759,1,0,0:0:0:0:
256,192,44175,1,8,0:0:0:0:
256,192,44592,1,8,0:0:0:0:
256,192,47441,5,8,0:0:0:0:
256,192,47846,1,8,0:0:0:0:
256,192,48049,1,8,0:0:0:0:
256,192,49468,1,0,0:0:0:0:
256,192,49873,1,8,0:0:0:0:
256,192,50279,1,8,0:0:0:0:
256,192,52306,1,8,0:0:0:0:
256,192,52711,1,8,0:0:0:0:
256,192,53522,1,8,0:0:0:0:
256,192,53927,1,0,0:0:0:0:
256,192,54738,1,0,0:0:0:0:
256,192,55144,1,8,0:0:0:0:
256,192,56360,1,8,0:0:0:0:
256,192,56765,1,0,0:0:0:0:
256,192,56968,1,8,0:0:0:0:
256,192,57170,1,8,0:0:0:0:
256,192,57576,1,8,0:0:0:0:
256,192,58387,1,8,0:0:0:0:
256,192,58792,1,0,0:0:0:0:
256,192,59198,1,0,0:0:0:0:
256,192,59603,1,8,0:0:0:0:
256,192,60008,1,8,0:0:0:0:
256,192,60819,1,0,0:0:0:0:
256,192,61225,1,8,0:0:0:0:
256,192,61630,1,0,0:0:0:0:
256,192,62036,1,8,0:0:0:0:
256,192,62440,1,8,0:0:0:0:
256,192,63252,1,8,0:0:0:0:
256,192,63657,1,0,0:0:0:0:
256,192,64265,1,8,0:0:0:0:
256,192,64468,1,0,0:0:0:0:
256,192,65076,1,8,0:0:0:0:
256,192,65684,1,0,0:0:0:0:
256,192,66089,1,0,0:0:0:0:
256,192,66495,1,8,0:0:0:0:
256,192,66900,1,12,0:0:0:0:
256,192,67305,1,8,0:0:0:0:
256,192,67711,1,8,0:0:0:0:
256,192,68117,1,0,0:0:0:0:
256,192,68725,1,0,0:0:0:0:
256,192,68927,1,8,0:0:0:0:
256,192,69333,1,0,0:0:0:0:
256,192,70143,1,8,0:0:0:0:
256,192,70549,1,8,0:0:0:0:
256,192,70954,1,0,0:0:0:0:
256,192,71157,1,0,0:0:0:0:
256,192,71359,1,0,0:0:0:0:
256,192,71765,1,8,0:0:0:0:
256,192,72171,1,0,0:0:0:0:
256,192,72576,1,8,0:0:0:0:
256,192,72981,1,8,0:0:0:0:
256,192,73589,1,0,0:0:0:0:
256,192,73792,1,8,0:0:0:0:
256,192,74198,1,8,0:0:0:0:
256,192,75008,1,8,0:0:0:0:
256,192,75414,1,8,0:0:0:0:
256,192,75819,1,0,0:0:0:0:
256,192,76022,1,8,0:0:0:0:
256,192,76225,1,0,0:0:0:0:
256,192,76630,1,8,0:0:0:0:
256,192,77441,1,8,0:0:0:0:
256,192,77846,1,0,0:0:0:0:
256,192,78252,1,8,0:0:0:0:
256,192,78454,1,0,0:0:0:0:
256,192,78657,1,8,0:0:0:0:
256,192,79063,1,8,0:0:0:0:
256,192,79873,1,0,0:0:0:0:
256,192,80279,1,8,0:0:0:0:
256,192,80684,1,0,0:0:0:0:
256,192,80887,1,0,0:0:0:0:
256,192,81090,1,8,0:0:0:0:
256,192,81495,1,0,0:0:0:0:
256,192,81900,1,0,0:0:0:0:
256,192,82103,1,8,0:0:0:0:
256,192,82711,1,8,0:0:0:0:
256,192,83116,1,0,0:0:0:0:
256,192,83522,1,8,0:0:0:0:
256,192,83725,1,8,0:0:0:0:
256,192,83927,1,0,0:0:0:0:
256,192,84333,1,0,0:0:0:0:
256,192,84738,1,0,0:0:0:0:
256,192,85144,1,8,0:0:0:0:
256,192,85549,1,0,0:0:0:0:
256,192,85954,1,8,0:0:0:0:
256,192,86360,1,4,0:0:0:0:
256,192,86765,1,8,0:0:0:0:
256,192,87171,1,8,0:0:0:0:
256,192,87576,1,0,0:0:0:0:
256,192,88184,1,0,0:0:0:0:
256,192,88387,1,8,0:0:0:0:
256,192,88792,1,8,0:0:0:0:
256,192,89603,1,0,0:0:0:0:
256,192,90008,1,8,0:0:0:0:
256,192,90211,1,0,0:0:0:0:
256,192,90414,1,0,0:0:0:0:
256,192,90819,1,8,0:0:0:0:
256,192,91225,1,0,0:0:0:0:
256,192,91630,1,8,0:0:0:0:
256,192,92036,1,8,0:0:0:0:
256,192,92441,1,0,0:0:0:0:
256,192,93049,1,8,0:0:0:0:
256,192,93252,1,8,0:0:0:0:
256,192,93657,1,8,0:0:0:0:
256,192,94063,1,0,0:0:0:0:
256,192,94468,1,0,0:0:0:0:
256,192,94873,1,12,0:0:0:0:
256,192,95481,1,12,0:0:0:0:
256,192,96090,1,4,0:0:0:0:
256,192,96900,1,8,0:0:0:0:
256,192,97306,1,0,0:0:0:0:
256,192,97711,1,8,0:0:0:0:
256,192,97913,1,0,0:0:0:0:
256,192,98117,1,8,0:0:0:0:
256,192,98522,1,0,0:0:0:0:
256,192,98927,1,8,0:0:0:0:
256,192,99332,1,0,0:0:0:0:
256,192,99738,1,8,0:0:0:0:
256,192,100144,1,12,0:0:0:0:
256,192,100954,1,0,0:0:0:0:
256,192,101360,1,0,0:0:0:0:
256,192,101563,1,8,0:0:0:0:
256,192,102171,1,8,0:0:0:0:
256,192,102981,1,0,0:0:0:0:
256,192,103387,1,8,0:0:0:0:
256,192,103792,1,0,0:0:0:0:
256,192,104198,1,0,0:0:0:0:
256,192,104603,1,8,0:0:0:0:
256,192,105008,1,8,0:0:0:0:
256,192,105414,1,0,0:0:0:0:
256,192,105617,1,0,0:0:0:0:
256,192,105819,1,8,0:0:0:0:
256,192,106022,12,0,107440,0:0:0:0:
256,192,108657,5,8,0:0:0:0:
256,192,111090,1,8,0:0:0:0:
256,192,113522,1,8,0:0:0:0:
