osu file format v14

[General]
AudioFilename: audio.mp3
AudioLeadIn: 0
PreviewTime: 66292
Countdown: 0
SampleSet: Normal
StackLeniency: 0.7
Mode: 1
LetterboxInBreaks: 0
EpilepsyWarning: 1
WidescreenStoryboard: 1

[Editor]
Bookmarks: 15010,25010,47432,66891,86351
DistanceSpacing: 3
BeatDivisor: 4
GridSize: 16
TimelineZoom: 2.5

[Metadata]
Title:M:routine
TitleUnicode:M:routine
Artist:Endorfin.
ArtistUnicode:Endorfin.
Creator:Faputa
Version:As time goes by
Source:
Tags:Stories of Eve 7th Mini Album 藍月なくる Aitsuki Nakuru sky_delta M3-44 秋 Autumn EDCD-0007 冬 winter Electronic Japanese Storyboard SB Morning
BeatmapID:2239061
BeatmapSetID:1069628

[Difficulty]
HPDrainRate:6
CircleSize:2
OverallDifficulty:6.5
ApproachRate:10
SliderMultiplier:1.4
SliderTickRate:1

[Events]
//Background and Video events
0,0,"bg2.jpg",0,200
//Break Periods
2,45000,46788
//Storyboard Layer 0 (Background)
//Storyboard Layer 1 (Fail)
//Storyboard Layer 2 (Pass)
//Storyboard Layer 3 (Foreground)
//Storyboard Layer 4 (Overlay)
//Storyboard Sound Samples

[TimingPoints]
9,416.666666666667,6,1,0,50,1,0
9,-133.333333333333,6,1,0,50,0,0
5009,416.666666666667,6,1,0,50,1,0
5009,-133.333333333333,6,1,0,50,0,0
14800,-111.111111111111,6,1,0,60,0,0
23863,-111.111111111111,6,1,0,30,0,0
24904,-100,6,1,0,65,0,0
45009,405.405405405405,6,1,0,60,1,0
47036,-133.333333333333,6,1,0,50,0,0
47441,405.405405405405,6,1,0,50,1,0
47441,-133.333333333333,6,1,0,50,0,0
55751,-131.578947368421,6,1,0,50,0,0
55954,-128.205128205128,6,1,0,50,0,0
56359,-121.951219512195,6,1,0,50,0,0
56562,-119.047619047619,6,1,0,50,0,0
56765,-116.279069767442,6,1,0,50,0,0
56866,-114.942528735632,6,1,0,50,0,0
56968,-113.636363636364,6,1,0,50,0,0
57069,-112.359550561798,6,1,0,50,0,0
57170,-111.111111111111,6,1,0,60,0,0
65481,-109.89010989011,6,1,0,60,0,0
65582,-108.695652173913,6,1,0,60,0,0
65684,-107.52688172043,6,1,0,60,0,0
65785,-106.382978723404,6,1,0,60,0,0
65886,-105.263157894737,6,1,0,60,0,0
66089,-103.092783505155,6,1,0,60,0,0
66190,-102.040816326531,6,1,0,60,0,0
66292,-101.010101010101,6,1,0,60,0,0
66495,-99.009900990099,6,1,0,60,0,0
66596,-98.0392156862745,6,1,0,60,0,0
66697,-97.0873786407767,6,1,0,60,0,0
66799,-96.1538461538461,6,1,0,60,0,0
66900,-95.2380952380952,6,1,0,75,0,1
85549,-94.3396226415094,6,1,0,75,0,1
85650,-93.4579439252336,6,1,0,75,0,1
85751,-92.5925925925926,6,1,0,75,0,1
85853,-91.743119266055,6,1,0,75,0,1
85954,-90.9090909090909,6,1,0,75,0,1
86022,-90.0900900900901,6,1,0,75,0,1
86089,-89.2857142857143,6,1,0,75,0,1
86157,-88.4955752212389,6,1,0,75,0,1
86224,-87.719298245614,6,1,0,75,0,1
86292,-86.9565217391304,6,1,0,75,0,1
86359,-86.2068965517241,6,1,0,80,0,1
94873,-74.0740740740741,6,1,0,80,0,1
95278,-80,6,1,0,80,0,1
95684,-86.9565217391304,6,1,0,80,0,1
95785,-86.2068965517241,6,1,0,80,0,1
95886,-85.4700854700855,6,1,0,80,0,1
95988,-84.7457627118644,6,1,0,80,0,1
96089,-84.0336134453782,6,1,0,75,0,1
96292,-85.1063829787234,6,1,0,75,0,1
96495,-86.2068965517241,6,1,0,75,0,1
96596,-86.7678958785249,6,1,0,75,0,1
96697,-87.3362445414847,6,1,0,75,0,1
96900,-88.495575221239,6,1,0,75,0,1
97001,-89.086859688196,6,1,0,75,0,1
97103,-89.6860986547085,6,1,0,75,0,1
97204,-90.293453724605,6,1,0,75,0,1
97305,-90.9090909090909,6,1,0,75,0,1
104603,-90.9090909090909,6,1,0,75,0,1
104704,-91.6030254647251,6,1,0,75,0,1
104805,-92.3077207100679,6,1,0,75,0,1
104907,-93.0232558139535,6,1,0,75,0,1
105008,-93.7499707031342,6,1,0,75,0,1
105109,-94.4882187364469,6,1,0,75,0,1
105211,-95.2380952380952,6,1,0,75,0,1
105312,-95.9999692800098,6,1,0,75,0,1
105413,-96.774224765879,6,1,0,75,0,1
105515,-97.5609756097561,6,1,0,75,0,1
105616,-98.3606234883202,6,1,0,75,0,1
105718,-99.173586503665,6,1,0,75,0,1
105819,-100,6,1,0,75,0,0
106022,-101.010101010101,6,1,0,50,0,0
106630,-102.040816326531,6,1,0,50,0,0
107035,-103.092783505155,6,1,0,50,0,0
107440,-104.166666666667,6,1,0,50,0,0
107846,-105.263157894737,6,1,0,50,0,0
108251,-106.382978723404,6,1,0,50,0,0
108657,-107.52688172043,6,1,0,50,0,0
109062,-108.695652173913,6,1,0,50,0,0
109468,-109.89010989011,6,1,0,50,0,0
109670,-111.111111111111,6,1,0,50,0,0
109873,-112.359550561798,6,1,0,50,0,0
110278,-113.636363636364,6,1,0,50,0,0
110684,-114.942528735632,6,1,0,50,0,0
111089,-116.279069767442,6,1,0,50,0,0
111495,-117.647058823529,6,1,0,50,0,0
111900,-119.047619047619,6,1,0,50,0,0
112305,-121.951219512195,6,1,0,50,0,0
112711,-125,6,1,0,50,0,0
113116,-126.582278481013,6,1,0,50,0,0
113522,-128.205128205128,6,1,0,50,0,0
113927,-129.87012987013,6,1,0,50,0,0
114332,-131.578947368421,6,1,0,50,0,0
114738,-133.333333333333,6,1,0,50,0,0

[HitObjects]
256,192,4800,5,0,0:0:0:0:
256,192,5009,1,8,0:0:0:0:
256,192,5425,1,8,0:0:0:0:
256,192,5634,1,8,0:0:0:0:
256,192,7092,1,0,0:0:0:0:
256,192,7300,1,0,0:0:0:0:
256,192,7509,1,8,0:0:0:0:
256,192,7717,1,8,0:0:0:0:
256,192,7925,1,8,0:0:0:0:
256,192,9800,1,8,0:0:0:0:
256,192,10009,1,0,0:0:0:0:
256,192,10217,1,8,0:0:0:0:
256,192,10425,1,8,0:0:0:0:
256,192,11050,1,0,0:0:0:0:
256,192,11259,1,8,0:0:0:0:
256,192,11675,1,0,0:0:0:0:
256,192,12092,1,8,0:0:0:0:
256,192,12300,1,0,0:0:0:0:
256,192,12509,1,0,0:0:0:0:
256,192,12717,1,8,0:0:0:0:
256,192,12925,1,8,0:0:0:0:
256,192,14800,1,0,0:0:0:0:
256,192,15009,1,8,0:0:0:0:
256,192,15425,1,8,0:0:0:0:
256,192,15634,1,8,0:0:0:0:
256,192,16050,1,0,0:0:0:0:
256,192,16259,1,8,0:0:0:0:
256,192,16467,1,8,0:0:0:0:
256,192,16519,1,8,0:0:0:0:
256,192,16675,1,0,0:0:0:0:
256,192,16884,1,8,0:0:0:0:
256,192,17092,1,0,0:0:0:0:
256,192,17300,1,0,0:0:0:0:
256,192,17509,1,8,0:0:0:0:
256,192,17717,1,8,0:0:0:0:
256,192,17925,1,8,0:0:0:0:
256,192,18550,1,8,0:0:0:0:
256,192,18759,1,0,0:0:0:0:
256,192,18967,1,0,0:0:0:0:
256,192,19036,1,0,0:0:0:0:
256,192,19106,1,0,0:0:0:0:
256,192,19175,1,8,0:0:0:0:
256,192,19384,1,8,0:0:0:0:
256,192,19592,1,0,0:0:0:0:
256,192,19800,1,8,0:0:0:0:
256,192,20009,1,8,0:0:0:0:
256,192,20217,1,0,0:0:0:0:
256,192,20425,1,8,0:0:0:0:
256,192,21050,1,0,0:0:0:0:
256,192,21259,1,8,0:0:0:0:
256,192,21571,1,8,0:0:0:0:
256,192,21623,1,8,0:0:0:0:
256,192,21675,1,8,0:0:0:0:
256,192,21884,1,8,0:0:0:0:
256,192,22092,1,0,0:0:0:0:
256,192,22300,1,8,0:0:0:0:
256,192,22509,1,0,0:0:0:0:
256,192,22717,1,8,0:0:0:0:
256,192,22925,1,8,0:0:0:0:
256,192,23620,1,0,0:0:0:0:
256,192,23689,1,0,0:0:0:0:
256,192,23759,1,0,0:0:0:0:
256,192,23967,12,0,24800,0:0:0:0:
256,192,25009,5,8,0:0:0:0:
256,192,25425,1,8,0:0:0:0:
256,192,25634,1,8,0:0:0:0:
256,192,25842,1,0,0:0:0:0:
256,192,26050,1,8,0:0:0:0:
256,192,26259,1,0,0:0:0:0:
256,192,26467,1,8,0:0:0:0:
256,192,26536,1,8,0:0:0:0:
256,192,26606,1,0,0:0:0:0:
256,192,26675,1,8,0:0:0:0:
256,192,26884,1,8,0:0:0:0:
256,192,27092,1,0,0:0:0:0:
256,192,27300,1,0,0:0:0:0:
256,192,27509,1,8,0:0:0:0:
256,192,27717,1,8,0:0:0:0:
256,192,27925,1,0,0:0:0:0:
256,192,28342,1,0,0:0:0:0:
256,192,28550,1,8,0:0:0:0:
256,192,28759,1,8,0:0:0:0:
256,192,28967,1,0,0:0:0:0:
256,192,29036,1,0,0:0:0:0:
256,192,29106,1,0,0:0:0:0:
256,192,29175,1,8,0:0:0:0:
256,192,29384,1,8,0:0:0:0:
256,192,29592,1,0,0:0:0:0:
256,192,29800,1,8,0:0:0:0:
256,192,30009,1,8,0:0:0:0:
256,192,30425,1,0,0:0:0:0:
256,192,30634,1,8,0:0:0:0:
256,192,30842,1,0,0:0:0:0:
256,192,31050,1,8,0:0:0:0:
256,192,31259,1,8,0:0:0:0:
256,192,31467,1,0,0:0:0:0:
256,192,31536,1,0,0:0:0:0:
256,192,31606,1,0,0:0:0:0:
256,192,31675,1,8,0:0:0:0:
256,192,31884,1,8,0:0:0:0:
256,192,32092,1,0,0:0:0:0:
256,192,32300,1,0,0:0:0:0:
256,192,32509,1,8,0:0:0:0:
256,192,32717,1,0,0:0:0:0:
256,192,32925,1,8,0:0:0:0:
256,192,33342,1,0,0:0:0:0:
256,192,33550,1,8,0:0:0:0:
256,192,33759,1,0,0:0:0:0:
256,192,33967,1,8,0:0:0:0:
256,192,34036,1,8,0:0:0:0:
256,192,34106,1,0,0:0:0:0:
256,192,34175,1,8,0:0:0:0:
256,192,34384,1,8,0:0:0:0:
256,192,34592,1,0,0:0:0:0:
256,192,34800,1,0,0:0:0:0:
256,192,35009,1,8,0:0:0:0:
256,192,35217,1,8,0:0:0:0:
256,192,35425,1,8,0:0:0:0:
256,192,35842,1,0,0:0:0:0:
256,192,36050,1,8,0:0:0:0:
256,192,36259,1,0,0:0:0:0:
256,192,36467,1,8,0:0:0:0:
256,192,36536,1,8,0:0:0:0:
256,192,36606,1,0,0:0:0:0:
256,192,36675,1,8,0:0:0:0:
256,192,36884,1,0,0:0:0:0:
256,192,37092,1,8,0:0:0:0:
256,192,37300,1,0,0:0:0:0:
256,192,37509,1,8,0:0:0:0:
256,192,37717,1,0,0:0:0:0:
256,192,37925,1,8,0:0:0:0:
256,192,38342,1,0,0:0:0:0:
256,192,38550,1,8,0:0:0:0:
256,192,38759,1,8,0:0:0:0:
256,192,39071,1,8,0:0:0:0:
256,192,39123,1,8,0:0:0:0:
256,192,39175,1,8,0:0:0:0:
256,192,39384,1,8,0:0:0:0:
256,192,39592,1,0,0:0:0:0:
256,192,39800,1,0,0:0:0:0:
256,192,40009,1,8,0:0:0:0:
256,192,40425,1,8,0:0:0:0:
256,192,40842,1,0,0:0:0:0:
256,192,41050,1,0,0:0:0:0:
256,192,41259,1,8,0:0:0:0:
256,192,41467,1,0,0:0:0:0:
256,192,41536,1,0,0:0:0:0:
256,192,41606,1,0,0:0:0:0:
256,192,41675,1,8,0:0:0:0:
256,192,41884,1,0,0:0:0:0:
256,192,42092,1,8,0:0:0:0:
256,192,42300,1,8,0:0:0:0:
256,192,42509,1,0,0:0:0:0:
256,192,42925,1,8,0:0:0:0:
256,192,43342,1,0,0:0:0:0:
256,192,43550,1,0,0:0:0:0:
256,192,43759,1,8,0:0:0:0:
256,192,43967,1,0,0:0:0:0:
256,192,44036,1,0,0:0:0:0:
256,192,44106,1,0,0:0:0:0:
256,192,44175,1,8,0:0:0:0:
256,192,44592,1,8,0:0:0:0:
256,192,47238,5,0,0:0:0:0:
256,192,47441,1,8,0:0:0:0:
256,192,47846,1,8,0:0:0:0:
256,192,48049,1,8,0:0:0:0:
256,192,48454,1,0,0:0:0:0:
256,192,48657,1,0,0:0:0:0:
256,192,49265,1,0,0:0:0:0:
256,192,49468,1,8,0:0:0:0:
256,192,49671,1,8,0:0:0:0:
256,192,49873,1,8,0:0:0:0:
256,192,50076,1,0,0:0:0:0:
256,192,50279,1,8,0:0:0:0:
256,192,50887,1,0,0:0:0:0:
256,192,51090,1,0,0:0:0:0:
256,192,51698,1,0,0:0:0:0:
256,192,51900,1,0,0:0:0:0:
256,192,52002,1,0,0:0:0:0:
256,192,52103,1,8,0:0:0:0:
256,192,52204,1,0,0:0:0:0:
256,192,52306,1,8,0:0:0:0:
256,192,52508,1,8,0:0:0:0:
256,192,52711,1,0,0:0:0:0:
256,192,53319,1,0,0:0:0:0:
256,192,53522,1,8,0:0:0:0:
256,192,53927,1,8,0:0:0:0:
256,192,54130,1,0,0:0:0:0:
256,192,54536,1,0,0:0:0:0:
256,192,54738,1,8,0:0:0:0:
256,192,54941,1,8,0:0:0:0:
256,192,55144,1,8,0:0:0:0:
256,192,55752,1,0,0:0:0:0:
256,192,55954,1,0,0:0:0:0:
256,192,56360,1,8,0:0:0:0:
256,192,56563,1,8,0:0:0:0:
256,192,56765,1,0,0:0:0:0:
256,192,56867,1,0,0:0:0:0:
256,192,56968,1,8,0:0:0:0:
256,192,57069,1,0,0:0:0:0:
256,192,57171,1,8,0:0:0:0:
256,192,57576,1,8,0:0:0:0:
256,192,57779,1,8,0:0:0:0:
256,192,58184,1,0,0:0:0:0:
256,192,58387,1,8,0:0:0:0:
256,192,58590,1,8,0:0:0:0:
256,192,58640,1,8,0:0:0:0:
256,192,58792,1,0,0:0:0:0:
256,192,58995,1,8,0:0:0:0:
256,192,59198,1,0,0:0:0:0:
256,192,59400,1,0,0:0:0:0:
256,192,59603,1,8,0:0:0:0:
256,192,59806,1,8,0:0:0:0:
256,192,60008,1,8,0:0:0:0:
256,192,60617,1,8,0:0:0:0:
256,192,60819,1,0,0:0:0:0:
256,192,60870,1,0,0:0:0:0:
256,192,61022,1,8,0:0:0:0:
256,192,61090,1,8,0:0:0:0:
256,192,61157,1,0,0:0:0:0:
256,192,61225,1,8,0:0:0:0:
256,192,61427,1,8,0:0:0:0:
256,192,61630,1,0,0:0:0:0:
256,192,61731,1,0,0:0:0:0:
256,192,61833,1,8,0:0:0:0:
256,192,61934,1,0,0:0:0:0:
256,192,62036,1,8,0:0:0:0:
256,192,62238,1,0,0:0:0:0:
256,192,62441,1,8,0:0:0:0:
256,192,63049,1,0,0:0:0:0:
256,192,63252,1,8,0:0:0:0:
256,192,63556,1,8,0:0:0:0:
256,192,63606,1,8,0:0:0:0:
256,192,63657,1,8,0:0:0:0:
256,192,63860,1,8,0:0:0:0:
256,192,64063,1,0,0:0:0:0:
256,192,64265,1,8,0:0:0:0:
256,192,64468,1,0,0:0:0:0:
256,192,64671,1,0,0:0:0:0:
256,192,64873,1,0,0:0:0:0:
256,192,65076,1,8,0:0:0:0:
256,192,65279,1,0,0:0:0:0:
256,192,65481,1,0,0:0:0:0:
256,192,65583,1,0,0:0:0:0:
256,192,65684,1,8,0:0:0:0:
256,192,65786,1,8,0:0:0:0:
256,192,65887,1,8,0:0:0:0:
256,192,66090,1,0,0:0:0:0:
256,192,66191,1,0,0:0:0:0:
256,192,66292,1,0,0:0:0:0:
256,192,66495,1,8,0:0:0:0:
256,192,66596,1,8,0:0:0:0:
256,192,66698,1,0,0:0:0:0:
256,192,66799,1,0,0:0:0:0:
256,192,66900,1,12,0:0:0:0:
256,192,67306,1,8,0:0:0:0:
256,192,67407,1,8,0:0:0:0:
256,192,67508,1,0,0:0:0:0:
256,192,67576,1,0,0:0:0:0:
256,192,67643,1,0,0:0:0:0:
256,192,67711,1,8,0:0:0:0:
256,192,67914,1,8,0:0:0:0:
256,192,68117,1,0,0:0:0:0:
256,192,68319,1,8,0:0:0:0:
256,192,68522,1,0,0:0:0:0:
256,192,68623,1,0,0:0:0:0:
256,192,68725,1,0,0:0:0:0:
256,192,68927,1,8,0:0:0:0:
256,192,69130,1,8,0:0:0:0:
256,192,69333,1,0,0:0:0:0:
256,192,69738,1,0,0:0:0:0:
256,192,69941,1,8,0:0:0:0:
256,192,70042,1,8,0:0:0:0:
256,192,70144,1,0,0:0:0:0:
256,192,70346,1,0,0:0:0:0:
256,192,70549,1,8,0:0:0:0:
256,192,70650,1,8,0:0:0:0:
256,192,70752,1,8,0:0:0:0:
256,192,70954,1,0,0:0:0:0:
256,192,71157,1,8,0:0:0:0:
256,192,71258,1,0,0:0:0:0:
256,192,71360,1,8,0:0:0:0:
256,192,71461,1,8,0:0:0:0:
256,192,71563,1,0,0:0:0:0:
256,192,71630,1,0,0:0:0:0:
256,192,71697,1,0,0:0:0:0:
256,192,71765,1,8,0:0:0:0:
256,192,72171,1,0,0:0:0:0:
256,192,72373,1,0,0:0:0:0:
256,192,72576,1,8,0:0:0:0:
256,192,72779,1,0,0:0:0:0:
256,192,72880,1,0,0:0:0:0:
256,192,72981,1,8,0:0:0:0:
256,192,73049,1,8,0:0:0:0:
256,192,73116,1,8,0:0:0:0:
256,192,73184,1,0,0:0:0:0:
256,192,73387,1,8,0:0:0:0:
256,192,73590,1,8,0:0:0:0:
256,192,73792,1,0,0:0:0:0:
256,192,73894,1,0,0:0:0:0:
256,192,73995,1,8,0:0:0:0:
256,192,74096,1,8,0:0:0:0:
256,192,74198,1,0,0:0:0:0:
256,192,74603,1,0,0:0:0:0:
256,192,74806,1,0,0:0:0:0:
256,192,75008,1,8,0:0:0:0:
256,192,75110,1,8,0:0:0:0:
256,192,75211,1,0,0:0:0:0:
256,192,75313,1,0,0:0:0:0:
256,192,75414,1,8,0:0:0:0:
256,192,75617,1,0,0:0:0:0:
256,192,75819,1,8,0:0:0:0:
256,192,76022,1,8,0:0:0:0:
256,192,76225,1,0,0:0:0:0:
256,192,76326,1,0,0:0:0:0:
256,192,76427,1,0,0:0:0:0:
256,192,76495,1,0,0:0:0:0:
256,192,76562,1,0,0:0:0:0:
256,192,76630,1,8,0:0:0:0:
256,192,77036,1,0,0:0:0:0:
256,192,77238,1,0,0:0:0:0:
256,192,77441,1,8,0:0:0:0:
256,192,77508,1,8,0:0:0:0:
256,192,77576,1,8,0:0:0:0:
256,192,77644,1,0,0:0:0:0:
256,192,77745,1,0,0:0:0:0:
256,192,77846,1,8,0:0:0:0:
256,192,78049,1,0,0:0:0:0:
256,192,78150,1,0,0:0:0:0:
256,192,78252,1,8,0:0:0:0:
256,192,78454,1,8,0:0:0:0:
256,192,78657,1,0,0:0:0:0:
256,192,78860,1,8,0:0:0:0:
256,192,79063,1,8,0:0:0:0:
256,192,79164,1,8,0:0:0:0:
256,192,79265,1,8,0:0:0:0:
256,192,79468,1,0,0:0:0:0:
256,192,79671,1,8,0:0:0:0:
256,192,79772,1,8,0:0:0:0:
256,192,79873,1,0,0:0:0:0:
256,192,80076,1,0,0:0:0:0:
256,192,80279,1,8,0:0:0:0:
256,192,80481,1,0,0:0:0:0:
256,192,80583,1,0,0:0:0:0:
256,192,80684,1,8,0:0:0:0:
256,192,80786,1,8,0:0:0:0:
256,192,80887,1,0,0:0:0:0:
256,192,81090,1,8,0:0:0:0:
256,192,81191,1,8,0:0:0:0:
256,192,81292,1,8,0:0:0:0:
256,192,81359,1,8,0:0:0:0:
256,192,81427,1,8,0:0:0:0:
256,192,81495,1,0,0:0:0:0:
256,192,81900,1,0,0:0:0:0:
256,192,82103,1,8,0:0:0:0:
256,192,82204,1,8,0:0:0:0:
256,192,82306,1,0,0:0:0:0:
256,192,82508,1,0,0:0:0:0:
256,192,82711,1,8,0:0:0:0:
256,192,82813,1,8,0:0:0:0:
256,192,82914,1,0,0:0:0:0:
256,192,82981,1,0,0:0:0:0:
256,192,83049,1,0,0:0:0:0:
256,192,83117,1,8,0:0:0:0:
256,192,83319,1,8,0:0:0:0:
256,192,83522,1,0,0:0:0:0:
256,192,83725,1,8,0:0:0:0:
256,192,83927,1,0,0:0:0:0:
256,192,84333,1,0,0:0:0:0:
256,192,84536,1,0,0:0:0:0:
256,192,84738,1,8,0:0:0:0:
256,192,84840,1,8,0:0:0:0:
256,192,84941,1,0,0:0:0:0:
256,192,85042,1,0,0:0:0:0:
256,192,85144,1,8,0:0:0:0:
256,192,85346,1,0,0:0:0:0:
256,192,85549,1,8,0:0:0:0:
256,192,85650,1,8,0:0:0:0:
256,192,85752,1,0,0:0:0:0:
256,192,85853,1,0,0:0:0:0:
256,192,85954,1,8,0:0:0:0:
256,192,86022,1,8,0:0:0:0:
256,192,86090,1,8,0:0:0:0:
256,192,86157,1,8,0:0:0:0:
256,192,86225,1,8,0:0:0:0:
256,192,86292,1,8,0:0:0:0:
256,192,86360,1,4,0:0:0:0:
256,192,86563,1,0,0:0:0:0:
256,192,86765,1,8,0:0:0:0:
256,192,86867,1,8,0:0:0:0:
256,192,86968,1,8,0:0:0:0:
256,192,87069,1,8,0:0:0:0:
256,192,87171,1,0,0:0:0:0:
256,192,87238,1,0,0:0:0:0:
256,192,87306,1,0,0:0:0:0:
256,192,87373,1,8,0:0:0:0:
256,192,87475,1,8,0:0:0:0:
256,192,87576,1,0,0:0:0:0:
256,192,87779,1,8,0:0:0:0:
256,192,87880,1,0,0:0:0:0:
256,192,87981,1,8,0:0:0:0:
256,192,88049,1,8,0:0:0:0:
256,192,88116,1,8,0:0:0:0:
256,192,88184,1,0,0:0:0:0:
256,192,88286,1,0,0:0:0:0:
256,192,88387,1,8,0:0:0:0:
256,192,88488,1,8,0:0:0:0:
256,192,88590,1,0,0:0:0:0:
256,192,88792,1,8,0:0:0:0:
256,192,88860,1,8,0:0:0:0:
256,192,88927,1,8,0:0:0:0:
256,192,88995,1,0,0:0:0:0:
256,192,89096,1,0,0:0:0:0:
256,192,89198,1,8,0:0:0:0:
256,192,89400,1,8,0:0:0:0:
256,192,89502,1,8,0:0:0:0:
256,192,89603,1,0,0:0:0:0:
256,192,89704,1,8,0:0:0:0:
256,192,89806,1,0,0:0:0:0:
256,192,90008,1,0,0:0:0:0:
256,192,90110,1,8,0:0:0:0:
256,192,90211,1,0,0:0:0:0:
256,192,90279,1,0,0:0:0:0:
256,192,90346,1,0,0:0:0:0:
256,192,90414,1,8,0:0:0:0:
256,192,90515,1,8,0:0:0:0:
256,192,90617,1,0,0:0:0:0:
256,192,90718,1,0,0:0:0:0:
256,192,90819,1,8,0:0:0:0:
256,192,90887,1,8,0:0:0:0:
256,192,90954,1,8,0:0:0:0:
256,192,91022,1,8,0:0:0:0:
256,192,91090,1,8,0:0:0:0:
256,192,91157,1,8,0:0:0:0:
256,192,91225,1,0,0:0:0:0:
256,192,91427,1,0,0:0:0:0:
256,192,91529,1,0,0:0:0:0:
256,192,91630,1,8,0:0:0:0:
256,192,91731,1,8,0:0:0:0:
256,192,91833,1,0,0:0:0:0:
256,192,91934,1,0,0:0:0:0:
256,192,92036,1,8,0:0:0:0:
256,192,92137,1,0,0:0:0:0:
256,192,92238,1,8,0:0:0:0:
256,192,92441,1,0,0:0:0:0:
256,192,92508,1,0,0:0:0:0:
256,192,92576,1,0,0:0:0:0:
256,192,92644,1,8,0:0:0:0:
256,192,92745,1,8,0:0:0:0:
256,192,92846,1,0,0:0:0:0:
256,192,93049,1,8,0:0:0:0:
256,192,93150,1,0,0:0:0:0:
256,192,93252,1,8,0:0:0:0:
256,192,93353,1,8,0:0:0:0:
256,192,93454,1,0,0:0:0:0:
256,192,93556,1,0,0:0:0:0:
256,192,93657,1,8,0:0:0:0:
256,192,93860,1,8,0:0:0:0:
256,192,93927,1,8,0:0:0:0:
256,192,93995,1,8,0:0:0:0:
256,192,94063,1,0,0:0:0:0:
256,192,94164,1,0,0:0:0:0:
256,192,94265,1,8,0:0:0:0:
256,192,94468,1,8,0:0:0:0:
256,192,94569,1,8,0:0:0:0:
256,192,94671,1,0,0:0:0:0:
256,192,94873,1,12,0:0:0:0:
256,192,95279,1,0,0:0:0:0:
256,192,95481,1,12,0:0:0:0:
256,192,95684,1,0,0:0:0:0:
256,192,95786,1,0,0:0:0:0:
256,192,95887,1,8,0:0:0:0:
256,192,95988,1,8,0:0:0:0:
256,192,96090,1,4,0:0:0:0:
256,192,96292,1,8,0:0:0:0:
256,192,96495,1,0,0:0:0:0:
256,192,96596,1,0,0:0:0:0:
256,192,96698,1,8,0:0:0:0:
256,192,96900,1,8,0:0:0:0:
256,192,97002,1,0,0:0:0:0:
256,192,97103,1,8,0:0:0:0:
256,192,97204,1,8,0:0:0:0:
256,192,97306,1,0,0:0:0:0:
256,192,97508,1,8,0:0:0:0:
256,192,97610,1,0,0:0:0:0:
256,192,97711,1,8,0:0:0:0:
256,192,97914,1,8,0:0:0:0:
256,192,98117,1,0,0:0:0:0:
256,192,98218,1,0,0:0:0:0:
256,192,98319,1,8,0:0:0:0:
256,192,98421,1,8,0:0:0:0:
256,192,98522,1,0,0:0:0:0:
256,192,98725,1,0,0:0:0:0:
256,192,98927,1,8,0:0:0:0:
256,192,99130,1,0,0:0:0:0:
256,192,99231,1,0,0:0:0:0:
256,192,99333,1,8,0:0:0:0:
256,192,99536,1,0,0:0:0:0:
256,192,99738,1,8,0:0:0:0:
256,192,100144,1,12,0:0:0:0:
256,192,100549,1,0,0:0:0:0:
256,192,100752,1,8,0:0:0:0:
256,192,100954,1,0,0:0:0:0:
256,192,101360,1,0,0:0:0:0:
256,192,101563,1,8,0:0:0:0:
256,192,101968,1,8,0:0:0:0:
256,192,102171,1,0,0:0:0:0:
256,192,102272,1,0,0:0:0:0:
256,192,102373,1,0,0:0:0:0:
256,192,102576,1,8,0:0:0:0:
256,192,102779,1,8,0:0:0:0:
256,192,102981,1,0,0:0:0:0:
256,192,103184,1,0,0:0:0:0:
256,192,103387,1,8,0:0:0:0:
256,192,103488,1,8,0:0:0:0:
256,192,103590,1,0,0:0:0:0:
256,192,103691,1,0,0:0:0:0:
256,192,103792,1,8,0:0:0:0:
256,192,103995,1,8,0:0:0:0:
256,192,104198,1,0,0:0:0:0:
256,192,104299,1,0,0:0:0:0:
256,192,104400,1,0,0:0:0:0:
256,192,104603,1,8,0:0:0:0:
256,192,104704,1,8,0:0:0:0:
256,192,104806,1,0,0:0:0:0:
256,192,104907,1,0,0:0:0:0:
256,192,105008,1,8,0:0:0:0:
256,192,105110,1,0,0:0:0:0:
256,192,105211,1,8,0:0:0:0:
256,192,105313,1,0,0:0:0:0:
256,192,105414,1,8,0:0:0:0:
256,192,105515,1,8,0:0:0:0:
256,192,105617,1,8,0:0:0:0:
256,192,105718,1,8,0:0:0:0:
256,192,105819,1,0,0:0:0:0:
256,192,106225,1,0,0:0:0:0:
256,192,106630,1,0,0:0:0:0:
256,192,107036,1,0,0:0:0:0:
256,192,107441,1,0,0:0:0:0:
256,192,107846,1,0,0:0:0:0:
256,192,108252,1,0,0:0:0:0:
256,192,108657,5,8,0:0:0:0:
256,192,109063,1,0,0:0:0:0:
256,192,109468,1,0,0:0:0:0:
256,192,109671,1,8,0:0:0:0:
256,192,109873,1,8,0:0:0:0:
256,192,110279,1,0,0:0:0:0:
256,192,110684,1,0,0:0:0:0:
256,192,111090,1,8,0:0:0:0:
256,192,111495,1,0,0:0:0:0:
256,192,111900,1,0,0:0:0:0:
256,192,112306,1,0,0:0:0:0:
256,192,112711,1,8,0:0:0:0:
256,192,113117,1,0,0:0:0:0:
256,192,113522,1,8,0:0:0:0:
256,192,113927,1,0,0:0:0:0:
256,192,114333,1,0,0:0:0:0:
256,192,114738,1,0,0:0:0:0:
256,192,115144,1,0,0:0:0:0:
