osu file format v14

[General]
AudioFilename: audio.mp3
AudioLeadIn: 0
PreviewTime: 170960
Countdown: 0
SampleSet: Soft
StackLeniency: 0.3
Mode: 0
LetterboxInBreaks: 0
EpilepsyWarning: 1
WidescreenStoryboard: 1

[Editor]
Bookmarks: 175150
DistanceSpacing: 0.8
BeatDivisor: 4
GridSize: 32
TimelineZoom: 2.3

[Metadata]
Title:Luminous Rage -Feryquitous OrderBless Remix-
TitleUnicode:Luminous Rage -Feryquitous OrderBless Remix-
Artist:Endorfin.
ArtistUnicode:Endorfin.
Creator:Nokris
Version:Extra
Source:
Tags:dnb horizon note aitsuki nakuru 藍月なくる sky_delta sky delta Feryquitous artcore フェリキタス
BeatmapID:1569584
BeatmapSetID:743239

[Difficulty]
HPDrainRate:6
CircleSize:4
OverallDifficulty:8.5
ApproachRate:9.3
SliderMultiplier:1.85999990463257
SliderTickRate:1

[Events]
//Background and Video events
0,0,"ragebege.jpg",0,0
//Break Periods
2,84680,91184
//Storyboard Layer 0 (Background)
//Storyboard Layer 1 (Fail)
//Storyboard Layer 2 (Pass)
//Storyboard Layer 3 (Foreground)
//Storyboard Sound Samples

[TimingPoints]
24145,335.195530726257,4,2,1,60,1,0
27161,-83.3333333333333,4,2,1,60,0,0
31854,-100,4,2,0,60,0,0
32189,-100,4,2,1,60,0,0
34536,-100,4,2,0,60,0,0
34871,-100,4,2,1,60,0,0
37217,-100,4,2,0,60,0,0
37552,-66.6666666666667,4,2,1,60,0,0
37804,-80,4,2,1,60,0,0
38055,-100,4,2,1,60,0,0
38223,-100,4,2,1,60,0,0
39899,-100,4,2,0,60,0,0
40234,-76.9230769230769,4,2,1,65,0,0
41072,-66.6666666666667,4,2,1,65,0,0
42580,-100,4,2,0,65,0,0
42915,-66.6666666666667,4,2,1,60,0,0
43167,-80,4,2,1,60,0,0
43418,-100,4,2,1,60,0,0
43586,-66.6666666666667,4,2,1,60,0,0
44089,-76.9230769230769,4,2,1,60,0,0
44927,-71.4285714285714,4,2,1,65,0,0
45262,-66.6666666666667,4,2,1,65,0,0
45597,-100,4,2,1,60,0,0
52469,-100,4,2,0,60,0,0
53642,-80,4,2,1,75,0,1
53977,-66.6666666666667,4,2,1,75,0,1
54312,-80,4,2,1,75,0,1
57496,-66.6666666666667,4,2,1,75,0,1
57831,-80,4,2,1,75,0,1
59340,-66.6666666666667,4,2,1,75,0,1
59675,-80,4,2,1,75,0,1
62860,-66.6666666666667,4,2,1,75,0,1
63195,-80,4,2,1,75,0,1
63614,-66.6666666666667,4,2,1,75,0,1
63865,-80,4,2,1,75,0,1
64703,-66.6666666666667,4,2,1,75,0,1
65038,-80,4,2,1,75,0,1
69396,-133.333333333333,4,2,1,60,0,0
69899,-100,4,2,1,60,0,0
72413,-125,4,2,1,45,0,0
74256,-80,4,2,1,45,0,0
75094,-125,4,2,1,45,0,0
76937,-80,4,2,1,45,0,0
77776,-125,4,2,1,55,0,0
78111,-100,4,2,1,55,0,0
80457,-125,4,2,1,55,0,0
80792,-100,4,2,1,55,0,0
82133,-66.6666666666667,4,2,1,55,0,0
84480,-100,4,2,1,60,0,0
92022,-100,4,2,0,60,0,0
92524,-100,4,2,1,60,0,0
94871,-100,4,2,0,60,0,0
95206,-100,4,2,1,60,0,0
97552,-100,4,2,0,60,0,0
97888,-66.6666666666667,4,2,1,60,0,0
98140,-80,4,2,1,60,0,0
98391,-100,4,2,1,60,0,0
98726,-133.333333333333,4,2,1,60,0,0
99061,-76.9230769230769,4,2,1,60,0,0
99563,-100,4,2,1,60,0,0
100234,-100,4,2,0,60,0,0
100569,-76.9230769230769,4,2,1,65,0,0
101407,-66.6666666666667,4,2,1,65,0,0
102580,-71.4285714285714,4,2,1,65,0,0
102915,-66.6666666666667,4,2,0,65,0,0
103251,-66.6666666666667,4,2,1,60,0,0
103503,-80,4,2,1,60,0,0
103754,-100,4,2,1,60,0,0
104089,-66.6666666666667,4,2,1,65,0,0
104424,-76.9230769230769,4,2,1,65,0,0
105262,-71.4285714285714,4,2,1,65,0,0
105597,-66.6666666666667,4,2,1,65,0,0
105932,-100,4,2,1,60,0,0
112804,-100,4,2,0,60,0,0
113977,-80,4,2,1,75,0,1
114312,-66.6666666666667,4,2,1,75,0,1
114647,-80,4,2,1,75,0,1
117831,-66.6666666666667,4,2,1,75,0,1
118166,-80,4,2,1,75,0,1
119675,-66.6666666666667,4,2,1,75,0,1
120010,-80,4,2,1,75,0,1
123195,-66.6666666666667,4,2,1,75,0,1
123530,-80,4,2,1,75,0,1
123949,-66.6666666666667,4,2,1,75,0,1
124200,-80,4,2,1,75,0,1
125038,-66.6666666666667,4,2,1,75,0,1
125373,-80,4,2,1,75,0,1
129731,-133.333333333333,4,2,1,60,0,0
130569,-100,4,2,1,60,0,0
131407,-100,4,2,0,50,0,0
132748,-86.9565217391304,4,2,1,70,0,0
133083,-62.5,4,2,1,70,0,0
133418,-86.9565217391304,4,2,1,70,0,0
138279,-74.0740740740741,4,2,1,70,0,0
140793,-86.9565217391304,4,2,1,70,0,0
143809,-62.5,4,2,1,70,0,0
144144,-86.9565217391304,4,2,1,70,0,0
149005,-74.0740740740741,4,2,1,70,0,0
151519,-86.9565217391304,4,2,1,70,0,0
153698,-111.111111111111,4,2,1,60,0,0
153949,-142.857142857143,4,2,1,60,0,0
154200,-500,4,2,0,35,0,0
170374,-86.9565217391304,4,2,0,35,0,0
170457,-200,4,2,0,35,0,0
171631,-80,4,2,1,75,0,1
171966,-66.6666666666667,4,2,1,75,0,1
172301,-80,4,2,1,75,0,1
175485,-66.6666666666667,4,2,1,75,0,1
175820,-80,4,2,1,75,0,1
177329,-66.6666666666667,4,2,1,75,0,1
177664,-80,4,2,1,75,0,1
180849,-66.6666666666667,4,2,1,75,0,1
181184,-80,4,2,1,75,0,1
181603,-66.6666666666667,4,2,1,75,0,1
181854,-80,4,3,1,75,0,1
182357,-80,4,2,1,75,0,1
182692,-66.6666666666667,4,2,1,75,0,1
183027,-80,4,2,1,75,0,1
187385,-133.333333333333,4,2,1,60,0,0
188055,-100,4,2,1,60,0,0
188893,-58.8235294117647,4,2,1,60,0,0
190401,-74.0740740740741,4,2,1,75,0,1
191239,-58.8235294117647,4,2,1,60,0,1
191742,-74.0740740740741,4,2,1,75,0,1
193921,-58.8235294117647,4,2,1,60,0,1
194424,-74.0740740740741,4,2,1,75,0,1
194759,-50,4,2,1,75,0,1
195010,-57.1428571428571,4,2,1,75,0,1
195262,-66.6666666666667,4,2,1,75,0,1
195513,-80,4,2,1,75,0,1
195765,-74.0740740740741,4,2,1,75,0,1
196603,-58.8235294117647,4,2,1,60,0,1
197106,-74.0740740740741,4,2,1,75,0,1
199284,-58.8235294117647,4,2,1,60,0,1
199787,-74.0740740740741,4,2,1,75,0,1
200122,-50,4,2,1,75,0,1
200373,-57.1428571428571,4,2,1,75,0,1
200625,-66.6666666666667,4,3,1,75,0,1
201128,-74.0740740740741,4,2,1,75,0,1
201966,-58.8235294117647,4,2,1,60,0,1
202469,-74.0740740740741,4,2,1,75,0,1
204647,-58.8235294117647,4,2,1,60,0,1
205150,-74.0740740740741,4,2,1,75,0,1
206156,-100,4,2,1,75,0,0
207832,-133.333333333333,4,2,1,60,0,0
208083,-133.333333333333,4,2,1,5,0,0
208167,-200,4,2,0,15,0,0
209172,-200,4,2,1,60,0,0

[Colours]
Combo1 : 145,145,255
Combo2 : 255,91,173
Combo3 : 255,255,155
Combo4 : 255,128,128

[HitObjects]
19,132,24144,6,0,B|82:143|82:143|115:176|115:176|201:192,1,185.999990463257,2|0,0:0|0:0,0:0:0:0:
19,249,24647,1,0,0:0:0:0:
19,249,24731,1,0,0:0:0:0:
19,249,24815,2,0,P|3:294|29:347,2,92.9999952316285,0|2|0,0:0|0:0|0:0,0:0:0:0:
169,100,25318,6,0,L|363:136,1,185.999990463257,8|2,0:0|0:0,0:0:0:0:
512,95,25820,1,8,0:0:0:0:
387,250,25988,1,0,0:0:0:0:
387,250,26072,1,0,0:0:0:0:
387,250,26156,1,0,0:0:0:0:
401,20,26323,1,2,0:0:0:0:
401,20,26491,2,0,L|424:92,1,46.4999976158143,0|0,0:0|0:0,0:0:0:0:
351,133,26658,2,0,L|374:205,1,46.4999976158143,2|0,0:0|0:0,0:0:0:0:
468,242,26826,5,2,0:0:0:0:
468,242,27161,1,8,0:0:0:0:
335,356,27329,1,0,0:0:0:0:
335,356,27413,1,0,0:0:0:0:
335,356,27496,2,0,L|281:341,1,55.7999954360964,0|0,0:0|0:0,0:0:0:0:
197,363,27664,2,0,B|177:312|177:312|195:254,1,111.599990872193,2|0,0:0|0:0,0:0:0:0:
227,64,27999,6,0,B|247:115|247:115|229:173,1,111.599990872193,8|0,0:0|0:0,0:0:0:0:
230,169,28251,1,0,0:0:0:0:
230,169,28334,1,2,0:0:0:0:
53,194,28502,1,8,0:0:0:0:
117,52,28670,2,0,B|163:23|233:59|204:73|273:107|335:67,1,223.199981744386,0|2,0:0|0:0,0:0:0:0:
481,4,29172,1,0,0:0:0:0:
424,21,29256,1,0,0:0:0:0:
424,80,29340,1,0,0:0:0:0:
481,98,29424,1,0,0:0:0:0:
512,54,29508,6,0,L|461:274,1,223.199981744386,2|8,0:0|0:0,0:0:0:0:
239,374,30010,1,0,0:0:0:0:
239,374,30094,1,0,0:0:0:0:
239,374,30178,1,0,0:0:0:0:
461,271,30346,1,2,0:0:0:0:
287,192,30513,1,0,0:0:0:0:
432,358,30681,1,8,0:0:0:0:
287,192,30848,6,0,L|164:216,1,111.599990872193,0|2,0:0|0:0,0:0:0:0:
177,213,31100,1,0,0:0:0:0:
177,213,31184,1,8,0:0:0:0:
40,47,31351,2,0,P|4:108|101:77,1,223.199981744386,2|2,0:0|0:0,0:0:0:0:
40,47,31854,5,2,0:0:0:0:
3,85,31937,1,2,0:0:0:0:
21,135,32021,1,2,0:0:0:0:
74,143,32105,1,2,0:0:0:0:
105,100,32189,6,0,B|177:93|177:93|213:115|213:115|311:103,1,185.999990463257,6|8,0:0|0:0,0:0:0:0:
468,205,32692,1,0,0:0:0:0:
468,205,32776,1,0,0:0:0:0:
468,205,32860,1,0,0:0:0:0:
429,30,33027,2,0,L|455:141,1,92.9999952316285,2|0,0:0|0:0,0:0:0:0:
284,106,33362,6,0,L|258:217,1,92.9999952316285,8|0,0:0|0:0,0:0:0:0:
262,196,33614,1,0,0:0:0:0:
262,196,33698,1,2,0:0:0:0:
221,359,33865,1,8,0:0:0:0:
65,218,34033,2,0,P|132:196|208:297,1,185.999990463257,0|2,0:0|0:0,0:0:0:0:
31,374,34536,5,2,0:0:0:0:
7,333,34619,1,2,0:0:0:0:
6,288,34703,1,2,0:0:0:0:
29,248,34787,1,2,0:0:0:0:
65,218,34871,6,0,B|91:174|74:120|58:138|29:88|67:28,1,185.999990463257,2|8,0:0|0:0,0:0:0:0:
219,103,35374,1,2,0:0:0:0:
219,103,35457,1,0,0:0:0:0:
219,103,35541,2,0,P|174:78|118:88,2,92.9999952316285,0|2|0,0:0|0:0|0:0,0:0:0:0:
319,251,36044,6,0,P|408:260|471:195,1,185.999990463257,8|2,0:0|0:0,0:0:0:0:
264,190,36547,2,0,P|237:226|237:272,1,92.9999952316285,8|0,0:0|0:0,0:0:0:0:
237,272,36798,1,0,0:0:0:0:
237,272,36882,1,0,0:0:0:0:
374,164,37050,2,0,L|309:124,1,46.4999976158143,2|0,0:0|0:0,0:0:0:0:
177,66,37217,5,2,0:0:0:0:
214,106,37300,1,2,0:0:0:0:
266,81,37384,1,2,0:0:0:0:
258,27,37468,1,2,0:0:0:0:
201,17,37552,6,0,P|166:46|65:35,1,139.499998168945,2|0,0:0|0:0,0:0:0:0:
76,42,37804,6,0,P|134:53|173:102,1,116.249994039536,0|0,0:0|0:0,0:0:0:0:
170,94,38055,6,0,P|147:100|129:115,1,46.4999976158143,0|0,0:0|0:0,0:0:0:0:
79,215,38223,5,0,0:0:0:0:
79,215,38390,2,0,L|274:191,1,185.999990463257,2|8,0:0|0:0,0:0:0:0:
263,192,38809,1,0,0:0:0:0:
263,192,38893,1,0,0:0:0:0:
479,291,39061,5,2,0:0:0:0:
370,118,39228,1,8,0:0:0:0:
308,367,39396,2,0,B|293:331|293:331|317:262,1,92.9999952316285,0|0,0:0|0:0,0:0:0:0:
370,118,39731,2,0,L|348:181,1,46.4999976158143,2|0,0:0|0:0,0:0:0:0:
218,333,39899,5,2,0:0:0:0:
181,373,39982,1,2,0:0:0:0:
129,348,40066,1,2,0:0:0:0:
137,294,40150,1,2,0:0:0:0:
194,284,40234,6,0,B|239:276|239:276|264:288|264:288|339:274,1,120.899988266755,6|0,0:0|0:0,0:0:0:0:
429,350,40485,1,0,0:0:0:0:
435,331,40569,2,0,B|450:277|450:277|425:208,1,120.899988266755,2|2,0:0|0:0,0:0:0:0:
370,118,40820,1,0,0:0:0:0:
356,136,40904,2,0,L|287:149,1,60.4499941333774,2|0,0:0|0:0,0:0:0:0:
159,170,41072,6,0,P|115:240|100:123,1,278.999996337891,8|0,0:0|0:0,0:0:0:0:
246,42,41575,6,0,P|221:82|177:98,1,69.7499990844727,0|0,0:0|0:0,0:0:0:0:
87,125,41742,5,2,0:0:0:0:
50,152,41825,1,0,0:0:0:0:
43,196,41909,1,8,0:0:0:0:
69,233,41993,1,0,0:0:0:0:
114,240,42077,1,0,0:0:0:0:
151,214,42160,1,0,0:0:0:0:
158,169,42245,6,0,P|182:209|226:225,1,69.7499990844727,2|0,0:0|0:0,0:0:0:0:
279,292,42413,2,0,P|303:251|347:235,1,69.7499990844727,2|0,0:0|0:0,0:0:0:0:
512,273,42580,5,2,0:0:0:0:
486,311,42663,1,2,0:0:0:0:
446,333,42747,1,2,0:0:0:0:
400,333,42831,1,2,0:0:0:0:
359,310,42915,6,0,P|346:243|405:171,1,139.499998168945,2|0,0:0|0:0,0:0:0:0:
381,184,43167,6,0,P|313:189|270:229,1,116.249994039536,0|0,0:0|0:0,0:0:0:0:
277,218,43418,6,0,P|280:195|290:174,1,46.4999976158143,0|0,0:0|0:0,0:0:0:0:
369,63,43586,5,2,0:0:0:0:
377,29,43753,2,0,P|339:84|391:36,1,209.249997253418,8|0,0:0|0:0,0:0:0:0:
258,20,44089,6,0,P|224:39|184:39,1,60.4499941333774,2|0,0:0|0:0,0:0:0:0:
110,66,44256,2,0,P|76:46|56:11,1,60.4499941333774,0|0,0:0|0:0,0:0:0:0:
177,130,44424,2,0,P|165:167|136:195,1,60.4499941333774,2|0,0:0|0:0,0:0:0:0:
1,188,44591,1,0,0:0:0:0:
8,217,44674,1,0,0:0:0:0:
16,246,44758,1,0,0:0:0:0:
24,275,44842,1,0,0:0:0:0:
32,304,44927,6,0,B|85:270|85:270|218:298,1,195.299984026337,2|0,0:0|0:0,0:0:0:0:
345,289,45262,6,0,B|364:333|364:333|309:320|309:320|304:325|304:325|270:305|270:305|266:309|266:309|206:296,1,209.249997253418,2|0,0:0|0:0,0:0:0:0:
61,371,45597,6,0,B|28:321|28:321|65:180,1,185.999990463257,6|8,0:0|0:0,0:0:0:0:
40,19,46100,1,0,0:0:0:0:
40,19,46184,1,0,0:0:0:0:
40,19,46267,2,0,L|13:122,1,92.9999952316285,0|2,0:0|0:0,0:0:0:0:
60,199,46603,1,0,0:0:0:0:
207,65,46770,6,0,P|276:121|363:98,1,185.999990463257,8|2,0:0|0:0,0:0:0:0:
300,23,47273,1,8,0:0:0:0:
209,202,47441,1,0,0:0:0:0:
209,202,47525,1,0,0:0:0:0:
209,202,47608,2,0,L|236:305,1,92.9999952316285,0|2,0:0|0:0,0:0:0:0:
396,355,47943,2,0,L|405:331,4,23.2499988079071,0|0|0|0|8,0:0|0:0|0:0|0:0|0:0,0:0:0:0:
480,315,48279,6,0,L|288:359,1,185.999990463257,2|8,0:0|0:0,0:0:0:0:
89,236,48781,1,0,0:0:0:0:
89,236,48865,1,0,0:0:0:0:
89,236,48949,1,0,0:0:0:0:
298,356,49117,2,0,L|321:266,1,92.9999952316285,2|0,0:0|0:0,0:0:0:0:
139,44,49452,6,0,P|117:79|202:59,1,185.999990463257,8|2,0:0|0:0,0:0:0:0:
417,52,49955,2,0,L|319:63,1,92.9999952316285,8|0,0:0|0:0,0:0:0:0:
324,62,50206,1,0,0:0:0:0:
324,62,50290,1,0,0:0:0:0:
163,82,50457,1,2,0:0:0:0:
352,198,50625,5,0,0:0:0:0:
402,219,50708,1,0,0:0:0:0:
396,276,50792,1,0,0:0:0:0:
343,287,50876,1,0,0:0:0:0:
317,237,50960,6,0,B|294:192|314:148|337:166|355:97|322:59,1,185.999990463257,2|8,0:0|0:0,0:0:0:0:
69,159,51463,2,0,L|167:170,1,92.9999952316285,0|0,0:0|0:0,0:0:0:0:
162,169,51714,1,0,0:0:0:0:
162,169,51798,1,2,0:0:0:0:
230,284,51966,1,0,0:0:0:0:
97,61,52133,1,2,0:0:0:0:
438,18,52469,5,2,0:0:0:0:
414,92,52636,1,2,0:0:0:0:
391,176,53642,6,0,P|393:204|408:229,1,58.1249970197678,6|0,0:0|0:0,0:0:0:0:
494,204,53809,2,0,P|493:176|478:150,1,58.1249970197678,2|0,0:0|0:0,0:0:0:0:
508,314,53977,6,0,P|460:267|315:297,1,209.249997253418,8|0,0:0|0:0,0:0:0:0:
275,354,54312,6,0,P|242:315|253:238,1,116.249994039536,0|2,0:0|0:0,0:0:0:0:
244,252,54563,1,0,0:0:0:0:
244,252,54647,1,8,0:0:0:0:
323,81,54815,6,0,P|362:127|322:287,1,232.499988079071,0|2,0:0|0:0,0:0:0:0:
156,364,55318,1,8,0:0:0:0:
40,183,55485,1,0,0:0:0:0:
40,183,55569,1,0,0:0:0:0:
40,183,55653,1,0,0:0:0:0:
148,143,55820,1,2,0:0:0:0:
220,234,55988,1,8,0:0:0:0:
63,324,56156,6,0,L|25:93,1,232.499988079071,0|2,0:0|0:0,0:0:0:0:
25,94,56575,1,2,0:0:0:0:
25,94,56658,1,10,0:0:0:0:
258,6,56826,1,0,0:0:0:0:
258,6,56910,1,0,0:0:0:0:
258,6,56994,2,0,P|249:39|218:73,1,58.1249970197678,0|0,0:0|0:0,0:0:0:0:
173,135,57161,2,0,P|139:144|94:134,1,58.1249970197678,2|0,0:0|0:0,0:0:0:0:
275,147,57329,2,0,P|298:171|312:215,1,58.1249970197678,0|0,0:0|0:0,0:0:0:0:
248,356,57496,6,0,B|210:370|210:370|175:329|191:252|236:212,1,209.249997253418,8|0,0:0|0:0,0:0:0:0:
232,216,57832,6,0,P|240:266|203:334,1,116.249994039536,2|8,0:0|0:0,0:0:0:0:
38,358,58167,1,0,0:0:0:0:
20,314,58251,1,0,0:0:0:0:
3,271,58334,1,0,0:0:0:0:
173,135,58502,1,2,0:0:0:0:
100,34,58670,1,0,0:0:0:0:
90,76,58753,1,0,0:0:0:0:
80,118,58837,1,0,0:0:0:0:
70,161,58921,1,0,0:0:0:0:
59,202,59005,6,0,P|88:204|115:194,1,58.1249970197678,6|0,0:0|0:0,0:0:0:0:
246,204,59172,2,0,P|224:222|212:249,1,58.1249970197678,2|0,0:0|0:0,0:0:0:0:
114,300,59340,6,0,P|214:289|287:360,1,209.249997253418,8|0,0:0|0:0,0:0:0:0:
384,380,59675,6,0,P|407:327|392:272,1,116.249994039536,0|2,0:0|0:0,0:0:0:0:
392,272,59927,1,0,0:0:0:0:
392,272,60010,1,8,0:0:0:0:
377,142,60178,1,0,0:0:0:0:
286,360,60346,6,0,P|278:303|307:254,1,116.249994039536,0|2,0:0|0:0,0:0:0:0:
307,254,60597,1,0,0:0:0:0:
307,254,60681,1,8,0:0:0:0:
377,142,60848,2,0,P|342:198|173:175,1,232.499988079071,0|2,0:0|0:0,0:0:0:0:
65,95,61351,1,8,0:0:0:0:
0,247,61519,1,0,0:0:0:0:
218,11,61686,6,0,B|239:49|239:49|215:128,1,116.249994039536,2|2,0:0|0:0,0:0:0:0:
217,118,61938,1,2,0:0:0:0:
217,118,62022,1,10,0:0:0:0:
0,247,62189,2,0,P|30:229|73:230,1,58.1249970197678,0|0,0:0|0:0,0:0:0:0:
65,209,62357,2,0,P|99:254|233:255,1,174.374991059303,0|0,0:0|0:0,0:0:0:0:
315,366,62692,2,0,L|301:295,1,58.1249970197678,0|0,0:0|0:0,0:0:0:0:
290,46,62860,6,0,B|246:20|246:20|282:199,1,209.249997253418,8|0,0:0|0:0,0:0:0:0:
315,366,63195,6,0,L|289:233,1,116.249994039536,2|8,0:0|0:0,0:0:0:0:
290,46,63530,1,2,0:0:0:0:
290,46,63614,2,0,B|263:81|263:81|157:100,1,139.499998168945,0|0,0:0|0:0,0:0:0:0:
169,98,63865,2,0,L|155:21,1,58.1249970197678,2|0,0:0|0:0,0:0:0:0:
41,16,64033,5,0,0:0:0:0:
49,58,64116,1,2,0:0:0:0:
57,101,64200,1,0,0:0:0:0:
66,144,64284,1,0,0:0:0:0:
74,187,64368,6,0,P|59:215|62:250,1,58.1249970197678,6|0,0:0|0:0,0:0:0:0:
157,270,64536,2,0,P|172:242|169:207,1,58.1249970197678,2|0,0:0|0:0,0:0:0:0:
30,328,64703,6,0,L|258:293,1,209.249997253418,8|0,0:0|0:0,0:0:0:0:
307,355,65038,6,0,L|421:372,1,116.249994039536,0|2,0:0|0:0,0:0:0:0:
421,372,65290,1,0,0:0:0:0:
421,372,65374,1,8,0:0:0:0:
503,148,65541,6,0,P|433:113|339:254,1,232.499988079071,0|2,0:0|0:0,0:0:0:0:
378,282,66044,1,8,0:0:0:0:
162,366,66212,1,0,0:0:0:0:
162,366,66295,1,0,0:0:0:0:
162,366,66379,2,0,L|127:243,1,116.249994039536,0|2,0:0|0:0,0:0:0:0:
172,29,66714,1,8,0:0:0:0:
0,155,66882,6,0,P|87:232|191:195,1,232.499988079071,0|2,0:0|0:0,0:0:0:0:
187,199,67301,1,2,0:0:0:0:
187,199,67385,1,10,0:0:0:0:
394,70,67552,1,2,0:0:0:0:
394,70,67636,1,0,0:0:0:0:
394,70,67720,2,0,P|364:54|314:56,1,58.1249970197678,2|0,0:0|0:0,0:0:0:0:
237,135,67888,2,0,L|261:264,1,116.249994039536,8|0,0:0|0:0,0:0:0:0:
476,353,68223,1,2,0:0:0:0:
359,206,68390,5,2,0:0:0:0:
206,355,68558,1,2,0:0:0:0:
206,355,68642,1,0,0:0:0:0:
206,355,68726,2,0,P|184:330|179:290,1,58.1249970197678,10|0,0:0|0:0,0:0:0:0:
196,286,68893,2,0,P|162:231|47:233,1,174.374991059303,2|0,0:0|0:0,0:0:0:0:
60,223,69228,1,2,0:0:0:0:
5,323,69396,6,0,B|-15:274|7:233|20:258|57:184|6:132,1,174.374997711182,8|0,0:0|0:0,0:0:0:0:
75,94,69899,1,2,0:0:0:0:
96,101,69982,1,2,0:0:0:0:
118,109,70066,1,10,0:0:0:0:
285,23,70234,2,0,P|239:30|206:62,1,92.9999952316285,0|0,0:0|0:0,0:0:0:0:
154,198,70569,2,0,L|192:309,1,92.9999952316285,2|0,0:0|0:0,0:0:0:0:
95,368,70904,1,8,0:0:0:0:
287,203,71072,5,0,0:0:0:0:
287,203,71156,1,0,0:0:0:0:
287,203,71239,1,2,0:0:0:0:
502,295,71407,1,8,0:0:0:0:
393,111,71575,5,0,0:0:0:0:
393,111,71658,1,0,0:0:0:0:
393,111,71742,1,0,0:0:0:0:
316,354,71910,1,2,0:0:0:0:
197,194,72077,1,8,0:0:0:0:
172,233,72160,1,0,0:0:0:0:
132,256,72244,1,0,0:0:0:0:
85,256,72328,1,0,0:0:0:0:
45,233,72412,5,6,0:0:0:0:
197,88,72664,1,0,0:0:0:0:
219,83,72748,1,0,0:0:0:0:
124,159,72915,1,0,0:0:0:0:
116,181,72999,1,0,0:0:0:0:
100,60,73167,1,0,0:0:0:0:
84,42,73251,1,0,0:0:0:0:
6,231,73418,6,0,B|-3:268|-3:268|16:321,1,74.3999961853028,0|0,0:0|0:0,0:0:0:0:
86,360,73670,1,2,0:0:0:0:
107,356,73753,2,0,L|160:346,3,37.1999980926514,0|0|0|0,0:0|0:0|0:0|0:0,0:0:0:0:
230,301,74089,2,0,L|283:311,1,37.1999980926514,0|0,0:0|0:0,0:0:0:0:
339,359,74256,6,0,L|471:337,1,116.249994039536,2|0,0:0|0:0,0:0:0:0:
394,125,74591,2,0,L|526:147,1,116.249994039536,2|0,0:0|0:0,0:0:0:0:
508,144,74843,1,0,0:0:0:0:
508,144,74927,1,8,0:0:0:0:
314,19,75094,5,2,0:0:0:0:
236,172,75346,1,0,0:0:0:0:
210,166,75430,1,0,0:0:0:0:
76,221,75597,1,0,0:0:0:0:
94,199,75681,1,0,0:0:0:0:
113,56,75849,1,0,0:0:0:0:
123,82,75933,1,0,0:0:0:0:
304,230,76100,6,0,L|266:322,1,74.3999961853028
206,360,76351,1,2,0:0:0:0:
184,354,76435,2,0,P|164:337|148:308,3,37.1999980926514,0|0|0|0,0:0|0:0|0:0|0:0,0:0:0:0:
109,252,76770,2,0,P|89:269|73:298,1,37.1999980926514,0|0,0:0|0:0,0:0:0:0:
38,343,76938,6,0,L|22:223,1,116.249994039536,2|0,0:0|0:0,0:0:0:0:
212,257,77273,2,0,L|228:137,1,116.249994039536,2|0,0:0|0:0,0:0:0:0:
227,141,77524,1,0,0:0:0:0:
227,141,77608,1,8,0:0:0:0:
42,7,77776,6,0,P|6:38|13:108,1,111.599994277954,2|0,0:0|0:0,0:0:0:0:
28,116,78111,6,0,L|132:99,1,92.9999952316285,8|0,0:0|0:0,0:0:0:0:
119,100,78362,1,0,0:0:0:0:
119,100,78446,1,0,0:0:0:0:
321,182,78614,2,0,P|333:138|319:94,1,92.9999952316285,2|0,0:0|0:0,0:0:0:0:
117,13,78949,2,0,P|104:57|119:100,1,92.9999952316285,8|0,0:0|0:0,0:0:0:0:
119,100,79200,1,0,0:0:0:0:
119,100,79284,1,2,0:0:0:0:
232,234,79452,6,0,L|431:203,1,185.999990463257,8|0,0:0|0:0,0:0:0:0:
415,205,79871,1,0,0:0:0:0:
415,205,79955,1,2,0:0:0:0:
319,94,80122,1,0,0:0:0:0:
236,338,80290,1,8,0:0:0:0:
1,264,80457,6,0,P|-16:219|22:161,1,111.599994277954,2|0,0:0|0:0,0:0:0:0:
39,161,80792,6,0,L|156:180,1,92.9999952316285,8|0,0:0|0:0,0:0:0:0:
130,175,81044,1,0,0:0:0:0:
130,175,81128,1,0,0:0:0:0:
261,332,81295,2,0,L|218:221,1,92.9999952316285,2|0,0:0|0:0,0:0:0:0:
302,59,81631,2,0,L|227:150,1,92.9999952316285,8|0,0:0|0:0,0:0:0:0:
243,131,81882,1,0,0:0:0:0:
243,131,81966,1,2,0:0:0:0:
25,175,82133,6,0,B|14:157|14:157|132:176,1,139.499992847443,8|2,0:0|0:0,0:0:0:0:
256,192,82385,12,2,84480,0:0:0:0:
75,217,92022,5,2,0:0:0:0:
18,88,92189,1,2,0:0:0:0:
50,95,92273,1,2,0:0:0:0:
85,101,92357,1,2,0:0:0:0:
117,108,92441,1,2,0:0:0:0:
151,114,92524,6,0,B|196:91|248:124|225:140|276:170|333:139,1,185.999990463257,6|8,0:0|0:0,0:0:0:0:
512,84,93027,1,0,0:0:0:0:
512,84,93111,1,0,0:0:0:0:
512,84,93195,2,0,L|407:53,1,92.9999952316285,0|2,0:0|0:0,0:0:0:0:
301,20,93530,1,0,0:0:0:0:
151,114,93698,6,0,B|128:159|161:210|177:188|207:239|176:296,1,185.999990463257,8|2,0:0|0:0,0:0:0:0:
0,370,94200,1,8,0:0:0:0:
101,251,94368,1,0,0:0:0:0:
101,251,94452,1,0,0:0:0:0:
101,251,94536,1,0,0:0:0:0:
253,326,94703,1,2,0:0:0:0:
7,278,94871,5,2,0:0:0:0:
7,230,94954,1,2,0:0:0:0:
27,189,95038,1,2,0:0:0:0:
64,162,95122,1,2,0:0:0:0:
109,155,95206,6,0,P|177:215|268:207,1,185.999990463257,2|8,0:0|0:0,0:0:0:0:
464,40,95709,1,0,0:0:0:0:
464,40,95793,1,0,0:0:0:0:
464,40,95876,1,0,0:0:0:0:
416,153,96044,1,2,0:0:0:0:
307,101,96212,1,0,0:0:0:0:
485,289,96379,6,0,P|431:330|403:243,1,185.999990463257,8|2,0:0|0:0,0:0:0:0:
505,176,96798,1,0,0:0:0:0:
505,176,96882,2,0,P|486:198|453:212,1,46.4999976158143,8|0,0:0|0:0,0:0:0:0:
400,245,97050,2,0,P|369:246|337:231,1,46.4999976158143,0|0,0:0|0:0,0:0:0:0:
179,137,97217,2,0,P|144:173|148:230,1,92.9999952316285,0|2,0:0|0:0,0:0:0:0:
152,345,97552,5,2,0:0:0:0:
192,364,97635,1,2,0:0:0:0:
238,364,97719,1,2,0:0:0:0:
278,342,97803,1,2,0:0:0:0:
303,302,97888,6,0,P|281:237|195:202,1,139.499998168945,6|0,0:0|0:0,0:0:0:0:
222,203,98139,6,0,P|283:174|351:192,1,139.499998168945,2|0,0:0|0:0,0:0:0:0:
349,191,98390,6,0,P|331:167|306:153,1,58.1249970197678,2|0,0:0|0:0,0:0:0:0:
167,86,98558,5,0,0:0:0:0:
167,86,98726,2,0,P|137:117|67:105,1,104.624998626709,2|0,0:0|0:0,0:0:0:0:
41,31,99061,2,0,B|20:77|39:125|64:108|77:164|49:208,1,181.349982400132,8|0,0:0|0:0,0:0:0:0:
28,226,99396,1,2,0:0:0:0:
111,357,99563,6,0,L|229:328,1,92.9999952316285,8|0,0:0|0:0,0:0:0:0:
286,222,99815,1,0,0:0:0:0:
270,241,99899,2,0,L|360:263,1,92.9999952316285,0|2,0:0|0:0,0:0:0:0:
445,79,100234,5,2,0:0:0:0:
502,97,100318,1,2,0:0:0:0:
502,158,100401,1,2,0:0:0:0:
445,176,100485,1,2,0:0:0:0:
409,127,100569,6,0,B|367:109|367:109|268:130,1,120.899988266755,6|0,0:0|0:0,0:0:0:0:
166,183,100820,1,0,0:0:0:0:
166,183,100904,2,0,L|200:56,1,120.899988266755,0|0,0:0|0:0,0:0:0:0:
67,25,101156,1,0,0:0:0:0:
73,46,101239,2,0,L|96:128,1,60.4499941333774,2|0,0:0|0:0,0:0:0:0:
128,264,101407,6,0,P|58:237|167:225,1,278.999996337891,8|0,0:0|0:0,0:0:0:0:
222,370,101910,6,0,P|196:336|196:284,1,69.7499990844727,2|0,0:0|0:0,0:0:0:0:
165,185,102077,1,0,0:0:0:0:
132,153,102160,1,0,0:0:0:0:
87,152,102244,1,0,0:0:0:0:
54,183,102328,1,0,0:0:0:0:
52,228,102412,1,0,0:0:0:0:
81,262,102495,1,0,0:0:0:0:
128,263,102580,6,0,P|159:274|211:276,1,65.0999946754458,2|0,0:0|0:0,0:0:0:0:
222,370,102748,2,0,P|254:361|297:333,1,65.0999946754458,0|0,0:0|0:0,0:0:0:0:
507,298,102915,5,2,0:0:0:0:
479,252,102998,1,2,0:0:0:0:
427,226,103082,1,2,0:0:0:0:
371,231,103166,1,2,0:0:0:0:
329,256,103251,6,0,P|308:215|342:119,1,139.499998168945,2|0,0:0|0:0,0:0:0:0:
332,128,103503,6,0,P|308:182|251:209,1,116.249994039536,0|0,0:0|0:0,0:0:0:0:
259,208,103754,6,0,P|258:184|247:163,1,46.4999976158143,0|0,0:0|0:0,0:0:0:0:
122,78,103921,5,10,0:0:0:0:
97,53,104089,2,0,P|158:79|88:66,1,209.249997253418,2|0,0:0|0:0,0:0:0:0:
26,141,104424,6,0,P|53:172|79:188,1,60.4499941333774,8|0,0:0|0:0,0:0:0:0:
232,184,104591,2,0,P|205:215|179:231,1,60.4499941333774,0|0,0:0|0:0,0:0:0:0:
28,258,104759,2,0,P|62:280|91:289,1,60.4499941333774,2|0,0:0|0:0,0:0:0:0:
195,326,104927,1,8,0:0:0:0:
239,316,105010,1,0,0:0:0:0:
283,306,105094,1,0,0:0:0:0:
327,297,105178,1,0,0:0:0:0:
372,287,105262,6,0,P|302:323|307:239,1,195.299984026337,2|0,0:0|0:0,0:0:0:0:
410,137,105597,6,0,P|342:198|214:169,1,209.249997253418,2|0,0:0|0:0,0:0:0:0:
61,13,105932,6,0,B|28:63|28:63|65:204,1,185.999990463257,6|8,0:0|0:0,0:0:0:0:
179,374,106435,1,0,0:0:0:0:
179,374,106519,1,0,0:0:0:0:
179,374,106602,2,0,L|206:271,1,92.9999952316285,0|2,0:0|0:0,0:0:0:0:
163,106,106938,1,0,0:0:0:0:
0,247,107105,6,0,P|69:191|156:214,1,185.999990463257,8|2,0:0|0:0,0:0:0:0:
300,361,107608,1,8,0:0:0:0:
249,156,107776,1,0,0:0:0:0:
249,156,107860,1,0,0:0:0:0:
249,156,107943,2,0,P|287:180|354:176,1,92.9999952316285,0|2,0:0|0:0,0:0:0:0:
406,70,108278,2,0,L|417:46,4,23.2499988079071,0|0|0|0|8,0:0|0:0|0:0|0:0|0:0,0:0:0:0:
494,52,108614,6,0,L|302:96,1,185.999990463257,2|8,0:0|0:0,0:0:0:0:
75,146,109116,1,0,0:0:0:0:
75,146,109200,1,0,0:0:0:0:
75,146,109284,1,0,0:0:0:0:
208,29,109452,2,0,B|227:73|227:73|209:124,1,92.9999952316285,2|0,0:0|0:0,0:0:0:0:
22,290,109787,6,0,P|0:255|85:275,1,185.999990463257,8|2,0:0|0:0,0:0:0:0:
352,327,110290,2,0,L|254:316,1,92.9999952316285,8|0,0:0|0:0,0:0:0:0:
260,317,110541,1,0,0:0:0:0:
260,317,110625,1,0,0:0:0:0:
64,366,110792,1,2,0:0:0:0:
290,180,110960,5,0,0:0:0:0:
340,159,111043,1,0,0:0:0:0:
334,102,111127,1,0,0:0:0:0:
281,91,111211,1,0,0:0:0:0:
252,141,111295,6,0,B|229:186|249:230|272:212|290:281|257:319,1,185.999990463257,2|8,0:0|0:0,0:0:0:0:
53,105,111798,2,0,L|151:94,1,92.9999952316285,0|0,0:0|0:0,0:0:0:0:
146,95,112049,1,0,0:0:0:0:
146,95,112133,1,2,0:0:0:0:
373,72,112301,1,0,0:0:0:0:
178,269,112468,1,2,0:0:0:0:
447,321,112804,5,2,0:0:0:0:
423,247,112971,1,2,0:0:0:0:
322,221,113977,6,0,P|324:188|346:153,1,58.1249970197678,6|0,0:0|0:0,0:0:0:0:
423,247,114144,2,0,P|434:220|436:191,1,58.1249970197678,2|0,0:0|0:0,0:0:0:0:
427,66,114312,6,0,P|362:143|262:123,1,209.249997253418,8|0,0:0|0:0,0:0:0:0:
98,40,114647,6,0,P|136:27|206:66,1,116.249994039536,0|2,0:0|0:0,0:0:0:0:
201,59,114899,1,0,0:0:0:0:
201,59,114982,1,8,0:0:0:0:
166,313,115150,6,0,P|113:267|158:103,1,232.499988079071,0|2,0:0|0:0,0:0:0:0:
329,51,115653,1,8,0:0:0:0:
490,256,115820,1,0,0:0:0:0:
490,256,115904,1,0,0:0:0:0:
490,256,115988,1,0,0:0:0:0:
276,140,116156,1,2,0:0:0:0:
436,33,116323,1,8,0:0:0:0:
384,292,116491,6,0,B|323:253|264:294|294:315|220:343|146:304,1,232.499988079071,0|2,0:0|0:0,0:0:0:0:
165,312,116910,1,2,0:0:0:0:
165,312,116994,1,10,0:0:0:0:
121,75,117161,1,2,0:0:0:0:
121,75,117245,1,0,0:0:0:0:
121,75,117329,2,0,P|136:99|141:135,1,58.1249970197678,2|0,0:0|0:0,0:0:0:0:
76,278,117497,2,0,P|89:252|117:229,1,58.1249970197678,2|0,0:0|0:0,0:0:0:0:
220,212,117664,2,0,P|247:221|276:220,1,58.1249970197678,0|0,0:0|0:0,0:0:0:0:
379,60,117832,6,0,B|321:34|321:34|349:191,1,209.249997253418,8|0,0:0|0:0,0:0:0:0:
346,177,118167,6,0,B|381:186|381:186|361:88,1,116.249994039536,2|8,0:0|0:0,0:0:0:0:
241,17,118502,1,0,0:0:0:0:
197,53,118585,1,0,0:0:0:0:
140,52,118669,1,0,0:0:0:0:
16,158,118837,1,2,0:0:0:0:
140,373,119005,1,0,0:0:0:0:
150,315,119088,1,0,0:0:0:0:
160,258,119172,1,0,0:0:0:0:
171,201,119256,1,0,0:0:0:0:
181,144,119340,6,0,P|151:172|115:188,1,58.1249970197678,6|0,0:0|0:0,0:0:0:0:
347,166,119508,2,0,P|368:201|398:226,1,58.1249970197678,2|0,0:0|0:0,0:0:0:0:
244,275,119675,6,0,L|284:32,1,209.249997253418,8|0,0:0|0:0,0:0:0:0:
163,29,120010,6,0,L|182:155,1,116.249994039536,0|2,0:0|0:0,0:0:0:0:
181,143,120262,1,0,0:0:0:0:
181,143,120346,1,8,0:0:0:0:
223,364,120513,1,0,0:0:0:0:
22,242,120681,6,0,P|68:274|125:269,1,116.249994039536,0|2,0:0|0:0,0:0:0:0:
125,269,120932,1,0,0:0:0:0:
125,269,121016,1,8,0:0:0:0:
277,68,121184,2,0,P|382:36|455:118,1,232.499988079071,0|2,0:0|0:0,0:0:0:0:
345,344,121686,1,8,0:0:0:0:
237,179,121854,1,0,0:0:0:0:
406,241,122022,6,0,L|257:263,1,116.249994039536,2|2,0:0|0:0,0:0:0:0:
291,258,122273,1,2,0:0:0:0:
291,258,122357,1,10,0:0:0:0:
24,377,122524,2,0,P|39:352|64:338,1,58.1249970197678,2|0,0:0|0:0,0:0:0:0:
87,347,122692,2,0,P|173:277|151:180,1,174.374991059303,2|0,0:0|0:0,0:0:0:0:
32,104,123027,2,0,L|101:122,1,58.1249970197678,0|0,0:0|0:0,0:0:0:0:
370,156,123195,6,0,B|393:201|393:201|216:155,1,209.249997253418,8|0,0:0|0:0,0:0:0:0:
32,104,123530,6,0,L|162:138,1,116.249994039536,2|8,0:0|0:0,0:0:0:0:
367,278,123865,1,2,0:0:0:0:
367,278,123949,2,0,P|339:216|369:155,1,139.499998168945,0|0,0:0|0:0,0:0:0:0:
369,155,124200,2,0,L|293:133,1,58.1249970197678,2|0,0:0|0:0,0:0:0:0:
158,70,124368,5,0,0:0:0:0:
117,82,124451,1,2,0:0:0:0:
75,93,124535,1,0,0:0:0:0:
32,104,124619,1,0,0:0:0:0:
7,146,124703,6,0,P|29:170|46:202,1,58.1249970197678,6|0,0:0|0:0,0:0:0:0:
203,172,124871,2,0,P|174:188|148:213,1,58.1249970197678,2|0,0:0|0:0,0:0:0:0:
0,269,125038,6,0,P|95:235|179:291,1,209.249997253418,8|0,0:0|0:0,0:0:0:0:
276,371,125374,6,0,B|249:334|249:334|272:253,1,116.249994039536,0|2,0:0|0:0,0:0:0:0:
268,266,125625,1,0,0:0:0:0:
268,266,125709,1,8,0:0:0:0:
270,59,125876,6,0,B|334:25|334:25|286:199,1,232.499988079071,0|2,0:0|0:0,0:0:0:0:
268,266,126379,1,8,0:0:0:0:
83,343,126547,1,0,0:0:0:0:
83,343,126631,1,0,0:0:0:0:
83,343,126714,2,0,L|51:226,1,116.249994039536,0|2,0:0|0:0,0:0:0:0:
142,65,127050,1,8,0:0:0:0:
52,230,127217,6,0,B|103:262|172:230|140:209|213:165|277:205,1,232.499988079071,0|2,0:0|0:0,0:0:0:0:
268,200,127636,1,2,0:0:0:0:
268,200,127720,1,10,0:0:0:0:
420,359,127888,1,2,0:0:0:0:
420,359,127971,1,0,0:0:0:0:
420,359,128055,2,0,P|446:331|453:293,1,58.1249970197678,2|0,0:0|0:0,0:0:0:0:
493,165,128223,2,0,L|371:184,1,116.249994039536,2|0,0:0|0:0,0:0:0:0:
133,286,128558,1,8,0:0:0:0:
283,91,128726,5,2,0:0:0:0:
134,21,128893,1,2,0:0:0:0:
134,21,128977,1,0,0:0:0:0:
134,21,129061,2,0,L|143:78,1,58.1249970197678,8|0,0:0|0:0,0:0:0:0:
170,102,129228,2,0,P|121:158|16:134,1,174.374991059303,2|0,0:0|0:0,0:0:0:0:
9,128,129563,1,2,0:0:0:0:
224,33,129731,6,0,B|274:17|313:42|287:53|357:96|414:50,1,174.374997711182,8|0,0:0|0:0,0:0:0:0:
445,121,130234,1,2,0:0:0:0:
435,142,130317,1,2,0:0:0:0:
425,163,130401,1,2,0:0:0:0:
479,243,130569,6,0,P|493:286|477:329,1,92.9999952316285,2|0,0:0|0:0,0:0:0:0:
143,220,130904,2,0,L|350:179,1,185.999990463257,2|8,0:0|0:0,0:0:0:0:
78,291,131407,5,2,0:0:0:0:
146,356,131742,1,2,0:0:0:0:
78,93,132077,5,2,0:0:0:0:
146,28,132412,1,2,0:0:0:0:
78,291,132748,6,0,P|108:304|146:302,1,53.474998278141,6|0,0:0|0:0,0:0:0:0:
251,191,132915,2,0,P|239:214|220:233,1,53.474998278141,2|0,0:0|0:0,0:0:0:0:
178,375,133083,6,0,B|147:319|166:264|196:288|209:209|161:153,1,223.199988555908,8|0,0:0|0:0,0:0:0:0:
168,162,133418,6,0,P|147:179|122:188,1,53.474998278141,2|0,0:0|0:0,0:0:0:0:
0,84,133586,2,0,L|124:106,2,106.949996556282,2|8|0,0:0|0:0|0:0,0:0:0:0:
192,46,134089,5,2,0:0:0:0:
93,225,134256,1,2,0:0:0:0:
248,128,134424,2,0,L|372:150,1,106.949996556282,8|0,0:0|0:0,0:0:0:0:
509,55,134759,1,2,0:0:0:0:
458,67,134842,1,0,0:0:0:0:
431,112,134926,1,2,0:0:0:0:
445,163,135010,1,0,0:0:0:0:
457,213,135093,1,8,0:0:0:0:
431,258,135177,1,0,0:0:0:0:
380,271,135262,6,0,P|352:260|324:261,1,53.474998278141,2|0,0:0|0:0,0:0:0:0:
356,283,135429,2,0,B|301:253|248:280|270:310|192:331|141:284,1,213.899993112564,2|8,0:0|0:0,0:0:0:0:
42,211,135932,1,0,0:0:0:0:
247,101,136100,1,2,0:0:0:0:
118,49,136267,1,0,0:0:0:0:
127,101,136350,1,0,0:0:0:0:
137,154,136435,2,0,L|65:131,2,53.474998278141,8|0|0,0:0|0:0|0:0,0:0:0:0:
349,224,136770,6,0,L|478:265,1,106.949996556282,2|0,0:0|0:0,0:0:0:0:
450,256,137022,1,0,0:0:0:0:
450,256,137105,1,8,0:0:0:0:
330,326,137273,1,0,0:0:0:0:
409,113,137441,5,2,0:0:0:0:
397,164,137524,1,0,0:0:0:0:
361,202,137608,1,2,0:0:0:0:
309,215,137692,1,0,0:0:0:0:
259,199,137776,1,8,0:0:0:0:
208,183,137860,1,0,0:0:0:0:
157,195,137943,2,0,P|139:237|220:230,1,160.424994834423,0|0,0:0|0:0,0:0:0:0:
181,109,138279,6,0,B|117:96|134:141|46:119,2,125.549994041634,2|8|2,0:0|0:0|0:0,0:0:0:0:
347,202,138781,1,2,0:0:0:0:
282,15,138949,1,0,0:0:0:0:
282,15,139033,1,0,0:0:0:0:
282,15,139117,1,8,0:0:0:0:
181,109,139284,6,0,B|150:160|176:202|187:187|215:244|173:295,1,188.324991062451,0|0,0:0|0:0,0:0:0:0:
111,367,139619,2,0,P|69:322|8:321,2,125.549994041634,2|8|2,0:0|0:0|0:0,0:0:0:0:
257,148,140122,1,2,0:0:0:0:
106,238,140290,1,2,0:0:0:0:
57,89,140457,2,0,L|202:112,1,125.549994041634,8|0,0:0|0:0,0:0:0:0:
439,44,140793,5,2,0:0:0:0:
270,200,140960,1,2,0:0:0:0:
270,200,141044,1,2,0:0:0:0:
270,200,141128,2,0,L|255:139,1,53.474998278141,10|0,0:0|0:0,0:0:0:0:
322,15,141295,2,0,L|337:76,1,53.474998278141,2|0,0:0|0:0,0:0:0:0:
388,303,141463,5,2,0:0:0:0:
487,200,141631,1,2,0:0:0:0:
487,200,141714,1,2,0:0:0:0:
487,200,141798,2,0,P|460:201|437:213,1,53.474998278141,10|0,0:0|0:0,0:0:0:0:
239,360,141966,2,0,P|265:358|288:346,1,53.474998278141,0|0,0:0|0:0,0:0:0:0:
270,200,142133,6,0,L|155:175,1,106.949996556282,2|0,0:0|0:0,0:0:0:0:
165,177,142385,1,0,0:0:0:0:
165,177,142469,1,8,0:0:0:0:
3,266,142636,1,2,0:0:0:0:
27,98,142804,5,2,0:0:0:0:
69,66,142887,1,0,0:0:0:0:
122,62,142971,1,8,0:0:0:0:
169,86,143055,1,0,0:0:0:0:
196,131,143139,1,2,0:0:0:0:
223,176,143223,1,2,0:0:0:0:
270,200,143307,1,0,0:0:0:0:
322,195,143391,1,0,0:0:0:0:
365,164,143474,6,0,P|352:192|357:235,1,53.474998278141,6|0,0:0|0:0,0:0:0:0:
354,346,143642,2,0,P|331:324|321:282,1,53.474998278141,2|0,0:0|0:0,0:0:0:0:
436,212,143809,6,0,B|353:227|353:227|348:223|348:223|333:263|333:263|328:258|328:258|247:272,1,223.199988555908,8|0,0:0|0:0,0:0:0:0:
246,272,144144,6,0,P|223:308|196:323,1,53.474998278141,2|0,0:0|0:0,0:0:0:0:
60,227,144312,2,0,L|190:207,2,106.949996556282,2|8|0,0:0|0:0|0:0,0:0:0:0:
246,272,144815,5,2,0:0:0:0:
132,133,144982,1,2,0:0:0:0:
278,44,145150,2,0,L|383:60,1,106.949996556282,8|0,0:0|0:0,0:0:0:0:
496,290,145485,1,2,0:0:0:0:
445,303,145568,1,0,0:0:0:0:
400,276,145652,1,2,0:0:0:0:
388,224,145736,1,0,0:0:0:0:
375,174,145819,1,8,0:0:0:0:
331,147,145903,1,0,0:0:0:0:
280,159,145988,6,0,P|260:181|235:194,1,53.474998278141,2|0,0:0|0:0,0:0:0:0:
249,159,146155,2,0,B|214:211|155:212|160:175|81:193|58:259,1,213.899993112564,2|10,0:0|0:0,0:0:0:0:
160,308,146658,1,2,0:0:0:0:
9,146,146826,1,0,0:0:0:0:
223,58,146994,1,2,0:0:0:0:
235,109,147077,1,0,0:0:0:0:
249,159,147161,2,0,L|269:227,2,53.474998278141,8|0|2,0:0|0:0|0:0,0:0:0:0:
465,27,147496,6,0,L|431:145,1,106.949996556282,2|2,0:0|0:0,0:0:0:0:
435,129,147748,1,2,0:0:0:0:
435,129,147832,1,10,0:0:0:0:
348,355,147999,1,2,0:0:0:0:
419,263,148167,5,2,0:0:0:0:
378,229,148250,1,0,0:0:0:0:
327,220,148334,1,2,0:0:0:0:
277,239,148418,1,0,0:0:0:0:
246,282,148502,1,8,0:0:0:0:
214,324,148586,1,0,0:0:0:0:
165,345,148670,2,0,B|140:302|156:262|171:280|192:223|150:171,1,160.424994834423,0|0,0:0|0:0,0:0:0:0:
106,98,149005,6,0,P|62:92|101:111,2,125.549994041634,0|8|0,0:0|0:0|0:0,0:0:0:0:
178,23,149508,2,0,L|319:44,1,125.549994041634,2|2,0:0|0:0,0:0:0:0:
302,41,149759,1,0,0:0:0:0:
302,41,149843,1,8,0:0:0:0:
486,136,150010,6,0,P|393:125|338:199,1,188.324991062451,0|0,0:0|0:0,0:0:0:0:
383,303,150346,6,0,P|417:330|393:293,2,125.549994041634,2|8|2,0:0|0:0|0:0,0:0:0:0:
243,177,150848,1,2,0:0:0:0:
72,307,151016,1,2,0:0:0:0:
162,363,151184,2,0,B|178:304|178:304|150:224,1,125.549994041634,8|0,0:0|0:0,0:0:0:0:
81,26,151519,5,2,0:0:0:0:
2,189,151686,1,2,0:0:0:0:
2,189,151770,1,2,0:0:0:0:
2,189,151854,2,0,L|61:174,1,53.474998278141,10|0,0:0|0:0,0:0:0:0:
188,51,152022,2,0,L|247:66,1,53.474998278141,2|0,0:0|0:0,0:0:0:0:
477,121,152189,5,2,0:0:0:0:
361,13,152357,1,2,0:0:0:0:
361,13,152441,1,2,0:0:0:0:
361,13,152524,2,0,L|341:84,1,53.474998278141,10|0,0:0|0:0,0:0:0:0:
440,196,152692,2,0,L|460:267,1,53.474998278141,2|0,0:0|0:0,0:0:0:0:
287,356,152860,6,0,L|321:242,1,106.949996556282,2|0,0:0|0:0,0:0:0:0:
317,253,153111,1,0,0:0:0:0:
317,253,153195,1,8,0:0:0:0:
234,60,153362,5,2,0:0:0:0:
234,60,153446,2,0,P|193:86|125:81,1,106.949996556282,2|0,0:0|0:0,0:0:0:0:
0,120,153698,6,0,P|39:133|67:163,1,83.6999931541446,2|0,0:0|0:0,0:0:0:0:
125,245,153949,6,0,P|139:216|163:194,1,65.0999946754458,2|0,0:0|0:0,0:0:0:0:
234,60,154200,6,0,P|242:86|265:110,1,55.7999971389771,6|0,0:0|0:0,0:0:0:0:
446,213,155374,6,0,L|330:195,1,111.599994277954,2|0,0:0|0:0,0:0:0:0:
176,195,156882,2,0,L|66:213,1,111.599994277954,2|0,0:0|0:0,0:0:0:0:
66,213,158055,5,2,0:0:0:0:
215,320,158223,1,2,0:0:0:0:
326,109,158390,1,2,0:0:0:0:
326,109,158726,2,0,L|369:115,1,37.1999980926514,2|2,0:0|0:0,0:0:0:0:
456,157,159563,6,0,P|411:112|403:49,1,130.19999332428,2|0,0:0|0:0,0:0:0:0:
108,49,162245,2,0,P|100:112|55:157,1,130.19999332428,2|0,0:0|0:0,0:0:0:0:
137,271,164089,2,0,L|177:255,1,37.1999980926514,2|2,0:0|0:0,0:0:0:0:
341,257,164927,6,0,L|462:304,1,130.19999332428,2|0,0:0|0:0,0:0:0:0:
375,271,167105,2,0,L|340:257,1,37.1999980926514,2|0,0:0|0:0,0:0:0:0:
171,257,167608,2,0,L|50:304,1,130.19999332428,2|0,0:0|0:0,0:0:0:0:
49,304,168949,5,2,0:0:0:0:
255,113,169117,1,2,0:0:0:0:
185,61,169452,5,2,0:0:0:0:
185,61,169787,1,2,0:0:0:0:
257,286,169955,1,2,0:0:0:0:
257,286,170374,6,0,L|270:258,1,26.7374991390705,2|0,0:0|0:0,0:0:0:0:
257,286,170457,6,0,B|271:259|271:259|254:185,1,92.9999952316285,2|2,0:0|0:0,0:0:0:0:
278,166,171631,6,0,P|254:184|211:189,1,58.1249970197678,6|0,0:0|0:0,0:0:0:0:
89,120,171798,2,0,P|99:146|120:166,1,58.1249970197678,2|0,0:0|0:0,0:0:0:0:
244,283,171966,6,0,P|158:217|66:245,1,209.249997253418,8|0,0:0|0:0,0:0:0:0:
29,338,172301,6,0,P|83:347|137:316,1,116.249994039536,0|2,0:0|0:0,0:0:0:0:
134,318,172552,1,0,0:0:0:0:
134,318,172636,1,8,0:0:0:0:
223,108,172804,6,0,P|306:184|418:173,1,232.499988079071,0|2,0:0|0:0,0:0:0:0:
292,33,173307,1,8,0:0:0:0:
74,231,173474,1,0,0:0:0:0:
74,231,173558,1,0,0:0:0:0:
74,231,173642,1,0,0:0:0:0:
223,108,173809,1,2,0:0:0:0:
299,291,173977,1,8,0:0:0:0:
80,360,174144,6,0,B|50:307|73:246|108:281|137:194|95:144,1,232.499988079071,0|2,0:0|0:0,0:0:0:0:
95,144,174563,1,2,0:0:0:0:
95,144,174647,1,10,0:0:0:0:
236,70,174815,1,0,0:0:0:0:
236,70,174899,1,0,0:0:0:0:
236,70,174982,2,0,P|269:86|315:85,1,58.1249970197678,0|0,0:0|0:0,0:0:0:0:
467,7,175150,2,0,P|442:21|424:43,1,58.1249970197678,2|0,0:0|0:0,0:0:0:0:
414,180,175318,2,0,P|424:208|425:237,1,58.1249970197678,0|0,0:0|0:0,0:0:0:0:
343,340,175485,6,0,P|261:359|173:274,1,209.249997253418,8|0,0:0|0:0,0:0:0:0:
174,280,175820,6,0,P|232:271|258:328,1,116.249994039536,2|8,0:0|0:0,0:0:0:0:
47,358,176156,1,0,0:0:0:0:
30,302,176239,1,0,0:0:0:0:
14,246,176323,1,0,0:0:0:0:
191,35,176491,1,2,0:0:0:0:
59,130,176658,1,0,0:0:0:0:
86,180,176741,1,0,0:0:0:0:
134,211,176825,1,0,0:0:0:0:
192,215,176909,1,0,0:0:0:0:
244,191,176994,6,0,P|275:168|298:137,1,58.1249970197678,6|0,0:0|0:0,0:0:0:0:
443,105,177161,2,0,P|423:83|399:67,1,58.1249970197678,2|0,0:0|0:0,0:0:0:0:
288,26,177329,6,0,L|350:256,1,209.249997253418,8|0,0:0|0:0,0:0:0:0:
429,371,177664,6,0,B|445:318|445:318|415:229,1,116.249994039536,0|2,0:0|0:0,0:0:0:0:
425,260,177915,1,0,0:0:0:0:
425,260,177999,1,8,0:0:0:0:
221,133,178167,1,0,0:0:0:0:
61,301,178334,6,0,L|185:318,1,116.249994039536,0|2,0:0|0:0,0:0:0:0:
176,316,178586,1,0,0:0:0:0:
176,316,178670,1,8,0:0:0:0:
500,185,178837,2,0,P|423:154|320:255,1,232.499988079071,0|2,0:0|0:0,0:0:0:0:
105,183,179340,1,8,0:0:0:0:
300,85,179508,1,0,0:0:0:0:
158,8,179675,6,0,B|138:46|138:46|172:127,1,116.249994039536,2|2,0:0|0:0,0:0:0:0:
166,113,179927,1,2,0:0:0:0:
166,113,180010,1,10,0:0:0:0:
327,335,180178,2,0,P|305:313|267:306,1,58.1249970197678,0|0,0:0|0:0,0:0:0:0:
258,314,180346,2,0,P|187:360|104:339,1,174.374991059303,2|0,0:0|0:0,0:0:0:0:
46,267,180681,2,0,L|78:208,1,58.1249970197678,2|0,0:0|0:0,0:0:0:0:
123,40,180848,6,0,B|173:21|173:21|117:130,1,174.374991059303,8|0,0:0|0:0,0:0:0:0:
20,319,181184,6,0,L|75:211,1,116.249994039536,2|8,0:0|0:0,0:0:0:0:
123,40,181519,1,0,0:0:0:0:
123,40,181603,2,0,P|164:79|254:63,1,139.499998168945,2|0,0:0|0:0,0:0:0:0:
370,15,181854,2,0,P|339:34|322:72,1,58.1249970197678,0|0,0:0|0:0,0:0:0:0:
269,163,182022,5,0,0:0:0:0:
279,205,182105,1,0,0:0:0:0:
290,247,182189,1,0,0:0:0:0:
301,289,182273,1,0,0:0:0:0:
315,331,182357,6,0,L|258:316,1,58.1249970197678,6|0,0:0|0:0,0:0:0:0:
66,264,182524,2,0,L|122:249,1,58.1249970197678,2|0,0:0|0:0,0:0:0:0:
178,369,182692,6,0,P|225:269|171:184,1,209.249997253418,8|0,0:0|0:0,0:0:0:0:
96,37,183027,6,0,P|83:93|120:142,1,116.249994039536,0|2,0:0|0:0,0:0:0:0:
115,139,183279,1,0,0:0:0:0:
115,139,183362,1,8,0:0:0:0:
344,163,183530,6,0,P|281:72|159:83,1,232.499988079071,0|2,0:0|0:0,0:0:0:0:
58,300,184033,2,0,P|80:318|107:327,1,58.1249970197678,8|0,0:0|0:0,0:0:0:0:
200,308,184200,2,0,P|221:289|236:263,1,58.1249970197678,0|0,0:0|0:0,0:0:0:0:
115,139,184368,2,0,L|142:272,1,116.249994039536,0|2,0:0|0:0,0:0:0:0:
138,252,184619,1,0,0:0:0:0:
138,252,184703,1,8,0:0:0:0:
387,355,184871,6,0,L|433:127,1,232.499988079071,0|2,0:0|0:0,0:0:0:0:
433,127,185290,1,2,0:0:0:0:
433,127,185374,1,10,0:0:0:0:
233,39,185541,1,0,0:0:0:0:
233,39,185625,1,0,0:0:0:0:
233,39,185709,2,0,P|198:70|160:80,1,58.1249970197678,2|0,0:0|0:0,0:0:0:0:
0,117,185876,2,0,L|118:139,1,116.249994039536,8|0,0:0|0:0,0:0:0:0:
339,178,186212,1,2,0:0:0:0:
92,360,186379,5,2,0:0:0:0:
222,183,186547,1,2,0:0:0:0:
222,183,186631,1,0,0:0:0:0:
222,183,186714,2,0,P|242:211|247:249,1,58.1249970197678,0|0,0:0|0:0,0:0:0:0:
266,254,186882,2,0,P|193:298|111:276,1,174.374991059303,2|0,0:0|0:0,0:0:0:0:
87,254,187217,1,2,0:0:0:0:
230,35,187385,6,0,B|254:90|229:129|209:111|189:156|206:203,1,174.374997711182,8|0,0:0|0:0,0:0:0:0:
271,250,187888,1,2,0:0:0:0:
292,241,187971,1,2,0:0:0:0:
313,233,188055,1,2,0:0:0:0:
488,162,188223,6,0,L|376:206,1,92.9999952316285,0|0,0:0|0:0,0:0:0:0:
144,360,188558,2,0,B|116:325|116:325|148:198,1,139.499992847443,2|0,0:0|0:0,0:0:0:0:
161,72,188893,6,0,B|192:42|192:42|162:156,1,158.099994909287,8|0,0:0|0:0,0:0:0:0:
125,117,190401,6,0,L|82:71,1,62.7749970208169,6|0,0:0|0:0,0:0:0:0:
148,205,190569,2,0,L|129:265,1,62.7749970208169,2|0,0:0|0:0,0:0:0:0:
217,144,190737,2,0,L|278:129,1,62.7749970208169,8|0,0:0|0:0,0:0:0:0:
419,301,190904,5,0,0:0:0:0:
419,301,190988,1,0,0:0:0:0:
419,301,191072,2,0,P|398:277|393:240,1,62.7749970208169,0|0,0:0|0:0,0:0:0:0:
385,54,191239,6,0,P|440:102|442:186,2,158.099994909287,2|8|0,0:0|0:0|0:0,0:0:0:0:
230,19,191742,6,0,P|179:54|117:51,1,125.549994041634,0|2,0:0|0:0,0:0:0:0:
54,0,191994,1,0,0:0:0:0:
54,0,192077,2,0,P|33:30|30:78,1,62.7749970208169,8|0,0:0|0:0,0:0:0:0:
0,141,192245,2,0,P|15:174|55:200,1,62.7749970208169,0|0,0:0|0:0,0:0:0:0:
156,242,192413,5,0,0:0:0:0:
370,179,192580,1,2,0:0:0:0:
216,133,192748,1,8,0:0:0:0:
163,356,192915,1,0,0:0:0:0:
334,253,193083,6,0,L|305:113,1,125.549994041634,0|2,0:0|0:0,0:0:0:0:
404,15,193334,1,2,0:0:0:0:
404,15,193418,2,0,P|373:37|329:41,1,62.7749970208169,10|0,0:0|0:0,0:0:0:0:
212,147,193586,1,0,0:0:0:0:
212,147,193670,1,0,0:0:0:0:
212,147,193753,2,0,P|181:124|137:120,1,62.7749970208169,0|0,0:0|0:0,0:0:0:0:
180,360,193921,6,0,L|149:204,2,158.099994909287,2|0|8,0:0|0:0|0:0,0:0:0:0:
19,244,194424,6,0,L|100:260,1,62.7749970208169,0|0,0:0|0:0,0:0:0:0:
247,287,194591,2,0,L|328:303,1,62.7749970208169,2|0,0:0|0:0,0:0:0:0:
399,354,194759,6,0,B|399:375|358:387|323:339|329:270|370:234,1,185.999990463257,8|2,0:0|0:0,0:0:0:0:
493,87,195010,6,0,B|511:76|541:105|518:159|455:188|405:173,1,162.749993207455,2|0,0:0|0:0,0:0:0:0:
248,155,195262,6,0,B|234:148|244:107|302:100|353:135|370:183,1,139.499998168945,2|0,0:0|0:0,0:0:0:0:
428,295,195513,6,0,B|427:313|388:322|353:274|375:208,1,116.249994039536,2|0,0:0|0:0,0:0:0:0:
291,15,195765,6,0,P|271:39|244:54,1,62.7749970208169,6|0,0:0|0:0,0:0:0:0:
99,88,195932,2,0,P|129:93|156:108,1,62.7749970208169,2|0,0:0|0:0,0:0:0:0:
248,155,196100,2,0,P|259:184|259:215,1,62.7749970208169,8|0,0:0|0:0,0:0:0:0:
2,289,196267,5,0,0:0:0:0:
2,289,196351,1,0,0:0:0:0:
2,289,196435,2,0,P|25:267|53:256,1,62.7749970208169,0|0,0:0|0:0,0:0:0:0:
258,215,196603,6,0,P|180:226|109:195,2,158.099994909287,2|8|0,0:0|0:0|0:0,0:0:0:0:
512,24,197105,6,0,P|432:13|360:44,1,158.099994909287,0|2,0:0|0:0,0:0:0:0:
306,102,197357,1,0,0:0:0:0:
306,102,197441,2,0,L|328:187,1,62.7749970208169,8|0,0:0|0:0,0:0:0:0:
361,308,197608,2,0,L|339:223,1,62.7749970208169,0|0,0:0|0:0,0:0:0:0:
284,26,197776,5,0,0:0:0:0:
13,180,197943,1,2,0:0:0:0:
258,215,198111,1,8,0:0:0:0:
133,9,198279,1,0,0:0:0:0:
64,246,198446,6,0,B|46:305|46:305|72:375,1,125.549994041634,0|2,0:0|0:0,0:0:0:0:
158,365,198698,1,2,0:0:0:0:
158,365,198781,2,0,L|125:280,1,62.7749970208169,10|0,0:0|0:0,0:0:0:0:
87,81,198949,1,0,0:0:0:0:
87,81,199033,1,0,0:0:0:0:
87,81,199117,2,0,L|120:166,1,62.7749970208169,0|0,0:0|0:0,0:0:0:0:
158,365,199284,6,0,B|176:306|176:306|138:210,2,158.099994909287,2|0|8,0:0|0:0|0:0,0:0:0:0:
5,151,199787,6,0,P|22:181|57:205,1,62.7749970208169,0|0,0:0|0:0,0:0:0:0:
140,216,199955,2,0,P|171:201|199:168,1,62.7749970208169,2|0,0:0|0:0,0:0:0:0:
371,18,200122,6,0,P|307:81|326:168,1,185.999990463257,10|0,0:0|0:0,0:0:0:0:
420,356,200374,6,0,P|441:269|385:207,1,162.749993207455,2|0,0:0|0:0,0:0:0:0:
265,289,200625,6,0,P|295:280|329:235,1,69.7499990844727,0|0,0:0|0:0,0:0:0:0:
371,18,200793,1,0,0:0:0:0:
325,76,200876,1,0,0:0:0:0:
255,100,200960,1,0,0:0:0:0:
183,83,201044,1,0,0:0:0:0:
129,27,201128,6,0,P|104:46|92:75,1,62.7749970208169,6|0,0:0|0:0,0:0:0:0:
225,214,201295,2,0,P|219:183|201:158,1,62.7749970208169,2|0,0:0|0:0,0:0:0:0:
12,204,201463,2,0,P|41:214|72:211,1,62.7749970208169,8|0,0:0|0:0,0:0:0:0:
265,69,201631,5,0,0:0:0:0:
265,69,201714,1,0,0:0:0:0:
265,69,201798,2,0,P|234:65|204:75,1,62.7749970208169,0|0,0:0|0:0,0:0:0:0:
107,297,201966,6,0,B|139:257|139:257|119:127,2,158.099994909287,2|8|0,0:0|0:0|0:0,0:0:0:0:
265,69,202469,6,0,B|278:142|278:142|321:169,1,125.549994041634,0|2,0:0|0:0,0:0:0:0:
459,238,202720,1,0,0:0:0:0:
459,238,202804,2,0,L|382:251,1,62.7749970208169,8|0,0:0|0:0,0:0:0:0:
291,272,202971,2,0,L|214:285,1,62.7749970208169,0|0,0:0|0:0,0:0:0:0:
1,228,203139,5,2,0:0:0:0:
184,362,203307,1,0,0:0:0:0:
152,148,203474,1,2,0:0:0:0:
16,324,203642,1,0,0:0:0:0:
94,94,203809,6,0,L|234:112,1,125.549994041634,0|2,0:0|0:0,0:0:0:0:
366,8,204061,1,2,0:0:0:0:
366,8,204144,2,0,P|342:42|345:83,1,62.7749970208169,10|0,0:0|0:0,0:0:0:0:
458,203,204312,1,0,0:0:0:0:
458,203,204396,1,0,0:0:0:0:
458,203,204480,2,0,P|477:178|483:148,1,62.7749970208169,0|0,0:0|0:0,0:0:0:0:
265,44,204647,6,0,L|425:65,2,158.099994909287,2|0|8,0:0|0:0|0:0,0:0:0:0:
41,20,205150,6,0,P|12:65|9:105,1,62.7749970208169,2|0,0:0|0:0,0:0:0:0:
261,181,205318,2,0,P|249:151|229:127,1,62.7749970208169,2|0,0:0|0:0,0:0:0:0:
47,165,205485,2,0,L|22:327,1,125.549994041634,8|2,0:0|0:0,0:0:0:0:
27,289,205988,5,2,0:0:0:0:
174,193,206156,2,0,B|230:160|296:200|269:219|346:263|418:209,1,232.499988079071,8|0,0:0|0:0,0:0:0:0:
455,163,206658,1,2,0:0:0:0:
448,140,206741,1,2,0:0:0:0:
441,118,206825,1,10,0:0:0:0:
299,25,206994,6,0,L|324:136,1,92.9999952316285,0|0,0:0|0:0,0:0:0:0:
214,269,207329,2,0,L|189:380,1,92.9999952316285,2|0,0:0|0:0,0:0:0:0:
17,183,207664,1,8,0:0:0:0:
86,119,207832,6,0,P|121:150|177:155,1,104.624998626709,2|0,0:0|0:0,0:0:0:0:
358,240,208167,6,0,B|364:221|364:221|369:216|369:216|375:197,1,46.4999976158143,2|0,0:0|0:0,0:0:0:0:
425,25,208502,2,0,B|406:28|406:28|398:27|398:27|379:31,1,46.4999976158143,2|0,0:0|0:0,0:0:0:0:
205,67,208837,2,0,B|217:81|217:81|220:88|220:88|233:103,1,46.4999976158143,2|0,0:0|0:0,0:0:0:0:
341,111,209172,5,2,0:0:0:0:
