osu file format v14

[General]
AudioFilename: audio.mp3
AudioLeadIn: 0
PreviewTime: 170960
Countdown: 0
SampleSet: Soft
StackLeniency: 0.3
Mode: 0
LetterboxInBreaks: 0
EpilepsyWarning: 1
WidescreenStoryboard: 1

[Editor]
DistanceSpacing: 1.8
BeatDivisor: 4
GridSize: 32
TimelineZoom: 1.7

[Metadata]
Title:Luminous Rage -Feryquitous OrderBless Remix-
TitleUnicode:Luminous Rage -Feryquitous OrderBless Remix-
Artist:Endorfin.
ArtistUnicode:Endorfin.
Creator:Nokris
Version:Advanced
Source:
Tags:dnb horizon note aitsuki nakuru 藍月なくる sky_delta sky delta Feryquitous artcore フェリキタス
BeatmapID:1569463
BeatmapSetID:743239

[Difficulty]
HPDrainRate:3.5
CircleSize:3.5
OverallDifficulty:4.5
ApproachRate:6.5
SliderMultiplier:0.99999990463257
SliderTickRate:1

[Events]
//Background and Video events
0,0,"ragebege.jpg",0,0
//Break Periods
2,73753,76435
2,84680,91184
2,154536,170290
//Storyboard Layer 0 (Background)
//Storyboard Layer 1 (Fail)
//Storyboard Layer 2 (Pass)
//Storyboard Layer 3 (Foreground)
//Storyboard Sound Samples

[TimingPoints]
24145,335.195530726257,4,2,1,60,1,0
31854,-100,4,2,0,60,0,0
32189,-100,4,2,1,60,0,0
34536,-100,4,2,0,60,0,0
34871,-100,4,2,1,60,0,0
37217,-100,4,2,0,60,0,0
37552,-100,4,2,1,60,0,0
39899,-100,4,2,0,60,0,0
40234,-100,4,2,1,65,0,0
42580,-100,4,2,0,65,0,0
42915,-100,4,2,1,65,0,0
45597,-100,4,2,1,60,0,0
52469,-100,4,2,0,60,0,0
53642,-100,4,2,1,75,0,1
69396,-100,4,2,1,60,0,0
77776,-100,4,2,1,55,0,0
84480,-100,4,2,1,60,0,0
94871,-100,4,2,0,60,0,0
95206,-100,4,2,1,60,0,0
97552,-100,4,2,0,60,0,0
97887,-100,4,2,1,60,0,0
100234,-100,4,2,0,60,0,0
100569,-100,4,2,1,65,0,0
102915,-100,4,2,0,65,0,0
103251,-100,4,2,1,65,0,0
105932,-100,4,2,1,60,0,0
112804,-100,4,2,0,60,0,0
113977,-100,4,2,1,75,0,1
129731,-100,4,2,1,60,0,0
131407,-100,4,2,0,50,0,0
132748,-100,4,2,1,70,0,0
171631,-100,4,2,1,75,0,1
187385,-100,4,2,1,60,0,0
190401,-100,4,2,1,75,0,1
206156,-100,4,2,1,75,0,0
207832,-100,4,2,1,60,0,0
208167,-100,4,2,0,10,0,0
209172,-100,4,2,1,60,0,0

[Colours]
Combo1 : 145,145,255
Combo2 : 255,91,173
Combo3 : 255,255,155
Combo4 : 255,128,128

[HitObjects]
0,220,24144,6,0,P|37:245|111:241,1,99.999990463257,2|0,0:0|0:0,0:0:0:0:
169,202,24647,2,0,L|159:147,1,49.9999952316285,0|0,0:0|0:0,0:0:0:0:
210,77,24982,2,0,P|259:78|301:105,1,99.999990463257,2|8,0:0|0:0,0:0:0:0:
476,149,25653,5,2,0:0:0:0:
476,149,25820,2,0,P|426:150|384:177,1,99.999990463257,8|0,0:0|0:0,0:0:0:0:
295,192,26323,1,2,0:0:0:0:
295,192,26491,2,0,P|285:222|291:258,1,49.9999952316285,0|2,0:0|0:0,0:0:0:0:
342,349,26826,5,2,0:0:0:0:
342,349,27161,2,0,P|352:319|346:283,1,49.9999952316285,8|0,0:0|0:0,0:0:0:0:
285,240,27496,1,0,0:0:0:0:
195,252,27664,2,0,L|74:267,1,99.999990463257,2|8,0:0|0:0,0:0:0:0:
19,101,28334,5,2,0:0:0:0:
92,48,28502,2,0,B|117:74|117:74|203:66,1,99.999990463257,8|0,0:0|0:0,0:0:0:0:
270,56,29005,2,0,B|289:25|289:25|375:17,1,99.999990463257,2|0,0:0|0:0,0:0:0:0:
442,12,29508,6,0,P|465:55|453:108,1,99.999990463257,2|8,0:0|0:0,0:0:0:0:
383,155,30010,2,0,P|365:177|360:219,1,49.9999952316285,0|0,0:0|0:0,0:0:0:0:
400,278,30346,2,0,P|357:253|308:258,1,99.999990463257,2|8,0:0|0:0,0:0:0:0:
148,341,31016,5,2,0:0:0:0:
148,341,31184,2,0,P|105:365|56:360,1,99.999990463257,8|0,0:0|0:0,0:0:0:0:
9,284,31686,1,2,0:0:0:0:
59,209,31854,2,0,L|53:174,3,24.9999976158143,2|2|2|2,0:0|0:0|0:0|0:0,0:0:0:0:
39,156,32189,6,0,L|161:177,1,99.999990463257,6|8,0:0|0:0,0:0:0:0:
199,107,32692,2,0,P|224:124|238:147,1,49.9999952316285,0|0,0:0|0:0,0:0:0:0:
259,226,33027,2,0,P|293:209|326:139,1,99.999990463257,2|8,0:0|0:0,0:0:0:0:
444,22,33698,5,2,0:0:0:0:
444,22,33865,2,0,P|478:39|511:109,1,99.999990463257,8|0,0:0|0:0,0:0:0:0:
442,151,34368,1,2,0:0:0:0:
459,239,34536,2,0,L|467:284,3,24.9999976158143,2|2|2|2,0:0|0:0|0:0|0:0,0:0:0:0:
471,301,34871,6,0,L|349:280,1,99.999990463257,2|8,0:0|0:0,0:0:0:0:
291,243,35374,2,0,P|281:274|284:300,1,49.9999952316285,2|0,0:0|0:0,0:0:0:0:
220,356,35709,2,0,L|98:335,1,99.999990463257,2|8,0:0|0:0,0:0:0:0:
24,187,36379,5,2,0:0:0:0:
24,187,36547,2,0,L|146:208,1,99.999990463257,8|0,0:0|0:0,0:0:0:0:
211,220,37050,1,2,0:0:0:0:
287,172,37217,2,0,L|274:139,3,24.9999976158143,0|0|8|0,0:0|0:0|0:0|0:0,0:0:0:0:
259,107,37552,6,0,B|247:72|247:72|261:21,2,74.9999928474428,2|0|0,0:0|0:0|0:0,0:0:0:0:
341,69,38223,1,0,0:0:0:0:
341,69,38390,2,0,L|457:82,1,99.999990463257,2|8,0:0|0:0,0:0:0:0:
498,250,39061,5,2,0:0:0:0:
498,250,39228,2,0,L|382:263,1,99.999990463257,8|0,0:0|0:0,0:0:0:0:
340,329,39731,1,2,0:0:0:0:
252,308,39899,2,0,L|212:314,3,24.9999976158143,2|2|2|2,0:0|0:0|0:0|0:0,0:0:0:0:
184,296,40234,6,0,P|177:335|78:324,1,149.999985694886,6|2,0:0|0:0,0:0:0:0:
35,261,40904,2,0,L|61:198,1,49.9999952316285,2|8,0:0|0:0,0:0:0:0:
30,35,41407,5,0,0:0:0:0:
82,108,41575,2,0,P|155:108|211:61,1,149.999985694886,0|0,0:0|0:0,0:0:0:0:
292,20,42245,2,0,P|320:21|353:39,1,49.9999952316285,2|2,0:0|0:0,0:0:0:0:
428,46,42580,2,0,P|439:61|445:79,3,24.9999976158143,2|2|2|2,0:0|0:0|0:0|0:0,0:0:0:0:
474,97,42915,6,0,L|446:254,1,149.999985694886,2|0,0:0|0:0,0:0:0:0:
397,320,43586,2,0,L|416:372,1,49.9999952316285,2|8,0:0|0:0,0:0:0:0:
297,229,44089,5,2,0:0:0:0:
228,287,44256,2,0,B|186:269|146:284|167:302|118:317|81:297,1,149.999985694886,0|0,0:0|0:0,0:0:0:0:
0,267,44927,2,0,L|32:224,1,49.9999952316285,2|0,0:0|0:0,0:0:0:0:
87,157,45262,2,0,L|119:114,1,49.9999952316285,2|0,0:0|0:0,0:0:0:0:
176,48,45597,6,0,P|224:43|263:72,1,99.999990463257,6|8,0:0|0:0,0:0:0:0:
345,109,46100,2,0,L|329:166,1,49.9999952316285,0|0,0:0|0:0,0:0:0:0:
391,224,46435,2,0,P|439:229|478:200,1,99.999990463257,2|8,0:0|0:0,0:0:0:0:
506,26,47105,5,2,0:0:0:0:
506,26,47273,2,0,P|457:20|418:49,1,99.999990463257,8|0,0:0|0:0,0:0:0:0:
345,109,47776,2,0,L|317:222,1,99.999990463257,2|8,0:0|0:0,0:0:0:0:
255,267,48279,6,0,P|206:272|167:243,1,99.999990463257,2|8,0:0|0:0,0:0:0:0:
92,194,48781,2,0,L|110:135,1,49.9999952316285,0|0,0:0|0:0,0:0:0:0:
75,61,49117,2,0,L|181:46,1,99.999990463257,2|8,0:0|0:0,0:0:0:0:
350,14,49787,5,2,0:0:0:0:
350,14,49955,2,0,L|456:29,1,99.999990463257,8|0,0:0|0:0,0:0:0:0:
498,102,50457,2,0,P|513:150|499:196,1,99.999990463257,2|0,0:0|0:0,0:0:0:0:
490,286,50960,6,0,P|441:282|400:309,1,99.999990463257,2|8,0:0|0:0,0:0:0:0:
314,339,51463,2,0,P|287:358|250:363,1,49.9999952316285,0|0,0:0|0:0,0:0:0:0:
189,322,51798,1,2,0:0:0:0:
189,322,51966,1,0,0:0:0:0:
238,247,52133,6,0,L|218:129,1,99.999990463257,2|2,0:0|0:0,0:0:0:0:
221,148,53642,6,0,L|156:138,2,49.9999952316285,6|2|8,0:0|0:0|0:0,0:0:0:0:
301,108,54144,1,0,0:0:0:0:
301,108,54312,2,0,L|353:116,1,49.9999952316285,0|2,0:0|0:0,0:0:0:0:
426,67,54647,1,8,0:0:0:0:
483,136,54815,2,0,P|498:182|484:229,1,99.999990463257,0|2,0:0|0:0,0:0:0:0:
362,361,55485,5,0,0:0:0:0:
362,361,55653,2,0,L|306:353,1,49.9999952316285,0|2,0:0|0:0,0:0:0:0:
237,303,55988,1,8,0:0:0:0:
164,356,56156,6,0,P|148:323|160:260,1,99.999990463257,0|2,0:0|0:0,0:0:0:0:
126,178,56658,1,10,0:0:0:0:
126,178,56826,2,0,L|231:169,1,99.999990463257,0|2,0:0|0:0,0:0:0:0:
304,212,57329,1,0,0:0:0:0:
304,212,57496,2,0,P|316:164|298:118,1,99.999990463257,8|2,0:0|0:0,0:0:0:0:
153,10,58167,5,0,0:0:0:0:
153,10,58334,2,0,L|47:44,1,99.999990463257,0|0,0:0|0:0,0:0:0:0:
25,124,58837,1,0,0:0:0:0:
109,156,59005,6,0,L|166:136,2,49.9999952316285,6|2|8,0:0|0:0|0:0,0:0:0:0:
61,232,59508,1,0,0:0:0:0:
61,232,59675,2,0,L|118:252,1,49.9999952316285,0|2,0:0|0:0,0:0:0:0:
196,232,60010,1,8,0:0:0:0:
196,232,60178,1,0,0:0:0:0:
242,309,60346,6,0,P|291:311|333:285,1,99.999990463257,0|8,0:0|0:0,0:0:0:0:
391,217,60848,2,0,B|383:108,1,99.999990463257,0|2,0:0|0:0,0:0:0:0:
397,28,61351,2,0,P|364:24|339:37,1,49.9999952316285,8|0,0:0|0:0,0:0:0:0:
270,76,61686,6,0,L|201:64,1,49.9999952316285,2|2,0:0|0:0,0:0:0:0:
143,115,62022,2,0,L|74:103,1,49.9999952316285,10|0,0:0|0:0,0:0:0:0:
29,43,62357,2,0,P|8:69|13:142,1,99.999990463257,0|0,0:0|0:0,0:0:0:0:
76,191,62860,6,0,P|97:217|92:290,1,99.999990463257,8|2,0:0|0:0,0:0:0:0:
42,352,63362,2,0,P|71:369|98:370,1,49.9999952316285,8|2,0:0|0:0,0:0:0:0:
168,331,63698,1,0,0:0:0:0:
168,331,63865,2,0,L|288:348,1,99.999990463257,2|0,0:0|0:0,0:0:0:0:
352,317,64368,6,0,L|388:357,2,49.9999952316285,6|2|8,0:0|0:0|0:0,0:0:0:0:
323,231,64871,1,0,0:0:0:0:
323,231,65038,2,0,L|251:222,1,49.9999952316285,0|2,0:0|0:0,0:0:0:0:
192,183,65374,1,8,0:0:0:0:
108,215,65541,2,0,P|101:166|125:123,1,99.999990463257,0|2,0:0|0:0,0:0:0:0:
265,10,66212,5,0,0:0:0:0:
330,71,66379,2,0,L|388:67,1,49.9999952316285,0|2,0:0|0:0,0:0:0:0:
462,30,66714,1,8,0:0:0:0:
462,30,66882,2,0,P|438:73|448:121,1,99.999990463257,0|2,0:0|0:0,0:0:0:0:
469,208,67385,6,0,L|419:211,1,49.9999952316285,10|2,0:0|0:0,0:0:0:0:
329,222,67720,1,2,0:0:0:0:
329,222,67888,1,8,0:0:0:0:
154,179,68223,5,2,0:0:0:0:
154,179,68390,2,0,L|266:165,1,99.999990463257,2|10,0:0|0:0,0:0:0:0:
329,222,68893,2,0,P|346:268|330:314,1,99.999990463257,2|2,0:0|0:0,0:0:0:0:
254,362,69396,6,0,P|217:311|81:328,1,199.999980926514,8|10,0:0|0:0,0:0:0:0:
11,276,70234,2,0,P|-6:229|9:183,1,99.999990463257,0|2,0:0|0:0,0:0:0:0:
67,114,70737,2,0,L|133:128,1,49.9999952316285,0|8,0:0|0:0,0:0:0:0:
200,93,71072,6,0,L|309:112,1,99.999990463257,0|8,0:0|0:0,0:0:0:0:
360,279,71742,2,0,L|251:260,1,99.999990463257,0|8,0:0|0:0,0:0:0:0:
172,247,72245,1,0,0:0:0:0:
83,230,72413,1,6,0:0:0:0:
78,229,77776,6,0,L|62:180,1,49.9999952316285,2|0,0:0|0:0,0:0:0:0:
89,95,78111,2,0,P|138:94|178:123,1,99.999990463257,8|0,0:0|0:0,0:0:0:0:
231,195,78614,2,0,P|280:195|320:166,1,99.999990463257,2|8,0:0|0:0,0:0:0:0:
474,74,79284,5,2,0:0:0:0:
474,74,79452,2,0,P|425:74|385:103,1,99.999990463257,8|0,0:0|0:0,0:0:0:0:
320,165,79955,2,0,L|345:266,1,99.999990463257,2|8,0:0|0:0,0:0:0:0:
360,350,80457,6,0,L|297:341,1,49.9999952316285,2|0,0:0|0:0,0:0:0:0:
230,299,80793,2,0,P|187:324|138:322,1,99.999990463257,8|0,0:0|0:0,0:0:0:0:
66,269,81295,2,0,L|90:171,1,99.999990463257,2|8,0:0|0:0,0:0:0:0:
189,21,81966,5,2,0:0:0:0:
222,104,82133,2,0,L|243:171,1,49.9999952316285,8|2,0:0|0:0,0:0:0:0:
256,192,82385,12,2,84480,0:0:0:0:
461,79,92524,6,0,L|342:103,1,99.999990463257,6|8,0:0|0:0,0:0:0:0:
278,67,93027,2,0,P|256:46|225:32,1,49.9999952316285,0|0,0:0|0:0,0:0:0:0:
150,55,93362,2,0,P|108:82|59:85,1,99.999990463257,2|8,0:0|0:0,0:0:0:0:
3,257,94033,5,2,0:0:0:0:
3,257,94200,2,0,P|52:260|93:287,1,99.999990463257,8|0,0:0|0:0,0:0:0:0:
147,360,94703,1,2,0:0:0:0:
229,322,94871,2,0,L|271:305,3,24.9999976158143,2|2|2|2,0:0|0:0|0:0|0:0,0:0:0:0:
294,296,95206,6,0,L|391:318,1,99.999990463257,2|8,0:0|0:0,0:0:0:0:
471,276,95709,2,0,P|475:245|459:211,1,49.9999952316285,0|0,0:0|0:0,0:0:0:0:
396,174,96044,2,0,B|377:138|377:138|393:60,1,99.999990463257,2|8,0:0|0:0,0:0:0:0:
216,27,96714,5,2,0:0:0:0:
216,27,96882,2,0,B|235:63|235:63|219:141,1,99.999990463257,8|0,0:0|0:0,0:0:0:0:
151,176,97385,1,2,0:0:0:0:
197,252,97552,2,0,L|192:276,3,24.9999976158143,2|2|2|2,0:0|0:0|0:0|0:0,0:0:0:0:
179,320,97888,6,0,P|145:340|99:335,2,74.9999928474428,6|2|2,0:0|0:0|0:0,0:0:0:0:
268,305,98558,1,0,0:0:0:0:
268,305,98726,2,0,L|382:318,1,99.999990463257,2|8,0:0|0:0,0:0:0:0:
499,194,99396,5,2,0:0:0:0:
499,194,99564,2,0,L|385:181,1,99.999990463257,8|0,0:0|0:0,0:0:0:0:
312,202,100066,1,2,0:0:0:0:
290,114,100234,2,0,L|279:69,3,24.9999976158143,2|2|2|2,0:0|0:0|0:0|0:0,0:0:0:0:
274,45,100569,6,0,B|232:27|192:42|213:60|164:75|127:55,1,149.999985694886,6|0,0:0|0:0,0:0:0:0:
59,111,101239,2,0,L|70:169,1,49.9999952316285,2|8,0:0|0:0,0:0:0:0:
27,335,101742,5,0,0:0:0:0:
94,275,101910,2,0,P|166:268|223:315,1,149.999985694886,2|0,0:0|0:0,0:0:0:0:
302,358,102580,2,0,P|333:353|364:334,1,49.9999952316285,2|0,0:0|0:0,0:0:0:0:
402,272,102915,2,0,L|411:233,3,24.9999976158143,2|2|2|2,0:0|0:0|0:0|0:0,0:0:0:0:
443,219,103251,6,0,L|416:68,1,149.999985694886,2|0,0:0|0:0,0:0:0:0:
337,28,103921,2,0,L|325:87,1,49.9999952316285,10|2,0:0|0:0,0:0:0:0:
227,227,104424,5,8,0:0:0:0:
273,150,104591,2,0,P|216:138|141:208,1,149.999985694886,0|0,0:0|0:0,0:0:0:0:
56,185,105262,2,0,P|58:215|74:239,1,49.9999952316285,2|0,0:0|0:0,0:0:0:0:
21,309,105597,2,0,P|48:322|77:319,1,49.9999952316285,2|0,0:0|0:0,0:0:0:0:
147,364,105932,6,0,L|255:350,1,99.999990463257,6|8,0:0|0:0,0:0:0:0:
335,364,106435,2,0,P|349:339|354:303,1,49.9999952316285,0|0,0:0|0:0,0:0:0:0:
303,243,106770,2,0,L|411:229,1,99.999990463257,2|8,0:0|0:0,0:0:0:0:
508,84,107441,5,2,0:0:0:0:
508,84,107608,2,0,L|408:71,1,99.999990463257,8|0,0:0|0:0,0:0:0:0:
324,38,108111,1,2,0:0:0:0:
324,38,108279,2,0,L|260:49,1,49.9999952316285,0|8,0:0|0:0,0:0:0:0:
211,110,108614,6,0,P|169:83|121:88,1,99.999990463257,2|8,0:0|0:0,0:0:0:0:
44,135,109117,2,0,L|62:188,1,49.9999952316285,0|0,0:0|0:0,0:0:0:0:
14,260,109452,2,0,P|55:286|103:281,1,99.999990463257,2|8,0:0|0:0,0:0:0:0:
267,355,110122,5,2,0:0:0:0:
267,355,110290,2,0,P|308:328|356:333,1,99.999990463257,8|0,0:0|0:0,0:0:0:0:
438,295,110793,1,2,0:0:0:0:
425,206,110960,2,0,L|415:153,1,49.9999952316285,0|0,0:0|0:0,0:0:0:0:
479,93,111295,6,0,P|437:66|389:71,1,99.999990463257,2|8,0:0|0:0,0:0:0:0:
303,41,111798,1,0,0:0:0:0:
303,41,111966,2,0,P|282:57|252:67,1,49.9999952316285,0|2,0:0|0:0,0:0:0:0:
186,13,112301,1,0,0:0:0:0:
109,60,112469,6,0,L|139:179,1,99.999990463257,2|2,0:0|0:0,0:0:0:0:
133,156,113977,6,0,L|72:144,2,49.9999952316285,6|2|8,0:0|0:0|0:0,0:0:0:0:
207,207,114480,1,0,0:0:0:0:
207,207,114647,2,0,L|256:216,1,49.9999952316285,0|2,0:0|0:0,0:0:0:0:
341,186,114982,1,8,0:0:0:0:
403,121,115150,2,0,P|426:157|425:216,1,99.999990463257,0|2,0:0|0:0,0:0:0:0:
316,355,115820,5,0,0:0:0:0:
316,355,115988,2,0,L|262:347,1,49.9999952316285,0|2,0:0|0:0,0:0:0:0:
191,298,116323,1,8,0:0:0:0:
121,355,116491,6,0,B|102:324|102:324|91:239,1,99.999990463257,0|2,0:0|0:0,0:0:0:0:
17,213,116994,1,10,0:0:0:0:
17,213,117161,2,0,B|35:182|35:182|47:97,1,99.999990463257,2|2,0:0|0:0,0:0:0:0:
107,54,117664,1,0,0:0:0:0:
107,54,117832,2,0,L|226:64,1,99.999990463257,8|2,0:0|0:0,0:0:0:0:
382,23,118502,5,0,0:0:0:0:
382,23,118670,2,0,P|360:66|370:114,1,99.999990463257,0|0,0:0|0:0,0:0:0:0:
441,168,119172,1,0,0:0:0:0:
434,258,119340,6,0,L|490:244,2,49.9999952316285,6|2|8,0:0|0:0|0:0,0:0:0:0:
361,312,119843,1,0,0:0:0:0:
361,312,120010,2,0,L|312:299,1,49.9999952316285,0|2,0:0|0:0,0:0:0:0:
225,274,120346,1,8,0:0:0:0:
225,274,120514,1,0,0:0:0:0:
143,311,120681,6,0,P|133:279|170:204,1,99.999990463257,0|8,0:0|0:0,0:0:0:0:
80,164,121184,2,0,P|102:139|186:133,1,99.999990463257,0|2,0:0|0:0,0:0:0:0:
248,92,121686,2,0,P|273:102|305:100,1,49.9999952316285,8|0,0:0|0:0,0:0:0:0:
372,151,122022,6,0,L|383:205,1,49.9999952316285,2|2,0:0|0:0,0:0:0:0:
453,254,122357,2,0,L|464:308,1,49.9999952316285,10|2,0:0|0:0,0:0:0:0:
395,362,122692,2,0,L|275:338,1,99.999990463257,2|0,0:0|0:0,0:0:0:0:
222,291,123195,6,0,P|185:324|136:327,1,99.999990463257,8|2,0:0|0:0,0:0:0:0:
53,361,123698,2,0,L|42:306,1,49.9999952316285,8|2,0:0|0:0,0:0:0:0:
25,223,124033,1,0,0:0:0:0:
25,223,124200,2,0,L|48:105,1,99.999990463257,2|0,0:0|0:0,0:0:0:0:
87,45,124703,6,0,P|64:27|33:19,2,49.9999952316285,6|2|8,0:0|0:0|0:0,0:0:0:0:
156,102,125206,1,0,0:0:0:0:
156,102,125374,2,0,P|179:93|198:77,1,49.9999952316285,0|2,0:0|0:0,0:0:0:0:
261,12,125709,1,8,0:0:0:0:
335,61,125876,2,0,B|351:110|351:110|334:155,1,99.999990463257,0|2,0:0|0:0,0:0:0:0:
252,316,126547,5,0,0:0:0:0:
331,357,126714,2,0,L|389:345,1,49.9999952316285,0|2,0:0|0:0,0:0:0:0:
467,372,127050,1,8,0:0:0:0:
495,286,127217,2,0,P|468:254|396:246,1,99.999990463257,0|2,0:0|0:0,0:0:0:0:
323,228,127720,6,0,L|274:238,1,49.9999952316285,10|2,0:0|0:0,0:0:0:0:
186,258,128055,1,2,0:0:0:0:
186,258,128223,1,2,0:0:0:0:
24,177,128558,5,8,0:0:0:0:
96,123,128726,2,0,L|205:152,1,99.999990463257,2|8,0:0|0:0,0:0:0:0:
289,115,129228,2,0,P|306:77|291:16,1,99.999990463257,2|2,0:0|0:0,0:0:0:0:
201,63,129731,6,0,L|231:260,1,199.999980926514,8|2,0:0|0:0,0:0:0:0:
176,332,130569,2,0,P|220:353|269:345,1,99.999990463257,2|2,0:0|0:0,0:0:0:0:
345,297,131072,2,0,P|366:282|409:280,1,49.9999952316285,0|8,0:0|0:0,0:0:0:0:
476,300,131407,5,2,0:0:0:0:
476,300,131742,1,2,0:0:0:0:
506,122,132077,5,2,0:0:0:0:
506,122,132412,1,2,0:0:0:0:
348,32,132748,6,0,P|328:46|304:53,1,49.9999952316285,6|2,0:0|0:0,0:0:0:0:
239,115,133083,2,0,L|125:102,1,99.999990463257,8|2,0:0|0:0,0:0:0:0:
62,150,133586,1,2,0:0:0:0:
62,150,133753,2,0,L|71:215,1,49.9999952316285,8|0,0:0|0:0,0:0:0:0:
26,279,134089,5,2,0:0:0:0:
82,348,134256,1,2,0:0:0:0:
161,305,134424,2,0,P|183:315|207:321,1,49.9999952316285,8|0,0:0|0:0,0:0:0:0:
280,374,134759,2,0,L|254:218,1,149.999985694886,2|2,0:0|0:0,0:0:0:0:
303,149,135429,6,0,L|363:163,2,49.9999952316285,2|2|8,0:0|0:0|0:0,0:0:0:0:
214,133,135932,1,0,0:0:0:0:
125,113,136100,2,0,L|65:99,2,49.9999952316285,2|0|8,0:0|0:0|0:0,0:0:0:0:
214,133,136603,1,0,0:0:0:0:
271,64,136770,6,0,L|378:90,1,99.999990463257,2|8,0:0|0:0,0:0:0:0:
454,61,137273,1,0,0:0:0:0:
454,61,137441,2,0,B|469:110|469:110|452:172,1,99.999990463257,2|0,0:0|0:0,0:0:0:0:
369,178,137943,6,0,B|354:227|354:227|371:289,1,99.999990463257,0|2,0:0|0:0,0:0:0:0:
321,351,138446,2,0,L|257:338,1,49.9999952316285,8|2,0:0|0:0,0:0:0:0:
185,314,138781,2,0,P|162:330|142:338,2,49.9999952316285,2|0|8,0:0|0:0|0:0,0:0:0:0:
238,241,139284,1,0,0:0:0:0:
136,92,139619,5,2,0:0:0:0:
213,46,139787,2,0,P|236:55|256:70,1,49.9999952316285,8|2,0:0|0:0,0:0:0:0:
301,148,140122,1,2,0:0:0:0:
301,148,140290,1,2,0:0:0:0:
381,187,140457,2,0,P|404:177|424:162,1,49.9999952316285,8|0,0:0|0:0,0:0:0:0:
510,133,140793,6,0,L|488:251,1,99.999990463257,2|10,0:0|0:0,0:0:0:0:
472,318,141295,1,2,0:0:0:0:
472,318,141463,2,0,P|433:349|384:351,1,99.999990463257,2|10,0:0|0:0,0:0:0:0:
309,299,141966,1,0,0:0:0:0:
235,349,142133,6,0,P|185:347|147:316,1,99.999990463257,2|8,0:0|0:0,0:0:0:0:
96,242,142636,1,2,0:0:0:0:
96,242,142804,2,0,L|149:222,1,49.9999952316285,2|8,0:0|0:0,0:0:0:0:
227,192,143139,2,0,L|280:172,1,49.9999952316285,2|0,0:0|0:0,0:0:0:0:
321,97,143474,6,0,P|349:117|369:146,1,49.9999952316285,6|2,0:0|0:0,0:0:0:0:
445,153,143809,2,0,L|420:273,1,99.999990463257,8|2,0:0|0:0,0:0:0:0:
404,338,144312,1,2,0:0:0:0:
335,279,144480,2,0,P|309:296|273:304,1,49.9999952316285,8|0,0:0|0:0,0:0:0:0:
208,265,144815,5,2,0:0:0:0:
135,318,144982,1,2,0:0:0:0:
81,245,145150,2,0,P|70:222|65:198,1,49.9999952316285,8|0,0:0|0:0,0:0:0:0:
3,132,145485,2,0,L|163:162,1,149.999985694886,2|2,0:0|0:0,0:0:0:0:
224,106,146156,6,0,L|206:51,2,49.9999952316285,2|2|10,0:0|0:0|0:0,0:0:0:0:
252,190,146658,1,2,0:0:0:0:
283,274,146826,2,0,L|301:329,2,49.9999952316285,0|2|8,0:0|0:0|0:0,0:0:0:0:
252,190,147329,1,2,0:0:0:0:
340,206,147496,6,0,L|453:231,1,99.999990463257,2|10,0:0|0:0,0:0:0:0:
507,170,147999,1,2,0:0:0:0:
507,170,148167,2,0,B|519:120|519:120|502:61,1,99.999990463257,2|8,0:0|0:0,0:0:0:0:
432,20,148670,6,0,L|319:45,1,99.999990463257,0|0,0:0|0:0,0:0:0:0:
260,92,149172,2,0,L|198:108,1,49.9999952316285,8|0,0:0|0:0,0:0:0:0:
148,170,149508,2,0,L|99:157,2,49.9999952316285,2|2|8,0:0|0:0|0:0,0:0:0:0:
235,191,150010,1,0,0:0:0:0:
324,347,150346,5,2,0:0:0:0:
397,296,150513,2,0,P|407:271|405:235,1,49.9999952316285,8|2,0:0|0:0,0:0:0:0:
344,184,150848,1,2,0:0:0:0:
344,184,151016,1,2,0:0:0:0:
286,114,151184,2,0,P|287:89|296:66,1,49.9999952316285,8|0,0:0|0:0,0:0:0:0:
368,11,151519,6,0,L|484:36,1,99.999990463257,2|0,0:0|0:0,0:0:0:0:
490,118,152022,1,2,0:0:0:0:
490,118,152190,2,0,B|502:168|502:168|485:227,1,99.999990463257,2|0,0:0|0:0,0:0:0:0:
457,298,152692,1,2,0:0:0:0:
375,260,152860,6,0,L|268:294,1,99.999990463257,2|8,0:0|0:0,0:0:0:0:
209,345,153362,1,2,0:0:0:0:
132,297,153530,2,0,P|123:272|124:239,1,49.9999952316285,0|2,0:0|0:0,0:0:0:0:
48,197,153865,2,0,P|65:176|94:161,1,49.9999952316285,0|0,0:0|0:0,0:0:0:0:
174,173,154200,5,6,0:0:0:0:
174,173,171631,6,0,P|148:182|111:181,2,49.9999952316285,6|2|8,0:0|0:0|0:0,0:0:0:0:
232,105,172133,1,0,0:0:0:0:
232,105,172301,2,0,P|258:96|295:97,1,49.9999952316285,0|2,0:0|0:0,0:0:0:0:
360,135,172636,1,8,0:0:0:0:
430,78,172804,2,0,P|449:115|437:181,1,99.999990463257,0|2,0:0|0:0,0:0:0:0:
366,334,173474,5,0,0:0:0:0:
366,334,173642,2,0,L|314:349,1,49.9999952316285,0|2,0:0|0:0,0:0:0:0:
234,314,173977,1,8,0:0:0:0:
165,371,174144,6,0,L|51:337,1,99.999990463257,0|2,0:0|0:0,0:0:0:0:
7,276,174647,1,10,0:0:0:0:
7,276,174815,2,0,P|-7:230|6:182,1,99.999990463257,0|2,0:0|0:0,0:0:0:0:
62,111,175318,1,0,0:0:0:0:
62,111,175486,2,0,P|99:142|148:147,1,99.999990463257,8|0,0:0|0:0,0:0:0:0:
282,26,176156,5,0,0:0:0:0:
282,26,176323,2,0,P|232:30|195:62,1,99.999990463257,0|0,0:0|0:0,0:0:0:0:
267,115,176826,1,0,0:0:0:0:
242,201,176994,6,0,P|219:211|185:219,2,49.9999952316285,6|2|8,0:0|0:0|0:0,0:0:0:0:
328,176,177496,1,0,0:0:0:0:
328,176,177664,2,0,L|379:187,1,49.9999952316285,0|2,0:0|0:0,0:0:0:0:
432,261,177999,1,8,0:0:0:0:
432,261,178167,1,0,0:0:0:0:
399,344,178334,6,0,L|297:325,1,99.999990463257,0|8,0:0|0:0,0:0:0:0:
210,325,178837,2,0,L|111:343,1,99.999990463257,0|2,0:0|0:0,0:0:0:0:
29,305,179340,2,0,L|57:249,1,49.9999952316285,8|0,0:0|0:0,0:0:0:0:
29,172,179675,6,0,P|57:162|81:146,1,49.9999952316285,2|2,0:0|0:0,0:0:0:0:
139,89,180010,2,0,P|167:99|191:115,1,49.9999952316285,10|0,0:0|0:0,0:0:0:0:
248,173,180346,2,0,P|296:165|333:132,1,99.999990463257,2|2,0:0|0:0,0:0:0:0:
326,42,180848,6,0,P|374:49|411:82,1,99.999990463257,8|2,0:0|0:0,0:0:0:0:
474,146,181351,2,0,L|460:203,1,49.9999952316285,8|0,0:0|0:0,0:0:0:0:
497,277,181686,1,0,0:0:0:0:
497,277,181854,2,0,P|452:299|403:294,1,99.999990463257,0|0,0:0|0:0,0:0:0:0:
320,328,182357,6,0,L|334:385,2,49.9999952316285,6|2|8,0:0|0:0|0:0,0:0:0:0:
299,240,182860,1,0,0:0:0:0:
299,240,183027,2,0,L|285:183,1,49.9999952316285,0|2,0:0|0:0,0:0:0:0:
343,120,183362,1,8,0:0:0:0:
285,50,183530,2,0,P|235:47|194:73,1,99.999990463257,0|2,0:0|0:0,0:0:0:0:
32,151,184200,5,0,0:0:0:0:
92,217,184368,2,0,P|81:239|65:258,1,49.9999952316285,0|2,0:0|0:0,0:0:0:0:
0,321,184703,1,8,0:0:0:0:
74,371,184871,2,0,L|180:353,1,99.999990463257,0|2,0:0|0:0,0:0:0:0:
235,290,185374,6,0,L|299:301,1,49.9999952316285,10|0,0:0|0:0,0:0:0:0:
373,314,185709,1,2,0:0:0:0:
373,314,185876,1,8,0:0:0:0:
491,177,186212,5,2,0:0:0:0:
418,123,186379,2,0,L|316:142,1,99.999990463257,2|0,0:0|0:0,0:0:0:0:
252,201,186882,2,0,L|150:182,1,99.999990463257,2|2,0:0|0:0,0:0:0:0:
107,105,187385,6,0,B|77:153|100:206|118:190|144:249|107:298,1,199.999980926514,8|2,0:0|0:0,0:0:0:0:
172,358,188223,2,0,L|270:339,1,99.999990463257,0|2,0:0|0:0,0:0:0:0:
310,258,188726,2,0,P|341:278|358:301,1,49.9999952316285,0|8,0:0|0:0,0:0:0:0:
404,359,189061,5,0,0:0:0:0:
404,359,190401,6,0,B|427:240,1,99.999990463257,6|8,0:0|0:0,0:0:0:0:
489,199,190904,1,0,0:0:0:0:
440,123,191072,2,0,P|397:114|341:148,1,99.999990463257,0|8,0:0|0:0,0:0:0:0:
259,294,191742,6,0,P|216:303|160:269,1,99.999990463257,0|8,0:0|0:0,0:0:0:0:
81,253,192245,1,0,0:0:0:0:
81,253,192413,2,0,L|103:204,1,49.9999952316285,0|2,0:0|0:0,0:0:0:0:
142,126,192748,2,0,L|164:77,1,49.9999952316285,8|0,0:0|0:0,0:0:0:0:
232,23,193083,6,0,B|285:14|271:50|341:34,1,99.999990463257,0|10,0:0|0:0,0:0:0:0:
399,92,193586,1,0,0:0:0:0:
475,45,193753,2,0,P|489:92|475:139,1,99.999990463257,0|0,0:0|0:0,0:0:0:0:
511,316,194424,6,0,L|403:294,1,99.999990463257,0|8,0:0|0:0,0:0:0:0:
337,246,194927,1,2,0:0:0:0:
337,246,195094,2,0,L|280:269,1,49.9999952316285,0|2,0:0|0:0,0:0:0:0:
209,305,195429,2,0,L|152:328,1,49.9999952316285,0|2,0:0|0:0,0:0:0:0:
78,357,195765,6,0,B|62:312|62:312|77:255,1,99.999990463257,6|8,0:0|0:0,0:0:0:0:
24,187,196267,1,0,0:0:0:0:
82,118,196435,2,0,L|190:140,1,99.999990463257,0|8,0:0|0:0,0:0:0:0:
328,36,197105,6,0,P|374:28|426:67,1,99.999990463257,0|8,0:0|0:0,0:0:0:0:
490,107,197608,1,0,0:0:0:0:
490,107,197776,2,0,L|467:163,1,49.9999952316285,0|2,0:0|0:0,0:0:0:0:
437,237,198111,2,0,L|414:293,1,49.9999952316285,8|0,0:0|0:0,0:0:0:0:
383,366,198446,6,0,B|351:372|351:372|272:336,1,99.999990463257,0|10,0:0|0:0,0:0:0:0:
210,301,198949,1,0,0:0:0:0:
132,254,199117,2,0,P|117:295|135:351,1,99.999990463257,0|0,0:0|0:0,0:0:0:0:
288,258,199787,6,0,P|302:216|285:161,1,99.999990463257,0|10,0:0|0:0,0:0:0:0:
211,115,200290,2,0,L|106:134,2,99.999990463257,0|0|0,0:0|0:0|0:0,0:0:0:0:
275,51,201128,6,0,L|373:68,1,99.999990463257,6|8,0:0|0:0,0:0:0:0:
454,28,201631,1,0,0:0:0:0:
488,110,201798,2,0,B|508:169|471:160|489:213,1,99.999990463257,0|8,0:0|0:0,0:0:0:0:
393,361,202469,6,0,L|294:343,1,99.999990463257,0|8,0:0|0:0,0:0:0:0:
205,356,202971,1,0,0:0:0:0:
205,356,203139,2,0,L|188:284,1,49.9999952316285,2|0,0:0|0:0,0:0:0:0:
170,220,203474,2,0,L|153:148,1,49.9999952316285,2|0,0:0|0:0,0:0:0:0:
139,83,203809,6,0,L|242:103,1,99.999990463257,0|10,0:0|0:0,0:0:0:0:
322,72,204312,1,0,0:0:0:0:
398,119,204480,2,0,B|412:73|412:73|391:11,1,99.999990463257,0|0,0:0|0:0,0:0:0:0:
237,102,205150,6,0,B|223:148|223:148|244:210,1,99.999990463257,2|8,0:0|0:0,0:0:0:0:
179,267,205653,2,0,L|64:249,1,99.999990463257,2|2,0:0|0:0,0:0:0:0:
41,167,206156,6,0,L|242:197,1,199.999980926514,8|0,0:0|0:0,0:0:0:0:
304,257,206994,2,0,P|344:246|386:199,2,99.999990463257,0|2|8,0:0|0:0|0:0,0:0:0:0:
238,196,207832,6,0,L|252:129,1,49.9999952316285,2|0,0:0|0:0,0:0:0:0:
160,127,208167,2,0,P|128:138|98:163,1,49.9999952316285,2|0,0:0|0:0,0:0:0:0:
41,96,208502,2,0,P|47:62|40:24,1,49.9999952316285,2|0,0:0|0:0,0:0:0:0:
129,11,208837,2,0,P|154:33|191:46,1,49.9999952316285,2|0,0:0|0:0,0:0:0:0:
258,31,209172,5,2,0:0:0:0:
