osu file format v14

[General]
AudioFilename: audio.mp3
AudioLeadIn: 0
PreviewTime: 178912
Countdown: 0
SampleSet: Soft
StackLeniency: 0.3
Mode: 0
LetterboxInBreaks: 0
WidescreenStoryboard: 0

[Editor]
Bookmarks: 11412,22641,30685,38730,68227,81706,92432,97627,140197,180756,197348,198354,209080
DistanceSpacing: 0.2
BeatDivisor: 4
GridSize: 4
TimelineZoom: 2.199999

[Metadata]
Title:Luminous Rage
TitleUnicode:Luminous Rage
Artist:Endorfin.
ArtistUnicode:Endorfin.
Creator:Kibbleru
Version:toybot's Extra
Source:
Tags:dnb Horizon Note Aitsuki Nakuru 藍月なくる sky_delta sky delta toybot doormat akitoshi hazu- mikii
BeatmapID:1153826
BeatmapSetID:492845

[Difficulty]
HPDrainRate:6
CircleSize:4.5
OverallDifficulty:8
ApproachRate:9.2
SliderMultiplier:1.6
SliderTickRate:1

[Events]
//Background and Video events
0,0,"689004.jpg",0,0
//Break Periods
2,162184,171136
//Storyboard Layer 0 (Background)
//Storyboard Layer 1 (Fail)
//Storyboard Layer 2 (Pass)
//Storyboard Layer 3 (Foreground)
//Storyboard Sound Samples

[TimingPoints]
-152,335.195530726257,4,2,1,60,1,0
1188,-80,4,2,1,60,0,0
1859,-111.111111111111,4,2,1,60,0,0
3870,-80,4,2,1,60,0,0
4205,-111.111111111111,4,2,1,60,0,0
5713,-133.333333333333,4,2,1,60,0,0
6216,-66.6666666666667,4,2,1,60,0,0
6551,-100,4,2,2,60,0,0
7725,-200,4,2,2,60,0,0
8060,-100,4,2,2,60,0,0
8395,-66.6666666666667,4,2,2,60,0,0
8730,-100,4,2,2,60,0,0
10406,-133.333333333333,4,2,2,60,0,0
11077,-100,4,2,2,60,0,0
11579,-71.4285714285714,4,2,2,60,0,0
11915,-100,4,2,2,70,0,0
13758,-80,4,2,2,70,0,0
14596,-100,4,2,2,70,0,0
14680,-100,4,2,1,70,0,0
14931,-100,4,2,2,70,0,0
15015,-100,4,2,1,70,0,0
15266,-100,4,2,2,70,0,0
16607,-100,4,2,1,70,0,0
17278,-100,4,2,2,70,0,0
19121,-80,4,2,2,70,0,0
19959,-100,4,2,2,70,0,0
20043,-100,4,2,1,70,0,0
20294,-100,4,2,2,70,0,0
20378,-100,4,2,1,70,0,0
20630,-100,4,2,2,70,0,0
21132,-66.6666666666667,4,2,2,70,0,0
21803,-133.333333333333,4,2,1,50,0,0
22306,-200,4,2,1,50,0,0
22976,-125,4,2,1,50,0,0
27334,-83.3333333333333,4,2,1,50,0,0
27669,-66.6666666666667,4,2,1,50,0,0
27836,-100,4,2,2,70,0,0
30015,-80,4,2,1,60,0,0
30266,-90.9090909090909,4,2,1,60,0,0
30518,-100,4,2,1,60,0,0
35881,-100,4,2,2,70,0,0
37892,-80,4,2,1,60,0,0
38227,-66.6666666666667,4,2,1,60,0,0
38730,-111.111111111111,4,2,1,60,0,0
39401,-80,4,2,1,60,0,0
39903,-111.111111111111,4,2,1,60,0,0
41412,-80,4,2,1,60,0,0
43255,-111.111111111111,4,2,1,60,0,0
43758,-66.6666666666667,4,2,1,60,0,0
44093,-100,4,2,1,60,0,0
44764,-80,4,2,1,60,0,0
45266,-100,4,2,1,60,0,0
46775,-133.333333333333,4,2,1,50,0,0
46859,-133.333333333333,4,2,0,50,0,0
48786,-200,4,2,1,50,0,0
49121,-80,4,2,1,50,0,0
49456,-80,4,2,1,70,0,0
51635,-80,4,2,2,70,0,0
51970,-90.9090909090909,4,2,1,80,0,1
60183,-80,4,2,1,80,0,1
62026,-80,4,2,2,80,0,1
62361,-80,4,2,1,80,0,1
62864,-90.9090909090909,4,2,1,80,0,1
67892,-66.6666666666667,4,2,1,80,0,1
68227,-133.333333333333,4,2,1,80,0,1
68898,-117.647058823529,4,2,1,80,0,1
69568,-117.647058823529,4,2,1,80,0,0
70239,-100,4,2,1,60,0,0
70574,-66.6666666666667,4,2,1,60,0,1
70909,-133.333333333333,4,2,1,60,0,0
75937,-80,4,2,1,60,0,0
76272,-133.333333333333,4,2,1,60,0,0
80294,340.909090909091,4,2,1,60,1,0
80975,365.853658536585,4,2,1,60,1,0
81706,335.195530726257,4,2,2,70,1,0
84052,-66.6666666666667,4,2,2,70,0,0
84387,-100,4,2,2,70,0,0
85560,-80,4,2,2,70,0,0
86231,-133.333333333333,4,2,2,70,0,0
87069,-100,4,2,2,70,0,0
89415,-80,4,2,2,70,0,0
89918,-100,4,2,2,70,0,0
90421,-133.333333333333,4,2,2,70,0,0
90756,-100,4,2,2,70,0,0
91510,-100,4,2,1,70,0,0
91761,-200,4,2,1,70,0,0
92432,-133.333333333333,4,2,1,50,0,0
96957,-66.6666666666667,4,2,1,50,0,0
97627,-100,4,2,2,70,0,0
99303,-133.333333333333,4,2,2,70,0,0
99638,-100,4,2,1,60,0,0
105672,-80,4,2,2,70,0,0
107683,-80,4,2,1,60,0,0
108018,-66.6666666666667,4,2,1,60,0,0
108521,-100,4,2,1,60,0,0
109192,-80,4,2,1,60,0,0
109694,-111.111111111111,4,2,1,60,0,0
111203,-100,4,2,1,60,0,0
111873,-80,4,2,1,60,0,0
112376,-100,4,2,1,60,0,0
114555,-80,4,2,1,60,0,0
116566,-200,4,2,1,50,0,0
116733,-200,4,2,0,50,0,0
118577,-200,4,2,1,60,0,0
118912,-80,4,2,0,60,0,0
119247,-80,4,2,1,70,0,0
121259,-66.6666666666667,4,2,1,70,0,0
121426,-66.6666666666667,4,2,2,70,0,0
121761,-90.9090909090909,4,2,1,80,0,1
129974,-80,4,2,1,80,0,1
131817,-80,4,2,2,80,0,1
131985,-80,4,2,1,80,0,1
132655,-90.9090909090909,4,2,1,80,0,1
138018,-133.333333333333,4,2,1,80,0,0
138689,-117.647058823529,4,2,1,80,0,0
140197,-117.647058823529,4,2,1,70,0,0
140365,-80,4,2,1,70,0,0
140700,-100,4,2,1,70,0,0
147907,-90.9090909090909,4,2,1,70,0,0
149918,-80,4,2,1,70,0,0
151259,-90.9090909090909,4,2,1,70,0,0
151929,-90.9090909090909,4,2,1,60,0,0
154108,-80,4,2,1,70,0,0
154192,-80,4,2,3,10,0,0
154359,-80,4,2,1,70,0,0
154443,-80,4,2,3,10,0,0
154611,-80,4,2,1,70,0,0
154694,-80,4,2,3,10,0,0
154778,-80,4,2,1,70,0,0
154862,-80,4,2,3,10,0,0
155030,-80,4,2,1,70,0,0
155113,-80,4,2,3,10,0,0
155281,-80,4,2,1,70,0,0
155365,-80,4,2,3,10,0,0
155449,-80,4,2,1,70,0,0
156789,-90.9090909090909,4,2,1,70,0,0
159471,-90.9090909090909,4,2,1,80,0,0
160644,-66.6666666666667,4,2,1,80,0,0
161482,-100,4,2,1,80,0,0
172879,-100,4,2,1,50,0,0
177404,-90.9090909090909,4,2,1,50,0,0
178074,-80,4,2,1,50,0,0
178242,-200,4,2,1,50,0,0
179080,-100,4,2,1,70,0,0
179918,-80,4,2,1,70,0,0
180253,-66.6666666666667,4,2,1,70,0,0
180756,-90.9090909090909,4,2,1,80,0,1
187627,-80,4,2,1,80,0,1
189471,-80,4,2,2,80,0,1
190141,-200,4,2,1,80,0,0
190644,-80,4,2,1,80,0,1
196342,-66.6666666666667,4,2,1,80,0,1
196678,-66.6666666666667,4,2,1,60,0,1
197013,-100,4,2,1,60,0,1
198354,-100,4,2,2,70,0,0
200197,-80,4,2,2,70,0,0
201119,-100,4,2,1,70,0,0
201370,-100,4,2,2,70,0,0
201454,-100,4,2,1,70,0,0
201706,-100,4,2,2,70,0,0
203046,-100,4,2,1,70,0,0
203381,-80,4,2,1,70,0,0
203717,-100,4,2,2,70,0,0
205560,-80,4,2,2,70,0,0
206398,-100,4,2,2,70,0,0
208242,-74.0740740740741,4,2,2,70,0,0
208577,-100,4,2,2,60,0,0
209080,-200,4,2,1,50,0,0
211259,-133.333333333333,4,2,1,50,0,0
211426,-100,4,2,1,50,0,0
211594,-66.6666666666667,4,2,1,50,0,0
211761,-100,4,2,1,60,0,0
212264,-133.333333333333,4,2,1,60,0,0

[Colours]
Combo1 : 208,208,208
Combo2 : 151,201,255
Combo3 : 95,54,235

[HitObjects]
196,184,518,6,0,B|239:155|256:64|256:64|264:158|342:202,1,280,8|0,0:1|0:1,0:0:0:0:
348,108,1188,6,0,P|336:84|336:36,1,50,12|0,0:1|0:0,0:0:0:0:
179,61,1356,2,0,P|175:85|164:108,1,50,2|0,0:2|0:0,0:0:0:0:
256,244,1523,1,2,0:0:0:0:
256,244,1859,5,0,0:0:0:0:
456,161,2026,2,0,B|384:149|400:201|312:185,1,143.999995605469,2|2,0:0|0:0,0:0:0:0:
380,296,2529,5,0,0:0:0:0:
456,332,2697,2,0,P|464:288|452:248,1,71.9999978027344,2|0,0:0|0:0,0:0:0:0:
350,37,3032,2,0,P|342:81|354:121,1,71.9999978027344,0|0,0:1|0:0,0:0:0:0:
424,72,3367,5,8,0:1:0:0:
260,92,3535,1,2,0:1:0:0:
356,200,3702,1,2,0:1:0:0:
364,24,3870,6,0,P|336:29|280:36,1,50,12|0,0:1|0:0,0:0:0:0:
172,180,4037,2,0,P|199:174|256:168,1,50,12|0,0:1|0:0,0:0:0:0:
347,107,4205,6,0,B|263:127|291:67|179:91,1,143.999995605469,12|2,0:1|0:0,0:0:0:0:
300,212,4708,2,0,P|308:272|296:312,1,71.9999978027344,0|0,0:0|0:0,0:0:0:0:
144,264,5043,6,0,L|232:276,1,71.9999978027344,2|0,0:0|0:0,0:0:0:0:
55,292,5378,1,2,0:0:0:0:
51,268,5462,1,2,0:0:0:0:
54,242,5546,1,2,0:0:0:0:
156,80,5713,6,0,B|176:104|180:136|180:136|188:108|228:80,1,120.000004577637,0|8,0:1|0:1,0:0:0:0:
95,141,6216,6,0,B|138:147|138:147|159:137|159:137|190:162|190:162|221:153|221:153|271:162,1,180.000006866455,0|2,0:0|0:0,0:0:0:0:
261,160,6551,5,12,0:1:0:0:
216,244,6719,1,0,0:0:0:0:
348,204,6887,2,0,B|360:168|360:168|348:108,1,80,10|0,0:0|0:1,0:0:0:0:
240,28,7222,1,0,0:0:0:0:
268,164,7389,1,0,0:2:0:0:
268,164,7473,1,0,0:0:0:0:
268,164,7557,1,8,0:0:0:0:
420,60,7725,6,0,L|364:52,1,40,10|0,0:1|0:0,0:0:0:0:
188,175,8060,6,0,L|272:163,1,80,8|8,0:1|0:0,0:0:0:0:
480,246,8395,6,0,B|428:254|380:218|380:218|356:262|296:278,1,180.000006866455,2|0,0:1|0:1,0:0:0:0:
247,288,8730,2,0,P|244:265|254:224,1,40,10|0,0:1|0:0,0:0:0:0:
268,164,8898,1,8,0:0:0:0:
300,360,9065,1,2,0:1:0:0:
164,216,9233,6,0,P|156:272|172:324,1,80,8|8,0:1|0:1,0:0:0:0:
232,156,9568,1,10,0:1:0:0:
76,252,9736,1,8,0:1:0:0:
255,326,9903,1,2,0:1:0:0:
255,326,9987,1,0,0:0:0:0:
255,326,10071,2,0,L|243:274,1,40,8|8,0:1|0:1,0:0:0:0:
223,117,10239,2,0,L|235:169,1,40,8|0,0:1|0:0,0:0:0:0:
312,220,10406,6,0,B|356:216|356:216|379:218|379:218|392:214|392:214|439:209,1,120.000004577637,0|0,0:0|0:0,0:0:0:0:
505,198,10909,1,0,0:0:0:0:
430,209,11077,6,0,L|240:196,1,160,0|10,0:0|0:1,0:0:0:0:
200,164,11496,1,0,0:0:0:0:
200,164,11579,6,0,P|192:196|212:252,1,55.9999982910157,2|0,0:1|0:0,0:0:0:0:
340,124,11747,2,0,P|342:96|334:69,1,55.9999982910157,10|0,0:1|0:0,0:0:0:0:
112,112,11915,6,0,P|92:164|92:216,1,80,12|2,0:1|0:1,0:0:0:0:
116,264,12166,1,0,0:0:0:0:
116,264,12250,1,8,0:0:0:0:
4,160,12417,1,0,0:0:0:0:
200,164,12585,2,0,P|194:121|188:64,1,80,10|0,0:1|0:0,0:0:0:0:
280,140,12920,1,10,0:0:0:0:
112,112,13088,6,0,P|72:112|32:132,1,80,2|8,0:1|0:1,0:0:0:0:
180,252,13423,2,0,P|220:252|260:232,1,80,2|8,0:1|0:0,0:0:0:0:
200,164,13758,6,0,B|152:176|152:176|116:208|116:208|56:220,1,150,2|0,0:1|0:1,0:0:0:0:
48,216,14093,2,0,L|60:284,1,50,0|0,0:1|0:0,0:0:0:0:
72,340,14261,1,10,0:0:0:0:
32,132,14429,1,0,0:0:0:0:
160,272,14596,5,10,0:1:0:0:
188,280,14680,1,2,0:1:0:0:
216,280,14764,2,0,P|248:272|280:252,1,40,2|2,0:0|0:0,0:0:0:0:
320,328,14931,5,10,0:1:0:0:
341,294,15014,1,0,0:1:0:0:
376,276,15098,1,2,0:0:0:0:
415,277,15182,1,2,0:1:0:0:
449,298,15266,6,0,P|442:257|436:204,1,80,10|0,0:1|0:0,0:0:0:0:
508,360,15602,1,10,0:0:0:0:
460,136,15769,6,0,B|372:124|396:188|284:172,1,160,2|2,0:1|0:1,0:0:0:0:
236,152,16188,1,0,0:0:0:0:
236,152,16272,1,8,0:0:0:0:
348,32,16440,2,0,L|340:100,1,40,0|0,0:1|0:1,0:0:0:0:
220,268,16607,5,10,0:0:0:0:
230,243,16690,1,2,0:0:0:0:
231,217,16774,1,2,0:0:0:0:
221,193,16858,1,2,0:1:0:0:
260,128,16942,5,12,0:0:0:0:
228,104,17025,1,2,0:0:0:0:
213,68,17109,1,2,0:0:0:0:
221,29,17193,1,2,0:1:0:0:
248,1,17278,6,0,P|289:5|335:7,1,80,12|2,0:0|0:1,0:0:0:0:
156,128,17613,2,0,P|114:123|68:121,1,80,8|0,0:0|0:0,0:0:0:0:
76,121,17864,1,0,0:0:0:0:
76,121,17948,1,10,0:1:0:0:
128,44,18116,1,0,0:0:0:0:
116,216,18283,1,10,0:0:0:0:
240,76,18451,6,0,P|244:132|256:176,1,80,2|8,0:1|0:1,0:0:0:0:
112,304,18786,2,0,P|108:248|96:204,1,80,2|8,0:1|0:0,0:0:0:0:
320,180,19121,6,0,P|252:192|220:272,1,150,2|0,0:1|0:1,0:0:0:0:
200,332,19456,2,0,P|236:332|280:312,1,50,0|0,0:1|0:0,0:0:0:0:
324,308,19624,1,10,0:0:0:0:
148,212,19792,1,0,0:0:0:0:
272,108,19959,5,10,0:1:0:0:
268,136,20043,1,0,0:1:0:0:
264,164,20127,2,0,L|260:216,1,40,2|2,0:0|0:0,0:0:0:0:
408,136,20294,1,10,0:1:0:0:
400,120,20378,1,0,0:1:0:0:
392,104,20462,6,0,L|384:164,1,40,2|0,0:0|0:0,0:0:0:0:
296,28,20630,2,0,P|330:25|392:16,1,80,10|8,0:0|0:1,0:0:0:0:
452,0,20881,1,0,0:0:0:0:
452,0,20965,1,10,0:0:0:0:
472,216,21132,6,0,B|368:196|408:276|280:256,1,180.000006866455,6|0,0:0|0:0,0:0:0:0:
188,204,21468,2,0,P|224:204|264:196,1,60.0000022888184,8|0,0:1|0:0,0:0:0:0:
344,340,21635,2,0,P|308:340|268:348,1,60.0000022888184,10|0,0:2|0:0,0:0:0:0:
228,112,21803,6,0,P|285:116|360:120,1,120.000004577637,8|0,0:1|0:0,0:0:0:0:
347,119,22306,6,0,L|305:124|263:129,1,80,8|8,0:0|0:1,0:0:0:0:
267,128,22976,6,0,P|255:172|263:212,1,64,10|0,0:1|0:0,0:0:0:0:
239,323,23311,2,0,P|238:291|228:261,1,64,10|0,0:1|0:0,0:0:0:0:
167,211,23646,1,8,0:1:0:0:
328,248,23814,6,0,B|404:256|380:220|456:227,1,128,2|2,0:0|0:0,0:0:0:0:
451,226,24317,1,8,0:1:0:0:
419,91,24484,2,0,P|403:141|406:176,1,64,2|8,0:0|0:1,0:0:0:0:
480,141,24820,5,2,0:0:0:0:
336,97,24987,1,10,0:1:0:0:
451,226,25155,1,2,0:0:0:0:
489,52,25322,6,0,P|455:20|370:27,2,128,8|10|10,0:1|0:1|0:1,0:0:0:0:
336,97,26160,2,0,P|303:94|261:87,1,64,0|8,0:0|0:1,0:0:0:0:
168,152,26496,6,0,B|235:140|224:184|305:171,1,128,2|2,0:0|0:0,0:0:0:0:
291,172,26998,1,8,0:1:0:0:
224,314,27166,1,2,0:0:0:0:
222,307,27250,1,0,0:0:0:0:
220,300,27334,6,0,P|218:259|244:224,1,47.9999985351563,12|0,0:1|0:0,0:0:0:0:
372,144,27501,2,0,P|380:166|383:190,1,47.9999985351563,12|2,0:1|0:0,0:0:0:0:
168,152,27669,6,0,L|184:76,1,60.0000022888184,2|2,0:0|0:1,0:0:0:0:
276,8,27836,6,0,P|224:44|112:8,1,160,10|0,0:1|0:1,0:0:0:0:
276,112,28339,2,0,B|316:108|316:108|356:120,1,80,10|0,0:1|0:0,0:0:0:0:
416,64,28674,1,10,0:1:0:0:
319,271,28842,2,0,P|316:231|306:193,1,80,0|10,0:0|0:1,0:0:0:0:
184,92,29177,1,2,0:1:0:0:
276,112,29345,6,0,L|360:104,1,80,8|2,0:1|0:1,0:0:0:0:
184,232,29680,2,0,L|100:224,1,80,8|2,0:1|0:0,0:0:0:0:
29,217,29931,1,2,0:0:0:0:
29,217,30015,5,0,0:0:0:0:
260,196,30266,1,8,0:3:0:0:
491,175,30518,1,4,0:3:0:0:
428,240,30685,6,0,P|386:236|336:232,1,80,12|0,0:1|0:0,0:0:0:0:
260,64,31021,1,8,0:0:0:0:
216,144,31188,1,2,0:0:0:0:
243,154,31271,1,0,0:0:0:0:
273,155,31355,1,2,0:0:0:0:
301,145,31439,1,0,0:0:0:0:
325,127,31523,1,8,0:1:0:0:
188,232,31691,1,8,0:0:0:0:
276,344,31859,6,0,P|284:304|272:244,1,80,2|8,0:0|0:1,0:0:0:0:
100,184,32194,2,0,P|92:224|104:284,1,80,0|8,0:0|0:0,0:0:0:0:
243,154,32529,1,2,0:0:0:0:
251,125,32612,1,0,0:0:0:0:
249,96,32696,1,0,0:0:0:0:
236,68,32780,1,0,0:0:0:0:
215,47,32864,1,8,0:1:0:0:
188,232,33032,1,10,0:0:0:0:
336,144,33199,1,2,0:0:0:0:
164,120,33367,6,0,P|122:116|68:108,1,80,10|0,0:1|0:0,0:0:0:0:
132,32,33702,1,8,0:0:0:0:
200,200,33870,1,2,0:0:0:0:
218,176,33953,1,2,0:0:0:0:
244,162,34037,1,0,0:0:0:0:
274,158,34121,1,0,0:0:0:0:
303,165,34205,1,8,0:1:0:0:
376,340,34373,2,0,P|353:337|316:324,1,40,10|0,0:0|0:0,0:0:0:0:
272,240,34540,6,0,B|356:224|340:284|432:264,1,160,2|0,0:0|0:0,0:0:0:0:
476,208,34959,1,0,0:0:0:0:
476,208,35043,2,0,L|464:144,1,40,8|0,0:0|0:0,0:0:0:0:
384,116,35211,2,0,L|396:52,1,40,2|2,0:0|0:0,0:0:0:0:
464,20,35378,5,8,0:1:0:0:
352,224,35546,1,12,0:0:0:0:
328,216,35630,1,0,0:0:0:0:
300,192,35713,1,8,0:1:0:0:
284,140,35797,1,0,0:0:0:0:
304,68,35881,6,0,B|328:96|328:96|260:128|180:72,1,160,14|0,0:1|0:0,0:0:0:0:
88,24,36384,2,0,P|96:92|96:128,1,80,10|0,0:0|0:0,0:0:0:0:
48,176,36719,1,10,0:1:0:0:
172,16,36887,1,0,0:0:0:0:
12,88,37054,1,8,0:0:0:0:
176,168,37222,1,2,0:0:0:0:
176,168,37306,1,0,0:0:0:0:
176,168,37389,6,0,L|264:156,1,80,8|0,0:1|0:0,0:0:0:0:
340,96,37725,1,8,0:0:0:0:
412,268,37892,2,0,P|320:248|264:248,1,150,12|0,0:1|0:0,0:0:0:0:
250,251,38227,6,0,B|318:247|347:192|347:192|364:260|445:282,1,240.000009155274,10|2,0:1|0:0,0:0:0:0:
492,144,38730,6,0,P|444:132|484:192,1,143.999995605469,12|0,0:1|0:0,0:0:0:0:
456,199,39233,1,8,0:1:0:0:
484,52,39401,6,0,P|440:52|378:92,1,100,12|0,0:0|0:0,0:0:0:0:
175,196,39652,6,0,P|219:196|281:156,1,100,12|0,0:0|0:0,0:0:0:0:
308,57,39903,6,0,B|320:91|321:116|321:116|339:136|339:136|342:163|355:204,1,143.999995605469,12|0,0:1|0:0,0:0:0:0:
376,264,40322,1,0,0:0:0:0:
376,264,40406,1,0,0:0:0:0:
412,88,40574,2,0,L|416:148,1,35.9999989013672,8|0,0:1|0:0,0:0:0:0:
272,256,40741,6,0,P|271:220|268:164,1,71.9999978027344,0|0,0:0|0:0,0:0:0:0:
208,132,40993,1,8,0:1:0:0:
208,132,41077,2,0,L|268:144,1,35.9999989013672,8|0,0:1|0:0,0:0:0:0:
156,324,41244,2,0,L|96:336,1,35.9999989013672,0|0,0:0|0:0,0:0:0:0:
48,304,41412,6,0,B|100:280|180:292|220:340|220:340|248:312|256:268|204:228,1,300,12|8,0:1|0:1,0:0:0:0:
88,156,42082,6,0,L|108:268,1,100,12|0,0:0|0:0,0:0:0:0:
240,128,42334,6,0,L|222:29,1,100,12|0,0:0|0:0,0:0:0:0:
104,0,42585,6,0,B|118:77|118:77|158:105|158:105|174:185,1,200,12|0,0:1|0:0,0:0:0:0:
188,252,43004,1,0,0:0:0:0:
188,252,43088,1,0,0:0:0:0:
371,163,43255,6,0,B|388:152|388:152|344:124|284:140|284:140|304:164,1,143.999995605469,8|0,0:1|0:0,0:0:0:0:
436,92,43758,6,0,P|368:64|236:76,1,180.000006866455,8|0,0:1|0:0,0:0:0:0:
196,104,44093,6,0,L|204:200,1,80,12|0,0:1|0:0,0:0:0:0:
96,320,44429,2,0,B|84:284|84:284|100:232,1,80,0|0,0:0|0:0,0:0:0:0:
390,142,44764,6,0,B|350:146|350:146|334:154|334:154|286:158,1,100,12|0,0:0|0:0,0:0:0:0:
172,284,45015,6,0,B|212:280|212:280|228:272|228:272|276:268,1,100,12|0,0:0|0:0,0:0:0:0:
443,208,45266,6,0,P|471:156|411:60,1,160,12|8,0:1|0:1,0:0:0:0:
362,46,45685,1,0,0:0:0:0:
362,46,45769,1,0,0:0:0:0:
269,268,45937,1,8,0:1:0:0:
272,60,46104,5,0,0:0:0:0:
275,89,46187,1,0,0:0:0:0:
278,119,46271,1,0,0:0:0:0:
282,149,46355,1,0,0:0:0:0:
285,179,46440,2,0,L|220:168,1,40,10|0,0:0|0:0,0:0:0:0:
97,17,46607,2,0,L|119:78,1,40,2|0,0:0|0:0,0:0:0:0:
144,152,46775,5,10,0:1:0:0:
51,261,47110,1,0,0:0:0:0:
51,261,47278,2,0,B|120:252|100:288|184:276,1,120.000004577637,0|2,0:0|0:0,0:0:0:0:
232,232,47780,1,0,0:0:0:0:
312,380,47948,6,0,P|324:336|300:264,1,120.000004577637,2|0,0:0|0:0,0:0:0:0:
368,200,48451,2,0,P|394:208|436:208,1,60.0000022888184,2|0,0:0|0:0,0:0:0:0:
400,108,48786,6,0,L|332:116,1,60,8|0,0:1|0:0,0:0:0:0:
225,162,49121,6,0,B|277:170|277:170|309:190|309:190|385:202,1,150,8|0,0:0|0:0,0:0:0:0:
480,136,49456,6,0,P|482:109|488:72,1,50,12|0,0:1|0:0,0:0:0:0:
248,72,49624,2,0,P|246:46|244:16,1,50,12|0,0:1|0:0,0:0:0:0:
371,34,49792,6,0,P|369:59|368:84,1,50,12|0,0:1|0:0,0:0:0:0:
134,137,49959,2,0,P|124:88|112:40,1,100,12|8,0:1|0:0,0:0:0:0:
112,39,50211,1,0,0:0:0:0:
120,48,50294,6,0,L|188:64,1,50,12|0,0:1|0:0,0:0:0:0:
292,224,50462,2,0,L|224:240,1,50,12|0,0:1|0:0,0:0:0:0:
24,148,50630,6,0,B|108:132|88:196|212:164,1,150,12|0,0:1|0:0,0:0:0:0:
248,72,50965,2,0,L|240:152,1,50,8|0,0:0|0:0,0:0:0:0:
310,345,51132,5,8,0:0:0:0:
337,304,51215,1,2,0:0:0:0:
329,256,51299,1,2,0:0:0:0:
292,224,51383,1,2,0:0:0:0:
216,228,51468,6,0,P|186:235|152:240,1,50,8|0,0:1|0:0,0:0:0:0:
360,128,51635,2,0,P|384:132|408:138,1,50,10|0,0:1|0:0,0:0:0:0:
260,132,51803,5,0,0:0:0:0:
440,288,51970,6,0,B|344:268|376:344|240:316,1,176.000005371094,12|2,0:1|0:0,0:0:0:0:
358,42,52473,2,0,P|367:84|359:127,1,88.000002685547,10|2,0:0|0:0,0:0:0:0:
316,192,52725,1,2,0:0:0:0:
316,192,52808,1,8,0:1:0:0:
280,84,52976,1,2,0:0:0:0:
420,204,53144,1,8,0:0:0:0:
232,240,53311,6,0,L|136:224,1,88.000002685547,2|8,0:0|0:1,0:0:0:0:
296,160,53646,2,0,L|200:144,1,88.000002685547,2|8,0:0|0:0,0:0:0:0:
197,325,53982,1,2,0:0:0:0:
284,340,54149,2,0,L|188:324,1,88.000002685547,10|2,0:1|0:0,0:0:0:0:
104,308,54484,1,8,0:0:0:0:
272,200,54652,6,0,B|372:188|332:260|452:244,1,176.000005371094,2|2,0:0|0:0,0:0:0:0:
504,208,55071,1,0,0:0:0:0:
504,208,55155,1,10,0:0:0:0:
316,296,55322,2,0,P|264:284|212:280,1,88.000002685547,2|10,0:0|0:1,0:0:0:0:
416,160,55658,1,2,0:0:0:0:
400,352,55825,1,8,0:0:0:0:
272,200,55993,6,0,L|284:104,1,88.000002685547,2|8,0:0|0:1,0:0:0:0:
168,228,56328,2,0,L|180:132,1,88.000002685547,2|8,0:0|0:0,0:0:0:0:
368,196,56663,1,2,0:0:0:0:
357,283,56831,2,0,L|369:187,1,88.000002685547,10|0,0:1|0:0,0:0:0:0:
216,60,57166,1,10,0:0:0:0:
252,284,57334,1,0,0:0:0:0:
252,284,57417,1,0,0:0:0:0:
252,284,57501,6,0,B|192:276|192:276|136:296|136:296|56:284,1,176.000005371094,12|10,0:1|0:0,0:0:0:0:
228,156,58004,1,2,0:0:0:0:
116,120,58172,2,0,P|125:162|130:206,1,88.000002685547,10|0,0:1|0:0,0:0:0:0:
357,283,58507,2,0,P|347:240|342:196,1,88.000002685547,10|0,0:0|0:0,0:0:0:0:
296,100,58842,6,0,P|344:152|456:144,1,176.000005371094,10|10,0:1|0:0,0:0:0:0:
252,200,59345,2,0,P|200:208|148:228,1,88.000002685547,2|8,0:0|0:1,0:0:0:0:
224,288,59680,1,2,0:0:0:0:
96,140,59848,2,0,P|148:132|200:112,1,88.000002685547,12|0,0:0|0:0,0:0:0:0:
240,72,60099,1,0,0:0:0:0:
240,72,60183,6,0,L|228:4,1,50,12|0,0:1|0:0,0:0:0:0:
384,136,60350,2,0,L|396:68,1,50,12|0,0:1|0:0,0:0:0:0:
232,212,60518,2,0,L|220:144,1,50,12|0,0:1|0:0,0:0:0:0:
384,280,60685,2,0,L|396:212,1,50,12|0,0:1|0:0,0:0:0:0:
308,168,60853,5,12,0:1:0:0:
316,364,61021,1,0,0:0:0:0:
316,364,61104,1,0,0:0:0:0:
316,364,61188,1,10,0:1:0:0:
472,240,61356,6,0,L|392:256,1,50,12|0,0:1|0:0,0:0:0:0:
228,296,61523,1,0,0:0:0:0:
228,296,61691,6,0,L|308:312,1,50,12|0,0:1|0:0,0:0:0:0:
472,352,61858,1,12,0:1:0:0:
472,352,62026,6,0,L|460:296,1,50,14|0,0:1|0:0,0:0:0:0:
308,168,62194,1,10,0:1:0:0:
267,190,62278,1,0,0:0:0:0:
254,233,62361,1,2,0:0:0:0:
276,273,62445,1,10,0:1:0:0:
319,287,62528,1,8,0:0:0:0:
359,265,62614,1,2,0:0:0:0:
373,221,62697,1,2,0:0:0:0:
351,181,62781,1,10,0:1:0:0:
308,168,62864,6,0,B|200:160|248:228|108:216,1,176.000005371094,12|10,0:1|0:0,0:0:0:0:
292,272,63367,1,0,0:0:0:0:
292,272,63451,1,0,0:0:0:0:
292,272,63535,1,10,0:1:0:0:
156,124,63702,2,0,L|168:24,1,88.000002685547,2|8,0:0|0:0,0:0:0:0:
56,200,64037,6,0,B|52:244|52:244|68:288,1,88.000002685547,2|8,0:0|0:1,0:0:0:0:
288,216,64373,2,0,B|292:172|292:172|276:128,1,88.000002685547,2|8,0:0|0:0,0:0:0:0:
156,124,64708,1,2,0:0:0:0:
166,211,64875,2,0,L|156:124,1,88.000002685547,10|2,0:1|0:0,0:0:0:0:
144,32,65211,1,8,0:0:0:0:
88,260,65378,6,0,B|180:272|156:212|268:228,1,176.000005371094,2|2,0:0|0:0,0:0:0:0:
336,248,65797,1,0,0:0:0:0:
336,248,65881,1,8,0:0:0:0:
264,52,66049,2,0,P|256:116|260:152,1,88.000002685547,2|8,0:0|0:1,0:0:0:0:
348,108,66384,1,2,0:0:0:0:
172,140,66551,2,0,L|80:152,1,88.000002685547,10|2,0:0|0:0,0:0:0:0:
116,64,66887,5,8,0:1:0:0:
172,236,67054,2,0,L|232:244,1,44.0000013427735,2|0,0:0|0:0,0:0:0:0:
292,252,67222,1,8,0:0:0:0:
264,52,67389,2,0,B|224:24|224:24|252:168,1,176.000005371094,2|0,0:0|0:0,0:0:0:0:
464,196,67892,6,0,P|484:168|432:196,1,180.000006866455,12|0,0:0|0:0,0:0:0:0:
448,164,68227,6,0,B|348:144|380:224|264:196,1,180.000006866455,12|8,0:1|0:1,0:0:0:0:
116,148,68898,6,0,P|132:196|136:240,1,68.0000012969971,8|0,0:1|0:0,0:0:0:0:
200,300,69149,2,0,P|204:260|220:212,1,68.0000012969971,8|0,0:1|0:0,0:0:0:0:
56,212,69401,1,12,0:1:0:0:
278,199,69568,5,0,0:0:0:0:
279,186,69651,1,0,0:0:0:0:
280,173,69735,1,0,0:0:0:0:
281,160,69819,1,0,0:0:0:0:
282,148,69903,1,0,0:0:0:0:
284,135,69986,1,0,0:0:0:0:
285,122,70070,1,0,0:0:0:0:
286,110,70154,1,0,0:0:0:0:
287,97,70239,6,0,L|211:105,1,40,8|0,0:1|0:0,0:0:0:0:
168,112,70406,1,8,0:1:0:0:
336,160,70574,6,0,B|372:128|372:128|364:40|364:40|312:12,1,180.000006866455,0|0,0:0|0:0,0:0:0:0:
167,89,70909,6,0,L|287:97,1,120.000004577637,12|2,0:1|0:0,0:0:0:0:
140,216,71579,1,0,0:0:0:0:
68,260,71747,2,0,P|60:220|60:188,1,60.0000022888184,2|0,0:0|0:0,0:0:0:0:
212,172,72082,2,0,P|220:212|220:244,1,60.0000022888184,2|8,0:0|0:1,0:0:0:0:
156,300,72417,6,0,B|228:292|200:336|280:328,1,120.000004577637,2|0,0:0|0:0,0:0:0:0:
384,224,72920,1,10,0:0:0:0:
312,266,73088,2,0,L|300:182,1,60.0000022888184,0|2,0:0|0:0,0:0:0:0:
292,130,73423,1,2,0:0:0:0:
468,208,73591,5,10,0:1:0:0:
468,208,73758,1,10,0:1:0:0:
468,208,73926,2,0,L|456:336,1,120.000004577637,2|8,0:0|0:0,0:0:0:0:
384,224,74429,2,0,L|395:104,1,120.000004577637,2|2,0:0|0:0,0:0:0:0:
236,52,74931,6,0,P|228:92|236:136,1,60.0000022888184,8|2,0:1|0:0,0:0:0:0:
308,92,75266,1,2,0:0:0:0:
148,60,75434,1,2,0:0:0:0:
308,92,75602,5,12,0:0:0:0:
192,192,75769,1,0,0:0:0:0:
192,192,75853,1,8,0:1:0:0:
192,192,75937,2,0,L|268:184,1,50,8|0,0:0|0:0,0:0:0:0:
280,280,76104,2,0,L|329:285,1,50,8|0,0:0|0:0,0:0:0:0:
416,240,76272,6,0,L|408:172,1,60.0000022888184,8|0,0:1|0:0,0:0:0:0:
500,136,76607,2,0,B|524:120|524:120|508:228,1,120.000004577637,0|8,0:0|0:0,0:0:0:0:
510,210,77110,1,2,0:0:0:0:
328,160,77278,6,0,L|336:104,1,30.0000011444092,0|0,0:0|0:0,0:0:0:0:
312,96,77445,2,0,L|320:40,1,30.0000011444092,2|0,0:1|0:0,0:0:0:0:
276,228,77613,1,8,0:1:0:0:
224,132,77780,6,0,L|180:112,1,30.0000011444092,2|0,0:1|0:0,0:0:0:0:
380,228,77948,2,0,L|424:244,1,30.0000011444092,0|0,0:1|0:0,0:0:0:0:
192,208,78116,2,0,L|148:188,1,30.0000011444092,0|0,0:1|0:1,0:0:0:0:
348,304,78283,5,10,0:0:0:0:
272,340,78451,1,0,0:1:0:0:
272,340,78618,2,0,P|268:308|272:256,1,60.0000022888184,0|8,0:0|0:1,0:0:0:0:
348,148,78954,6,0,P|304:180|220:160,1,120.000004577637,10|0,0:1|0:0,0:0:0:0:
172,112,79456,1,2,0:0:0:0:
170,103,79540,1,0,0:0:0:0:
170,93,79624,1,8,0:0:0:0:
232,36,79792,1,2,0:0:0:0:
104,164,79959,2,0,P|92:116|92:80,1,60.0000022888184,0|10,0:0|0:1,0:0:0:0:
96,32,80211,1,0,0:0:0:0:
96,32,80294,5,8,0:1:0:0:
320,168,80521,1,8,0:3:0:0:
120,292,80748,2,0,P|115:265|112:228,1,53.3333333333333,4|0,0:3|0:0,0:0:0:0:
236,120,80975,5,8,0:1:0:0:
12,256,81218,1,8,0:3:0:0:
212,380,81462,2,0,L|216:352|220:324,1,53.3333333333333,4|0,0:3|0:0,0:0:0:0:
228,252,81706,6,0,B|188:268|188:268|240:304|312:288,1,160,12|0,0:1|0:0,0:0:0:0:
384,244,82208,1,10,0:1:0:0:
233,41,82376,2,0,P|227:80|235:119,1,80,8|2,0:0|0:0,0:0:0:0:
304,172,82711,1,0,0:0:0:0:
464,40,82879,6,0,B|376:20|408:100|296:72,1,160,10|0,0:1|0:0,0:0:0:0:
448,120,83381,1,10,0:1:0:0:
314,251,83549,2,0,L|302:159,1,80,2|8,0:0|0:0,0:0:0:0:
400,276,83884,1,10,0:1:0:0:
236,296,84052,6,0,B|229:249|229:249|220:225|220:225|226:197|226:197|216:164|216:164|208:104,1,180.000006866455,2|0,0:0|0:1,0:0:0:0:
272,48,84387,6,0,P|296:96|280:144,1,80,8|2,0:1|0:1,0:0:0:0:
136,164,84722,2,0,P|112:116|128:68,1,80,0|8,0:0|0:1,0:0:0:0:
117,81,84974,1,0,0:0:0:0:
120,72,85057,6,0,L|184:80,1,40,8|0,0:0|0:0,0:0:0:0:
352,98,85225,2,0,L|288:90,1,40,2|0,0:0|0:0,0:0:0:0:
236,85,85393,1,0,0:0:0:0:
236,85,85476,1,0,0:0:0:0:
236,85,85560,2,0,P|244:145|248:192,1,100,10|0,0:1|0:0,0:0:0:0:
160,296,85895,5,0,0:1:0:0:
356,244,86063,1,2,0:1:0:0:
160,296,86231,6,0,B|188:288|200:264|200:264|187:302|184:344,1,120.000004577637,12|0,0:1|0:0,0:0:0:0:
277,281,86733,2,0,P|268:310|264:340,1,60.0000022888184,0|0,0:0|0:0,0:0:0:0:
267,351,86985,1,0,0:0:0:0:
272,360,87069,6,0,L|356:343,1,80,8|2,0:1|0:0,0:0:0:0:
192,140,87404,1,2,0:0:0:0:
160,296,87571,1,10,0:1:0:0:
215,226,87739,2,0,L|136:211,1,80,8|0,0:0|0:0,0:0:0:0:
122,207,87990,1,0,0:0:0:0:
107,202,88074,2,0,L|38:188,1,40,2|0,0:0|0:0,0:0:0:0:
93,54,88242,6,0,L|260:36,1,160,10|0,0:1|0:1,0:0:0:0:
352,156,88745,1,10,0:1:0:0:
300,216,88912,6,0,P|272:164|284:112,1,80,2|8,0:0|0:0,0:0:0:0:
412,105,89247,1,10,0:1:0:0:
412,105,89415,6,0,P|428:175|381:230,1,150,0|0,0:0|0:0,0:0:0:0:
300,216,89750,1,8,0:1:0:0:
144,80,89918,5,2,0:1:0:0:
152,176,90085,1,2,0:1:0:0:
160,272,90253,1,10,0:1:0:0:
45,159,90421,6,0,L|85:166,1,30.0000011444092,8|0,0:0|0:0,0:0:0:0:
152,176,90588,2,0,L|194:183,1,30.0000011444092,8|0,0:1|0:0,0:0:0:0:
343,257,90756,6,0,L|297:264,1,40,2|0,0:1|0:0,0:0:0:0:
219,276,90923,2,0,L|173:283,1,40,10|0,0:1|0:0,0:0:0:0:
299,165,91091,6,0,L|287:69,1,80,0|2,0:0|0:1,0:0:0:0:
287,73,91342,1,0,0:0:0:0:
285,61,91426,2,0,L|351:72,1,40,0|0,0:1|0:0,0:0:0:0:
456,220,91594,2,0,L|390:231,1,40,2|2,0:0|0:0,0:0:0:0:
200,320,91761,6,0,L|325:333,1,120,10|0,0:1|0:0,0:0:0:0:
200,320,92432,6,0,P|164:316|132:312,1,60.0000022888184,12|0,0:1|0:0,0:0:0:0:
72,260,92767,1,0,0:0:0:0:
72,260,92935,1,2,0:0:0:0:
72,260,93102,2,0,P|60:220|100:144,1,120.000004577637,0|0,0:0|0:0,0:0:0:0:
252,176,93605,6,0,B|188:176|212:216|132:216,1,120.000004577637,2|0,0:0|0:0,0:0:0:0:
141,215,94108,1,0,0:0:0:0:
256,256,94275,2,0,P|292:260|324:268,1,60.0000022888184,2|0,0:0|0:0,0:0:0:0:
384,220,94611,5,0,0:0:0:0:
272,336,94778,1,2,0:0:0:0:
384,220,94946,2,0,L|392:160,2,60.0000022888184,0|2|0,0:0|0:0|0:0,0:0:0:0:
232,100,95449,6,0,L|224:40,1,60.0000022888184,2|0,0:0|0:0,0:0:0:0:
172,160,95784,2,0,P|112:172|48:172,1,120.000004577637,2|0,0:0|0:0,0:0:0:0:
232,216,96287,6,0,P|292:204|356:204,1,120.000004577637,2|0,0:0|0:0,0:0:0:0:
308,368,96789,1,0,0:0:0:0:
268,292,96957,6,0,P|304:284|344:288,1,60.0000022888184,2|0,0:0|0:0,0:0:0:0:
433,313,97124,1,0,0:0:0:0:
406,288,97207,1,0,0:0:0:0:
400,252,97291,1,8,0:1:0:0:
415,221,97376,1,0,0:0:0:0:
430,188,97459,1,12,0:1:0:0:
424,153,97543,1,0,0:0:0:0:
396,130,97627,6,0,L|408:224,1,80,10|0,0:1|0:0,0:0:0:0:
476,88,97962,1,0,0:1:0:0:
336,52,98130,2,0,B|300:84|300:84|312:196,1,160,10|10,0:1|0:1,0:0:0:0:
196,336,98633,6,0,L|240:327,1,40
220,160,98800,2,0,L|178:152,1,40,10|0,0:1|0:0,0:0:0:0:
88,248,98968,1,2,0:1:0:0:
384,228,99136,5,8,0:1:0:0:
300,172,99303,2,0,L|304:208,1,30.0000011444092,2|0,0:1|0:0,0:0:0:0:
312,284,99471,1,8,0:1:0:0:
358,117,99638,6,0,B|328:87|328:87|250:97|250:97|228:135,1,160,2|8,0:0|0:1,0:0:0:0:
315,323,100141,6,0,L|312:284,1,40,8|0,0:0|0:0,0:0:0:0:
303,211,100309,2,0,L|300:172,1,40
156,96,100476,6,0,L|148:176,1,80,12|0,0:1|0:0,0:0:0:0:
231,132,100812,1,8,0:0:0:0:
60,44,100979,1,2,0:0:0:0:
62,55,101063,1,0,0:0:0:0:
64,66,101147,2,0,L|60:120,1,40,2|0,0:0|0:0,0:0:0:0:
0,176,101314,2,0,L|4:230,1,40,8|0,0:1|0:0,0:0:0:0:
60,292,101482,1,8,0:0:0:0:
264,184,101650,6,0,B|196:172|220:228|136:212,1,120,2|0,0:0|0:0,0:0:0:0:
84,188,101985,1,0,0:0:0:0:
260,264,102152,2,0,P|308:264|356:276,1,80,8|2,0:0|0:0,0:0:0:0:
216,344,102404,1,0,0:0:0:0:
204,348,102488,6,0,P|176:352|148:352,1,40,0|0,0:0|0:0,0:0:0:0:
264,184,102655,1,8,0:1:0:0:
176,272,102823,2,0,L|168:188,1,80,10|2,0:0|0:0,0:0:0:0:
160,116,103074,1,0,0:0:0:0:
160,116,103158,5,10,0:1:0:0:
324,188,103326,2,0,L|372:180,1,40,0|0,0:0|0:0,0:0:0:0:
160,116,103493,2,0,L|112:108,1,40,8|0,0:0|0:0,0:0:0:0:
256,44,103661,2,0,B|244:156|244:156|252:129|284:116,1,160,2|8,0:0|0:1,0:0:0:0:
336,80,104080,1,0,0:0:0:0:
336,80,104164,1,10,0:0:0:0:
416,272,104331,6,0,P|420:228|412:188,1,80,2|8,0:0|0:1,0:0:0:0:
328,284,104666,1,0,0:0:0:0:
504,208,104834,1,8,0:0:0:0:
316,144,105002,2,0,L|320:184,1,40,2|2,0:0|0:0,0:0:0:0:
408,296,105169,5,8,0:1:0:0:
417,257,105252,1,0,0:0:0:0:
420,217,105336,1,12,0:0:0:0:
417,177,105420,1,0,0:0:0:0:
407,138,105504,1,8,0:1:0:0:
391,102,105587,1,0,0:0:0:0:
336,56,105672,6,0,B|264:52|264:52|216:80|216:80|140:76,1,200,14|0,0:1|0:0,0:0:0:0:
56,216,106175,2,0,L|160:208,1,100,10|0,0:0|0:0,0:0:0:0:
288,316,106510,2,0,L|188:323,1,100,10|0,0:1|0:0,0:0:0:0:
372,308,106845,1,8,0:0:0:0:
104,331,107013,1,2,0:0:0:0:
282,220,107180,6,0,B|298:252|298:252|286:324,1,100,8|0,0:1|0:0,0:0:0:0:
368,188,107516,1,8,0:0:0:0:
200,248,107683,6,0,B|180:208|180:208|200:100,1,150,12|0,0:1|0:0,0:0:0:0:
208,88,108018,2,0,P|168:96|128:88,1,60.0000022888184,10|0,0:1|0:0,0:0:0:0:
48,176,108186,2,0,P|88:168|128:176,1,60.0000022888184,8|0,0:0|0:0,0:0:0:0:
224,16,108354,1,2,0:0:0:0:
196,12,108438,1,2,0:0:0:0:
168,8,108521,5,12,0:1:0:0:
236,164,108689,2,0,P|240:208|228:248,1,80,0|0,0:0|0:0,0:0:0:0:
156,196,109024,1,8,0:1:0:0:
312,264,109192,6,0,P|324:204|316:144,1,100,12|0,0:0|0:0,0:0:0:0:
240,136,109443,6,0,B|272:132|272:132|304:140|304:140|346:134,1,100,12|0,0:0|0:0,0:0:0:0:
444,32,109694,6,0,L|292:60,1,143.999995605469,12|0,0:1|0:0,0:0:0:0:
302,58,110113,1,0,0:0:0:0:
302,58,110197,1,0,0:0:0:0:
448,188,110365,6,0,P|456:168|456:144,1,35.9999989013672,8|0,0:1|0:0,0:0:0:0:
288,108,110532,2,0,P|280:128|280:152,1,35.9999989013672,0|0,0:0|0:0,0:0:0:0:
375,219,110700,2,0,L|368:148,1,71.9999978027344,0|8,0:0|0:1,0:0:0:0:
292,260,111035,1,0,0:0:0:0:
208,220,111203,6,0,B|154:215|154:215|101:237|101:237|52:233,1,160,12|0,0:1|0:0,0:0:0:0:
208,220,111706,1,8,0:1:0:0:
88,160,111873,6,0,B|64:140|64:140|140:147,1,100,12|0,0:0|0:0,0:0:0:0:
172,293,112124,6,0,B|196:313|196:313|120:306,1,100,12|0,0:0|0:0,0:0:0:0:
52,233,112376,6,0,L|131:225,1,80,12|0,0:1|0:0,0:0:0:0:
232,216,112711,1,0,0:0:0:0:
219,218,112795,1,0,0:0:0:0:
208,220,112878,1,0,0:0:0:0:
311,184,113046,6,0,B|340:218|340:218|324:302,1,120,8|0,0:1|0:0,0:0:0:0:
258,324,113381,2,0,P|290:320|311:323,1,40,0|8,0:0|0:1,0:0:0:0:
231,188,113549,2,0,P|199:192|178:189,1,40,8|0,0:1|0:0,0:0:0:0:
119,272,113717,2,0,L|167:276,1,40
297,320,113884,6,0,B|241:323|241:323|210:350|210:350|143:354,1,160,12|0,0:1|0:0,0:0:0:0:
232,216,114387,1,0,0:0:0:0:
396,336,114555,6,0,P|412:312|376:328,1,100,12|0,0:0|0:0,0:0:0:0:
476,352,114806,6,0,P|484:320|454:248,1,100,12|0,0:0|0:0,0:0:0:0:
234,276,115057,6,0,B|305:282|305:282|326:235|373:225,1,150,12|0,0:1|0:0,0:0:0:0:
360,229,115393,2,0,L|352:282,1,50,0|0,0:0|0:0,0:0:0:0:
160,316,115560,2,0,L|152:266,1,50,0|0,0:0|0:0,0:0:0:0:
300,160,115728,1,8,0:1:0:0:
234,276,115895,5,0,0:0:0:0:
230,255,115978,1,0,0:0:0:0:
226,234,116062,1,0,0:0:0:0:
223,214,116146,1,0,0:0:0:0:
219,193,116231,2,0,P|246:197|270:199,1,50,10|0,0:0|0:0,0:0:0:0:
436,304,116398,2,0,P|411:306|386:309,1,50,2|0,0:0|0:0,0:0:0:0:
368,108,116566,6,0,L|452:96,1,80,10|0,0:1|0:0,0:0:0:0:
288,76,117069,2,0,P|232:72|208:64,1,80,0|2,0:0|0:0,0:0:0:0:
260,0,117571,1,0,0:0:0:0:
368,108,117739,6,0,P|380:168|368:232,1,120,2|0,0:0|0:0,0:0:0:0:
308,268,118409,1,0,0:0:0:0:
227,221,118577,6,0,L|165:235,1,60,2|0,0:1|0:0,0:0:0:0:
82,223,118912,6,0,B|129:231|129:231|177:211|177:211|241:223,1,150,8|0,0:0|0:0,0:0:0:0:
308,268,119247,6,0,L|304:204,1,50,12|0,0:1|0:0,0:0:0:0:
186,83,119415,2,0,L|243:111,1,50,12|0,0:1|0:0,0:0:0:0:
407,70,119583,2,0,L|353:105,1,50,12|0,0:1|0:0,0:0:0:0:
300,140,119751,1,12,0:1:0:0:
292,16,119918,5,8,0:0:0:0:
396,188,120085,1,12,0:1:0:0:
412,184,120169,1,0,0:0:0:0:
428,180,120253,1,12,0:1:0:0:
300,140,120421,6,0,P|236:144|184:220,1,150,12|0,0:1|0:0,0:0:0:0:
312,240,120756,2,0,P|280:220|248:216,1,50,8|0,0:0|0:0,0:0:0:0:
92,332,120923,6,0,P|119:326|160:320,1,50,8|0,0:0|0:0,0:0:0:0:
124,144,121091,2,0,P|96:139|74:135,1,50,0|2,0:0|0:0,0:0:0:0:
0,252,121259,6,0,L|76:244,1,60.0000022888184,8|0,0:1|0:0,0:0:0:0:
268,217,121426,1,10,0:1:0:0:
268,217,121761,6,0,B|165:240|192:164|96:184,1,176.000005371094,12|2,0:1|0:0,0:0:0:0:
246,52,122264,2,0,L|236:140,1,88.000002685547,10|2,0:0|0:0,0:0:0:0:
324,120,122599,1,8,0:1:0:0:
160,96,122767,2,0,L|108:88,2,44.0000013427735,2|2|8,0:0|0:0|0:0,0:0:0:0:
324,120,123102,6,0,B|370:125|370:125|420:100,1,88.000002685547,2|8,0:0|0:1,0:0:0:0:
475,179,123437,2,0,B|447:216|447:216|444:272,1,88.000002685547,2|8,0:0|0:0,0:0:0:0:
293,214,123773,1,2,0:0:0:0:
347,280,123940,2,0,B|328:237|328:237|281:206,1,88.000002685547,10|2,0:1|0:0,0:0:0:0:
190,196,124275,1,8,0:0:0:0:
264,384,124443,6,0,L|258:296,1,88.000002685547,2|8,0:0|0:1,0:0:0:0:
244,116,124778,1,2,0:0:0:0:
244,116,124862,1,0,0:0:0:0:
244,116,124946,1,10,0:0:0:0:
190,196,125113,1,2,0:0:0:0:
328,88,125281,2,0,P|364:80|420:80,1,88.000002685547,10|2,0:1|0:0,0:0:0:0:
380,168,125616,1,8,0:0:0:0:
208,36,125784,6,0,P|164:36|121:27,1,88.000002685547,2|8,0:0|0:1,0:0:0:0:
193,187,126119,2,0,P|214:148|243:115,1,88.000002685547,2|8,0:0|0:0,0:0:0:0:
69,98,126454,1,2,0:0:0:0:
105,177,126622,2,0,P|91:135|69:98,1,88.000002685547,10|0,0:1|0:0,0:0:0:0:
8,48,126873,1,0,0:0:0:0:
8,48,126957,1,10,0:0:0:0:
160,92,127124,1,0,0:0:0:0:
36,232,127292,6,0,P|92:212|176:296,1,176.000005371094,12|10,0:1|0:0,0:0:0:0:
236,200,127795,1,2,0:0:0:0:
92,296,127962,2,0,P|80:336|84:400,1,88.000002685547,10|0,0:1|0:0,0:0:0:0:
320,232,128298,2,0,P|320:188|308:146,1,88.000002685547,10|0,0:0|0:0,0:0:0:0:
68,166,128633,6,0,B|168:150|132:214|248:198,1,176.000005371094,10|10,0:1|0:0,0:0:0:0:
332,64,129136,2,0,P|284:64|248:84,1,88.000002685547,2|8,0:0|0:1,0:0:0:0:
320,232,129471,1,2,0:0:0:0:
472,166,129638,2,0,L|372:154,1,88.000002685547,12|0,0:0|0:0,0:0:0:0:
308,146,129890,1,0,0:0:0:0:
308,146,129974,6,0,L|316:206,1,50,12|0,0:1|0:0,0:0:0:0:
218,308,130141,2,0,L|210:248,1,50,12|0,0:1|0:0,0:0:0:0:
344,272,130309,2,0,L|284:280,1,50,12|0,0:1|0:0,0:0:0:0:
182,182,130476,2,0,L|242:174,1,50,12|0,0:1|0:0,0:0:0:0:
288,356,130644,5,12,0:1:0:0:
136,268,130812,1,0,0:0:0:0:
136,268,130895,1,0,0:0:0:0:
136,268,130979,1,10,0:1:0:0:
308,146,131147,6,0,L|303:216,1,50,12|0,0:1|0:0,0:0:0:0:
288,356,131314,1,0,0:0:0:0:
168,304,131482,6,0,L|238:309,1,50,12|0,0:1|0:0,0:0:0:0:
378,324,131649,1,12,0:1:0:0:
308,146,131817,6,0,L|303:216,1,50,14|0,0:1|0:0,0:0:0:0:
288,356,131984,1,10,0:1:0:0:
288,356,132069,1,0,0:0:0:0:
288,356,132152,1,2,0:0:0:0:
288,356,132236,1,10,0:1:0:0:
288,356,132320,6,0,P|323:345|357:347,1,50,8|2,0:0|0:0,0:0:0:0:
440,196,132488,2,0,P|415:193|391:184,1,50,2|10,0:0|0:1,0:0:0:0:
264,248,132655,6,0,L|244:144,1,88.000002685547,12|0,0:1|0:0,0:0:0:0:
304,88,132990,1,10,0:0:0:0:
176,200,133158,1,0,0:0:0:0:
348,248,133326,2,0,P|384:248|428:208,1,88.000002685547,10|2,0:1|0:0,0:0:0:0:
396,136,133661,1,8,0:0:0:0:
264,248,133828,6,0,L|256:340,1,88.000002685547,2|8,0:0|0:1,0:0:0:0:
76,224,134164,2,0,L|68:316,1,88.000002685547,2|8,0:0|0:0,0:0:0:0:
176,200,134499,1,2,0:0:0:0:
168,287,134666,2,0,L|176:200,1,88.000002685547,10|2,0:1|0:0,0:0:0:0:
91,53,135002,1,8,0:0:0:0:
248,92,135169,6,0,B|172:80|172:80|148:136|92:136,1,176.000005371094,2|2,0:0|0:0,0:0:0:0:
16,120,135588,1,0,0:0:0:0:
16,120,135672,2,0,P|20:156|20:184,1,44.0000013427735,8|0,0:0|0:0,0:0:0:0:
184,200,135840,2,0,P|180:236|180:264,1,44.0000013427735,2|2,0:0|0:0,0:0:0:0:
104,304,136007,1,8,0:1:0:0:
96,135,136175,2,0,L|100:231,1,88.000002685547,2|10,0:0|0:0,0:0:0:0:
91,53,136510,1,2,0:0:0:0:
20,256,136678,5,8,0:1:0:0:
184,200,136845,2,0,P|236:192|280:212,1,88.000002685547,2|8,0:0|0:0,0:0:0:0:
188,48,137180,2,0,P|168:97|129:125,1,88.000002685547,2|10,0:0|0:1,0:0:0:0:
376,48,137516,1,0,0:0:0:0:
317,127,137683,2,0,P|284:85|279:37,1,88.000002685547,12|0,0:0|0:0,0:0:0:0:
280,32,137935,1,0,0:0:0:0:
279,31,138018,6,0,P|303:79|247:187,1,180.000006866455,12|8,0:1|0:1,0:0:0:0:
196,91,138689,6,0,P|221:96|197:106,1,68.0000012969971,8|0,0:1|0:0,0:0:0:0:
99,72,138940,2,0,P|91:47|111:64,1,68.0000012969971,8|0,0:1|0:0,0:0:0:0:
131,166,139192,1,12,0:1:0:0:
52,216,139359,5,0,0:0:0:0:
220,192,139694,5,0,0:0:0:0:
388,168,140030,5,0,0:0:0:0:
284,88,140197,1,8,0:1:0:0:
308,280,140365,2,0,P|340:276|376:276,1,50,8|0,0:0|0:0,0:0:0:0:
433,156,140532,2,0,P|408:154|383:151,1,50,0|2,0:0|0:0,0:0:0:0:
236,204,140700,6,0,L|320:192,1,80,12|2,0:1|0:0,0:0:0:0:
156,215,141035,2,0,L|240:203,1,80,8|2,0:0|0:0,0:0:0:0:
2,230,141370,2,0,B|36:226|36:226|60:234|60:234|88:218|88:218|109:222|109:222|156:215,1,160,0|10,0:0|0:0,0:0:0:0:
167,56,141873,6,0,B|128:26|128:26|146:144,1,160,10|10,0:1|0:1,0:0:0:0:
156,215,142376,2,0,L|144:127,1,80,8|2,0:0|0:0,0:0:0:0:
170,333,142711,2,0,L|166:294,1,40,2|0,0:0|0:0,0:0:0:0:
64,192,142879,6,0,P|60:228|64:248,1,40,10|0,0:1|0:0,0:0:0:0:
256,292,143046,2,0,P|260:256|256:236,1,40,8|0,0:0|0:0,0:0:0:0:
145,135,143214,6,0,B|233:151|213:87|300:104,1,160,2|2,0:0|0:0,0:0:0:0:
384,64,143717,1,8,0:0:0:0:
368,192,143884,1,2,0:0:0:0:
240,176,144052,1,0,0:0:0:0:
289,23,144219,2,0,L|297:115,1,80,10|10,0:1|0:0,0:0:0:0:
208,296,144555,6,0,B|160:288|160:288|124:236|160:172,1,160,2|2,0:0|0:0,0:0:0:0:
288,264,145057,1,10,0:0:0:0:
80,376,145225,2,0,B|140:368|140:368|180:384|180:384|248:376,1,160,10|10,0:1|0:1,0:0:0:0:
300,340,145644,1,2,0:0:0:0:
300,340,145728,2,0,L|304:292,1,40,10|2,0:0|0:0,0:0:0:0:
388,212,145895,2,0,L|384:164,1,40,2|2,0:0|0:0,0:0:0:0:
288,112,146063,6,0,P|240:104|172:180,1,160,12|8,0:1|0:0,0:0:0:0:
448,184,146566,1,2,0:0:0:0:
372,80,146733,2,0,P|368:128|376:172,1,80,2|10,0:0|0:1,0:0:0:0:
448,264,147069,1,8,0:0:0:0:
440,24,147236,6,0,B|360:8|372:68|280:48,1,160,12|10,0:1|0:1,0:0:0:0:
216,24,147655,1,0,0:0:0:0:
216,24,147739,1,8,0:0:0:0:
92,180,147907,6,0,B|140:136|216:160|216:160|176:176|168:200,1,176.000005371094,12|2,0:1|0:0,0:0:0:0:
140,248,148326,1,0,0:0:0:0:
140,248,148409,2,0,L|148:300,1,44.0000013427735,8|0,0:0|0:0,0:0:0:0:
288,188,148577,6,0,L|296:92,1,88.000002685547,12|0,0:1|0:0,0:0:0:0:
216,24,148912,1,2,0:0:0:0:
380,120,149080,1,8,0:0:0:0:
396,32,149247,1,2,0:0:0:0:
216,224,149415,1,10,0:1:0:0:
200,136,149582,1,10,0:1:0:0:
372,236,149750,2,0,L|364:288,1,44.0000013427735,10|2,0:0|0:0,0:0:0:0:
264,316,149918,6,0,B|372:292|332:376|460:348,1,200,12|10,0:1|0:1,0:0:0:0:
180,344,150421,1,10,0:0:0:0:
308,152,150588,6,0,P|302:179|300:216,2,50,10|0|0,0:1|0:0|0:0,0:0:0:0:
131,130,150923,2,0,P|128:105|122:80,2,50,10|0|8,0:1|0:0|0:0,0:0:0:0:
184,8,151259,5,12,0:1:0:0:
214,183,151426,1,0,0:0:0:0:
214,183,151510,1,0,0:0:0:0:
214,183,151594,1,0,0:0:0:0:
40,112,151761,1,8,0:0:0:0:
152,28,151929,6,0,L|144:88,1,44.0000013427735,2|2,0:0|0:0,0:0:0:0:
124,152,152097,2,0,P|196:112|248:140,1,132.00000402832,10|2,0:1|0:0,0:0:0:0:
296,180,152432,2,0,L|312:272,1,88.000002685547,0|2,0:0|0:0,0:0:0:0:
448,132,152767,6,0,B|460:92|460:92|448:32,1,88.000002685547,10|0,0:1|0:0,0:0:0:0:
380,0,153018,2,0,B|368:40|368:40|380:100,1,88.000002685547,2|0,0:0|0:0,0:0:0:0:
416,212,153270,2,0,L|508:196,1,88.000002685547,2|8,0:0|0:1,0:0:0:0:
328,228,153605,5,2,0:0:0:0:
400,125,153773,1,8,0:0:0:0:
432,299,153940,1,2,0:0:0:0:
248,184,154108,6,0,P|240:136|256:72,1,100,12|0,0:1|0:0,0:0:0:0:
108,214,154359,2,0,P|98:166|72:124,1,100,12|0,0:1|0:0,0:0:0:0:
146,46,154611,2,0,L|156:96,1,50,12|0,0:1|0:0,0:0:0:0:
272,264,154778,6,0,P|224:236|164:252,1,100,12|0,0:1|0:0,0:0:0:0:
44,328,155030,2,0,P|92:331|134:305,1,100,12|0,0:1|0:0,0:0:0:0:
137,175,155281,2,0,P|119:191|108:214,1,50,12|0,0:1|0:0,0:0:0:0:
196,360,155449,6,0,L|268:348,2,66.6666666666667,10|2|2,0:1|0:0|0:0,0:0:0:0:
100,232,155784,2,0,L|28:220,2,66.6666666666667,10|2|2,0:0|0:0|0:0,0:0:0:0:
196,268,156119,5,2,0:0:0:0:
221,265,156203,1,2,0:0:0:0:
280,220,156287,5,10,0:1:0:0:
302,223,156371,1,2,0:0:0:0:
360,272,156454,5,10,0:0:0:0:
378,269,156538,1,2,0:0:0:0:
440,224,156622,5,10,0:1:0:0:
455,226,156706,1,2,0:0:0:0:
470,228,156789,2,0,L|454:124,1,88.000002685547,12|0,0:1|0:0,0:0:0:0:
372,28,157124,1,10,0:0:0:0:
512,76,157292,6,0,B|420:60|444:132|336:112,1,176.000005371094,2|2,0:0|0:0,0:0:0:0:
268,56,157795,1,10,0:0:0:0:
200,216,157962,1,2,0:0:0:0:
346,113,158130,5,12,0:1:0:0:
180,24,158298,1,2,0:0:0:0:
180,24,158381,1,2,0:0:0:0:
180,24,158465,2,0,L|184:88,1,44.0000013427735,10|2,0:0|0:0,0:0:0:0:
317,183,158633,2,0,L|320:140,1,44.0000013427735,2|2,0:0|0:0,0:0:0:0:
136,140,158800,2,0,L|140:204,1,44.0000013427735,10|2,0:1|0:0,0:0:0:0:
273,299,158968,2,0,L|275:255,1,44.0000013427735,2|2,0:0|0:0,0:0:0:0:
91,255,159136,6,0,P|93:288|95:319,1,44.0000013427735,10|0,0:0|0:0,0:0:0:0:
256,164,159303,2,0,P|229:161|196:156,1,44.0000013427735,10|0,0:0|0:0,0:0:0:0:
12,108,159471,6,0,L|104:96,1,88.000002685547,10|0,0:0|0:1,0:0:0:0:
180,24,159806,1,10,0:0:0:0:
120,216,159974,1,10,0:0:0:0:
264,80,160141,1,10,0:0:0:0:
248,292,160309,1,10,0:0:0:0:
248,292,160393,1,0,0:0:0:0:
248,292,160476,2,0,L|236:232,1,44.0000013427735,10|0,0:0|0:0,0:0:0:0:
164,112,160644,6,0,P|208:120|248:120,1,60.0000022888184,10|0,0:0|0:0,0:0:0:0:
356,152,160812,2,0,P|314:167|274:174,1,60.0000022888184,10|0,0:0|0:0,0:0:0:0:
108,188,160979,2,0,P|146:210|184:224,1,60.0000022888184,10|0,0:0|0:0,0:0:0:0:
376,244,161147,2,0,P|341:272|307:292,1,60.0000022888184,10|2,0:0|0:0,0:0:0:0:
108,284,161314,2,0,P|136:318|167:344,1,60.0000022888184,10|2,0:0|0:0,0:0:0:0:
260,352,161482,6,0,L|256:320,1,20,10|0,0:0|0:0,0:0:0:0:
150,216,161650,2,0,L|179:228,1,20,10|0,0:0|0:0,0:0:0:0:
323,189,161817,2,0,L|297:208,1,20,10|0,0:0|0:0,0:0:0:0:
244,252,161984,5,12,0:1:0:0:
180,208,171706,6,0,L|168:164,1,40,0|0,0:0|0:0,0:0:0:0:
204,296,171873,1,0,0:0:0:0:
164,204,172041,6,0,L|152:160,1,40,0|0,0:0|0:0,0:0:0:0:
264,156,172208,2,0,L|275:111,1,40,0|0,0:0|0:0,0:0:0:0:
374,164,172376,2,0,L|406:131,1,40,0|0,0:0|0:0,0:0:0:0:
465,225,172543,2,0,L|509:213,1,40,0|0,0:0|0:0,0:0:0:0:
312,280,172711,2,0,L|268:268,1,40,0|0,0:0|0:0,0:0:0:0:
396,384,172879,6,0,B|404:340|404:340|388:264,1,120,12|0,0:1|0:0,0:0:0:0:
388,266,173214,2,0,L|395:175,1,80,0|8,0:0|0:1,0:0:0:0:
448,116,173549,1,8,0:0:0:0:
300,236,173717,6,0,P|296:280|316:324,1,80,0|0,0:0|0:0,0:0:0:0:
244,171,174052,2,0,P|284:152|312:113,1,80,8|0,0:1|0:0,0:0:0:0:
216,252,174387,2,0,P|179:226|131:221,1,80,0|8,0:0|0:1,0:0:0:0:
144,308,174722,1,0,0:0:0:0:
128,144,174890,1,8,0:0:0:0:
48,152,175057,1,8,0:1:0:0:
128,144,175225,1,0,0:0:0:0:
208,136,175393,6,0,L|220:48,1,80,0|8,0:0|0:1,0:0:0:0:
148,16,175728,1,0,0:0:0:0:
296,92,175895,1,0,0:0:0:0:
296,92,176063,2,0,P|332:96|376:76,1,80,8|8,0:1|0:0,0:0:0:0:
400,232,176398,2,0,P|385:198|346:170,1,80,0|0,0:0|0:0,0:0:0:0:
470,72,176733,5,8,0:1:0:0:
316,248,176901,1,8,0:1:0:0:
336,93,177069,1,0,0:0:0:0:
340,113,177152,1,0,0:0:0:0:
344,133,177236,2,0,L|352:181,1,40,0|0,0:0|0:0,0:0:0:0:
412,328,177404,6,0,B|356:321|356:321|328:333|328:333|264:325,1,132.00000402832,8|0,0:1|0:0,0:0:0:0:
164,248,177739,2,0,P|204:240|224:244,1,44.0000013427735,8|0,0:1|0:0,0:0:0:0:
196,384,177907,2,0,P|174:383|153:376,1,44.0000013427735,8|0,0:0|0:0,0:0:0:0:
96,200,178074,2,0,P|132:172|156:164,1,50
316,248,178242,5,8,0:1:0:0:
376,192,178409,2,0,L|384:144,2,40,0|0|0,0:0|0:0|0:0,0:0:0:0:
296,160,178912,5,0,0:0:0:0:
460,192,179080,1,2,0:0:0:0:
296,160,179247,2,0,L|256:168,1,40,10|0,0:1|0:0,0:0:0:0:
100,240,179415,6,0,L|88:292,3,40,10|0|0|0,0:1|0:0|0:0|0:0,0:0:0:0:
208,316,179750,2,0,L|196:264,1,40,10|0,0:1|0:0,0:0:0:0:
92,120,179918,6,0,P|72:152|68:184,1,50,10|0,0:1|0:0,0:0:0:0:
277,229,180085,2,0,P|264:207|246:190,1,50,10|0,0:1|0:0,0:0:0:0:
60,324,180253,6,0,L|136:316,1,60.0000022888184,10|10,0:1|0:1,0:0:0:0:
188,184,180421,2,0,L|264:192,1,60.0000022888184,2|0,0:0|0:0,0:0:0:0:
410,276,180588,1,0,0:0:0:0:
247,316,180756,6,0,B|345:337|310:258|409:275,1,176.000005371094,12|2,0:1|0:0,0:0:0:0:
498,212,181259,2,0,L|514:312,1,88.000002685547,8|2,0:0|0:0,0:0:0:0:
364,128,181594,1,10,0:1:0:0:
428,60,181761,1,2,0:0:0:0:
390,217,181929,1,8,0:0:0:0:
273,105,182097,6,0,B|312:72|312:72|292:200,1,176.000005371094,2|2,0:0|0:0,0:0:0:0:
175,271,182599,2,0,P|153:233|154:189,1,88.000002685547,10|2,0:0|0:0,0:0:0:0:
184,116,182851,1,0,0:0:0:0:
184,116,182935,2,0,L|92:112,1,88.000002685547,10|2,0:1|0:0,0:0:0:0:
87,247,183270,1,8,0:0:0:0:
0,244,183437,6,0,L|100:248,1,88.000002685547,2|8,0:0|0:1,0:0:0:0:
120,28,183773,2,0,L|32:32,1,88.000002685547,2|8,0:0|0:0,0:0:0:0:
8,144,184108,1,2,0:0:0:0:
180,135,184275,2,0,B|115:129|115:129|66:147|66:147|-1:143,1,176.000005371094,10|10,0:1|0:0,0:0:0:0:
179,227,184778,2,0,L|223:221,1,44.0000013427735,0|0,0:0|0:0,0:0:0:0:
372,124,184946,6,0,P|316:112|252:164,1,132.00000402832,12|2,0:1|0:0,0:0:0:0:
223,221,185281,2,0,L|232:328,1,88.000002685547,10|2,0:0|0:0,0:0:0:0:
372,124,185616,2,0,L|376:32,1,88.000002685547,10|0,0:1|0:0,0:0:0:0:
288,28,185951,1,10,0:0:0:0:
412,200,186119,1,0,0:0:0:0:
412,200,186203,1,0,0:0:0:0:
412,200,186287,6,0,B|448:168|448:168|451:66,1,132.00000402832,10|0,0:1|0:0,0:0:0:0:
450,84,186622,1,10,0:0:0:0:
316,192,186789,2,0,P|324:240|356:272,1,88.000002685547,2|8,0:0|0:1,0:0:0:0:
484,260,187124,1,2,0:0:0:0:
484,260,187208,1,0,0:0:0:0:
484,260,187292,2,0,P|505:223|504:180,1,88.000002685547,12|2,0:0|0:0,0:0:0:0:
472,112,187543,1,0,0:0:0:0:
472,112,187627,6,0,P|424:120|400:116,1,50,12|0,0:1|0:0,0:0:0:0:
349,268,187795,2,0,P|301:260|277:264,1,50,12|0,0:1|0:0,0:0:0:0:
260,136,187962,2,0,P|211:139|187:133,1,50,12|0,0:1|0:0,0:0:0:0:
140,224,188130,2,0,P|91:220|67:226,1,50,12|0,0:1|0:0,0:0:0:0:
16,160,188298,5,12,0:1:0:0:
132,28,188465,1,0,0:0:0:0:
132,28,188549,1,0,0:0:0:0:
132,28,188633,1,10,0:1:0:0:
240,220,188800,6,0,P|206:205|183:182,1,50,12|0,0:1|0:0,0:0:0:0:
343,112,188968,1,0,0:0:0:0:
343,112,189136,6,0,P|346:148|338:180,1,50,12|0,0:1|0:0,0:0:0:0:
198,77,189303,1,12,0:1:0:0:
198,77,189471,6,0,P|227:55|258:46,1,50,14|0,0:1|0:0,0:0:0:0:
459,115,189638,1,10,0:1:0:0:
423,124,189721,1,0,0:0:0:0:
386,117,189805,1,10,0:1:0:0:
356,95,189889,1,0,0:0:0:0:
339,62,189974,2,0,L|344:130,1,50,8|0,0:0|0:0,0:0:0:0:
300,264,190141,6,0,L|304:176,1,80,10|0,0:1|0:0,0:0:0:0:
220,128,190644,6,0,B|200:176|200:176|216:232,1,100,12|0,0:0|0:0,0:0:0:0:
383,320,190979,2,0,B|403:272|403:272|387:216,1,100,10|2,0:1|0:0,0:0:0:0:
308,80,191314,1,8,0:0:0:0:
300,264,191482,6,0,L|304:164,1,100,2|8,0:0|0:1,0:0:0:0:
120,52,191817,1,2,0:0:0:0:
121,61,191901,1,0,0:0:0:0:
121,70,191985,2,0,L|126:134,1,50,8|0,0:0|0:0,0:0:0:0:
136,212,192152,1,2,0:0:0:0:
272,96,192320,6,0,L|208:108,1,50,10|0,0:1|0:0,0:0:0:0:
48,152,192488,1,2,0:0:0:0:
268,216,192655,6,0,L|208:208,1,50,10|0,0:0|0:0,0:0:0:0:
48,152,192823,2,0,B|133:169|118:109|200:127,1,150,2|0,0:0|0:0,0:0:0:0:
275,166,193158,6,0,L|267:222,1,50,2|0,0:0|0:0,0:0:0:0:
216,280,193326,1,8,0:0:0:0:
352,196,193493,1,2,0:0:0:0:
176,26,193661,2,0,L|192:138,1,100,10|2,0:1|0:0,0:0:0:0:
195,133,193912,1,2,0:0:0:0:
200,141,193996,6,0,P|162:134|134:137,1,50,10|0,0:0|0:0,0:0:0:0:
276,48,194164,2,0,P|313:54|342:52,1,50,2|2,0:0|0:0,0:0:0:0:
164,210,194331,5,10,0:1:0:0:
284,144,194499,2,0,L|384:128,1,100,2|0,0:0|0:0,0:0:0:0:
240,360,194834,2,0,B|220:316|220:316|236:248,1,100,2|0,0:0|0:0,0:0:0:0:
284,144,195169,1,0,0:0:0:0:
285,153,195253,1,0,0:0:0:0:
286,162,195337,2,0,L|294:231,1,50,12|0,0:0|0:0,0:0:0:0:
304,304,195504,1,0,0:0:0:0:
273,69,195672,5,12,0:1:0:0:
396,244,196175,1,8,0:1:0:0:
405,242,196259,1,0,0:0:0:0:
414,240,196342,6,0,B|483:232|483:232|438:204,1,120.000004577637,8|0,0:1|0:0,0:0:0:0:
286,162,196594,2,0,B|217:170|217:170|262:198,1,120.000004577637,8|0,0:1|0:0,0:0:0:0:
369,158,196845,2,0,L|377:85,1,60.0000022888184,12|0,0:1|0:0,0:0:0:0:
141,0,197013,6,0,L|153:120,1,120,0|0,0:0|0:0,0:0:0:0:
208,173,197348,1,0,0:0:0:0:
169,164,197431,1,8,0:1:0:0:
133,180,197515,1,8,0:1:0:0:
112,213,197599,1,0,0:0:0:0:
114,252,197683,1,0,0:0:0:0:
114,292,197766,1,0,0:0:0:0:
92,325,197850,1,8,0:1:0:0:
56,341,197934,1,0,0:0:0:0:
17,335,198018,6,0,L|-2:287,1,40,12|0,0:0|0:0,0:0:0:0:
200,305,198186,2,0,L|205:249,1,40,0|0,0:0|0:0,0:0:0:0:
84,156,198354,6,0,L|98:250,1,80,12|2,0:1|0:1,0:0:0:0:
108,312,198605,1,0,0:0:0:0:
108,312,198689,1,8,0:0:0:0:
172,140,198856,1,0,0:0:0:0:
8,232,199024,1,10,0:1:0:0:
184,264,199192,2,0,L|232:252,1,40,0|0,0:0|0:1,0:0:0:0:
84,156,199359,1,10,0:0:0:0:
317,188,199527,6,0,B|229:196|265:132|169:140,1,160,2|2,0:1|0:1,0:0:0:0:
84,156,200030,1,8,0:0:0:0:
292,12,200197,6,0,L|304:120,1,100,0|8,0:1|0:1,0:0:0:0:
316,188,200449,1,0,0:1:0:0:
316,188,200532,2,0,P|360:180|380:180,1,50,0|0,0:1|0:0,0:0:0:0:
468,60,200700,2,0,L|460:128,1,50,10|0,0:0|0:0,0:0:0:0:
448,312,200868,2,0,L|440:252,1,50,0|0,0:0|0:0,0:0:0:0:
240,160,201035,5,10,0:1:0:0:
213,191,201118,1,0,0:1:0:0:
206,232,201202,1,2,0:0:0:0:
220,271,201286,1,2,0:0:0:0:
176,328,201370,5,10,0:1:0:0:
211,309,201453,1,0,0:1:0:0:
250,307,201537,1,2,0:0:0:0:
287,322,201621,1,2,0:1:0:0:
314,352,201706,6,0,L|400:340,1,80,10|0,0:1|0:0,0:0:0:0:
296,224,202041,1,10,0:0:0:0:
176,328,202208,1,2,0:1:0:0:
384,244,202376,1,8,0:1:0:0:
160,188,202543,1,2,0:1:0:0:
368,246,202711,1,8,0:0:0:0:
92,296,202879,5,0,0:1:0:0:
94,276,202962,1,0,0:1:0:0:
96,256,203046,2,0,L|100:214,1,40,10|2,0:0|0:0,0:0:0:0:
59,92,203214,2,0,L|56:132,1,40,2|2,0:0|0:1,0:0:0:0:
176,256,203381,6,0,L|181:202,1,50,12|2,0:0|0:0,0:0:0:0:
140,82,203549,2,0,L|136:132,1,50,2|2,0:0|0:1,0:0:0:0:
16,252,203717,5,12,0:0:0:0:
256,216,203884,1,2,0:1:0:0:
59,92,204052,1,8,0:1:0:0:
176,256,204219,1,0,0:0:0:0:
176,256,204303,1,0,0:0:0:0:
176,256,204387,2,0,L|184:168,1,80,10|0,0:1|0:0,0:0:0:0:
196,24,204722,1,10,0:1:0:0:
328,176,204890,1,2,0:1:0:0:
256,96,205057,5,8,0:1:0:0:
400,132,205225,2,0,B|414:176|414:176|406:216,1,80,2|8,0:1|0:1,0:0:0:0:
328,176,205560,6,0,B|308:96|308:96|328:16,1,150,0|0,0:1|0:1,0:0:0:0:
324,30,205895,2,0,L|392:24,1,50,0|0,0:1|0:0,0:0:0:0:
449,136,206063,2,0,L|381:129,1,50,10|0,0:1|0:0,0:0:0:0:
240,40,206231,1,0,0:0:0:0:
456,16,206398,5,10,0:1:0:0:
453,30,206482,1,0,0:0:0:0:
450,44,206566,2,0,L|437:98,1,40,0|0,0:0|0:0,0:0:0:0:
491,146,206733,5,10,0:1:0:0:
449,136,206816,1,0,0:0:0:0:
408,151,206900,1,0,0:0:0:0:
384,187,206984,1,0,0:0:0:0:
383,230,207068,1,10,0:1:0:0:
323,130,207236,5,8,0:1:0:0:
456,212,207404,1,10,0:1:0:0:
304,288,207571,6,0,L|296:240,1,40,12|0,0:0|0:0,0:0:0:0:
256,88,207739,1,8,0:1:0:0:
208,316,207907,6,0,L|216:264,1,40,8|0,0:1|0:0,0:0:0:0:
256,72,208074,1,10,0:2:0:0:
319,172,208242,6,0,B|276:169|276:169|247:176|247:176|223:160|223:160|198:165|198:165|148:161,1,162.000000617981,8|0,0:1|0:0,0:0:0:0:
169,40,208577,2,0,L|177:92,1,40
80,192,208745,2,0,L|73:152,1,40,8|0,0:0|0:0,0:0:0:0:
201,245,208912,2,0,L|209:297,1,40
191,367,209080,5,8,0:1:0:0:
219,363,209247,1,0,0:0:0:0:
247,359,209415,2,0,L|327:371,1,80,2|0,0:0|0:0,0:0:0:0:
395,379,209918,1,2,0:0:0:0:
475,181,210253,6,0,L|427:185,1,40,2|0,0:0|0:0,0:0:0:0:
379,233,210588,2,0,L|339:229,1,40,0|0,0:0|0:0,0:0:0:0:
280,156,210923,5,0,0:0:0:0:
270,157,211007,1,0,0:0:0:0:
260,158,211091,2,0,L|240:160,1,20,0|0,0:0|0:0,0:0:0:0:
168,240,211259,6,0,L|164:276,1,30.0000011444092,0|0,0:0|0:0,0:0:0:0:
112,128,211426,2,0,L|104:84,1,40,0|0,0:0|0:0,0:0:0:0:
0,217,211594,2,0,L|64:213,1,60.0000022888184
264,132,211761,6,0,P|220:132|172:128,1,80,12|0,0:1|0:0,0:0:0:0:
112,128,212013,1,8,0:0:0:0:
112,128,212097,2,0,L|120:180,1,40,0|0,0:0|0:0,0:0:0:0:
264,232,212264,6,0,B|320:236|360:164|360:164|344:192|348:228,1,180.000006866455,12|0,0:1|0:0,0:0:0:0:
