osu file format v14

[General]
AudioFilename: audio.mp3
AudioLeadIn: 0
PreviewTime: 178912
Countdown: 0
SampleSet: Soft
StackLeniency: 0.7
Mode: 0
LetterboxInBreaks: 0
WidescreenStoryboard: 1

[Editor]
Bookmarks: 22641,38730,51970,70909,81706,92432,108521,121761,140700,161915,178172,198354
DistanceSpacing: 0.6
BeatDivisor: 4
GridSize: 4
TimelineZoom: 2.199999

[Metadata]
Title:Luminous Rage
TitleUnicode:Luminous Rage
Artist:Endorfin.
ArtistUnicode:Endorfin.
Creator:Kibbleru
Version:Kibb x Mikii's Insane
Source:
Tags:dnb Horizon Note Aitsuki Nakuru 藍月なくる sky_delta sky delta toybot doormat akitoshi hazu- mikii
BeatmapID:1260399
BeatmapSetID:492845

[Difficulty]
HPDrainRate:6
CircleSize:4
OverallDifficulty:7
ApproachRate:9
SliderMultiplier:1.7
SliderTickRate:1

[Events]
//Background and Video events
0,0,"689004.jpg",0,0
//Break Periods
2,162185,166916
2,167716,172279
//Storyboard Layer 0 (Background)
//Storyboard Layer 1 (Fail)
//Storyboard Layer 2 (Pass)
//Storyboard Layer 3 (Foreground)
//Storyboard Sound Samples

[TimingPoints]
-152,335.195530726257,4,2,1,60,1,0
1188,-166.666666666667,4,2,1,60,0,0
6551,-100,4,2,2,60,0,0
11915,-100,4,2,2,70,0,0
14680,-100,4,2,1,70,0,0
14931,-100,4,2,2,70,0,0
15015,-100,4,2,1,70,0,0
15266,-100,4,2,2,70,0,0
16607,-100,4,2,1,70,0,0
17278,-100,4,2,2,70,0,0
20043,-100,4,2,1,70,0,0
20294,-100,4,2,2,70,0,0
20378,-100,4,2,1,70,0,0
20630,-100,4,2,2,70,0,0
21803,-125,4,2,1,50,0,0
22641,-111.111111111111,4,2,1,50,0,0
27334,-83.3333333333333,4,2,1,50,0,0
27836,-100,4,2,2,70,0,0
30015,-100,4,2,1,60,0,0
30685,-111.111111111111,4,2,1,60,0,0
35378,-83.3333333333333,4,2,1,60,0,0
35881,-100,4,2,2,70,0,0
37892,-125,4,2,1,60,0,0
38730,-166.666666666667,4,2,1,60,0,0
46775,-166.666666666667,4,2,1,50,0,0
46859,-166.666666666667,4,2,0,50,0,0
48786,-166.666666666667,4,2,1,50,0,0
49456,-166.666666666667,4,2,1,70,0,0
51132,-100,4,2,1,70,0,0
51635,-100,4,2,2,70,0,0
51970,-90.9090909090909,4,2,1,80,0,1
62026,-90.9090909090909,4,2,2,80,0,1
62361,-90.9090909090909,4,2,1,80,0,1
68227,-100,4,2,1,80,0,1
69401,-100,4,2,1,80,0,0
70239,-100,4,2,1,60,0,0
70909,-166.666666666667,4,2,1,60,0,0
80294,340.909090909091,4,2,1,60,1,0
80294,-142.857142857143,4,2,1,60,0,0
80975,365.853658536585,4,2,1,60,1,0
80975,-142.857142857143,4,2,1,60,0,0
81706,335.195530726257,4,2,2,70,1,0
86231,-166.666666666667,4,2,2,70,0,0
87069,-100,4,2,2,70,0,0
91510,-100,4,2,1,70,0,0
92432,-125,4,2,1,50,0,0
96957,-111.111111111111,4,2,1,50,0,0
97627,-125,4,2,2,70,0,0
99638,-125,4,2,1,60,0,0
100476,-142.857142857143,4,2,1,60,0,0
105672,-100,4,2,2,70,0,0
107683,-100,4,2,1,60,0,0
108521,-125,4,2,1,60,0,0
116566,-125,4,2,1,50,0,0
116733,-125,4,2,0,50,0,0
118577,-125,4,2,1,60,0,0
118912,-125,4,2,0,60,0,0
119247,-125,4,2,1,70,0,0
121426,-125,4,2,2,70,0,0
121761,-90.9090909090909,4,2,1,80,0,1
131817,-90.9090909090909,4,2,2,80,0,1
131985,-90.9090909090909,4,2,1,80,0,1
138018,-100,4,2,1,80,0,1
139192,-100,4,2,1,80,0,0
140197,-100,4,2,1,70,0,0
151929,-100,4,2,1,60,0,0
154108,-100,4,2,1,70,0,0
154192,-100,4,2,3,10,0,0
154359,-100,4,2,1,70,0,0
154443,-100,4,2,3,10,0,0
154611,-100,4,2,1,70,0,0
154694,-100,4,2,3,10,0,0
154778,-100,4,2,1,70,0,0
154862,-100,4,2,3,10,0,0
155030,-100,4,2,1,70,0,0
155113,-100,4,2,3,10,0,0
155281,-100,4,2,1,70,0,0
155365,-100,4,2,3,10,0,0
155449,-100,4,2,1,70,0,0
159471,-100,4,2,1,80,0,0
172879,-142.857142857143,4,2,1,50,0,0
179080,-142.857142857143,4,2,1,70,0,0
179415,-111.111111111111,4,2,1,70,0,1
180756,-100,4,2,1,80,0,1
189471,-100,4,2,2,80,0,1
190141,-100,4,2,1,80,0,1
195672,-125,4,2,1,80,0,1
196678,-125,4,2,1,60,0,1
196845,-125,4,2,1,60,0,0
198354,-100,4,2,2,70,0,0
201119,-100,4,2,1,70,0,0
201370,-100,4,2,2,70,0,0
201454,-100,4,2,1,70,0,0
201706,-100,4,2,2,70,0,0
203046,-100,4,2,1,70,0,0
203717,-100,4,2,2,70,0,0
208577,-100,4,2,2,60,0,0
209080,-125,4,2,1,50,0,0
211761,-90.9090909090909,4,2,1,60,0,0
212264,-142.857142857143,4,2,1,60,0,0

[Colours]
Combo1 : 208,208,208
Combo2 : 151,201,255
Combo3 : 95,54,235

[HitObjects]
93,141,1188,5,12,0:1:0:0:
254,73,1356,1,2,0:2:0:0:
168,49,1523,6,0,L|177:150,1,101.999996887207,2|0,0:0|0:0,0:0:0:0:
180,249,2026,1,2,0:0:0:0:
180,249,2361,6,0,P|147:252|127:257,1,50.9999984436036,2|0,0:0|0:0,0:0:0:0:
324,219,2697,2,0,P|298:216|273:210,1,50.9999984436036,2|0,0:0|0:0,0:0:0:0:
395,287,3032,2,0,P|421:244|421:191,1,101.999996887207,0|8,0:1|0:1,0:0:0:0:
361,60,3535,2,0,P|362:82|366:110,1,50.9999984436036,2|2,0:1|0:1,0:0:0:0:
461,85,3870,5,12,0:1:0:0:
263,33,4037,1,12,0:1:0:0:
278,152,4205,6,0,L|266:50,1,101.999996887207,12|2,0:1|0:0,0:0:0:0:
166,43,4708,2,0,P|140:51|117:56,1,50.9999984436036
98,147,5043,6,0,P|148:156|190:197,1,101.999996887207,2|2,0:0|0:0,0:0:0:0:
186,275,5546,1,2,0:0:0:0:
273,250,5713,2,0,P|328:254|369:233,1,101.999996887207,0|8,0:1|0:1,0:0:0:0:
404,147,6216,2,0,L|353:140,1,50.9999984436036
294,70,6551,5,12,0:1:0:0:
454,224,6719,1,0,0:0:0:0:
254,301,6887,2,0,P|253:258|247:216,1,85,10|0,0:0|0:1,0:0:0:0:
343,158,7222,1,0,0:0:0:0:
438,28,7389,2,0,P|432:70|431:112,1,85,0|8,0:2|0:0,0:0:0:0:
486,305,7725,6,0,P|429:245|344:248,1,170,10|8,0:1|0:1,0:0:0:0:
273,336,8227,1,8,0:0:0:0:
136,208,8395,1,2,0:1:0:0:
135,208,8479,2,0,P|187:173|249:177,1,127.5,8|10,0:1|0:1,0:0:0:0:
346,246,8898,2,0,P|362:207|367:164,1,85,8|2,0:0|0:1,0:0:0:0:
302,95,9149,1,0,0:2:0:0:
302,95,9233,5,8,0:1:0:0:
211,297,9401,1,8,0:1:0:0:
429,282,9568,1,10,0:1:0:0:
215,143,9736,1,8,0:1:0:0:
322,339,9903,2,0,L|331:254,1,85,2|8,0:1|0:1,0:0:0:0:
361,110,10239,1,8,0:1:0:0:
214,142,10406,6,0,P|295:159|361:110,1,170
273,59,10909,1,0,0:0:0:0:
407,210,11077,2,0,P|391:249|389:292,1,85,0|0,0:0|0:0,0:0:0:0:
273,59,11412,2,0,L|231:52,1,42.5,10|0,0:1|0:0,0:0:0:0:
139,84,11579,2,0,L|97:77,3,42.5,2|0|10|0,0:1|0:0|0:1|0:0,0:0:0:0:
152,100,11915,6,0,L|157:184,1,85,12|2,0:1|0:1,0:0:0:0:
244,241,12250,1,8,0:0:0:0:
345,69,12417,1,0,0:0:0:0:
378,244,12585,2,0,L|383:159,1,85,10|0,0:1|0:0,0:0:0:0:
247,29,12920,1,10,0:0:0:0:
345,68,13088,6,0,P|287:128|199:123,1,170,2|2,0:1|0:1,0:0:0:0:
130,53,13591,1,8,0:0:0:0:
334,219,13758,2,2,P|348:258|350:300,1,85,2|8,0:1|0:1,0:1:0:0:
277,369,14093,1,0,0:1:0:0:
440,246,14261,1,10,0:0:0:0:
248,162,14429,1,0,0:0:0:0:
305,259,14596,6,0,L|347:256,3,42.5,10|2|2|2,0:1|0:1|0:0|0:0,0:0:0:0:
143,211,14931,2,0,L|100:208,3,42.5,10|0|2|2,0:1|0:1|0:0|0:1,0:0:0:0:
254,106,15266,2,0,P|240:143|239:189,1,85,10|0,0:1|0:0,0:0:0:0:
207,289,15602,1,10,0:0:0:0:
173,60,15769,6,0,P|256:68|320:15,1,170,2|2,0:1|0:1,0:0:0:0:
344,146,16272,1,8,0:0:0:0:
305,280,16440,1,0,0:1:0:0:
305,280,16523,1,0,0:1:0:0:
305,280,16607,2,0,L|301:237,3,42.5,10|2|2|2,0:0|0:0|0:0|0:1,0:0:0:0:
207,186,16942,6,0,L|155:180,1,42.5,12|2,0:0|0:0,0:0:0:0:
284,63,17110,2,0,L|232:57,1,42.5,2|2,0:0|0:1,0:0:0:0:
344,146,17278,5,12,0:0:0:0:
142,3,17445,2,0,L|149:87,1,85,2|8,0:1|0:0,0:0:0:0:
84,166,17780,1,0,0:0:0:0:
272,304,17948,2,0,L|279:219,1,85,10|0,0:1|0:0,0:0:0:0:
344,146,18283,1,10,0:0:0:0:
198,187,18451,6,0,P|280:198|344:145,1,170,2|2,0:1|0:1,0:0:0:0:
180,82,18954,1,8,0:0:0:0:
101,230,19121,2,2,P|89:190|93:148,1,85,2|8,0:1|0:1,0:1:0:0:
295,224,19456,2,0,P|307:264|303:306,1,85,2|10,0:1|0:0,0:0:0:0:
219,358,19792,1,0,0:0:0:0:
135,249,19959,6,0,L|197:255,3,42.5,10|0|2|2,0:1|0:1|0:0|0:0,0:0:0:0:
207,118,20294,2,0,L|269:124,3,42.5,10|0|2|0,0:1|0:1|0:0|0:0,0:0:0:0:
297,208,20630,5,10,0:0:0:0:
116,151,20797,1,8,0:1:0:0:
243,25,20965,1,10,0:0:0:0:
190,232,21132,1,6,0:0:0:0:
190,232,21216,1,0,0:0:0:0:
190,232,21300,5,8,0:1:0:0:
396,133,21468,1,8,0:1:0:0:
379,360,21635,1,10,0:2:0:0:
412,253,21803,6,0,P|351:248|295:295,1,136,8|0,0:1|0:0,0:0:0:0:
217,347,22306,2,0,P|168:358|122:339,1,102,8|0,0:0|0:0,0:0:0:0:
98,314,22641,5,8,0:1:0:0:
41,204,22808,1,0,0:0:0:0:
164,190,22976,2,0,P|172:230|172:269,1,76.4999976654053,10|0,0:1|0:0,0:0:0:0:
18,170,23311,2,0,P|24:131|30:83,1,76.4999976654053,10|0,0:1|0:0,0:0:0:0:
221,40,23646,1,8,0:1:0:0:
264,129,23814,6,0,P|177:136|126:62,1,152.999995330811,2|2,0:0|0:0,0:0:0:0:
173,284,24317,1,8,0:1:0:0:
269,232,24484,2,0,P|329:238|433:252,1,152.999995330811,2|2,0:0|0:0,0:0:0:0:
493,147,24987,2,0,P|449:151|401:157,1,76.4999976654053,10|2,0:1|0:0,0:0:0:0:
269,232,25322,6,0,P|256:191|258:132,1,76.4999976654053,8|0,0:1|0:0,0:0:0:0:
352,37,25658,1,10,0:1:0:0:
337,171,25825,1,0,0:0:0:0:
180,55,25993,2,0,L|278:67,1,76.4999976654053,10|0,0:1|0:0,0:0:0:0:
426,167,26328,1,8,0:1:0:0:
283,211,26496,6,0,B|205:192|206:245|117:209,1,152.999995330811,2|2,0:0|0:0,0:0:0:0:
168,137,26998,1,8,0:1:0:0:
250,295,27166,1,2,0:0:0:0:
250,295,27250,1,0,0:0:0:0:
250,295,27334,1,12,0:1:0:0:
364,207,27501,2,0,P|370:245|378:313,1,101.999996887207,12|2,0:1|0:0,0:0:0:0:
458,165,27836,6,0,P|378:182|320:125,1,170,10|0,0:1|0:1,0:0:0:0:
397,16,28339,2,0,P|405:64|408:121,1,85,10|0,0:1|0:0,0:0:0:0:
234,167,28674,2,0,P|228:126|226:66,1,85,10|0,0:1|0:0,0:0:0:0:
320,125,29010,1,10,0:1:0:0:
176,234,29177,1,2,0:1:0:0:
424,168,29345,6,0,P|419:218|417:270,1,85,8|2,0:1|0:1,0:0:0:0:
286,345,29680,2,0,L|270:239,1,85,8|2,0:1|0:0,0:0:0:0:
267,231,29931,1,2,0:0:0:0:
267,231,30015,6,0,P|222:245|147:252,1,85,0|0,0:0|0:0,0:0:0:0:
100,178,30266,6,0,P|103:135|132:80,1,85,8|0,0:3|0:0,0:0:0:0:
245,95,30518,5,4,0:3:0:0:
184,250,30685,6,0,P|138:200|30:204,1,152.999995330811,12|8,0:1|0:0,0:0:0:0:
163,335,31188,1,2,0:0:0:0:
163,335,31356,2,0,L|272:308,2,76.4999976654053,2|8|8,0:0|0:1|0:0,0:0:0:0:
290,379,31859,6,0,P|318:321|275:241,1,152.999995330811,2|0,0:0|0:0,0:0:0:0:
174,148,32361,1,8,0:0:0:0:
334,35,32529,2,0,P|288:111|329:183,1,152.999995330811,2|8,0:0|0:1,0:0:0:0:
462,206,33032,1,10,0:0:0:0:
375,112,33199,1,2,0:0:0:0:
328,251,33367,6,0,P|293:256|231:271,1,76.4999976654053,10|0,0:1|0:0,0:0:0:0:
106,197,33702,2,0,P|141:192|203:177,1,76.4999976654053,8|2,0:0|0:0,0:0:0:0:
128,106,34037,1,0,0:0:0:0:
161,276,34205,1,8,0:1:0:0:
128,106,34373,1,10,0:0:0:0:
262,128,34540,6,0,P|270:168|271:211,1,76.4999976654053,2|8,0:0|0:1,0:0:0:0:
161,276,34875,1,0,0:0:0:0:
359,228,35043,1,8,0:0:0:0:
184,183,35211,1,2,0:0:0:0:
302,317,35378,6,0,P|357:317|411:323,1,101.999996887207,8|12,0:1|0:0,0:0:0:0:
482,197,35713,1,8,0:1:0:0:
399,65,35881,6,0,B|313:84|324:24|219:48,1,170,14|0,0:1|0:0,0:0:0:0:
61,145,36384,2,0,P|110:140|161:110,1,85,10|0,0:0|0:0,0:0:0:0:
78,41,36719,1,10,0:1:0:0:
254,137,36887,2,0,P|263:186|263:236,1,85,0|8,0:0|0:0,0:0:0:0:
221,346,37222,1,2,0:0:0:0:
59,312,37389,6,0,P|59:262|69:217,1,85,8|0,0:1|0:0,0:0:0:0:
165,275,37725,1,8,0:0:0:0:
165,275,37892,6,0,B|197:237|201:213|201:213|241:227|282:217,1,136,12|10,0:1|0:1,0:0:0:0:
337,259,38395,2,0,L|417:246,1,68,8|2,0:0|0:0,0:0:0:0:
476,295,38730,6,0,P|514:231|497:158,1,152.999995330811,12|8,0:1|0:1,0:0:0:0:
417,82,39401,2,0,L|325:74,1,76.4999976654053,12|12,0:0|0:0,0:0:0:0:
294,3,39903,6,0,B|318:64|275:87|299:158,1,152.999995330811,12|0,0:1|0:0,0:0:0:0:
225,232,40574,1,8,0:1:0:0:
225,232,40741,2,0,L|149:221,1,76.4999976654053,0|8,0:0|0:1,0:0:0:0:
296,299,41077,2,0,L|371:309,1,76.4999976654053,8|0,0:1|0:0,0:0:0:0:
213,344,41412,6,0,P|166:371|71:338,1,152.999995330811,12|8,0:1|0:1,0:0:0:0:
33,255,42082,2,0,P|38:217|61:185,1,76.4999976654053,12|12,0:0|0:0,0:0:0:0:
157,86,42585,6,0,B|147:135|147:135|162:175|162:175|148:232,1,152.999995330811,12|0,0:1|0:0,0:0:0:0:
248,122,43255,1,8,0:1:0:0:
248,122,43423,2,0,P|282:127|323:166,1,76.4999976654053,8|8,0:0|0:1,0:0:0:0:
398,219,43758,2,0,P|373:225|350:237,1,50.9999984436036,8|0,0:1|0:0,0:0:0:0:
266,322,44093,6,0,P|246:275|256:226,1,101.999996887207,12|0,0:1|0:0,0:0:0:0:
399,107,44596,1,0,0:0:0:0:
399,107,44764,5,12,0:0:0:0:
278,88,45015,1,12,0:0:0:0:
157,70,45266,6,0,L|166:182,1,101.999996887207,12|8,0:1|0:1,0:0:0:0:
116,253,45769,1,0,0:0:0:0:
223,298,45937,2,0,L|230:243,1,50.9999984436036,8|0,0:1|0:0,0:0:0:0:
59,115,46272,2,0,L|64:173,1,50.9999984436036,8|10,0:1|0:0,0:0:0:0:
116,253,46607,1,2,0:0:0:0:
176,163,46775,6,0,P|240:126|312:147,1,152.999995330811,10|0,0:1|0:0,0:0:0:0:
310,197,47613,2,0,P|307:171|311:146,1,50.9999984436036,2|0,0:0|0:0,0:0:0:0:
414,143,47948,6,0,L|394:266,1,101.999996887207,2|0,0:0|0:0,0:0:0:0:
487,313,48618,1,0,0:0:0:0:
487,313,48702,1,0,0:0:0:0:
487,313,48786,6,0,L|503:212,1,101.999996887207,8|8,0:1|0:0,0:0:0:0:
511,197,49456,5,12,0:1:0:0:
306,99,49624,1,12,0:1:0:0:
484,22,49792,1,12,0:1:0:0:
372,191,49959,1,12,0:1:0:0:
408,92,50127,5,8,0:0:0:0:
253,229,50294,1,12,0:1:0:0:
205,13,50462,1,12,0:1:0:0:
372,191,50630,6,0,L|377:300,1,101.999996887207,12|8,0:1|0:0,0:0:0:0:
286,116,51132,2,0,L|233:111,3,42.5,8|2|2|2,0:0|0:0|0:0|0:0,0:0:0:0:
105,211,51468,6,0,L|147:214,1,42.5,8|0,0:1|0:0,0:0:0:0:
253,229,51635,1,10,0:1:0:0:
253,229,51970,6,0,P|259:330|179:367,1,187.000005706787,12|2,0:1|0:0,0:0:0:0:
81,158,52473,1,10,0:0:0:0:
161,279,52641,1,2,0:0:0:0:
161,279,52725,1,2,0:0:0:0:
161,279,52808,2,0,L|171:184,1,93.5000028533936,8|2,0:1|0:0,0:0:0:0:
139,51,53144,1,8,0:0:0:0:
304,147,53311,6,0,P|294:232|285:351,1,187.000005706787,2|2,0:0|0:0,0:0:0:0:
483,236,53814,1,8,0:0:0:0:
390,358,53982,1,2,0:0:0:0:
390,358,54065,1,0,0:0:0:0:
390,358,54149,2,0,P|386:310|381:262,1,93.5000028533936,10|2,0:1|0:0,0:0:0:0:
233,309,54484,1,8,0:0:0:0:
381,264,54652,1,2,0:0:0:0:
302,67,54820,6,0,P|292:112|290:170,1,93.5000028533936,8|2,0:1|0:0,0:0:0:0:
381,264,55155,1,10,0:0:0:0:
194,327,55322,1,2,0:0:0:0:
194,327,55406,1,0,0:0:0:0:
194,327,55490,2,0,P|194:279|188:231,1,93.5000028533936,10|2,0:1|0:0,0:0:0:0:
92,69,55825,1,8,0:0:0:0:
41,154,55993,6,0,B|143:181|130:124|230:149,1,187.000005706787,2|2,0:0|0:0,0:0:0:0:
285,290,56496,1,8,0:0:0:0:
363,138,56663,1,2,0:0:0:0:
363,138,56747,1,0,0:0:0:0:
363,138,56831,1,10,0:1:0:0:
443,338,56998,2,0,P|450:289|443:236,1,93.5000028533936,0|10,0:0|0:0,0:0:0:0:
416,72,57334,1,0,0:0:0:0:
416,72,57417,1,0,0:0:0:0:
416,72,57501,6,0,P|322:63|279:140,1,187.000005706787,12|10,0:1|0:0,0:0:0:0:
358,228,58004,1,2,0:0:0:0:
218,336,58172,6,0,L|197:143,1,187.000005706787,10|10,0:1|0:0,0:0:0:0:
70,105,58674,1,0,0:0:0:0:
27,253,58842,6,0,P|76:252|126:230,1,93.5000028533936,10|0,0:1|0:0,0:0:0:0:
197,56,59177,1,10,0:0:0:0:
70,105,59345,1,2,0:0:0:0:
200,211,59512,1,8,0:1:0:0:
70,105,59680,1,2,0:0:0:0:
308,31,59848,2,0,L|298:140,1,93.5000028533936,12|0,0:0|0:0,0:0:0:0:
197,56,60183,5,12,0:1:0:0:
411,83,60350,1,12,0:1:0:0:
197,56,60518,1,12,0:1:0:0:
293,234,60685,1,12,0:1:0:0:
463,185,60853,6,0,P|475:117|446:44,1,140.25000428009,12|0,0:1|0:0,0:0:0:0:
425,27,61188,1,10,0:1:0:0:
339,148,61356,2,0,B|233:117|255:179|155:150,1,187.000005706787,12|12,0:1|0:1,0:0:0:0:
236,255,61859,1,12,0:1:0:0:
204,76,62026,1,14,0:1:0:0:
214,65,62110,1,0,0:0:0:0:
222,56,62194,6,0,L|225:9,1,46.7500014266968,10|0,0:1|0:0,0:0:0:0:
43,150,62361,2,0,L|39:196,1,46.7500014266968,2|10,0:0|0:1,0:0:0:0:
174,314,62529,1,8,0:0:0:0:
208,338,62613,1,2,0:0:0:0:
250,340,62697,1,2,0:0:0:0:
289,327,62780,1,10,0:1:0:0:
311,291,62864,6,0,P|392:272|476:285,1,140.25000428009,12|0,0:1|0:0,0:0:0:0:
492,186,63199,2,0,P|440:195|399:188,1,93.5000028533936,10|0,0:0|0:0,0:0:0:0:
313,39,63535,1,10,0:1:0:0:
293,210,63702,1,2,0:0:0:0:
417,88,63870,1,8,0:0:0:0:
229,119,64037,6,0,P|187:201|219:300,1,187.000005706787,2|2,0:0|0:0,0:0:0:0:
210,288,64540,1,8,0:0:0:0:
24,245,64708,1,2,0:0:0:0:
24,245,64792,1,0,0:0:0:0:
24,245,64875,1,10,0:1:0:0:
206,171,65043,1,2,0:0:0:0:
99,339,65211,1,8,0:0:0:0:
95,137,65378,1,2,0:0:0:0:
210,288,65546,6,0,P|259:279|312:273,1,93.5000028533936,8|2,0:1|0:0,0:0:0:0:
461,115,65881,2,0,P|415:123|359:130,1,93.5000028533936,8|2,0:0|0:0,0:0:0:0:
326,134,66132,1,2,0:0:0:0:
326,134,66216,1,8,0:1:0:0:
162,163,66384,1,2,0:0:0:0:
272,47,66551,1,10,0:0:0:0:
255,206,66719,1,2,0:0:0:0:
170,67,66887,2,0,P|130:69|73:78,1,93.5000028533936,8|2,0:1|0:0,0:0:0:0:
13,175,67222,1,8,0:0:0:0:
130,232,67389,6,0,P|199:240|264:147,1,187.000005706787,2|0,0:0|0:0,0:0:0:0:
33,204,67892,2,0,P|35:254|41:304,1,93.5000028533936,12|0,0:0|0:0,0:0:0:0:
280,323,68227,6,0,P|277:263|264:154,1,170,12|0,0:1|0:0,0:0:0:0:
182,107,68730,1,8,0:1:0:0:
444,82,68898,6,0,P|438:125|434:170,1,85,8|0,0:1|0:0,0:0:0:0:
349,209,69149,6,0,P|355:166|359:121,1,85,8|0,0:1|0:0,0:0:0:0:
302,56,69401,5,12,0:1:0:0:
302,56,70239,2,0,L|259:60,2,42.5,8|0|8,0:1|0:0|0:1,0:0:0:0:
402,41,70574,1,0,0:0:0:0:
402,41,70909,5,12,0:1:0:0:
331,225,71077,1,0,0:0:0:0:
415,155,71244,2,0,P|365:141|315:137,1,101.999996887207,2|0,0:0|0:0,0:0:0:0:
246,196,71747,2,0,L|241:256,1,50.9999984436036,2|0,0:0|0:0,0:0:0:0:
232,103,72082,6,0,L|227:52,1,50.9999984436036,2|8,0:0|0:1,0:0:0:0:
160,168,72417,2,0,L|155:228,1,50.9999984436036,2|0,0:0|0:0,0:0:0:0:
0,119,72753,1,0,0:0:0:0:
0,119,72920,2,0,P|53:94|111:103,1,101.999996887207,10|2,0:0|0:0,0:0:0:0:
155,218,73423,1,2,0:0:0:0:
152,233,73507,1,2,0:0:0:0:
150,248,73591,5,10,0:1:0:0:
238,176,73758,1,10,0:1:0:0:
293,246,73926,2,0,P|332:264|402:265,1,101.999996887207,2|0,0:0|0:0,0:0:0:0:
455,208,74429,2,0,L|460:148,1,50.9999984436036,2|0,0:0|0:0,0:0:0:0:
377,48,74764,6,0,L|372:98,1,50.9999984436036,2|8,0:0|0:1,0:0:0:0:
470,292,75099,1,2,0:0:0:0:
372,189,75266,1,2,0:0:0:0:
298,238,75434,1,2,0:0:0:0:
298,238,75602,2,0,L|205:246,1,76.4999976654053,12|8,0:0|0:1,0:0:0:0:
135,251,75937,1,8,0:0:0:0:
135,251,76104,1,8,0:0:0:0:
179,110,76272,6,0,L|172:180,1,50.9999984436036,8|0,0:1|0:0,0:0:0:0:
186,328,76607,1,0,0:0:0:0:
186,328,76775,1,2,0:0:0:0:
85,171,76942,1,8,0:0:0:0:
262,175,77110,1,2,0:0:0:0:
173,241,77278,1,0,0:0:0:0:
321,294,77445,6,0,P|296:288|271:281,1,50.9999984436036,2|8,0:1|0:1,0:0:0:0:
26,294,77780,2,0,P|50:286|73:275,1,50.9999984436036,2|0,0:1|0:1,0:0:0:0:
173,138,78032,1,0,0:0:0:0:
173,138,78116,2,0,L|169:70,1,50.9999984436036,0|10,0:1|0:0,0:0:0:0:
301,84,78451,2,0,P|290:133|285:184,1,101.999996887207,0|8,0:1|0:1,0:0:0:0:
70,183,78954,6,0,P|66:158|59:134,1,50.9999984436036,10|2,0:1|0:0,0:0:0:0:
30,297,79289,2,0,P|58:277|141:280,1,101.999996887207,0|8,0:0|0:0,0:0:0:0:
221,263,79792,2,0,L|291:283,1,50.9999984436036,2|0,0:0|0:0,0:0:0:0:
384,308,80127,1,10,0:1:0:0:
381,292,80211,1,0,0:0:0:0:
378,276,80294,6,0,L|386:191,2,79.3333309122722,8|8|4,0:1|0:3|0:3,0:0:0:0:
221,263,80975,2,0,L|229:348,2,79.3333309122722,8|8|4,0:1|0:3|0:3,0:0:0:0:
223,127,81706,6,0,B|185:138|141:118|141:118|106:152|64:148,1,170,12|0,0:1|0:0,0:0:0:0:
155,214,82208,1,10,0:1:0:0:
208,36,82376,2,0,P|251:42|297:43,1,85,8|2,0:0|0:0,0:0:0:0:
410,224,82711,1,0,0:0:0:0:
449,125,82879,6,0,P|374:121|310:199,1,170,10|0,0:1|0:0,0:0:0:0:
248,353,83381,2,0,P|248:310|242:259,1,85,10|2,0:1|0:0,0:0:0:0:
150,298,83717,1,8,0:0:0:0:
349,302,83884,1,10,0:1:0:0:
150,298,84052,2,0,P|150:255|156:204,1,85,2|0,0:0|0:0,0:0:0:0:
214,106,84387,6,0,B|388:84,1,170,8|0,0:1|0:0,0:0:0:0:
343,237,84890,1,8,0:1:0:0:
294,71,85057,1,8,0:0:0:0:
488,171,85225,2,0,P|439:169|385:162,1,85,2|0,0:0|0:0,0:0:0:0:
394,165,85476,1,0,0:0:0:0:
386,165,85560,1,10,0:1:0:0:
415,283,85728,5,0,0:0:0:0:
174,220,85895,1,0,0:1:0:0:
174,220,85979,1,0,0:0:0:0:
174,220,86063,2,0,P|200:217|225:218,1,42.5,2|0,0:1|0:1,0:0:0:0:
307,313,86231,6,0,B|300:253|300:253|320:213|320:213|300:172|300:172|317:114,1,203.999993774414,12|0,0:1|0:0,0:0:0:0:
315,121,87069,6,0,L|220:118,1,85,8|2,0:1|0:0,0:0:0:0:
54,216,87404,2,0,L|141:211,1,85,2|10,0:0|0:1,0:0:0:0:
129,88,87739,1,8,0:0:0:0:
201,276,87907,1,0,0:0:0:0:
273,131,88074,1,2,0:0:0:0:
53,215,88242,6,0,P|47:256|53:300,1,85,10|0,0:1|0:0,0:0:0:0:
203,360,88577,2,0,P|207:314|199:274,1,85,0|10,0:1|0:1,0:0:0:0:
154,183,88912,6,0,L|335:159,1,170,2|10,0:0|0:1,0:0:0:0:
410,269,89415,2,0,P|371:262|309:258,1,85,0|2,0:0|0:1,0:0:0:0:
289,70,89750,5,8,0:1:0:0:
238,149,89918,2,0,P|285:158|346:160,1,85,2|2,0:1|0:1,0:0:0:0:
399,88,90253,1,10,0:1:0:0:
258,243,90421,5,8,0:0:0:0:
289,70,90588,1,8,0:1:0:0:
419,172,90756,1,2,0:0:0:0:
238,149,90923,6,0,B|178:153|178:153|152:142|152:142|121:161|121:161|59:166,1,170,10|2,0:1|0:1,0:0:0:0:
85,82,91342,1,0,0:0:0:0:
85,82,91426,2,0,P|89:48|93:15,1,42.5,0|0,0:1|0:0,0:0:0:0:
195,29,91594,2,0,P|197:50|199:71,1,42.5,2|2,0:0|0:0,0:0:0:0:
158,236,91761,1,10,0:1:0:0:
158,236,92432,6,0,B|195:226|210:212|210:212|243:239|309:228,1,136,12|0,0:1|0:0,0:0:0:0:
352,189,92935,1,2,0:0:0:0:
409,262,93102,2,0,P|440:203|414:118,1,136,0|0,0:0|0:0,0:0:0:0:
368,71,93605,6,0,L|297:80,1,68,2|0,0:0|0:0,0:0:0:0:
232,135,93940,2,0,L|164:129,1,68,0|0,0:0|0:0,0:0:0:0:
96,72,94275,2,0,P|66:114|78:214,1,136,2|0,0:0|0:0,0:0:0:0:
132,255,94778,2,0,L|214:261,1,68,2|0,0:0|0:0,0:0:0:0:
359,300,95113,6,0,B|375:254|375:254|358:168,1,136,2|2,0:0|0:0,0:0:0:0:
280,219,95616,1,0,0:0:0:0:
280,219,95784,1,2,0:0:0:0:
440,160,95951,2,0,P|432:127|416:98,1,68,2|0,0:0|0:0,0:0:0:0:
340,51,96287,6,0,B|271:38|273:79|207:68,1,136,2|0,0:0|0:0,0:0:0:0:
117,29,96789,1,0,0:0:0:0:
178,153,96957,2,0,P|227:155|275:169,1,76.4999976654053,2|0,0:0|0:0,0:0:0:0:
86,115,97292,2,0,P|56:118|-18:130,1,76.4999976654053,8|12,0:1|0:1,0:0:0:0:
44,257,97627,6,0,P|128:246|177:272,1,136,10|0,0:1|0:1,0:0:0:0:
271,343,98130,2,0,L|279:256,1,68,10|0,0:1|0:0,0:0:0:0:
338,188,98465,1,10,0:1:0:0:
413,274,98633,1,0,0:0:0:0:
338,188,98800,2,0,P|305:182|262:181,1,68,10|2,0:1|0:1,0:0:0:0:
313,273,99136,5,8,0:1:0:0:
433,158,99303,1,2,0:1:0:0:
446,337,99471,1,8,0:1:0:0:
338,188,99638,6,0,P|342:122|351:39,1,136,2|8,0:0|0:1,0:0:0:0:
349,52,100141,1,8,0:0:0:0:
110,306,100476,6,0,L|119:376,1,59.4999981842042,12|0,0:1|0:0,0:0:0:0:
187,229,100811,2,0,L|179:169,1,59.4999981842042,8|2,0:0|0:0,0:0:0:0:
125,106,101146,1,2,0:0:0:0:
191,54,101314,2,0,P|220:53|249:60,1,59.4999981842042,8|8,0:1|0:0,0:0:0:0:
317,108,101649,6,0,L|451:91,1,118.999996368408,2|0,0:0|0:0,0:0:0:0:
480,163,102152,1,8,0:0:0:0:
428,228,102319,2,0,L|412:357,1,118.999996368408,2|8,0:0|0:1,0:0:0:0:
343,232,102822,1,10,0:0:0:0:
503,317,102990,1,2,0:0:0:0:
328,367,103158,6,0,L|252:362,1,59.4999981842042,10|0,0:1|0:0,0:0:0:0:
443,315,103493,2,0,L|502:316,1,59.4999981842042,8|2,0:0|0:0,0:0:0:0:
383,256,103828,1,0,0:0:0:0:
432,189,103996,2,0,P|439:160|442:130,1,59.4999981842042,8|10,0:1|0:0,0:0:0:0:
392,62,104331,6,0,P|339:39|271:56,1,118.999996368408,2|0,0:0|0:0,0:0:0:0:
229,115,104833,1,0,0:0:0:0:
265,204,105001,1,2,0:0:0:0:
265,204,105085,1,2,0:0:0:0:
265,204,105169,5,8,0:1:0:0:
197,28,105336,1,12,0:0:0:0:
170,171,105504,1,8,0:1:0:0:
170,171,105588,1,0,0:0:0:0:
170,171,105672,6,0,P|229:113|311:120,1,170,14|0,0:1|0:0,0:0:0:0:
397,183,106175,2,0,P|413:143|417:101,1,85,10|0,0:0|0:0,0:0:0:0:
265,204,106510,1,10,0:1:0:0:
347,271,106677,2,0,L|355:380,1,85,0|8,0:0|0:0,0:0:0:0:
265,204,107013,6,0,L|163:192,1,85,2|8,0:0|0:1,0:0:0:0:
360,164,107347,1,0,0:0:0:0:
254,310,107515,1,8,0:0:0:0:
268,97,107683,6,0,B|339:41|339:41|416:69,1,170,12|10,0:1|0:1,0:0:0:0:
413,68,108186,1,8,0:0:0:0:
381,298,108521,6,0,L|358:151,1,136,12|0,0:1|0:0,0:0:0:0:
455,152,109024,1,8,0:1:0:0:
455,152,109192,2,0,P|474:198|474:249,2,102,12|12|12,0:0|0:0|0:1,0:0:0:0:
350,96,109862,6,0,L|258:112,1,68,0|0,0:0|0:0,0:0:0:0:
164,190,110197,1,0,0:0:0:0:
141,90,110365,1,8,0:1:0:0:
141,90,110449,1,0,0:0:0:0:
141,90,110532,2,0,P|197:81|240:111,1,90.6666666666667,0|0,0:0|0:0,0:0:0:0:
265,203,110868,2,0,L|162:189,1,102,8|0,0:1|0:0,0:0:0:0:
48,146,111203,6,0,P|65:206|39:288,1,136,12|0,0:1|0:0,0:0:0:0:
48,276,111706,1,8,0:1:0:0:
143,322,111873,2,0,L|251:298,1,102,12|12,0:0|0:0,0:0:0:0:
223,207,112376,6,0,P|294:198|362:255,1,136,12|0,0:1|0:0,0:0:0:0:
413,321,112879,1,0,0:0:0:0:
378,147,113046,1,8,0:1:0:0:
450,225,113214,2,0,L|324:251,1,102,8|8,0:0|0:1,0:0:0:0:
350,245,113549,1,8,0:1:0:0:
460,96,113884,6,0,P|414:60|316:72,1,136,12|0,0:1|0:0,0:0:0:0:
350,245,114387,1,0,0:0:0:0:
378,147,114555,2,0,L|257:174,1,102,12|12,0:0|0:0,0:0:0:0:
133,304,115057,6,0,P|125:235|113:149,1,136,12|0,0:1|0:0,0:0:0:0:
58,78,115560,1,0,0:0:0:0:
230,149,115728,1,8,0:1:0:0:
167,10,115895,2,0,P|162:43|159:77,1,68,0|0,0:0|0:0,0:0:0:0:
289,10,116231,2,0,P|294:43|297:77,1,68,10|2,0:0|0:0,0:0:0:0:
230,149,116566,5,10,0:1:0:0:
218,132,119247,6,0,L|226:223,1,68,12|12,0:1|0:1,0:0:0:0:
312,150,119583,1,12,0:1:0:0:
127,182,119750,1,12,0:1:0:0:
312,150,119918,2,0,P|347:139|403:131,1,68,8|12,0:0|0:1,0:0:0:0:
440,227,120253,1,12,0:1:0:0:
210,267,120421,6,0,P|214:207|218:123,1,136,12|8,0:1|0:0,0:0:0:0:
279,50,120923,1,8,0:0:0:0:
312,150,121091,1,0,0:0:0:0:
312,150,121175,1,2,0:0:0:0:
312,150,121259,1,8,0:1:0:0:
130,76,121426,1,10,0:1:0:0:
134,187,121761,6,0,P|203:129|293:140,1,187.000005706787,12|2,0:1|0:0,0:0:0:0:
395,193,122264,2,0,P|391:146|400:100,1,93.5000028533936,10|2,0:0|0:0,0:0:0:0:
305,236,122599,1,8,0:1:0:0:
489,163,122767,1,2,0:0:0:0:
491,181,122851,1,0,0:0:0:0:
493,199,122935,1,8,0:0:0:0:
396,292,123102,6,0,B|329:290|329:290|291:262|291:262|218:261,1,187.000005706787,2|2,0:0|0:0,0:0:0:0:
254,357,123605,1,8,0:0:0:0:
366,185,123773,1,2,0:0:0:0:
366,185,123856,1,0,0:0:0:0:
366,185,123940,2,0,P|413:187|458:177,1,93.5000028533936,10|2,0:1|0:0,0:0:0:0:
254,357,124275,1,8,0:0:0:0:
217,261,124443,1,2,0:0:0:0:
217,261,124527,1,0,0:0:0:0:
217,261,124611,6,0,P|171:209|36:228,1,187.000005706787,8|10,0:1|0:0,0:0:0:0:
11,297,125113,1,2,0:0:0:0:
136,69,125281,2,0,P|151:114|152:160,1,93.5000028533936,10|2,0:1|0:0,0:0:0:0:
11,297,125616,1,8,0:0:0:0:
253,110,125784,6,0,P|300:107|347:97,1,93.5000028533936,2|8,0:0|0:1,0:0:0:0:
107,253,126119,2,0,P|151:260|202:276,1,93.5000028533936,2|8,0:0|0:0,0:0:0:0:
313,326,126454,1,2,0:0:0:0:
313,326,126538,1,0,0:0:0:0:
313,326,126622,2,0,L|302:207,1,93.5000028533936,10|0,0:1|0:0,0:0:0:0:
131,356,126957,1,10,0:0:0:0:
49,116,127124,1,0,0:0:0:0:
49,116,127208,1,0,0:0:0:0:
49,116,127292,6,0,B|148:85|135:161|229:137,1,187.000005706787,12|10,0:1|0:0,0:0:0:0:
195,44,127795,1,2,0:0:0:0:
87,216,127962,2,0,P|76:261|78:308,1,93.5000028533936,10|0,0:1|0:0,0:0:0:0:
324,198,128298,2,0,P|335:152|335:106,1,93.5000028533936,10|0,0:0|0:0,0:0:0:0:
390,300,128633,6,0,P|330:232|239:226,1,187.000005706787,10|10,0:1|0:0,0:0:0:0:
162,305,129136,1,2,0:0:0:0:
239,132,129303,1,8,0:1:0:0:
290,322,129471,1,2,0:0:0:0:
239,132,129638,2,0,L|238:239,1,93.5000028533936,12|0,0:0|0:0,0:0:0:0:
175,56,129974,5,12,0:1:0:0:
332,175,130141,1,12,0:1:0:0:
130,162,130309,1,12,0:1:0:0:
323,65,130476,1,12,0:1:0:0:
240,379,130644,2,0,P|212:315|221:246,1,140.25000428009,12|0,0:1|0:0,0:0:0:0:
238,225,130979,1,10,0:1:0:0:
456,234,131147,6,0,P|407:227|363:218,1,93.5000028533936,12|0,0:1|0:0,0:0:0:0:
314,129,131482,1,12,0:1:0:0:
388,320,131650,1,12,0:1:0:0:
170,299,131817,1,14,0:1:0:0:
170,299,131901,1,0,0:0:0:0:
170,299,131985,6,0,L|172:252,1,46.7500014266968,10|0,0:1|0:0,0:0:0:0:
277,227,132152,2,0,L|274:273,1,46.7500014266968,2|10,0:0|0:1,0:0:0:0:
169,136,132320,5,8,0:0:0:0:
210,147,132404,1,2,0:0:0:0:
251,140,132488,1,2,0:0:0:0:
286,118,132571,1,10,0:1:0:0:
310,83,132655,5,12,0:1:0:0:
210,38,132823,1,0,0:0:0:0:
382,176,132990,2,0,P|365:219|358:273,1,93.5000028533936,10|0,0:0|0:0,0:0:0:0:
462,250,133326,1,10,0:1:0:0:
256,253,133493,1,2,0:0:0:0:
258,271,133577,1,2,0:0:0:0:
260,289,133661,1,8,0:0:0:0:
281,150,133828,6,0,B|197:127|194:204|103:182,1,187.000005706787,2|2,0:0|0:0,0:0:0:0:
129,83,134331,1,8,0:0:0:0:
242,345,134499,1,2,0:0:0:0:
242,345,134583,1,0,0:0:0:0:
242,345,134666,2,0,P|241:298|250:252,1,93.5000028533936,10|2,0:1|0:0,0:0:0:0:
344,305,135002,1,8,0:0:0:0:
165,205,135169,6,0,P|255:212|317:146,1,187.000005706787,2|2,0:0|0:0,0:0:0:0:
297,50,135672,1,8,0:0:0:0:
403,200,135840,1,2,0:0:0:0:
403,200,135923,1,2,0:0:0:0:
403,200,136007,1,8,0:1:0:0:
217,115,136175,2,0,L|113:100,1,93.5000028533936,2|10,0:0|0:0,0:0:0:0:
59,173,136510,1,2,0:0:0:0:
297,50,136678,5,8,0:1:0:0:
162,300,136845,2,0,P|154:253|156:207,1,93.5000028533936,2|8,0:0|0:0,0:0:0:0:
396,43,137180,1,2,0:0:0:0:
390,60,137264,1,0,0:0:0:0:
386,78,137348,1,10,0:1:0:0:
434,159,137516,1,0,0:0:0:0:
331,159,137683,2,0,P|286:149|242:133,1,93.5000028533936,12|0,0:0|0:0,0:0:0:0:
58,272,138018,6,0,P|139:249|224:246,1,170,12|0,0:1|0:0,0:0:0:0:
290,311,138521,1,8,0:1:0:0:
247,153,138689,6,0,P|204:153|162:158,1,85,8|0,0:1|0:0,0:0:0:0:
94,82,138940,6,0,P|131:73|195:67,1,85,8|0,0:1|0:0,0:0:0:0:
249,9,139192,5,12,0:1:0:0:
256,160,140197,1,8,0:1:0:0:
448,64,140365,2,0,P|391:74|326:39,1,127.5,8|2,0:0|0:0,0:0:0:0:
299,23,140700,5,12,0:1:0:0:
358,239,140868,1,2,0:0:0:0:
256,160,141035,2,0,B|296:143|296:143|356:156,1,85,8|2,0:0|0:0,0:0:0:0:
448,64,141370,1,0,0:0:0:0:
358,239,141538,1,10,0:1:0:0:
358,239,141622,1,0,0:0:0:0:
358,239,141706,1,10,0:0:0:0:
250,70,141873,6,0,B|169:45|177:111|86:90,1,170,10|10,0:1|0:1,0:0:0:0:
127,254,142376,1,8,0:0:0:0:
237,157,142543,1,2,0:0:0:0:
237,157,142627,1,0,0:0:0:0:
237,157,142711,2,0,L|242:210,1,42.5,2|0,0:0|0:0,0:0:0:0:
130,296,142879,2,0,L|125:243,1,42.5,10|0,0:1|0:0,0:0:0:0:
111,130,143046,1,8,0:0:0:0:
233,285,143214,6,0,P|291:227|372:245,1,170,2|2,0:0|0:0,0:0:0:0:
317,322,143717,1,8,0:0:0:0:
485,253,143884,1,2,0:0:0:0:
349,180,144052,1,0,0:0:0:0:
415,311,144219,2,0,L|422:353,2,42.5,10|0|10,0:1|0:0|0:0,0:0:0:0:
371,93,144555,6,0,B|315:99|315:99|273:140|273:140|208:149,1,170,2|2,0:0|0:0,0:0:0:0:
140,68,145057,2,0,L|245:55,1,85,10|10,0:0|0:1,0:0:0:0:
433,169,145393,2,0,L|328:182,1,85,0|10,0:0|0:1,0:0:0:0:
318,195,145644,1,2,0:0:0:0:
305,226,145728,1,10,0:0:0:0:
313,258,145812,1,2,0:0:0:0:
335,283,145895,2,0,L|331:340,1,42.5,2|2,0:0|0:0,0:0:0:0:
175,337,146063,6,0,P|181:290|186:235,1,85,12|0,0:1|0:0,0:0:0:0:
250,83,146398,2,0,P|246:130|241:175,1,85,8|2,0:0|0:0,0:0:0:0:
313,258,146733,1,2,0:0:0:0:
157,115,146901,1,10,0:1:0:0:
157,115,146985,1,0,0:0:0:0:
157,115,147069,1,8,0:0:0:0:
276,4,147236,6,0,B|308:13|334:36|334:36|377:10|410:11,1,127.5,12|0,0:1|0:0,0:0:0:0:
414,16,147571,1,10,0:1:0:0:
303,147,147739,1,8,0:0:0:0:
475,116,147907,2,0,L|365:106,1,85,12|0,0:1|0:0,0:0:0:0:
408,245,148242,1,2,0:0:0:0:
377,107,148409,1,8,0:0:0:0:
238,225,148577,6,0,L|338:236,1,85,12|0,0:1|0:0,0:0:0:0:
299,340,148912,1,2,0:0:0:0:
372,144,149080,1,8,0:0:0:0:
421,278,149247,1,2,0:0:0:0:
238,225,149415,5,10,0:1:0:0:
437,78,149583,1,10,0:1:0:0:
274,86,149750,2,0,L|280:32,1,42.5,10|2,0:0|0:0,0:0:0:0:
189,144,149918,6,0,P|139:197|175:296,1,170,12|10,0:1|0:1,0:0:0:0:
285,345,150421,1,10,0:0:0:0:
282,236,150588,6,0,B|322:209|322:209|419:256,1,113.333333333333,10|0,0:1|0:0,0:0:0:0:
512,158,150923,6,0,P|473:169|384:136,1,127.5,10|0,0:1|0:0,0:0:0:0:
252,84,151259,6,0,B|342:111|334:34|432:65,1,170,12|0,0:1|0:0,0:0:0:0:
288,5,151761,1,8,0:0:0:0:
193,160,151929,1,2,0:0:0:0:
193,160,152013,1,2,0:0:0:0:
193,160,152097,6,0,P|125:173|74:133,1,127.5,10|2,0:1|0:0,0:0:0:0:
144,93,152432,2,0,L|155:9,1,85,0|2,0:0|0:0,0:0:0:0:
187,245,152767,6,0,B|161:185|193:159|193:159|240:174,1,127.5,10|2,0:1|0:0,0:0:0:0:
289,218,153102,2,0,L|394:203,1,85,0|2,0:0|0:0,0:0:0:0:
256,312,153437,1,8,0:1:0:0:
300,131,153605,1,2,0:0:0:0:
256,312,153773,1,8,0:0:0:0:
115,198,153940,1,2,0:0:0:0:
115,198,154024,1,0,0:0:0:0:
115,198,154108,6,0,B|134:149|134:149|121:104|113:58,1,127.5,12|12,0:1|0:1,0:0:0:0:
105,38,154443,2,0,P|147:52|206:44,1,85,0|12,0:0|0:1,0:0:0:0:
342,62,154778,6,0,P|274:53|217:104,1,127.5,12|12,0:1|0:1,0:0:0:0:
206,132,155113,2,0,L|182:29,1,85,0|12,0:0|0:1,0:0:0:0:
295,134,155365,1,0,0:0:0:0:
295,134,155449,6,0,P|287:167|283:206,2,56.6666666666667,10|10|2,0:1|0:1|0:0,0:0:0:0:
374,185,155784,2,0,P|378:213|385:240,2,56.6666666666667,10|10|2,0:0|0:1|0:0,0:0:0:0:
295,338,156119,6,0,P|303:305|307:272,3,42.5,2|2|10|2,0:0|0:0|0:1|0:0,0:0:0:0:
218,283,156454,2,0,P|213:254|208:229,3,42.5,10|2|10|2,0:0|0:0|0:1|0:0,0:0:0:0:
117,262,156789,6,0,P|107:213|92:167,1,85,12|0,0:1|0:0,0:0:0:0:
204,63,157124,2,0,P|195:106|189:159,1,85,10|2,0:0|0:0,0:0:0:0:
27,63,157460,6,0,P|76:71|121:90,1,85,8|2,0:1|0:0,0:0:0:0:
189,146,157795,2,0,P|234:138|285:121,1,85,10|2,0:0|0:0,0:0:0:0:
358,56,158130,6,0,L|373:159,1,85,12|2,0:1|0:0,0:0:0:0:
393,164,158381,1,2,0:0:0:0:
426,167,158465,2,0,P|448:158|483:147,3,42.5,10|2|2|2,0:0|0:0|0:0|0:0,0:0:0:0:
379,250,158800,2,0,P|357:241|322:230,3,42.5,10|2|2|2,0:1|0:0|0:0|0:0,0:0:0:0:
254,262,159136,1,10,0:0:0:0:
221,271,159219,1,0,0:0:0:0:
198,296,159303,1,10,0:0:0:0:
189,329,159387,1,0,0:0:0:0:
195,362,159471,6,0,P|147:352|82:346,1,85,10|0,0:0|0:1,0:0:0:0:
102,348,159722,1,0,0:1:0:0:
94,351,159806,1,10,0:0:0:0:
120,252,159974,2,0,P|115:205|104:159,1,85,10|10,0:0|0:0,0:0:0:0:
103,160,160225,1,0,0:0:0:0:
100,152,160309,1,10,0:0:0:0:
28,96,160476,1,10,0:0:0:0:
165,27,160644,1,10,0:0:0:0:
199,125,160812,5,10,0:0:0:0:
23,243,160979,1,10,0:0:0:0:
28,96,161147,2,0,P|52:80|69:74,1,42.5,10|2,0:0|0:0,0:0:0:0:
199,125,161314,2,0,P|219:136|250:144,1,42.5,10|2,0:0|0:0,0:0:0:0:
347,61,161482,5,10,0:0:0:0:
357,74,161650,1,10,0:0:0:0:
367,87,161817,1,10,0:0:0:0:
431,157,161985,1,12,0:1:0:0:
256,192,167516,5,8,0:1:0:0:
321,175,172879,6,0,P|270:138|190:141,1,118.999996368408,12|0,0:1|0:0,0:0:0:0:
133,121,173381,1,8,0:1:0:0:
152,202,173549,2,0,P|160:230|163:260,1,59.4999981842042,8|0,0:0|0:0,0:0:0:0:
74,288,174052,6,0,B|163:268|153:335|245:319,1,178.499994552612,8|8,0:1|0:1,0:0:0:0:
310,268,174722,1,0,0:0:0:0:
366,206,174890,2,0,P|366:176|368:146,1,59.4999981842042,8|8,0:0|0:1,0:0:0:0:
219,177,175225,2,0,P|221:206|221:236,1,59.4999981842042,0|0,0:0|0:0,0:0:0:0:
282,124,175560,6,0,P|196:116|144:47,1,178.499994552612,8|8,0:1|0:1,0:0:0:0:
74,93,176231,1,8,0:0:0:0:
104,168,176398,2,0,P|124:222|131:292,1,118.999996368408,0|8,0:0|0:1,0:0:0:0:
370,354,176901,6,0,L|378:257,1,89.2499972763062,8|0,0:1|0:0,0:0:0:0:
380,244,177236,1,0,0:0:0:0:
224,220,177404,2,0,L|216:142,1,59.4999981842042,8|0,0:1|0:0,0:0:0:0:
200,66,177739,1,8,0:1:0:0:
490,158,177907,2,0,P|431:162|382:127,1,118.999996368408,8|8,0:0|0:1,0:0:0:0:
297,81,178912,5,0,0:0:0:0:
291,140,179080,2,0,L|296:80,1,59.4999981842042,2|8,0:0|0:1,0:0:0:0:
214,39,179415,6,0,P|176:124|203:204,1,152.999995330811,10|10,0:1|0:1,0:0:0:0:
358,220,179918,2,0,P|371:168|360:115,1,76.4999976654053,10|10,0:1|0:1,0:0:0:0:
294,312,180253,1,10,0:1:0:0:
294,312,180337,1,10,0:1:0:0:
294,312,180421,2,0,L|342:303,1,38.2499988327027,2|0,0:0|0:0,0:0:0:0:
181,309,180588,2,0,L|172:357,1,38.2499988327027,0|0,0:0|0:0,0:0:0:0:
255,205,180756,6,0,P|205:196|72:177,1,170,12|2,0:1|0:0,0:0:0:0:
42,265,181259,1,8,0:0:0:0:
138,101,181426,1,2,0:0:0:0:
224,282,181594,2,0,P|263:289|331:255,1,85,10|0,0:1|0:0,0:0:0:0:
371,172,181929,1,8,0:0:0:0:
269,92,182097,1,2,0:0:0:0:
461,59,182264,6,0,L|454:156,1,85,8|2,0:1|0:0,0:0:0:0:
320,316,182599,2,0,L|313:219,1,85,10|2,0:0|0:0,0:0:0:0:
368,120,182935,1,10,0:1:0:0:
228,191,183102,2,0,L|174:182,2,42.5,2|0|8,0:0|0:0|0:0,0:0:0:0:
447,181,183437,6,0,P|360:172|312:236,1,170,2|2,0:0|0:0,0:0:0:0:
389,340,183940,1,8,0:0:0:0:
228,191,184108,1,2,0:0:0:0:
228,191,184192,1,0,0:0:0:0:
228,191,184275,1,10,0:1:0:0:
405,258,184443,2,0,L|501:246,1,85,0|10,0:0|0:0,0:0:0:0:
260,324,184778,1,0,0:0:0:0:
260,324,184862,1,0,0:0:0:0:
260,324,184946,6,0,B|176:294|173:353|65:311,1,170,12|10,0:1|0:0,0:0:0:0:
37,215,185449,1,2,0:0:0:0:
157,67,185616,6,0,L|143:243,1,170,10|10,0:1|0:0,0:0:0:0:
260,324,186119,1,0,0:0:0:0:
326,223,186287,2,0,L|314:138,1,85,10|0,0:1|0:0,0:0:0:0:
246,44,186622,1,10,0:0:0:0:
409,138,186789,1,2,0:0:0:0:
230,199,186957,1,8,0:1:0:0:
409,138,187124,1,2,0:0:0:0:
379,260,187292,2,0,L|389:348,1,85,12|2,0:0|0:0,0:0:0:0:
293,329,187627,5,12,0:1:0:0:
480,292,187795,1,12,0:1:0:0:
293,329,187962,1,12,0:1:0:0:
368,183,188130,1,12,0:1:0:0:
200,67,188298,6,0,P|176:130|189:216,1,127.5,12|0,0:1|0:0,0:0:0:0:
191,219,188633,1,10,0:1:0:0:
316,106,188800,2,0,P|397:95|459:151,1,170,12|12,0:1|0:1,0:0:0:0:
275,284,189303,2,0,L|284:184,1,85,12|14,0:1|0:1,0:0:0:0:
251,185,189555,1,0,0:0:0:0:
218,193,189638,1,10,0:1:0:0:
185,181,189722,1,0,0:0:0:0:
155,198,189806,2,0,L|99:206,1,42.5,10|0,0:1|0:0,0:0:0:0:
35,311,189974,6,0,L|91:319,1,42.5,8|0,0:0|0:0,0:0:0:0:
199,358,190141,2,0,L|194:301,1,42.5,10|0,0:1|0:0,0:0:0:0:
165,90,190309,5,0,0:0:0:0:
165,90,190644,6,0,P|212:88|268:75,1,85,12|0,0:0|0:0,0:0:0:0:
424,164,190979,2,0,P|377:166|321:179,1,85,10|2,0:1|0:0,0:0:0:0:
276,262,191314,1,8,0:0:0:0:
339,90,191482,1,2,0:0:0:0:
389,249,191650,6,0,L|383:343,1,85,8|2,0:1|0:0,0:0:0:0:
270,177,191985,2,0,L|276:271,1,85,8|2,0:0|0:0,0:0:0:0:
276,273,192236,1,0,0:0:0:0:
277,284,192320,1,10,0:1:0:0:
177,162,192488,1,2,0:0:0:0:
339,90,192655,1,10,0:0:0:0:
127,96,192823,6,0,P|100:195|155:243,1,170,2|2,0:0|0:0,0:0:0:0:
222,54,193326,1,8,0:0:0:0:
310,182,193493,1,2,0:0:0:0:
310,182,193577,1,2,0:0:0:0:
310,182,193661,5,10,0:1:0:0:
177,162,193828,1,2,0:0:0:0:
310,68,193996,1,10,0:0:0:0:
345,258,194164,1,2,0:0:0:0:
345,258,194331,6,0,P|289:266|171:291,1,170,10|0,0:1|0:0,0:0:0:0:
92,150,194834,2,0,P|137:154|183:163,1,85,2|0,0:0|0:0,0:0:0:0:
46,237,195169,1,0,0:0:0:0:
130,60,195337,1,12,0:0:0:0:
163,240,195504,1,0,0:0:0:0:
254,159,195672,6,0,L|267:13,1,136,12|0,0:1|0:0,0:0:0:0:
266,23,196175,1,8,0:1:0:0:
356,122,196342,6,0,P|411:112|442:100,1,68,8|0,0:1|0:0,0:0:0:0:
299,209,196594,6,0,P|262:166|236:145,1,68,8|0,0:1|0:0,0:0:0:0:
400,219,196845,5,12,0:1:0:0:
400,219,197348,6,0,P|398:235|396:252,2,34,0|8|8,0:0|0:1|0:1,0:0:0:0:
491,245,197851,5,8,0:1:0:0:
342,134,198018,1,12,0:0:0:0:
300,214,198186,1,0,0:0:0:0:
432,50,198354,6,0,P|444:90|444:132,1,85,12|2,0:1|0:1,0:0:0:0:
243,135,198689,1,8,0:0:0:0:
404,219,198856,1,0,0:0:0:0:
220,308,199024,2,0,P|207:267|207:225,1,85,10|0,0:1|0:0,0:0:0:0:
354,100,199359,1,10,0:0:0:0:
129,105,199527,6,0,P|211:108|268:49,1,170,2|2,0:1|0:1,0:0:0:0:
328,194,200030,1,8,0:0:0:0:
218,291,200197,2,2,L|227:206,1,85,2|8,0:1|0:1,0:1:0:0:
295,369,200532,1,2,0:1:0:0:
218,291,200700,1,2,0:0:0:0:
122,348,200868,1,0,0:0:0:0:
327,261,201035,6,0,L|377:256,3,42.5,10|0|2|2,0:1|0:1|0:0|0:0,0:0:0:0:
122,236,201370,2,0,L|72:231,3,42.5,10|0|2|2,0:1|0:1|0:0|0:1,0:0:0:0:
237,119,201706,2,0,P|225:159|224:201,1,85,10|0,0:1|0:0,0:0:0:0:
324,166,202041,1,10,0:0:0:0:
144,79,202208,6,0,P|228:81|290:26,1,170,2|2,0:1|0:1,0:0:0:0:
354,247,202711,1,8,0:0:0:0:
388,153,202879,1,0,0:1:0:0:
388,153,202962,1,0,0:1:0:0:
388,153,203046,2,0,L|346:144,3,42.5,10|2|2|2,0:0|0:0|0:0|0:1,0:0:0:0:
255,274,203381,6,0,P|254:252|253:231,1,42.5,12|2,0:0|0:0,0:0:0:0:
477,134,203549,2,0,P|475:155|475:176,1,42.5,2|2,0:0|0:1,0:0:0:0:
354,247,203717,5,12,0:0:0:0:
155,145,203884,2,0,P|197:146|237:134,1,85,2|8,0:1|0:1,0:0:0:0:
307,58,204219,1,0,0:0:0:0:
436,257,204387,2,0,P|395:244|353:246,1,85,10|0,0:1|0:0,0:0:0:0:
386,344,204722,1,10,0:1:0:0:
260,288,204890,6,0,P|258:205|322:144,1,170,2|2,0:1|0:1,0:0:0:0:
353,246,205393,1,8,0:1:0:0:
167,159,205560,2,2,P|167:116|156:75,1,85,2|8,0:1|0:1,0:1:0:0:
444,294,205895,2,0,P|444:251|455:210,1,85,0|10,0:1|0:1,0:0:0:0:
404,115,206231,1,0,0:0:0:0:
404,115,206314,1,0,0:0:0:0:
404,115,206398,6,0,L|457:108,3,42.5,10|0|0|0,0:1|0:0|0:0|0:0,0:0:0:0:
326,208,206733,2,0,L|273:201,3,42.5,10|0|0|0,0:1|0:0|0:0|0:0,0:0:0:0:
213,128,207069,5,10,0:1:0:0:
402,280,207236,1,8,0:1:0:0:
181,358,207404,1,10,0:1:0:0:
422,185,207571,5,12,0:0:0:0:
302,297,207739,1,8,0:1:0:0:
474,348,207907,1,8,0:1:0:0:
326,208,208074,1,10,0:2:0:0:
181,358,208242,6,0,L|188:262,1,85,8|8,0:1|0:1,0:0:0:0:
425,227,208577,1,0,0:0:0:0:
425,227,208661,1,0,0:0:0:0:
425,227,208745,2,0,L|425:307,2,42.5,8|0|0,0:0|0:0|0:0,0:0:0:0:
362,111,209080,6,0,P|330:123|296:128,1,68,8|0,0:1|0:0,0:0:0:0:
91,143,209415,2,0,P|154:143|209:197,1,136,2|0,0:0|0:0,0:0:0:0:
124,306,209918,1,2,0:0:0:0:
123,306,210253,6,0,P|123:272|118:238,1,68,2|0,0:0|0:0,0:0:0:0:
308,225,210588,2,0,P|307:191|312:157,1,68,0|0,0:0|0:0,0:0:0:0:
197,34,210923,1,0,0:0:0:0:
213,36,211007,1,0,0:0:0:0:
229,38,211091,1,0,0:0:0:0:
214,138,211259,1,0,0:0:0:0:
330,58,211426,1,0,0:0:0:0:
412,153,211594,1,0,0:0:0:0:
314,326,211761,6,0,P|320:279|313:233,1,93.5000028533936,12|0,0:1|0:0,0:0:0:0:
312,157,212013,2,0,L|307:218,1,46.7500014266968,8|0,0:0|0:0,0:0:0:0:
221,116,212264,6,0,P|307:123|374:57,1,178.499994552612,12|0,0:1|0:0,0:0:0:0:
