osu file format v14

[General]
AudioFilename: audio.mp3
AudioLeadIn: 0
PreviewTime: 178912
Countdown: 0
SampleSet: Soft
StackLeniency: 0.7
Mode: 0
LetterboxInBreaks: 0
WidescreenStoryboard: 1

[Editor]
DistanceSpacing: 1
BeatDivisor: 4
GridSize: 4
TimelineZoom: 1.499999

[Metadata]
Title:Luminous Rage
TitleUnicode:Luminous Rage
Artist:Endorfin.
ArtistUnicode:Endorfin.
Creator:Kibbleru
Version:Doormat's Normal
Source:
Tags:dnb Horizon Note Aitsuki Nakuru 藍月なくる sky_delta sky delta toybot doormat akitoshi hazu- mikii
BeatmapID:1180714
BeatmapSetID:492845

[Difficulty]
HPDrainRate:4
CircleSize:3.3
OverallDifficulty:4
ApproachRate:5
SliderMultiplier:1.1
SliderTickRate:1

[Events]
//Background and Video events
0,0,"689004.jpg",0,0
//Break Periods
2,71109,80506
2,162185,171679
//Storyboard Layer 0 (Background)
//Storyboard Layer 1 (Fail)
//Storyboard Layer 2 (Pass)
//Storyboard Layer 3 (Foreground)
//Storyboard Sound Samples

[TimingPoints]
-152,335.195530726257,4,2,1,60,1,0
6551,-100,4,2,2,60,0,0
11915,-100,4,2,2,70,0,0
16607,-100,4,2,1,70,0,0
17278,-100,4,2,2,70,0,0
21803,-100,4,2,1,50,0,0
27836,-100,4,2,2,70,0,0
30015,-100,4,2,1,60,0,0
30685,-100,4,2,1,60,0,0
35881,-100,4,2,2,70,0,0
37892,-100,4,2,1,60,0,0
38730,-100,4,2,1,60,0,0
46775,-100,4,2,1,50,0,0
49456,-100,4,2,1,70,0,0
51970,-100,4,2,1,80,0,1
62194,-100,4,2,2,80,0,0
62361,-100,4,2,1,80,0,0
62864,-100,4,2,1,80,0,1
68227,-100,4,2,1,80,0,0
70239,-100,4,2,1,60,0,0
70909,-100,4,2,1,60,0,0
80294,340.909090909091,4,2,1,60,1,0
80975,365.853658536585,4,2,1,60,1,0
81706,335.195530726257,4,2,2,70,1,0
91510,-100,4,2,1,70,0,0
92432,-100,4,2,1,50,0,0
97627,-100,4,2,2,70,0,0
99638,-100,4,2,1,60,0,0
100476,-100,4,2,1,60,0,0
105672,-100,4,2,2,70,0,0
107683,-100,4,2,1,60,0,0
108521,-100,4,2,1,60,0,0
116566,-100,4,2,1,50,0,0
119247,-100,4,2,1,70,0,0
121761,-100,4,2,1,80,0,1
131817,-100,4,2,2,80,0,1
131985,-100,4,2,1,80,0,0
132655,-100,4,2,1,80,0,1
138018,-100,4,2,1,80,0,0
140197,-100,4,2,1,70,0,0
140532,-100,4,2,1,70,0,0
151929,-100,4,2,1,60,0,0
154108,-100,4,2,1,70,0,0
159471,-100,4,2,1,80,0,0
161985,-100,4,2,1,80,0,0
172879,-100,4,2,1,50,0,0
179415,-100,4,2,1,70,0,0
180756,-100,4,2,1,80,0,1
189471,-100,4,2,2,80,0,1
189974,-100,4,2,2,80,0,0
190141,-100,4,2,1,80,0,0
190644,-100,4,2,1,80,0,1
195672,-100,4,2,1,80,0,0
196678,-100,4,2,1,60,0,0
198354,-100,4,2,2,70,0,0
201119,-100,4,2,1,70,0,0
201370,-100,4,2,2,70,0,0
203046,-100,4,2,1,70,0,0
203717,-100,4,2,2,70,0,0
208577,-100,4,2,2,60,0,0
209080,-100,4,2,1,50,0,0
211761,-100,4,2,1,60,0,0

[Colours]
Combo1 : 208,208,208
Combo2 : 151,201,255
Combo3 : 95,54,235

[HitObjects]
392,140,518,6,0,B|374:156|374:156|348:136|348:136|327:157|327:157|310:135|310:135|288:156|288:156|264:140|264:140|250:163|200:148,1,220,8|12,0:1|0:1,0:0:0:0:
172,128,1356,2,0,L|176:196,1,55,2|2,0:2|0:0,0:0:0:0:
216,284,1859,2,0,L|212:338,2,55,0|2|0,0:0|0:0|0:0,0:0:0:0:
260,252,2361,1,2,0:0:0:0:
364,292,2697,1,2,0:0:0:0:
404,188,3032,2,0,P|400:140|384:64,1,110,0|8,0:1|0:1,0:0:0:0:
360,32,3535,1,2,0:1:0:0:
252,56,3870,6,0,P|212:56|184:52,2,55,12|12|12,0:1|0:1|0:1,0:0:0:0:
284,160,4540,1,2,0:0:0:0:
284,160,4708,2,0,P|255:188|233:205,1,55,0|0,0:0|0:0,0:0:0:0:
191,215,5043,2,0,P|139:201|84:205,1,110,2|2,0:0|0:0,0:0:0:0:
72,316,5713,2,0,P|124:330|179:326,1,110,0|8,0:1|0:1,0:0:0:0:
232,308,6216,1,0,0:0:0:0:
304,224,6551,6,0,P|304:168|296:108,2,110,12|10|0,0:1|0:0|0:0,0:0:0:0:
336,268,7389,2,0,L|400:248,1,55,0|8,0:2|0:0,0:0:0:0:
440,232,7725,1,10,0:1:0:0:
484,132,8060,1,8,0:1:0:0:
402,59,8395,2,0,B|392:55|380:52|380:52|362:61|362:61|347:53|347:53|322:67|282:55,1,110,2|10,0:1|0:1,0:0:0:0:
244,52,8898,1,8,0:0:0:0:
136,24,9233,6,0,P|109:18|81:15,2,55,8|8|10,0:1|0:1|0:1,0:0:0:0:
244,52,9903,2,0,P|270:46|298:43,2,55,2|8|8,0:1|0:1|0:1,0:0:0:0:
212,96,10406,1,0,0:0:0:0:
466,233,11412,1,8,0:1:0:0:
466,233,11579,1,10,0:1:0:0:
500,128,11915,6,0,P|446:121|397:145,1,110,12|8,0:1|0:0,0:0:0:0:
292,120,12585,2,0,L|300:44,2,55,10|0|10,0:1|0:0|0:0,0:0:0:0:
244,148,13088,2,0,P|195:124|141:131,1,110,2|2,0:1|0:1,0:0:0:0:
52,196,13758,2,0,B|48:206|45:218|45:218|54:236|54:236|46:251|46:251|60:276|48:316,1,110,0|0,0:1|0:1,0:0:0:0:
36,352,14261,1,10,0:0:0:0:
144,356,14596,6,0,P|198:347|252:341,1,110,10|10,0:1|0:1,0:0:0:0:
312,248,15266,2,0,P|257:239|203:233,1,110,10|10,0:1|0:0,0:0:0:0:
148,236,15769,2,0,P|182:193|215:148,1,110,2|2,0:1|0:1,0:0:0:0:
240,100,16272,1,8,0:0:0:0:
168,16,16607,2,0,P|136:16|113:23,1,55,10|2,0:0|0:0,0:0:0:0:
68,52,16942,2,0,P|52:79|47:103,1,55,12|2,0:0|0:0,0:0:0:0:
64,156,17278,6,0,B|80:208|52:208|64:266,1,110,12|8,0:0|0:0,0:0:0:0:
120,360,17948,2,0,P|84:372|52:376,2,55,10|0|10,0:1|0:0|0:0,0:0:0:0:
168,336,18451,2,0,P|216:320|292:336,1,110,2|2,0:1|0:1,0:0:0:0:
376,284,19121,2,0,B|382:261|382:261|373:243|373:243|381:228|381:228|368:204|380:164,1,110,0|0,0:1|0:1,0:0:0:0:
388,128,19624,1,10,0:0:0:0:
292,72,19959,6,0,L|238:82,1,55,10|2,0:1|0:0,0:0:0:0:
192,112,20294,2,0,L|138:101,1,55,10|2,0:1|0:0,0:0:0:0:
92,68,20630,2,0,P|96:120|84:184,1,110,10|10,0:0|0:0,0:0:0:0:
44,212,21132,1,6,0:0:0:0:
132,280,21468,2,0,L|208:268,1,55,8|10,0:1|0:2,0:0:0:0:
236,244,21803,2,0,B|220:304|248:352|248:352|300:340,1,165,8|8,0:1|0:0,0:0:0:0:
380,264,22641,6,0,P|406:311|404:365,2,110,8|10|10,0:1|0:1|0:1,0:0:0:0:
292,196,23646,1,8,0:1:0:0:
368,116,23982,2,0,L|496:128,1,110,0|8,0:0|0:1,0:0:0:0:
488,16,24652,2,0,L|360:4,1,110,8|10,0:1|0:1,0:0:0:0:
268,20,25322,6,0,P|214:33|160:39,1,110,8|10,0:1|0:1,0:0:0:0:
52,60,25993,2,0,P|89:99|122:143,1,110,10|8,0:1|0:1,0:0:0:0:
194,227,26663,2,0,P|209:174|231:123,1,110,0|8,0:0|0:1,0:0:0:0:
304,204,27334,2,0,P|313:229|316:257,1,55,12|12,0:1|0:1,0:0:0:0:
264,352,27836,6,0,B|212:328|212:328|92:344,1,165,10|10,0:1|0:1,0:0:0:0:
0,312,28674,2,0,P|8:285|25:264,1,55,10|0,0:1|0:0,0:0:0:0:
64,224,29010,2,0,P|69:197|65:170,1,55,10|2,0:1|0:1,0:0:0:0:
28,132,29345,2,0,L|136:112,1,110,8|8,0:1|0:1,0:0:0:0:
244,131,30015,2,0,P|243:90|228:52,2,82.5,0|8|4,0:0|0:3|0:3,0:0:0:0:
228,184,30685,5,12,0:1:0:0:
320,244,31021,2,0,P|368:232|440:224,1,110,8|2,0:0|0:0,0:0:0:0:
484,232,31523,2,0,P|476:200|476:168,1,55,8|8,0:1|0:0,0:0:0:0:
504,72,32026,1,8,0:1:0:0:
408,16,32361,2,0,P|352:28|232:24,1,165,8|8,0:0|0:1,0:0:0:0:
192,8,33032,1,10,0:0:0:0:
120,92,33367,5,10,0:1:0:0:
196,172,33702,2,0,P|204:216|192:292,1,110,8|0,0:0|0:0,0:0:0:0:
160,320,34205,2,0,L|224:332,1,55,8|10,0:1|0:0,0:0:0:0:
268,340,34540,1,2,0:0:0:0:
356,276,34875,2,0,L|344:208,1,55,0|8,0:0|0:0,0:0:0:0:
319,171,35211,2,0,P|374:182|428:185,1,110,2|12,0:0|0:0,0:0:0:0:
464,80,35881,6,0,P|414:55|362:37,1,110,14|0,0:1|0:0,0:0:0:0:
308,32,36384,1,10,0:0:0:0:
216,87,36719,2,0,P|207:114|202:141,1,55,10|0,0:1|0:0,0:0:0:0:
152,164,37054,2,0,P|128:149|104:137,1,55,8|2,0:0|0:0,0:0:0:0:
52,120,37389,1,8,0:1:0:0:
16,224,37725,2,0,L|28:292,1,55,8|12,0:0|0:1,0:0:0:0:
120,332,38227,2,0,P|156:295|217:282,1,110,10|2,0:1|0:0,0:0:0:0:
268,280,38730,5,12,0:1:0:0:
328,188,39065,1,0,0:0:0:0:
423,239,39401,2,0,P|417:280|403:319,2,82.5,12|12|12,0:0|0:0|0:1,0:0:0:0:
420,129,40239,1,0,0:0:0:0:
328,188,40574,2,0,P|280:208|176:160,1,165,8|8,0:1|0:1,0:0:0:0:
100,92,41412,6,0,P|91:137|73:205,1,110,12|0,0:1|0:0,0:0:0:0:
83,308,42082,2,0,P|43:305|8:284,2,82.5,12|12|12,0:0|0:0|0:1,0:0:0:0:
192,284,42920,1,0,0:0:0:0:
299,307,43255,2,0,P|356:320|406:301,1,110,8|0,0:1|0:0,0:0:0:0:
444,264,43758,1,8,0:1:0:0:
348,216,44093,6,0,P|323:193|268:125,1,110,12|0,0:1|0:0,0:0:0:0:
368,76,44764,2,0,L|468:84,2,82.5,12|12|12,0:0|0:0|0:1,0:0:0:0:
256,76,45602,2,0,L|183:81,1,55,8|0,0:1|0:0,0:0:0:0:
152,57,45937,2,0,P|156:109|128:169,1,110,8|8,0:1|0:1,0:0:0:0:
88,193,46440,1,10,0:0:0:0:
176,257,46775,5,10,0:1:0:0:
176,257,48786,2,0,L|288:237,1,110,8|8,0:1|0:0,0:0:0:0:
383,272,49456,6,0,P|387:217|366:167,1,110,12|12,0:1|0:1,0:0:0:0:
332,125,49959,2,0,P|281:145|227:141,1,110,12|12,0:1|0:1,0:0:0:0:
156,56,50630,2,0,P|102:43|49:55,1,110,12|8,0:1|0:0,0:0:0:0:
12,96,51132,1,8,0:0:0:0:
102,162,51468,2,0,P|106:218|98:286,1,110,8|0,0:1|0:0,0:0:0:0:
56,300,51970,6,0,P|112:308|184:324,1,110,12|2,0:1|0:0,0:0:0:0:
216,336,52473,1,10,0:0:0:0:
312,280,52808,2,0,P|365:268|420:261,1,110,8|8,0:1|0:0,0:0:0:0:
464,228,53311,2,0,P|413:206|364:181,1,110,2|2,0:0|0:0,0:0:0:0:
320,148,53814,1,8,0:0:0:0:
216,188,54149,2,0,L|208:252,2,55,10|2|8,0:1|0:0|0:0,0:0:0:0:
180,144,54652,6,0,P|140:144|52:152,1,110,2|2,0:0|0:0,0:0:0:0:
20,168,55155,1,10,0:0:0:0:
20,168,55322,2,0,P|40:133|77:53,1,110,2|2,0:0|0:0,0:0:0:0:
76,16,55825,2,0,P|108:32|144:36,1,55,8|2,0:0|0:0,0:0:0:0:
236,32,56328,2,0,P|280:20|308:20,1,55,2|8,0:0|0:0,0:0:0:0:
344,24,56663,1,2,0:0:0:0:
344,24,56831,2,0,P|400:40|472:16,1,110,10|10,0:1|0:0,0:0:0:0:
500,128,57501,6,0,L|484:244,1,110,12|10,0:1|0:0,0:0:0:0:
448,276,58004,1,2,0:0:0:0:
448,276,58172,2,0,P|436:244|376:188,1,110,10|10,0:1|0:0,0:0:0:0:
276,172,58842,1,10,0:1:0:0:
224,267,59178,1,10,0:0:0:0:
224,267,59345,2,0,P|204:296|136:344,1,110,2|2,0:0|0:0,0:0:0:0:
92,356,59848,1,12,0:0:0:0:
8,284,60183,6,0,L|14:229,1,55,12|12,0:1|0:1,0:0:0:0:
52,188,60518,2,0,L|45:133,1,55,12|12,0:1|0:1,0:0:0:0:
32,80,60853,1,12,0:1:0:0:
128,24,61188,1,10,0:1:0:0:
127,23,61356,2,0,P|179:39|232:27,1,110,12|12,0:1|0:1,0:0:0:0:
280,0,61859,2,0,L|276:60,1,55,12|14,0:1|0:1,0:0:0:0:
272,108,62194,2,0,P|324:95|376:111,1,110,10|8,0:1|0:0,0:0:0:0:
448,196,62864,6,0,P|461:248|445:300,1,110,12|10,0:1|0:0,0:0:0:0:
400,332,63367,1,0,0:0:0:0:
400,332,63535,2,0,P|354:302|299:301,1,110,10|8,0:1|0:0,0:0:0:0:
252,328,64037,1,2,0:0:0:0:
160,264,64373,2,0,L|168:200,1,55,2|8,0:0|0:0,0:0:0:0:
176,156,64708,1,2,0:0:0:0:
176,156,64875,2,0,P|121:160|66:156,1,110,10|8,0:1|0:0,0:0:0:0:
104,52,65546,6,0,P|158:47|213:52,1,110,8|8,0:1|0:0,0:0:0:0:
268,68,66049,2,0,P|320:68|344:64,1,55,2|8,0:0|0:1,0:0:0:0:
424,24,66551,1,10,0:0:0:0:
503,99,66887,2,0,P|503:154|492:208,1,110,8|8,0:1|0:0,0:0:0:0:
472,260,67389,2,0,P|430:223|383:195,1,110,2|0,0:0|0:0,0:0:0:0:
332,176,67892,1,12,0:0:0:0:
224,204,68227,6,0,P|171:220|119:205,1,110,12|0,0:1|0:0,0:0:0:0:
69,181,68730,1,8,0:1:0:0:
69,181,68898,2,0,P|67:235|37:280,1,110,8|0,0:1|0:0,0:0:0:0:
1,325,69401,2,0,P|21:357|29:385,1,55,12|0,0:1|0:0,0:0:0:0:
232,296,70239,2,0,P|241:270|257:247,2,55,8|8|0,0:1|0:1|0:0,0:0:0:0:
340,324,70909,5,12,0:1:0:0:
316,108,81706,6,0,P|260:112|184:112,1,110,12|0,0:1|0:0,0:0:0:0:
152,100,82208,1,10,0:1:0:0:
80,184,82543,1,2,0:0:0:0:
164,256,82879,2,0,L|296:240,1,110,10|0,0:1|0:0,0:0:0:0:
320,212,83381,1,10,0:1:0:0:
320,211,83549,2,0,P|315:267|333:317,1,110,2|10,0:0|0:1,0:0:0:0:
376,352,84052,1,2,0:0:0:0:
484,376,84387,6,0,P|484:316|476:256,1,110,8|0,0:1|0:0,0:0:0:0:
448,160,85057,2,0,P|448:128|452:96,2,55,8|2|0,0:0|0:0|0:0,0:0:0:0:
412,200,85560,2,0,P|356:220|272:156,1,165,10|2,0:1|0:1,0:0:0:0:
248,116,86231,1,12,0:1:0:0:
156,56,86566,2,0,L|84:68,2,55,0|0|0,0:0|0:0|0:0,0:0:0:0:
196,20,87069,6,0,L|313:27,1,110,8|2,0:1|0:0,0:0:0:0:
408,68,87739,2,0,P|416:32|412:4,2,55,8|0|2,0:0|0:0|0:0,0:0:0:0:
376,112,88242,2,0,P|360:156|380:220,1,110,10|0,0:1|0:1,0:0:0:0:
420,248,88745,1,10,0:1:0:0:
372,348,89080,2,0,P|314:347|256:340,1,110,8|0,0:0|0:0,0:0:0:0:
164,292,89750,6,0,P|106:293|48:300,1,110,8|2,0:1|0:1,0:0:0:0:
12,196,90421,2,0,P|63:175|116:160,1,110,8|2,0:0|0:0,0:0:0:0:
152,124,90923,2,0,P|203:144|256:159,1,110,0|0,0:0|0:1,0:0:0:0:
380,160,91594,2,0,P|372:208|376:240,1,55,2|10,0:0|0:1,0:0:0:0:
212,364,92432,5,12,0:1:0:0:
120,308,92767,2,0,B|88:248|121:192|121:192|172:220|232:192,1,220,0|0,0:0|0:0,0:0:0:0:
312,144,93773,1,0,0:0:0:0:
404,200,94108,2,0,B|436:260|402:315|402:315|352:288|292:316,1,220,0|2,0:0|0:0,0:0:0:0:
260,340,94946,2,0,L|192:332,1,55,0|2,0:0|0:0,0:0:0:0:
132,252,95449,6,0,B|184:228|240:220|240:220|183:189|148:160,1,220,2|0,0:0|0:0,0:0:0:0:
108,128,96287,1,2,0:0:0:0:
172,40,96622,2,0,L|232:48,1,55,0|0,0:0|0:0,0:0:0:0:
275,72,96957,2,0,P|323:45|378:45,1,110,2|8,0:0|0:1,0:0:0:0:
428,64,97460,1,12,0:1:0:0:
428,64,97627,6,0,P|414:116|440:224,1,165,10|10,0:1|0:1,0:0:0:0:
468,328,98465,2,0,P|464:372|460:400,2,55,10|0|10,0:1|0:0|0:1,0:0:0:0:
416,304,98968,2,0,P|368:296|296:328,1,110,2|2,0:1|0:1,0:0:0:0:
268,348,99471,2,0,L|260:276,1,55,8|2,0:1|0:0,0:0:0:0:
156,260,99974,2,0,L|149:314,1,55,8|8,0:1|0:0,0:0:0:0:
52,368,100476,5,12,0:1:0:0:
0,272,100812,2,0,L|14:137,1,110,8|2,0:0|0:0,0:0:0:0:
0,108,101314,2,0,P|44:120|60:120,1,55,8|8,0:1|0:0,0:0:0:0:
152,68,101817,1,8,0:1:0:0:
244,132,102152,2,0,P|296:160|384:96,1,165,8|8,0:0|0:1,0:0:0:0:
408,64,102823,1,10,0:0:0:0:
504,116,103158,5,10,0:1:0:0:
492,224,103493,2,0,P|464:260|436:320,1,110,8|0,0:0|0:0,0:0:0:0:
408,364,103996,2,0,P|384:344|356:328,1,55,8|10,0:1|0:0,0:0:0:0:
316,304,104331,1,2,0:0:0:0:
212,340,104666,2,0,P|184:339|157:334,1,55,0|8,0:0|0:0,0:0:0:0:
104,324,105002,2,0,B|128:280|128:280|120:204,1,110,2|12,0:0|0:0,0:0:0:0:
47,140,105672,6,0,P|95:113|149:117,1,110,14|0,0:1|0:0,0:0:0:0:
200,140,106175,1,10,0:0:0:0:
287,76,106510,2,0,P|294:49|299:22,1,55,10|0,0:1|0:0,0:0:0:0:
352,12,106845,2,0,P|375:25|401:36,1,55,8|2,0:0|0:0,0:0:0:0:
456,48,107180,1,8,0:1:0:0:
404,148,107516,1,8,0:0:0:0:
404,148,107683,2,0,P|392:204|416:260,1,110,12|10,0:1|0:1,0:0:0:0:
452,288,108186,1,8,0:0:0:0:
380,372,108521,5,12,0:1:0:0:
277,329,108856,1,0,0:0:0:0:
285,218,109192,2,0,P|288:176|272:116,2,82.5,12|12|12,0:0|0:0|0:1,0:0:0:0:
184,264,110030,2,0,P|156:260|129:261,1,55,0|0,0:0|0:0,0:0:0:0:
48,336,110532,2,0,P|58:361|73:384,2,55,0|0|8,0:0|0:0|0:1,0:0:0:0:
24,228,111203,6,0,P|19:173|27:119,1,110,12|0,0:1|0:0,0:0:0:0:
104,40,111873,2,0,P|64:16|4:16,2,82.5,12|12|12,0:0|0:0|0:1,0:0:0:0:
184,112,112711,1,0,0:0:0:0:
284,64,113046,2,0,P|312:60|400:56,1,110,8|0,0:1|0:0,0:0:0:0:
448,60,113549,1,8,0:1:0:0:
412,164,113884,6,0,B|396:216|424:216|412:274,1,110,12|0,0:1|0:0,0:0:0:0:
312,316,114555,2,0,P|335:349|369:371,2,82.5,12|12|12,0:0|0:0|0:1,0:0:0:0:
232,240,115393,2,0,P|192:240|156:252,1,55,0|0,0:0|0:0,0:0:0:0:
128,267,115728,2,0,P|74:260|34:223,1,110,8|0,0:1|0:0,0:0:0:0:
8,176,116231,1,10,0:0:0:0:
68,84,116566,5,10,0:1:0:0:
68,84,118577,2,0,L|176:103,1,110,2|8,0:1|0:0,0:0:0:0:
276,148,119247,6,0,P|284:96|280:72,2,55,12|12|12,0:1|0:1|0:1,0:0:0:0:
244,192,119750,1,12,0:1:0:0:
352,220,120085,2,0,L|420:212,1,55,12|12,0:1|0:1,0:0:0:0:
456,236,120421,2,0,P|424:276|400:340,1,110,12|8,0:1|0:0,0:0:0:0:
380,380,120923,1,8,0:0:0:0:
276,348,121259,2,0,P|249:340|222:341,1,55,8|10,0:1|0:1,0:0:0:0:
112,356,121761,6,0,P|120:304|112:236,1,110,12|2,0:1|0:0,0:0:0:0:
96,196,122264,1,10,0:0:0:0:
168,112,122599,1,8,0:1:0:0:
168,112,122767,2,0,P|196:120|240:120,1,55,2|8,0:0|0:0,0:0:0:0:
272,100,123102,2,0,P|300:86|385:76,1,110,2|2,0:0|0:0,0:0:0:0:
432,84,123605,1,8,0:0:0:0:
456,192,123940,2,0,L|464:252,2,55,10|2|8,0:1|0:0|0:0,0:0:0:0:
404,176,124443,6,0,P|372:168|296:200,1,110,2|2,0:0|0:0,0:0:0:0:
272,239,124946,2,0,P|244:242|217:237,1,55,10|2,0:0|0:0,0:0:0:0:
164,228,125281,2,0,P|161:255|153:281,2,55,10|2|8,0:1|0:0|0:0,0:0:0:0:
148,176,125784,1,2,0:0:0:0:
196,76,126119,2,0,L|305:83,1,110,2|2,0:0|0:0,0:0:0:0:
348,120,126622,2,0,L|455:95,1,110,10|10,0:1|0:0,0:0:0:0:
452,203,127292,6,0,P|443:258|446:313,1,110,12|10,0:1|0:0,0:0:0:0:
428,364,127795,1,2,0:0:0:0:
428,364,127962,2,0,P|385:329|336:304,1,110,10|10,0:1|0:0,0:0:0:0:
232,272,128633,1,10,0:1:0:0:
151,345,128968,1,10,0:0:0:0:
151,345,129136,2,0,P|120:352|52:304,1,110,2|2,0:0|0:0,0:0:0:0:
28,268,129638,1,12,0:0:0:0:
76,168,129974,6,0,L|130:175,1,55,12|12,0:1|0:1,0:0:0:0:
176,204,130309,2,0,L|230:196,1,55,12|12,0:1|0:1,0:0:0:0:
284,188,130644,1,12,0:1:0:0:
344,96,130979,1,10,0:1:0:0:
344,96,131147,2,0,P|300:96|220:76,1,110,12|12,0:1|0:1,0:0:0:0:
216,32,131650,2,0,P|176:60|152:64,1,55,12|14,0:1|0:1,0:0:0:0:
116,68,131985,1,10,0:1:0:0:
56,160,132320,1,8,0:0:0:0:
148,220,132655,6,0,L|216:208,1,55,12|0,0:1|0:0,0:0:0:0:
252,232,132990,2,0,L|320:220,1,55,10|0,0:0|0:0,0:0:0:0:
344,183,133326,2,0,P|336:238|351:290,1,110,10|8,0:1|0:0,0:0:0:0:
460,280,133996,2,0,P|467:225|452:173,1,110,8|8,0:1|0:0,0:0:0:0:
388,84,134666,2,0,P|384:44|388:20,2,55,10|2|8,0:1|0:0|0:0,0:0:0:0:
352,124,135169,6,0,L|224:104,1,110,2|2,0:0|0:0,0:0:0:0:
188,96,135672,1,8,0:0:0:0:
92,143,136007,2,0,P|85:170|88:197,1,55,8|2,0:1|0:0,0:0:0:0:
112,248,136342,2,0,P|115:275|108:301,1,55,10|2,0:0|0:0,0:0:0:0:
72,344,136678,2,0,L|180:327,1,110,8|8,0:1|0:0,0:0:0:0:
280,284,137348,2,0,L|388:300,1,110,10|12,0:1|0:0,0:0:0:0:
368,192,138018,6,0,P|360:152|364:68,2,110,12|0|8,0:1|0:0|0:1,0:0:0:0:
388,300,139024,2,0,L|384:364,1,55,0|12,0:0|0:1,0:0:0:0:
336,380,139359,2,0,P|282:369|227:364,1,110,0|0,0:0|0:0,0:0:0:0:
156,280,140030,2,0,P|209:269|264:264,1,110,0|8,0:0|0:0,0:0:0:0:
352,196,140700,6,0,P|368:136|348:76,1,110,12|8,0:1|0:0,0:0:0:0:
251,52,141370,2,0,P|256:34|285:3,2,55,0|10|10,0:0|0:1|0:0,0:0:0:0:
220,96,141873,2,0,P|168:120|72:80,1,165,10|8,0:1|0:0,0:0:0:0:
20,180,142711,2,0,L|28:300,1,110,2|8,0:0|0:0,0:0:0:0:
132,320,143381,6,0,L|139:210,1,110,8|8,0:1|0:0,0:0:0:0:
168,104,144052,2,0,P|136:100|104:108,2,55,0|10|10,0:0|0:1|0:0,0:0:0:0:
220,120,144555,2,0,P|264:128|328:80,1,110,2|2,0:0|0:0,0:0:0:0:
340,48,145057,1,10,0:0:0:0:
340,48,145225,2,0,P|385:77|438:71,1,110,10|10,0:1|0:1,0:0:0:0:
484,40,145728,1,10,0:0:0:0:
496,147,146063,6,0,P|486:202|480:256,1,110,12|8,0:1|0:0,0:0:0:0:
388,320,146733,2,0,P|382:265|372:211,1,110,2|8,0:0|0:0,0:0:0:0:
344,164,147236,1,12,0:1:0:0:
244,208,147571,2,0,P|236:240|236:276,1,55,10|8,0:1|0:0,0:0:0:0:
260,312,147907,2,0,P|220:292|140:312,1,110,12|2,0:1|0:0,0:0:0:0:
112,332,148409,1,8,0:0:0:0:
112,332,148577,6,0,P|120:280|120:164,1,165,12|8,0:1|0:0,0:0:0:0:
96,59,149415,2,0,P|143:85|195:72,1,110,10|10,0:1|0:0,0:0:0:0:
232,32,149918,2,0,P|279:57|331:44,1,110,12|10,0:1|0:1,0:0:0:0:
376,12,150421,2,0,L|384:76,1,55,10|10,0:0|0:1,0:0:0:0:
396,176,150923,1,10,0:1:0:0:
288,148,151259,6,0,P|240:140|160:148,1,110,12|0,0:1|0:0,0:0:0:0:
128,160,151761,1,8,0:0:0:0:
28,208,152097,2,0,L|16:116,2,82.5,10|2|2,0:1|0:0|0:0,0:0:0:0:
56,256,152767,2,0,L|44:348,2,82.5,10|2|2,0:1|0:0|0:0,0:0:0:0:
155,208,153605,2,0,P|182:201|216:208,1,55,2|8,0:0|0:0,0:0:0:0:
264,216,153940,1,2,0:0:0:0:
264,215,154108,6,0,P|296:191|337:184,2,82.5,12|12|12,0:1|0:1|0:1,0:0:0:0:
264,272,154778,2,0,P|270:312|295:345,2,82.5,12|12|12,0:1|0:1|0:1,0:0:0:0:
264,215,155449,2,0,P|212:197|158:204,1,110,10|10,0:1|0:0,0:0:0:0:
72,136,156119,2,0,P|115:102|168:93,1,110,2|10,0:0|0:0,0:0:0:0:
279,93,156789,6,0,P|332:102|376:136,1,110,12|10,0:1|0:0,0:0:0:0:
400,184,157292,1,2,0:0:0:0:
500,136,157627,2,0,L|496:72,2,55,2|10|2,0:0|0:0|0:0,0:0:0:0:
508,192,158130,2,0,P|508:240|500:316,1,110,12|10,0:1|0:0,0:0:0:0:
408,360,158800,1,10,0:1:0:0:
323,288,159135,1,10,0:0:0:0:
364,185,159470,5,10,0:0:0:0:
256,192,159638,12,12,161985,0:1:0:0:
48,180,172879,6,0,B|100:152|100:152|152:180|152:180|212:152,1,165,12|8,0:1|0:1,0:0:0:0:
240,132,173549,1,8,0:0:0:0:
328,272,174052,2,0,P|249:253|171:309,1,165,8|8,0:1|0:1,0:0:0:0:
267,364,174890,2,0,L|332:364,1,55,8|8,0:0|0:1,0:0:0:0:
488,380,175560,6,0,P|476:336|476:216,1,165,8|8,0:1|0:1,0:0:0:0:
492,164,176231,1,8,0:0:0:0:
376,44,176733,1,8,0:1:0:0:
376,44,176901,2,0,P|321:45|266:49,1,110,8|0,0:1|0:0,0:0:0:0:
216,76,177404,2,0,P|161:71|106:70,1,110,8|8,0:1|0:1,0:0:0:0:
52,84,177907,1,8,0:0:0:0:
20,188,178242,6,0,B|68:204|112:172|112:172|144:224|144:224|112:280|144:340,1,275,8|2,0:1|0:0,0:0:0:0:
252,336,179415,2,0,P|264:292|240:216,1,110,10|10,0:1|0:1,0:0:0:0:
216,188,179918,1,10,0:1:0:0:
300,120,180253,2,0,L|372:128,1,55,10|2,0:1|0:0,0:0:0:0:
324,20,180756,6,0,P|268:16|188:20,1,110,12|2,0:1|0:0,0:0:0:0:
160,32,181259,1,8,0:0:0:0:
84,112,181594,2,0,P|56:72|52:44,2,55,10|2|8,0:1|0:0|0:0,0:0:0:0:
120,152,182097,6,0,P|132:208|112:264,1,110,2|2,0:0|0:0,0:0:0:0:
75,291,182599,2,0,P|101:301|126:314,1,55,10|2,0:0|0:0,0:0:0:0:
180,328,182935,2,0,P|204:314|230:305,2,55,10|2|8,0:1|0:0|0:0,0:0:0:0:
180,384,183437,1,2,0:0:0:0:
292,380,183773,2,0,L|348:372,1,55,2|8,0:0|0:0,0:0:0:0:
400,384,184108,1,2,0:0:0:0:
400,384,184275,2,0,P|372:308|388:260,1,110,10|10,0:1|0:0,0:0:0:0:
456,204,184946,6,0,P|410:174|356:172,1,110,12|10,0:1|0:0,0:0:0:0:
308,200,185449,1,2,0:0:0:0:
308,200,185615,2,0,P|256:216|203:204,1,110,10|10,0:1|0:0,0:0:0:0:
104,160,186287,1,10,0:1:0:0:
59,259,186622,1,10,0:0:0:0:
59,258,186789,2,0,P|52:312|84:355,1,110,2|2,0:0|0:0,0:0:0:0:
136,376,187292,1,12,0:0:0:0:
232,328,187627,6,0,L|286:334,1,55,12|12,0:1|0:1,0:0:0:0:
332,364,187962,2,0,L|385:349,1,55,12|12,0:1|0:1,0:0:0:0:
436,328,188298,1,12,0:1:0:0:
476,224,188633,1,10,0:1:0:0:
476,224,188800,2,0,P|468:172|464:92,1,110,12|12,0:1|0:1,0:0:0:0:
468,59,189303,2,0,P|444:76|416:77,1,55,12|14,0:1|0:1,0:0:0:0:
368,56,189638,2,0,P|308:40|260:52,2,110,10|8|0,0:1|0:0|0:0,0:0:0:0:
312,152,190644,6,0,L|180:140,1,110,12|10,0:0|0:1,0:0:0:0:
156,112,191147,2,0,P|152:152|144:172,1,55,2|8,0:0|0:0,0:0:0:0:
104,200,191482,1,2,0:0:0:0:
156,296,191817,2,0,L|288:284,1,110,2|2,0:0|0:0,0:0:0:0:
316,304,192320,2,0,P|308:352|312:376,2,55,10|2|10,0:1|0:0|0:0,0:0:0:0:
364,280,192823,5,2,0:0:0:0:
424,188,193158,2,0,L|416:133,2,55,2|8|2,0:0|0:0|0:0,0:0:0:0:
464,224,193661,2,0,L|471:278,2,55,10|2|10,0:1|0:0|0:0,0:0:0:0:
508,124,194331,2,0,P|511:69|499:15,1,110,10|0,0:1|0:0,0:0:0:0:
448,0,194834,2,0,P|407:36|358:61,1,110,2|0,0:0|0:0,0:0:0:0:
304,56,195337,2,0,P|304:92|300:120,1,55,12|0,0:0|0:0,0:0:0:0:
284,164,195672,5,12,0:1:0:0:
124,128,196175,2,0,P|116:172|136:244,1,110,8|0,0:1|0:0,0:0:0:0:
167,271,196678,2,0,P|168:299|161:326,1,55,0|12,0:0|0:1,0:0:0:0:
372,264,197516,2,0,P|360:212|376:132,1,110,8|8,0:1|0:1,0:0:0:0:
392,108,198018,1,12,0:0:0:0:
308,36,198354,6,0,L|176:48,1,110,12|8,0:1|0:0,0:0:0:0:
92,80,199024,2,0,P|86:46|92:18,2,55,10|0|10,0:1|0:0|0:0,0:0:0:0:
112,132,199527,2,0,P|124:180|104:248,1,110,2|2,0:1|0:1,0:0:0:0:
204,296,200197,2,0,B|214:300|226:303|226:303|244:294|244:294|259:302|259:302|284:288|324:300,1,110,0|0,0:1|0:1,0:0:0:0:
360,312,200700,1,10,0:0:0:0:
435,235,201035,6,0,P|418:184|431:131,1,110,10|10,0:1|0:1,0:0:0:0:
456,84,201538,1,2,0:0:0:0:
456,84,201705,2,0,P|404:101|351:88,1,110,10|10,0:1|0:0,0:0:0:0:
260,28,202376,2,0,P|207:15|155:32,1,110,8|8,0:1|0:0,0:0:0:0:
72,104,203046,2,0,L|75:158,1,55,10|2,0:0|0:0,0:0:0:0:
112,200,203381,2,0,L|115:254,1,55,12|2,0:0|0:0,0:0:0:0:
76,295,203717,6,0,P|128:284|184:297,1,110,12|8,0:0|0:1,0:0:0:0:
288,264,204387,2,0,L|288:196,2,55,10|0|10,0:1|0:0|0:1,0:0:0:0:
328,300,204890,2,0,P|381:287|434:299,1,110,2|2,0:1|0:1,0:0:0:0:
508,216,205560,2,0,B|512:206|515:194|515:194|506:176|506:176|514:161|514:161|500:136|512:96,1,110,0|0,0:1|0:1,0:0:0:0:
512,56,206063,1,10,0:1:0:0:
408,20,206398,6,0,L|355:35,1,55,10|0,0:1|0:0,0:0:0:0:
304,60,206733,2,0,L|251:44,1,55,10|0,0:1|0:0,0:0:0:0:
208,8,207069,2,0,P|192:44|128:80,1,110,10|10,0:1|0:1,0:0:0:0:
80,84,207571,1,12,0:0:0:0:
40,188,207907,1,8,0:1:0:0:
144,228,208242,2,0,P|192:216|268:212,1,110,8|0,0:1|0:0,0:0:0:0:
308,212,208745,1,8,0:0:0:0:
404,160,209080,6,0,L|396:100,2,55,8|0|2,0:1|0:0|0:0,0:0:0:0:
452,260,209750,1,0,0:0:0:0:
452,260,209919,2,0,L|444:314,1,55,2|0,0:0|0:0,0:0:0:0:
472,364,210253,2,0,P|420:344|360:360,1,110,2|0,0:0|0:0,0:0:0:0:
260,344,210923,2,0,P|208:324|148:340,1,110,0|0,0:0|0:0,0:0:0:0:
108,360,211426,2,0,L|104:292,1,55,0|0,0:0|0:0,0:0:0:0:
100,252,211761,5,12,0:1:0:0:
208,128,212264,2,0,B|163:197|210:275|267:248|289:219|267:177,1,220,12|0,0:1|0:0,0:0:0:0:
