osu file format v14

[General]
AudioFilename: audio.mp3
AudioLeadIn: 0
PreviewTime: 178912
Countdown: 0
SampleSet: Soft
StackLeniency: 0.7
Mode: 0
LetterboxInBreaks: 0
WidescreenStoryboard: 1

[Editor]
DistanceSpacing: 1
BeatDivisor: 4
GridSize: 4
TimelineZoom: 1.099999

[Metadata]
Title:Luminous Rage
TitleUnicode:Luminous Rage
Artist:Endorfin.
ArtistUnicode:Endorfin.
Creator:Kibbleru
Version:Akitoshi's Easy
Source:
Tags:dnb Horizon Note Aitsuki Nakuru 藍月なくる sky_delta sky delta toybot doormat akitoshi hazu- mikii
BeatmapID:1156622
BeatmapSetID:492845

[Difficulty]
HPDrainRate:2
CircleSize:3
OverallDifficulty:2
ApproachRate:3
SliderMultiplier:0.8
SliderTickRate:1

[Events]
//Background and Video events
0,0,"689004.jpg",0,0
//Break Periods
2,71109,80266
2,92632,96187
2,162185,171439
//Storyboard Layer 0 (Background)
//Storyboard Layer 1 (Fail)
//Storyboard Layer 2 (Pass)
//Storyboard Layer 3 (Foreground)
//Storyboard Sound Samples

[TimingPoints]
-152,335.195530726257,4,2,1,60,1,0
6551,-100,4,2,2,60,0,0
11915,-100,4,2,2,70,0,0
16607,-100,4,2,1,70,0,0
17278,-100,4,2,2,70,0,0
21803,-100,4,2,1,50,0,0
27836,-100,4,2,2,70,0,0
30015,-100,4,2,1,60,0,0
30685,-100,4,2,1,60,0,0
35881,-100,4,2,2,70,0,0
37892,-100,4,2,1,60,0,0
38730,-100,4,2,1,60,0,0
46775,-100,4,2,1,50,0,0
49456,-100,4,2,1,70,0,0
51970,-100,4,2,1,80,0,1
62194,-100,4,2,2,80,0,0
62361,-100,4,2,1,80,0,0
62864,-100,4,2,1,80,0,1
68227,-100,4,2,1,80,0,0
70239,-100,4,2,1,60,0,0
80294,340.909090909091,4,2,1,60,1,0
80975,365.853658536585,4,2,1,60,1,0
81706,335.195530726257,4,2,2,70,1,0
91510,-100,4,2,1,70,0,0
92432,-100,4,2,1,50,0,0
97627,-100,4,2,2,70,0,0
99638,-100,4,2,1,60,0,0
100476,-100,4,2,1,60,0,0
105672,-100,4,2,2,70,0,0
107683,-100,4,2,1,60,0,0
108521,-100,4,2,1,60,0,0
116566,-100,4,2,1,50,0,0
119247,-100,4,2,1,70,0,0
121761,-100,4,2,1,80,0,1
131985,-100,4,2,1,80,0,0
132655,-100,4,2,1,80,0,1
138018,-100,4,2,1,80,0,0
140197,-100,4,2,1,70,0,0
140532,-100,4,2,1,70,0,0
151929,-100,4,2,1,60,0,0
154108,-100,4,2,1,70,0,0
159471,-100,4,2,1,80,0,0
161985,-100,4,2,1,80,0,0
172879,-100,4,2,1,50,0,0
179415,-100,4,2,1,70,0,0
180756,-100,4,2,1,80,0,1
189471,-100,4,2,2,80,0,1
189974,-100,4,2,2,80,0,0
190141,-100,4,2,1,80,0,0
190644,-100,4,2,1,80,0,1
195672,-100,4,2,1,80,0,0
196678,-100,4,2,1,60,0,0
198354,-100,4,2,2,70,0,0
201119,-100,4,2,1,70,0,0
201370,-100,4,2,2,70,0,0
203046,-100,4,2,1,70,0,0
203717,-100,4,2,2,70,0,0
208577,-100,4,2,2,60,0,0
209080,-100,4,2,1,50,0,0
211761,-100,4,2,1,60,0,0

[Colours]
Combo1 : 208,208,208
Combo2 : 151,201,255
Combo3 : 95,54,235

[HitObjects]
42,242,1188,6,0,L|137:234,1,80,12|2,0:1|0:0,0:0:0:0:
201,223,1859,2,0,P|170:170|108:156,2,120,0|2|0,0:0|0:0|0:0,0:0:0:0:
212,302,3199,2,0,L|297:301,1,80,0|2,0:0|0:1,0:0:0:0:
348,244,3870,6,0,L|433:243,1,80,12|12,0:1|0:1,0:0:0:0:
484,186,4540,2,0,P|490:148|473:105,1,80,2|0,0:0|0:0,0:0:0:0:
402,79,5211,2,0,L|277:81,2,120,0|0|0,0:0|0:1|0:0,0:0:0:0:
407,158,6551,6,0,L|238:161,1,160,12|0,0:1|0:0,0:0:0:0:
141,218,7725,2,0,L|142:300,1,80,10|8,0:1|0:1,0:0:0:0:
116,373,8395,2,0,P|43:367|3:323,1,120,2|8,0:1|0:0,0:0:0:0:
5,256,9233,6,0,L|6:176,1,80,8|10,0:1|0:1,0:0:0:0:
13,96,9903,2,0,B|93:87|93:87|135:92,1,120,2|4,0:1|0:0,0:0:0:0:
448,113,11915,6,0,P|462:156|460:197,1,80,12|8,0:1|0:0,0:0:0:0:
439,267,12585,1,10,0:1:0:0:
335,326,13088,2,0,L|251:324,1,80,2|2,0:1|0:1,0:0:0:0:
175,320,13758,2,0,P|190:277|262:243,1,120,2|10,0:1|0:0,0:0:0:0:
325,209,14596,6,0,L|325:122,1,80,10|10,0:1|0:1,0:0:0:0:
315,49,15266,2,0,P|256:37|188:57,2,120,10|2|8,0:1|0:1|0:0,0:0:0:0:
390,76,16607,2,0,L|475:72,1,80,10|12,0:0|0:0,0:0:0:0:
501,145,17278,6,0,P|505:190|500:243,1,80,12|8,0:0|0:0,0:0:0:0:
481,301,17948,1,10,0:1:0:0:
366,336,18451,2,0,L|276:330,1,80,2|2,0:1|0:1,0:0:0:0:
208,313,19121,2,0,B|199:235|199:235|208:180,1,120,0|10,0:1|0:0,0:0:0:0:
227,116,19959,6,0,P|183:101|142:103,1,80,10|10,0:1|0:1,0:0:0:0:
73,126,20630,2,0,P|76:70|133:23,1,120,10|6,0:0|0:0,0:0:0:0:
199,16,21468,1,8,0:1:0:0:
274,42,21803,2,0,B|353:48|353:48|393:41,1,120,8|8,0:1|0:0,0:0:0:0:
467,9,22641,6,0,B|484:48|462:86|462:86|468:172,1,160,8|10,0:1|0:1,0:0:0:0:
474,245,23646,1,8,0:1:0:0:
433,314,23982,2,0,P|400:324|344:318,1,80,0|8,0:0|0:1,0:0:0:0:
282,287,24652,2,0,P|249:277|193:283,1,80,8|10,0:1|0:1,0:0:0:0:
138,324,25322,6,0,P|125:265|200:200,1,160,8|10,0:1|0:1,0:0:0:0:
270,193,26328,1,8,0:1:0:0:
349,182,26663,2,0,B|351:102|351:102|315:58,1,120,0|2,0:0|0:0,0:0:0:0:
259,25,27501,1,12,0:1:0:0:
192,70,27836,6,0,B|127:92|132:49|57:72,1,120,10|10,0:1|0:1,0:0:0:0:
24,130,28674,2,0,L|27:221,1,80,10|10,0:1|0:1,0:0:0:0:
39,289,29345,2,0,P|91:299|200:266,1,160,8|0,0:1|0:0,0:0:0:0:
281,138,30685,6,0,B|388:130|388:130|446:164,1,160,12|2,0:1|0:0,0:0:0:0:
494,209,31691,1,8,0:0:0:0:
494,288,32026,2,0,P|464:307|419:311,1,80,8|8,0:1|0:0,0:0:0:0:
345,282,32697,2,0,P|315:263|270:259,1,80,0|10,0:0|0:0,0:0:0:0:
198,292,33367,6,0,P|204:216|278:179,1,160,10|0,0:1|0:0,0:0:0:0:
351,172,34373,1,10,0:0:0:0:
430,166,34708,2,0,B|436:103|436:103|391:53,1,120,8|2,0:1|0:0,0:0:0:0:
334,11,35546,1,12,0:0:0:0:
270,59,35881,6,0,P|205:56|143:58,1,120,14|10,0:1|0:0,0:0:0:0:
76,90,36719,2,0,P|64:133|66:182,1,80,10|8,0:1|0:0,0:0:0:0:
113,230,37389,2,0,L|248:218,1,120,8|12,0:1|0:1,0:0:0:0:
311,208,38227,1,10,0:1:0:0:
419,259,38730,6,0,P|372:312|275:323,1,160,12|12,0:1|0:0,0:0:0:0:
172,289,39903,2,0,L|177:207,1,80,12|0,0:1|0:0,0:0:0:0:
184,129,40574,2,0,P|127:145|96:207,1,120,8|8,0:1|0:1,0:0:0:0:
93,274,41412,6,0,L|269:268,1,160,12|12,0:1|0:0,0:0:0:0:
371,250,42585,2,0,P|375:214|361:168,1,80,12|0,0:1|0:0,0:0:0:0:
301,121,43255,2,0,P|354:93|416:112,1,120,8|8,0:1|0:1,0:0:0:0:
472,157,44093,6,0,L|471:239,1,80,12|0,0:1|0:0,0:0:0:0:
467,317,44764,1,12,0:0:0:0:
352,352,45266,2,0,P|306:357|265:348,1,80,12|8,0:1|0:1,0:0:0:0:
211,298,45937,2,0,P|153:288|88:303,1,120,8|10,0:1|0:0,0:0:0:0:
23,339,46775,5,10,0:1:0:0:
23,339,49456,6,0,L|31:203,1,120,12|12,0:1|0:1,0:0:0:0:
42,140,50294,1,12,0:1:0:0:
70,65,50630,2,0,P|122:55|193:83,1,120,12|8,0:1|0:0,0:0:0:0:
245,128,51468,1,8,0:1:0:0:
303,232,51970,6,0,B|362:241|362:241|431:232,1,120,12|10,0:1|0:0,0:0:0:0:
485,185,52808,2,0,P|494:145|419:54,1,160,8|8,0:1|0:1,0:0:0:0:
348,41,53814,1,8,0:0:0:0:
282,86,54149,2,0,L|189:84,1,80,10|8,0:1|0:0,0:0:0:0:
121,81,54820,6,0,B|122:128|156:151|156:151|133:181|134:234,1,160,8|10,0:1|0:1,0:0:0:0:
151,302,55825,1,8,0:0:0:0:
218,344,56160,2,0,L|309:339,1,80,8|8,0:1|0:0,0:0:0:0:
354,282,56831,2,0,L|445:277,1,80,10|10,0:1|0:0,0:0:0:0:
490,221,57501,6,0,P|499:170|444:82,1,160,12|10,0:1|0:1,0:0:0:0:
367,60,58507,1,10,0:0:0:0:
291,87,58842,2,0,L|284:213,1,120,10|2,0:1|0:0,0:0:0:0:
274,286,59680,1,2,0:0:0:0:
162,329,60183,6,0,P|96:318|44:235,1,160,12|12,0:1|0:1,0:0:0:0:
51,125,61356,2,0,B|129:118|129:118|174:121,1,120,12|12,0:1|0:1,0:0:0:0:
249,137,62194,2,0,P|289:141|341:131,1,80,12|8,0:1|0:0,0:0:0:0:
379,73,62864,6,0,P|407:143|350:212,1,160,12|10,0:1|0:1,0:0:0:0:
287,235,63870,1,8,0:0:0:0:
207,224,64205,2,0,L|199:137,1,80,8|8,0:1|0:0,0:0:0:0:
155,77,64875,2,0,P|108:66|71:74,1,80,10|8,0:1|0:0,0:0:0:0:
22,129,65546,6,0,L|37:295,1,160,8|8,0:1|0:1,0:0:0:0:
99,337,66551,1,10,0:0:0:0:
175,359,66887,2,0,P|235:364|297:341,2,120,8|2|12,0:1|0:0|0:0,0:0:0:0:
157,280,68227,6,0,L|169:119,1,160,12|8,0:1|0:1,0:0:0:0:
261,43,69401,2,0,P|316:36|413:148,1,200,12|8,0:1|0:1,0:0:0:0:
378,286,70909,5,12,0:1:0:0:
54,118,81706,6,0,B|107:117|107:117|156:133|156:133|220:129,1,160,12|8,0:1|0:0,0:0:0:0:
290,118,82711,1,0,0:0:0:0:
369,119,83046,2,0,P|398:196|379:281,1,160,0|8,0:0|0:0,0:0:0:0:
339,336,84052,1,2,0:0:0:0:
262,358,84387,6,0,L|93:349,1,160,8|8,0:1|0:0,0:0:0:0:
45,292,85393,1,0,0:0:0:0:
79,219,85728,2,0,B|92:170|92:170|91:85,1,120,0|12,0:0|0:1,0:0:0:0:
277,27,87069,6,0,B|275:121|275:121|293:187,1,160,8|8,0:1|0:0,0:0:0:0:
325,257,88074,1,2,0:0:0:0:
381,314,88409,2,0,P|450:293|481:208,1,160,0|8,0:0|0:0,0:0:0:0:
477,136,89415,1,0,0:0:0:0:
412,88,89750,6,0,B|351:86|351:86|313:99|313:99|244:95,1,160,8|8,0:1|0:0,0:0:0:0:
174,94,90756,1,2,0:0:0:0:
103,132,91091,2,0,P|94:184|101:225,1,80,0|0,0:0|0:1,0:0:0:0:
118,287,91761,1,10,0:1:0:0:
269,337,92432,5,12,0:1:0:0:
269,337,97627,6,0,L|399:329,1,120,10|10,0:1|0:1,0:0:0:0:
462,298,98465,2,0,P|469:255|459:201,1,80,10|10,0:1|0:1,0:0:0:0:
418,153,99136,2,0,B|359:159|359:159|282:151,2,120,8|2|8,0:1|0:0|0:0,0:0:0:0:
496,138,100476,6,0,P|497:79|411:14,1,160,12|2,0:1|0:0,0:0:0:0:
345,20,101482,1,8,0:0:0:0:
272,52,101817,2,0,L|180:53,1,80,8|8,0:1|0:0,0:0:0:0:
135,109,102488,2,0,L|43:110,1,80,0|10,0:0|0:0,0:0:0:0:
16,180,103158,6,0,P|22:249|99:298,1,160,10|0,0:1|0:0,0:0:0:0:
172,302,104164,1,10,0:0:0:0:
239,258,104499,2,0,B|284:244|284:244|361:248,1,120,8|2,0:1|0:0,0:0:0:0:
436,257,105337,1,12,0:0:0:0:
493,200,105672,6,0,P|504:139|480:71,1,120,14|10,0:1|0:0,0:0:0:0:
422,39,106510,2,0,L|335:36,1,80,10|8,0:1|0:0,0:0:0:0:
285,92,107180,2,0,B|282:136|282:136|293:167|293:167|291:213,1,120,8|12,0:1|0:1,0:0:0:0:
283,289,108018,1,10,0:1:0:0:
179,349,108521,6,0,P|100:334|53:257,1,160,12|12,0:1|0:0,0:0:0:0:
89,157,109694,2,0,L|184:155,1,80,12|0,0:1|0:0,0:0:0:0:
225,98,110365,2,0,L|349:95,1,120,8|8,0:1|0:1,0:0:0:0:
424,100,111203,6,0,B|418:145|382:164|382:164|407:203|403:253,1,160,12|12,0:1|0:0,0:0:0:0:
342,345,112376,2,0,L|254:344,1,80,12|0,0:1|0:0,0:0:0:0:
205,287,113046,2,0,L|79:285,1,120,8|8,0:1|0:1,0:0:0:0:
28,228,113884,6,0,P|37:168|120:99,1,160,12|12,0:1|0:0,0:0:0:0:
227,105,115057,2,0,L|232:199,1,80,12|0,0:1|0:0,0:0:0:0:
242,264,115728,2,0,P|297:281|368:261,1,120,8|10,0:1|0:0,0:0:0:0:
421,220,116566,5,10,0:1:0:0:
421,220,119247,6,0,L|409:100,1,120,12|12,0:1|0:1,0:0:0:0:
352,43,120085,1,12,0:1:0:0:
271,46,120421,2,0,P|211:59|149:45,1,120,12|8,0:1|0:0,0:0:0:0:
80,15,121259,1,8,0:1:0:0:
12,113,121761,6,0,P|13:178|43:231,1,120,12|10,0:1|0:0,0:0:0:0:
113,252,122599,2,0,P|95:316|101:377,2,120,2|2|8,0:0|0:0|0:0,0:0:0:0:
167,193,123940,2,0,L|258:185,1,80,10|8,0:1|0:0,0:0:0:0:
326,188,124611,6,0,P|386:235|406:323,1,160,8|10,0:1|0:1,0:0:0:0:
351,370,125616,1,8,0:0:0:0:
277,338,125951,2,0,P|237:333|182:342,1,80,8|8,0:1|0:0,0:0:0:0:
122,364,126622,2,0,P|82:369|27:360,1,80,10|10,0:1|0:0,0:0:0:0:
4,294,127292,6,0,L|20:124,1,160,12|10,0:1|0:1,0:0:0:0:
74,76,128298,1,10,0:0:0:0:
139,29,128633,2,0,P|192:28|250:72,1,120,10|2,0:1|0:0,0:0:0:0:
290,133,129471,1,2,0:0:0:0:
325,247,129974,6,0,L|419:240,1,80,12|12,0:1|0:1,0:0:0:0:
484,232,130644,1,12,0:1:0:0:
499,113,131147,2,0,P|486:82|400:40,1,120,12|12,0:1|0:1,0:0:0:0:
340,71,131985,2,0,B|300:76|300:76|255:70,1,80,10|8,0:1|0:0,0:0:0:0:
204,14,132655,6,0,P|182:87|235:147,1,160,12|10,0:1|0:1,0:0:0:0:
307,172,133661,1,8,0:0:0:0:
378,208,133996,2,0,P|384:248|378:290,1,80,8|8,0:1|0:0,0:0:0:0:
331,351,134666,2,0,P|291:357|249:351,1,80,10|8,0:1|0:0,0:0:0:0:
197,293,135337,6,0,B|127:274|104:325|33:304,1,160,8|8,0:1|0:1,0:0:0:0:
5,233,136342,1,10,0:0:0:0:
69,185,136678,2,0,L|61:58,2,120,8|2|12,0:1|0:0|0:0,0:0:0:0:
87,262,138018,6,0,P|128:265|179:255,1,80,12|0,0:1|0:0,0:0:0:0:
219,198,138689,2,0,L|212:126,2,60,12|8|12,0:0|0:1|0:0,0:0:0:0:
460,316,140700,6,0,L|367:314,1,80,12|8,0:1|0:0,0:0:0:0:
300,312,141370,1,0,0:0:0:0:
231,269,141706,2,0,B|225:221|225:221|239:162|239:162|231:111,1,160,10|8,0:0|0:0,0:0:0:0:
185,45,142711,2,0,P|142:39|93:50,1,80,2|8,0:0|0:0,0:0:0:0:
63,112,143381,6,0,B|55:162|55:162|69:221|69:221|63:269,1,160,8|0,0:1|0:0,0:0:0:0:
106,336,144387,1,10,0:0:0:0:
181,363,144722,2,0,P|234:364|271:347,1,80,8|10,0:1|0:0,0:0:0:0:
319,302,145393,2,0,P|372:301|409:318,1,80,0|10,0:0|0:0,0:0:0:0:
476,302,146063,6,0,B|482:192|482:192|469:136,1,160,12|2,0:1|0:0,0:0:0:0:
378,66,147236,2,0,L|288:67,1,80,12|10,0:1|0:1,0:0:0:0:
241,123,147907,2,0,L|151:124,1,80,12|2,0:1|0:0,0:0:0:0:
104,180,148577,6,0,P|85:239|107:305,1,120,12|8,0:1|0:0,0:0:0:0:
154,352,149415,1,10,0:1:0:0:
265,308,149918,2,0,L|266:219,1,80,12|10,0:1|0:1,0:0:0:0:
209,171,150588,2,0,L|210:82,1,80,10|10,0:1|0:1,0:0:0:0:
266,34,151259,6,0,P|316:23|387:43,1,120,12|8,0:1|0:0,0:0:0:0:
447,84,152097,2,0,L|438:252,1,160,10|10,0:1|0:1,0:0:0:0:
422,322,153102,1,8,0:0:0:0:
350,357,153437,2,0,P|302:362|258:352,1,80,8|8,0:1|0:0,0:0:0:0:
201,316,154108,6,0,P|130:298|33:323,2,160,12|12|10,0:1|0:1|0:1,0:0:0:0:
269,273,155784,1,10,0:0:0:0:
336,230,156119,2,0,L|329:134,1,80,2|10,0:0|0:0,0:0:0:0:
323,70,156789,6,0,P|389:40|471:78,1,160,12|8,0:1|0:1,0:0:0:0:
500,144,157795,1,10,0:0:0:0:
459,214,158130,2,0,L|465:296,1,80,12|10,0:1|0:0,0:0:0:0:
409,351,158800,2,0,P|368:359|328:353,1,80,10|10,0:1|0:0,0:0:0:0:
256,192,159471,12,10,161985,0:0:0:0:
70,82,172879,6,0,P|107:73|196:157,1,160,12|8,0:1|0:0,0:0:0:0:
226,258,174052,2,0,B|362:269|362:269|426:235,1,200,8|8,0:1|0:0,0:0:0:0:
477,184,175225,1,0,0:0:0:0:
443,111,175560,6,0,P|373:73|288:91,1,160,8|8,0:1|0:0,0:0:0:0:
144,134,176901,2,0,L|10:129,2,120,8|8|8,0:1|0:1|0:0,0:0:0:0:
200,190,178242,5,8,0:1:0:0:
478,163,179415,2,0,L|467:43,1,120,10|10,0:1|0:1,0:0:0:0:
390,21,180253,1,10,0:1:0:0:
275,57,180756,6,0,P|223:76|156:58,1,120,12|8,0:1|0:0,0:0:0:0:
88,27,181594,2,0,P|81:66|103:118,1,80,10|8,0:1|0:0,0:0:0:0:
143,165,182264,2,0,L|140:256,1,80,8|10,0:1|0:0,0:0:0:0:
138,325,182935,6,0,P|87:307|60:242,2,120,10|2|8,0:1|0:0|0:0,0:0:0:0:
209,288,184275,2,0,L|296:290,1,80,10|10,0:1|0:0,0:0:0:0:
368,278,184946,6,0,B|373:169|373:169|351:109,1,160,12|10,0:1|0:1,0:0:0:0:
309,55,185951,1,10,0:0:0:0:
233,26,186287,2,0,P|183:30|147:54,1,80,10|10,0:1|0:0,0:0:0:0:
128,118,186957,2,0,P|132:168|156:204,1,80,8|12,0:1|0:0,0:0:0:0:
217,230,187627,6,0,P|299:219|378:216,1,160,12|12,0:1|0:1,0:0:0:0:
496,212,188800,2,0,B|506:252|506:252|498:343,1,120,12|12,0:1|0:1,0:0:0:0:
426,365,189638,2,0,P|387:364|344:336,2,80,12|8|0,0:1|0:0|0:0,0:0:0:0:
407,286,190644,6,0,L|402:201,1,80,12|10,0:0|0:1,0:0:0:0:
388,127,191314,1,8,0:0:0:0:
351,55,191650,2,0,P|313:39|258:41,1,80,8|8,0:1|0:0,0:0:0:0:
199,63,192320,2,0,P|161:79|106:77,1,80,10|10,0:1|0:0,0:0:0:0:
63,27,192990,6,0,P|43:71|102:158,1,160,10|10,0:1|0:1,0:0:0:0:
177,172,193996,1,10,0:0:0:0:
256,175,194331,2,0,L|382:164,2,120,10|2|12,0:1|0:0|0:0,0:0:0:0:
218,246,195672,6,0,P|324:361|426:321,1,280,12|6,0:1|0:0,0:0:0:0:
481,177,197516,2,0,B|485:103|485:103|464:52,1,120,8|12,0:1|0:0,0:0:0:0:
391,34,198354,6,0,L|303:36,1,80,12|8,0:1|0:0,0:0:0:0:
231,43,199024,1,10,0:1:0:0:
166,144,199527,2,0,P|156:187|160:231,1,80,2|2,0:1|0:1,0:0:0:0:
158,302,200197,2,0,P|106:313|29:289,1,120,2|10,0:1|0:0,0:0:0:0:
13,222,201035,6,0,L|21:126,1,80,10|10,0:1|0:1,0:0:0:0:
51,68,201706,2,0,P|113:43|161:62,2,120,10|2|8,0:1|0:1|0:0,0:0:0:0:
109,122,203046,2,0,L|113:208,1,80,10|12,0:0|0:0,0:0:0:0:
137,278,203717,6,0,P|181:288|221:282,1,80,12|8,0:0|0:1,0:0:0:0:
280,237,204387,2,0,P|324:227|364:233,1,80,10|10,0:1|0:1,0:0:0:0:
435,250,205057,2,0,L|443:371,2,120,8|2|10,0:1|0:1|0:1,0:0:0:0:
415,172,206398,6,0,P|400:131|358:101,1,80,10|10,0:1|0:1,0:0:0:0:
301,72,207069,2,0,B|219:81|219:81|171:72,1,120,10|12,0:1|0:0,0:0:0:0:
105,52,207907,1,10,0:1:0:0:
38,96,208242,2,0,P|15:151|32:226,1,120,10|8,0:1|0:0,0:0:0:0:
74,271,209080,6,0,L|242:279,2,160,8|0|0,0:1|0:0|0:0,0:0:0:0:
23,209,210756,1,0,0:0:0:0:
58,137,211091,2,0,P|98:119|146:124,1,80,0|0,0:0|0:0,0:0:0:0:
203,159,211761,5,12,0:1:0:0:
310,212,212264,2,2,B|351:214|351:214|387:199|387:199|434:201,1,120,12|0,0:1|0:1,0:1:0:0:
