osu file format v14

[General]
AudioFilename: audio.mp3
AudioLeadIn: 0
PreviewTime: 191638
Countdown: 0
SampleSet: Soft
StackLeniency: 0.7
Mode: 0
LetterboxInBreaks: 0
EpilepsyWarning: 1
WidescreenStoryboard: 1

[Editor]
DistanceSpacing: 1
BeatDivisor: 4
GridSize: 8
TimelineZoom: 1.2

[Metadata]
Title:Horizon Note
TitleUnicode:Horizon Note
Artist:Endorfin.
ArtistUnicode:Endorfin.
Creator:cococolaco
Version:Normal
Source:
Tags:loli catgirl loli_catgirl sky delta sky_delta artcore aitsuki nakuru 藍月なくる
BeatmapID:1646340
BeatmapSetID:783272

[Difficulty]
HPDrainRate:4
CircleSize:3
OverallDifficulty:4
ApproachRate:6
SliderMultiplier:1.1
SliderTickRate:1

[Events]
//Background and Video events
0,0,"ybXB0ui.jpg",0,0
//Break Periods
2,41119,45259
2,78284,85858
2,144212,164720
//Storyboard Layer 0 (Background)
//Storyboard Layer 1 (Fail)
//Storyboard Layer 2 (Pass)
//Storyboard Layer 3 (Foreground)
Sprite,Foreground,Centre,"sb\lighting.png",0,0 C,0,201698,,255,88,100 M,0,201698,201742,295,148,292.3878,161.4993 F,2,201698,202257,1,0 S,2,201698,202257,1.5,0.3 P,0,201698,202257,A M,0,201742,201787,292.3878,161.4993,289.9202,175.0256 M,0,201787,201832,289.9202,175.0256,287.6288,188.5831 M,0,201832,201877,287.6288,188.5831,285.5582,202.1759 M,0,201877,201922,285.5582,202.1759,283.6395,215.7909 M,0,201922,201967,283.6395,215.7909,281.8983,229.4299 M,0,201967,202012,281.8983,229.4299,280.3725,243.0946 M,0,202012,202057,280.3725,243.0946,279.006,256.776
Sprite,Foreground,Centre,"sb\lighting.png",0,0 C,0,202417,,255,88,100 M,0,202417,202461,384,288,386.228,301.5682 F,2,202417,202976,1,0 S,2,202417,202976,1.5,0.3 P,0,202417,202976,A M,0,202461,202506,386.228,301.5682,388.3926,315.1467 M,0,202506,202551,388.3926,315.1467,390.4799,328.7373 M,0,202551,202596,390.4799,328.7373,392.4705,342.3424 M,0,202596,202641,392.4705,342.3424,394.3947,355.957 M,0,202641,202686,394.3947,355.957,396.2412,369.5824 M,0,202686,202731,396.2412,369.5824,397.9939,383.2202 M,0,202731,202776,397.9939,383.2202,399.6769,396.8666
Sprite,Foreground,Centre,"sb\lighting.png",0,0 C,0,131279,,173,255,95 M,0,131279,131323,345,268,331.6945,264.5404 F,2,131279,131838,1,0 S,2,131279,131838,1.5,0.3 P,0,131279,131838,A M,0,131323,131368,331.6945,264.5404,318.2982,261.4556 M,0,131368,131413,318.2982,261.4556,304.8035,258.8278 M,0,131413,131458,304.8035,258.8278,291.2113,256.7657 M,0,131458,131503,291.2113,256.7657,277.5651,255.1082 M,0,131503,131548,277.5651,255.1082,263.8694,253.9156 M,0,131548,131593,263.8694,253.9156,250.1368,253.273 M,0,131593,131638,250.1368,253.273,236.3917,253.0036
Sprite,Foreground,Centre,"sb\lighting.png",0,0 C,0,131998,,173,255,95 M,0,131998,132042,130,223,132.4291,236.5337 F,2,131998,132557,1,0 S,2,131998,132557,1.5,0.3 P,0,131998,132557,A M,0,132042,132087,132.4291,236.5337,134.8583,250.0675 M,0,132087,132132,134.8583,250.0675,137.2874,263.6012 M,0,132132,132177,137.2874,263.6012,139.7165,277.1349 M,0,132177,132222,139.7165,277.1349,142.1457,290.6686 M,0,132222,132267,142.1457,290.6686,144.5748,304.2024 M,0,132267,132312,144.5748,304.2024,147.0039,317.7361 M,0,132312,132357,147.0039,317.7361,149.433,331.2698
Sprite,Foreground,Centre,"sb\lighting.png",0,0 C,0,120141,,173,255,95 M,0,120141,120185,558,380,545.6587,386.0574 F,2,120141,120700,1,0 S,2,120141,120700,1.5,0.3 P,0,120141,120700,A M,0,120185,120230,545.6587,386.0574,533.1517,391.7628 M,0,120230,120275,533.1517,391.7628,520.4529,397.0319 M,0,120275,120320,520.4529,397.0319,507.5325,401.7289 M,0,120320,120365,507.5325,401.7289,494.4831,406.0515 M,0,120365,120410,494.4831,406.0515,481.2901,409.9196 M,0,120410,120455,481.2901,409.9196,467.9401,413.2019 M,0,120455,120500,467.9401,413.2019,454.5076,416.1292
Sprite,Foreground,Centre,"sb\lighting.png",359,361 C,0,120860,,173,255,95 F,2,120860,121060,1,0 S,2,120860,121060,1.5,0.3 P,0,120860,121060,A
Sprite,Foreground,Centre,"sb\lighting.png",0,0 C,0,62297,,255,88,100 M,0,62297,62341,347,250,333.6202,253.1634 F,2,62297,62856,1,0 S,2,62297,62856,1.5,0.3 P,0,62297,62856,A M,0,62341,62386,333.6202,253.1634,320.1785,256.0511 M,0,62386,62431,320.1785,256.0511,306.6541,258.5233 M,0,62431,62476,306.6541,258.5233,293.0761,260.6772 M,0,62476,62521,293.0761,260.6772,279.447,262.4851 M,0,62521,62566,279.447,262.4851,265.768,263.8654 M,0,62566,62611,265.768,263.8654,252.0615,264.9309 M,0,62611,62656,252.0615,264.9309,238.3316,265.6474
Sprite,Foreground,Centre,"sb\lighting.png",0,0 C,0,63016,,255,88,100 M,0,63016,63060,152,334,148.8366,320.6202 F,2,63016,63575,1,0 S,2,63016,63575,1.5,0.3 P,0,63016,63575,A M,0,63060,63105,148.8366,320.6202,145.9488,307.1785 M,0,63105,63150,145.9488,307.1785,143.4767,293.6541 M,0,63150,63195,143.4767,293.6541,141.3228,280.0761 M,0,63195,63240,141.3228,280.0761,139.5149,266.4471 M,0,63240,63285,139.5149,266.4471,138.1346,252.768 M,0,63285,63330,138.1346,252.768,137.0691,239.0615 M,0,63330,63375,137.0691,239.0615,136.3526,225.3316
Sprite,Foreground,Centre,"sb\lighting.png",0,0 C,0,51159,,255,88,100 M,0,51159,51203,230,331,216.5506,333.8593 F,2,51159,51718,1,0 S,2,51159,51718,1.5,0.3 P,0,51159,51718,A M,0,51203,51248,216.5506,333.8593,203.1012,336.7187 M,0,51248,51293,203.1012,336.7187,189.6518,339.578 M,0,51293,51338,189.6518,339.578,176.2023,342.4373 M,0,51338,51383,176.2023,342.4373,162.7529,345.2966 M,0,51383,51428,162.7529,345.2966,149.3035,348.1559 M,0,51428,51473,149.3035,348.1559,135.8541,351.0153 M,0,51473,51518,135.8541,351.0153,122.4047,353.8746
Sprite,Foreground,Centre,"sb\lighting.png",152,248 C,0,51878,,255,88,100 F,2,51878,52078,1,0 S,2,51878,52078,1.5,0.3 P,0,51878,52078,A
//Storyboard Sound Samples

[TimingPoints]
680,359.281437125748,4,2,1,40,1,0
6427,-100,4,2,1,75,0,0
17924,-100,4,2,1,55,0,0
29421,-100,4,2,1,65,0,0
41997,-100,4,2,1,55,0,0
46307,-100,4,2,1,65,0,0
46667,-100,4,2,1,55,0,0
52236,-100,4,2,1,85,0,1
58343,-100,4,2,1,75,0,1
62295,-100,4,2,1,85,0,1
68942,-100,4,2,1,70,0,1
69301,-100,4,2,1,85,0,1
69661,-100,4,2,1,75,0,1
75230,-100,4,2,1,85,0,0
86907,-100,4,2,1,55,0,0
98404,-100,4,2,1,65,0,0
110979,-100,4,2,1,55,0,0
115290,-100,4,2,1,65,0,0
115650,-100,4,2,1,55,0,0
121218,-100,4,2,1,85,0,1
127326,-100,4,2,1,75,0,1
131278,-100,4,2,1,85,0,1
137925,-100,4,2,1,70,0,1
138284,-100,4,2,1,85,0,1
138644,-100,4,2,1,75,0,1
144212,-100,4,2,1,85,0,0
155709,-100,4,2,1,55,0,0
165769,-100,4,2,1,65,0,0
167206,-100,4,2,1,75,0,0
179063,-100,4,2,1,55,0,0
184452,-100,4,2,1,65,0,0
191638,-100,4,2,1,85,0,1
197745,-100,4,2,1,75,0,1
201697,-100,4,2,1,85,0,1
208344,-100,4,2,1,70,0,1
208703,-100,4,2,1,85,0,1
209063,-100,4,2,1,75,0,1
214632,-100,4,2,1,85,0,0

[Colours]
Combo1 : 255,94,55
Combo2 : 173,255,95
Combo3 : 17,254,176
Combo4 : 255,88,100

[HitObjects]
151,87,680,6,0,L|136:261,2,165,4|2|4,0:0|0:1|0:0,0:0:0:0:
283,185,2297,2,0,P|344:194|434:145,2,165,2|2|2,0:1|0:1|0:1,0:0:0:0:
247,142,3555,2,0,L|232:316,1,165,4|2,0:0|0:1,0:0:0:0:
125,180,4632,1,4,0:0:0:0:
248,69,5171,6,0,P|327:71|359:243,1,275,6|8,0:1|0:0,0:0:0:0:
342,341,6429,6,0,L|221:325,1,110,6|2,0:1|1:1,0:0:0:0:
184,299,6968,2,0,L|120:306,1,55,2|4,0:0|0:0,0:0:0:0:
170,202,7507,1,0,1:0:0:0:
170,202,7686,2,0,P|183:140|187:84,2,110,2|2|2,0:1|0:1|0:1,0:0:0:0:
21,128,8944,2,0,L|39:54,1,55,2|2,1:0|0:1,0:0:0:0:
86,57,9303,6,0,P|134:68|205:60,1,110,2|0,0:1|1:1,0:0:0:0:
240,33,9842,2,0,P|288:22|359:30,1,110,2|2,0:1|0:1,0:0:0:0:
310,130,10561,2,0,B|298:170|298:170|324:261,1,110,2|0,0:1|0:0,0:0:0:0:
358,271,11099,1,2,1:0:0:0:
435,193,11459,2,0,P|437:132|444:67,1,110,2|2,0:1|1:1,0:0:0:0:
343,132,12177,6,0,P|286:143|217:165,1,110,2|2,0:1|1:1,0:0:0:0:
190,187,12716,2,0,L|123:181,2,55,2|0|2,0:1|0:0|0:0,0:0:0:0:
270,262,13435,2,0,P|279:308|287:375,1,110,2|2,0:1|0:0,0:0:0:0:
234,353,13974,2,0,P|203:336|173:327,1,55,2|2,1:1|0:1,0:0:0:0:
107,251,14513,2,0,P|81:260|57:274,2,55,2|0|2,0:0|1:0|0:1,0:0:0:0:
153,219,15052,6,0,P|165:162|169:108,1,110,2|0,0:1|1:1,0:0:0:0:
137,65,15590,2,0,P|103:70|63:77,2,55,2|4|0,0:1|0:3|3:0,0:0:0:0:
256,192,16129,12,4,17206,0:3:0:0:
82,328,17926,6,0,L|93:216,1,110,6|0,0:0|0:0,0:0:0:0:
126,175,18465,2,0,P|197:154|251:160,1,110,2|2,0:0|0:0,0:0:0:0:
316,226,19183,2,0,P|387:247|441:241,2,110,6|0|2,0:0|0:0|0:0,0:0:0:0:
232,153,20261,2,0,P|225:123|221:76,1,55,2|4,0:0|0:3,0:0:0:0:
261,59,20620,6,0,P|267:29|272:-18,2,55,2|6|0,0:0|0:0|0:0,0:0:0:0:
315,65,21159,2,0,P|371:53|443:45,1,110,4|0,0:3|0:0,0:0:0:0:
63,218,22776,1,2,0:0:0:0:
118,218,22956,2,0,P|149:169|128:104,1,110,2|6,0:0|0:3,0:0:0:0:
94,89,23495,6,0,L|210:74,1,110,2|0,0:3|0:0,0:0:0:0:
254,95,24034,1,2,0:0:0:0:
193,248,24573,1,2,0:0:0:0:
238,218,24752,2,0,L|301:223,1,55,2|2,0:0|0:0,0:0:0:0:
424,322,25471,2,0,L|478:317,1,55,2|2,0:1|0:3,0:0:0:0:
405,169,26189,2,0,L|400:114,1,55,4|0,0:3|0:0,0:0:0:0:
360,75,26549,6,0,P|300:61|240:70,1,110,6|4,0:0|0:3,0:0:0:0:
226,114,27088,2,0,P|179:171|133:178,1,110,2|2,0:0|0:0,0:0:0:0:
91,273,27806,2,0,P|141:266|211:275,2,110,4|0|2,0:0|0:0|0:0,0:0:0:0:
49,308,28704,1,0,0:1:0:0:
11,204,29064,1,8,0:0:0:0:
71,112,29423,6,0,L|189:101,1,110,6|2,0:0|1:2,0:0:0:0:
219,63,29962,2,0,P|269:84|338:86,1,110,2|2,0:0|0:0,0:0:0:0:
427,49,30680,1,2,0:0:0:0:
427,159,31040,2,0,L|435:228,1,55,2|2,0:0|0:0,0:0:0:0:
457,263,31399,1,2,0:0:0:0:
358,311,31758,2,0,L|291:303,1,55,2|8,0:0|0:0,0:0:0:0:
265,264,32117,2,0,L|198:272,1,55,2|4,0:0|0:3,0:0:0:0:
101,287,32656,1,0,3:0:0:0:
79,236,32836,2,0,P|85:175|183:137,1,165,2|0,0:0|1:0,0:0:0:0:
223,148,33555,2,0,P|251:145|278:142,1,55,6|0,0:0|0:0,0:0:0:0:
387,18,34273,5,2,0:0:0:0:
406,69,34453,2,0,P|396:118|391:187,1,110,4|8,0:3|0:0,0:0:0:0:
348,143,34992,2,0,L|280:117,1,55,2|4,0:0|0:0,0:0:0:0:
161,218,35710,1,2,0:0:0:0:
121,256,35890,2,0,P|112:187|102:138,1,110,2|0,0:0|1:0,0:0:0:0:
54,124,36429,2,0,P|26:131|-1:139,1,55,2|0,0:0|0:0,0:0:0:0:
22,302,37147,1,2,0:0:0:0:
57,344,37327,2,0,P|107:334|172:331,1,110,4|10,0:3|0:0,0:0:0:0:
273,356,38046,6,0,P|280:286|367:232,1,165,4|2,0:3|0:0,0:0:0:0:
443,294,38944,1,2,0:0:0:0:
471,187,39303,2,0,L|455:74,1,110,2|2,0:0|0:0,0:0:0:0:
357,129,40022,2,0,L|286:39,1,110,6|0,0:0|0:0,0:0:0:0:
229,134,40740,2,0,L|168:121,1,55,0|4,3:0|0:1,0:0:0:0:
449,293,46309,6,0,L|386:279,1,55,6|0,0:0|0:0,0:0:0:0:
347,309,46668,2,0,P|312:331|233:329,1,110,4|2,0:0|0:0,0:0:0:0:
211,289,47207,2,0,P|176:267|97:269,1,110,2|2,0:0|0:0,0:0:0:0:
42,176,47926,2,0,P|77:122|87:69,1,110,2|0,0:0|0:0,0:0:0:0:
141,69,48465,1,2,0:0:0:0:
187,98,48644,2,0,L|297:83,1,110,6|0,0:0|0:0,0:0:0:0:
402,109,49363,5,0,0:0:0:0:
439,149,49543,2,0,P|440:200|450:261,1,110,4|2,0:3|0:0,0:0:0:0:
475,306,50082,2,0,P|420:307|365:316,1,110,2|2,0:0|0:0,0:0:0:0:
317,342,50620,2,0,L|250:324,1,55,8|6,0:0|0:0,0:0:0:0:
166,275,51159,2,0,L|39:302,1,110,0|2,0:0|0:0,0:0:0:0:
88,192,51878,1,8,0:3:0:0:
174,123,52237,6,0,P|219:141|292:138,1,110,4|2,0:1|0:1,0:0:0:0:
326,111,52776,2,0,L|396:118,1,55,2|2,1:0|0:0,0:0:0:0:
435,105,53135,2,0,P|426:158|422:216,1,110,2|2,0:1|1:0,0:0:0:0:
439,266,53674,1,2,0:1:0:0:
283,211,54213,1,2,1:1:0:0:
236,240,54393,2,0,P|191:245|125:261,1,110,2|2,0:1|0:1,0:0:0:0:
84,226,54932,2,0,L|69:157,1,55,2|2,1:1|0:0,0:0:0:0:
118,71,55471,5,0,0:0:0:0:
167,94,55650,2,0,L|231:87,1,55,2|2,1:0|0:0,0:0:0:0:
263,52,56010,1,2,0:1:0:0:
335,134,56369,1,2,1:0:0:0:
313,184,56549,2,0,P|276:207|208:217,1,110,2|2,0:1|0:1,0:0:0:0:
128,289,57267,2,0,P|165:312|233:322,1,110,2|2,0:1|0:1,0:0:0:0:
334,289,57986,1,4,0:0:0:0:
496,315,58525,6,0,L|506:244,1,55,0|0,1:0|3:0,0:0:0:0:
465,220,58884,2,0,L|455:149,1,55,0|0,3:3|0:0,0:0:0:0:
420,124,59243,1,0,1:0:0:0:
367,107,59423,2,0,P|313:108|265:66,1,110,4|2,0:0|0:0,0:0:0:0:
162,98,60141,2,0,P|152:150|141:223,1,110,2|2,0:2|0:0,0:0:0:0:
250,229,60860,2,0,B|262:273|267:332|267:332|300:348|345:356,1,165,2|2,0:0|1:2,0:0:0:0:
368,319,61579,2,0,P|374:281|383:249,1,55,2|0,0:0|3:0,0:0:0:0:
330,165,62117,1,2,1:2:0:0:
283,194,62297,6,0,P|234:204|151:210,1,110,6|6,0:0|0:0,0:0:0:0:
88,278,63016,2,0,P|78:229|72:146,1,110,6|6,0:0|0:0,0:0:0:0:
156,98,63734,2,0,P|217:57|304:76,1,165,4|2,0:1|1:1,0:0:0:0:
336,180,64632,1,2,0:1:0:0:
383,152,64812,2,0,L|439:143,1,55,2|2,0:1|1:0,0:0:0:0:
485,115,65171,2,0,P|475:166|470:226,1,110,2|0,0:1|0:0,0:0:0:0:
372,274,65890,2,0,P|317:279|263:288,1,110,2|0,0:1|0:0,0:0:0:0:
213,312,66429,2,0,P|177:311|150:306,1,55,2|2,1:0|0:0,0:0:0:0:
99,214,66968,5,2,0:1:0:0:
121,163,67147,2,0,L|114:95,1,55,2|2,1:0|0:0,0:0:0:0:
156,71,67507,2,0,P|197:41|256:12,1,110,2|2,0:1|1:1,0:0:0:0:
290,51,68046,2,0,P|331:80|390:110,1,110,2|2,0:1|0:1,0:0:0:0:
493,107,68764,1,2,0:0:0:0:
444,205,69123,2,0,L|431:269,1,55,0|4,0:1|1:0,0:0:0:0:
404,305,69483,6,0,P|355:297|280:294,1,110,0|0,0:0|0:0,0:0:0:0:
245,318,70022,1,2,1:2:0:0:
339,182,70561,2,0,L|345:113,1,55,2|2,0:0|1:2,0:0:0:0:
295,100,70920,2,0,P|241:88|186:81,1,110,2|2,0:0|0:0,0:0:0:0:
115,165,71638,2,0,P|60:172|6:183,1,110,2|2,0:0|0:0,0:0:0:0:
61,279,72357,2,0,B|113:276|156:292|156:292|180:268|199:233,1,165,2|0,0:0|1:0,0:0:0:0:
296,192,73255,1,0,0:1:0:0:
390,248,73614,2,0,L|399:317,1,55,8|6,0:2|0:0,0:0:0:0:
477,226,74153,6,0,P|483:168|490:114,1,110,0|0,0:0|0:0,0:0:0:0:
391,67,74872,2,0,L|335:75,1,55,0|0,0:0|0:0,0:0:0:0:
281,70,75231,1,4,0:1:0:0:
64,155,86908,6,0,P|123:108|214:116,1,165,4|2,0:0|0:0,0:0:0:0:
248,152,87626,2,0,L|254:217,1,55,0|6,0:0|0:0,0:0:0:0:
346,149,88165,2,0,P|399:139|464:122,1,110,4|0,0:0|0:0,0:0:0:0:
461,234,88884,2,0,P|408:244|343:261,1,110,2|6,0:0|0:0,0:0:0:0:
264,322,89602,2,0,L|191:310,1,55,2|6,0:0|0:0,0:0:0:0:
101,292,90141,1,2,0:0:0:0:
81,128,90680,5,4,0:0:0:0:
170,192,91040,2,0,B|213:207|213:207|284:184,1,110,4|2,0:0|0:0,0:0:0:0:
318,153,91579,2,0,L|313:93,1,55,2|0,3:2|3:0,0:0:0:0:
335,47,91938,2,0,P|383:33|453:24,1,110,2|0,0:0|3:0,0:0:0:0:
492,46,92477,2,0,P|486:88|483:120,1,55,2|4,0:0|0:0,0:0:0:0:
453,206,93016,1,0,0:0:0:0:
335,321,93555,1,4,0:0:0:0:
292,286,93734,2,0,L|286:227,1,55,0|6,3:0|0:0,0:0:0:0:
231,135,94273,1,2,0:0:0:0:
178,151,94453,2,0,L|115:165,1,55,2|0,3:2|3:0,0:0:0:0:
33,100,94992,1,4,0:0:0:0:
66,56,95171,2,0,L|134:60,1,55,2|2,0:0|0:3,0:0:0:0:
151,105,95531,6,0,P|161:161|166:218,1,110,6|0,0:0|0:0,0:0:0:0:
150,266,96070,1,6,0:0:0:0:
255,235,96429,1,0,3:0:0:0:
343,299,96788,2,0,P|398:310|466:313,1,110,6|0,0:0|3:0,0:0:0:0:
499,286,97327,2,0,P|507:251|514:226,1,55,2|2,0:0|0:0,0:0:0:0:
471,195,97686,2,0,P|462:160|456:135,1,55,0|0,0:1|0:1,0:0:0:0:
416,104,98046,1,8,0:0:0:0:
334,178,98405,6,0,B|286:188|286:188|205:186,1,110,6|2,0:0|0:0,0:0:0:0:
185,147,98944,2,0,P|129:138|75:133,1,110,2|6,0:0|0:0,0:0:0:0:
132,38,99662,2,0,P|188:47|242:52,1,110,6|2,0:0|0:0,0:0:0:0:
293,36,100201,1,2,0:0:0:0:
334,72,100381,2,0,P|345:122|353:186,1,110,4|4,0:0|0:0,0:0:0:0:
326,229,100920,2,0,P|318:260|316:293,1,55,8|4,0:0|0:0,0:0:0:0:
457,197,101638,5,2,0:0:0:0:
489,153,101818,2,0,P|498:88|509:36,1,110,2|4,0:0|0:3,0:0:0:0:
458,18,102357,1,0,1:0:0:0:
407,39,102537,2,0,B|366:55|366:55|283:50,1,110,4|2,0:0|0:0,0:0:0:0:
191,36,103255,1,2,0:0:0:0:
166,85,103435,2,0,P|158:114|152:159,1,55,2|0,0:0|3:0,0:0:0:0:
183,184,103794,2,0,P|191:213|197:258,2,55,8|2|6,0:0|0:0|0:0,0:0:0:0:
100,326,104692,5,0,3:0:0:0:
146,355,104872,2,0,B|186:367|186:367|258:356,1,110,2|0,0:0|1:0,0:0:0:0:
293,318,105411,2,0,P|337:265|389:260,1,110,4|8,0:0|0:0,0:0:0:0:
477,296,106129,1,4,0:3:0:0:
466,242,106309,2,0,L|462:167,1,55,2|4,0:0|0:0,0:0:0:0:
422,148,106668,2,0,P|360:142|309:124,1,110,10|2,0:0|0:0,0:0:0:0:
210,93,107387,6,0,P|181:103|132:111,1,55,2|2,0:0|0:0,0:0:0:0:
51,77,107926,1,2,0:0:0:0:
75,184,108285,2,0,P|84:232|93:299,1,110,6|0,0:0|0:0,0:0:0:0:
133,329,108824,1,4,0:3:0:0:
182,304,109004,2,0,P|248:282|323:338,1,165,6|4,0:0|3:0,0:0:0:0:
366,302,109722,2,0,P|394:294|423:289,1,55,2|4,0:0|0:1,0:0:0:0:
312,59,110980,5,0,1:0:0:0:
268,92,111159,2,0,P|228:102|151:96,2,110,0|0|2,3:0|0:0|0:0,0:0:0:0:
365,142,112237,2,0,L|383:256,1,110,2|0,0:0|3:0,0:0:0:0:
351,296,112776,2,0,P|325:305|296:312,1,55,6|0,0:0|0:0,0:0:0:0:
254,277,113135,2,0,P|203:259|136:266,1,110,2|2,0:0|0:0,0:0:0:0:
51,209,113854,5,2,1:2:0:0:
45,154,114034,2,0,L|59:31,1,110,2|2,0:0|0:0,0:0:0:0:
158,88,114752,2,0,P|205:69|277:58,1,110,2|0,0:0|0:1,0:0:0:0:
315,74,115291,2,0,P|343:83|377:86,1,55,4|0,1:2|0:0,0:0:0:0:
421,71,115650,6,0,P|413:129|406:200,1,110,4|2,0:0|0:0,0:0:0:0:
406,234,116189,1,2,0:0:0:0:
310,289,116549,1,2,0:0:0:0:
213,236,116908,2,0,B|189:182|189:182|217:69,1,165,2|2,0:0|0:0,0:0:0:0:
180,35,117626,2,0,P|149:36|57:142,1,165,2|8,0:0|0:0,0:0:0:0:
118,217,118525,6,0,P|165:207|230:200,1,110,2|2,0:0|0:0,0:0:0:0:
259,244,119064,2,0,P|306:254|371:261,1,110,2|2,0:0|0:0,0:0:0:0:
410,226,119602,2,0,L|467:218,1,55,8|4,0:0|0:1,0:0:0:0:
494,324,120141,2,0,P|443:346|386:361,1,110,0|0,0:0|0:0,0:0:0:0:
295,305,120860,1,8,0:3:0:0:
195,351,121219,6,0,P|150:316|101:291,1,110,4|2,0:1|0:1,0:0:0:0:
53,268,121758,2,0,P|47:237|43:198,1,55,2|2,1:0|0:0,0:0:0:0:
91,185,122117,2,0,P|122:191|161:195,2,55,2|2|2,0:1|0:1|1:0,0:0:0:0:
77,131,122656,2,0,P|68:69|55:15,1,110,2|2,0:1|0:1,0:0:0:0:
164,0,123375,2,0,P|173:62|186:116,1,110,2|2,0:1|0:1,0:0:0:0:
229,138,123914,2,0,P|259:139|289:146,1,55,2|2,1:0|0:0,0:0:0:0:
387,179,124453,5,2,0:1:0:0:
422,137,124632,2,0,L|430:75,1,55,2|0,1:0|0:0,0:0:0:0:
397,37,124992,2,0,P|358:40|284:25,1,110,2|2,0:1|1:0,0:0:0:0:
254,69,125531,2,0,P|215:66|141:81,1,110,2|2,0:1|0:1,0:0:0:0:
152,188,126249,2,0,P|191:191|265:176,1,110,2|2,0:1|0:1,0:0:0:0:
309,153,126788,2,0,L|368:167,1,55,0|6,1:0|0:0,0:0:0:0:
427,317,127507,5,0,1:0:0:0:
380,346,127686,2,0,P|345:351|308:354,1,55,0|2,3:0|0:0,0:0:0:0:
281,319,128046,2,0,P|246:314|209:311,1,55,2|0,0:0|1:0,0:0:0:0:
175,334,128405,1,2,0:0:0:0:
92,260,128764,2,0,P|81:190|71:144,1,110,2|2,0:0|0:0,0:0:0:0:
143,67,129483,2,0,L|212:52,1,55,2|2,0:0|1:2,0:0:0:0:
228,100,129842,2,0,P|308:108|401:123,1,165,2|2,0:0|1:2,0:0:0:0:
427,163,130561,2,0,L|442:237,1,55,2|0,0:0|0:0,0:0:0:0:
330,239,131099,1,2,1:2:0:0:
281,212,131279,6,0,P|222:200|170:197,1,110,6|6,0:0|0:0,0:0:0:0:
66,167,131998,2,0,L|87:284,1,110,6|6,0:0|0:0,0:0:0:0:
175,338,132716,2,0,B|209:355|209:355|287:341,1,110,4|0,0:1|0:0,0:0:0:0:
318,302,133255,2,0,L|383:308,1,55,2|2,1:0|0:0,0:0:0:0:
423,328,133614,2,0,P|412:259|408:215,1,110,2|2,0:1|1:1,0:0:0:0:
413,164,134153,1,2,0:1:0:0:
330,91,134513,2,0,P|284:104|217:107,1,110,2|2,0:1|0:1,0:0:0:0:
115,82,135231,1,2,0:1:0:0:
98,134,135411,2,0,P|100:188|114:241,1,110,2|4,1:1|0:0,0:0:0:0:
150,283,135950,6,0,P|148:313|143:352,1,55,2|2,0:1|1:0,0:0:0:0:
247,294,136489,2,0,P|301:284|361:267,1,110,2|2,0:1|1:1,0:0:0:0:
382,221,137028,2,0,P|434:235|489:245,1,110,4|2,0:0|0:1,0:0:0:0:
463,138,137746,1,2,0:1:0:0:
353,122,138105,2,0,L|281:137,1,55,0|4,0:1|1:1,0:0:0:0:
253,163,138465,6,0,P|245:214|241:285,1,110,0|0,0:0|0:0,0:0:0:0:
193,299,139004,2,0,P|162:293|136:287,1,55,2|0,1:2|0:0,0:0:0:0:
75,198,139543,2,0,L|62:132,1,55,2|2,0:0|1:2,0:0:0:0:
42,93,139902,2,0,P|96:106|156:108,1,110,2|2,0:0|0:0,0:0:0:0:
229,31,140620,2,0,P|283:18|343:16,1,110,2|2,0:0|0:0,0:0:0:0:
421,86,141339,2,0,B|414:139|411:194|411:194|380:215|347:222,1,165,2|0,0:0|1:0,0:0:0:0:
276,289,142237,1,2,3:2:0:0:
378,330,142596,2,0,P|403:341|434:358,1,55,8|4,0:2|0:0,0:0:0:0:
256,192,165770,12,6,167207,0:2:0:0:
91,89,168285,6,0,L|165:75,1,55,2|8,3:1|0:0,0:0:0:0:
193,52,168644,2,0,L|178:182,1,110,4|2,0:2|0:1,0:0:0:0:
268,226,169363,2,0,L|283:356,2,110,2|2|0,0:1|0:1|0:0,0:0:0:0:
299,180,170261,6,0,P|344:152|408:157,1,110,4|2,0:0|0:1,0:0:0:0:
449,175,170800,2,0,P|455:226|466:291,1,110,2|2,0:1|0:1,0:0:0:0:
357,256,171519,1,4,0:2:0:0:
264,315,171878,2,0,P|233:323|200:335,1,55,2|2,0:1|0:0,0:0:0:0:
169,365,172237,1,2,0:1:0:0:
116,349,172417,2,0,P|102:292|96:237,1,110,2|2,3:1|1:1,0:0:0:0:
184,175,173135,6,0,P|198:118|204:63,1,110,4|2,0:2|1:1,0:0:0:0:
186,14,173674,1,2,0:1:0:0:
99,81,174034,2,0,P|72:91|36:99,1,55,2|8,0:1|0:0,0:0:0:0:
22,146,174393,2,0,B|16:188|16:188|42:271,1,110,2|2,0:1|0:1,0:0:0:0:
86,274,174932,1,0,1:0:0:0:
139,260,175111,2,0,B|168:256|190:239|190:239|209:257|233:269|233:269|261:254|290:248,1,165,2|8,0:0|0:0,0:0:0:0:
376,186,176010,6,0,P|388:243|406:303,1,110,4|2,0:2|1:1,0:0:0:0:
436,336,176549,1,4,0:0:0:0:
333,378,176908,1,2,0:1:0:0:
283,353,177088,2,0,B|227:323|207:287|207:287|177:299|142:302|142:302|123:252|88:209,1,275,6|0,0:1|0:0,0:0:0:0:
117,163,178165,2,0,P|124:133|127:94,1,55,2|0,0:3|1:0,0:0:0:0:
89,68,178525,2,0,P|82:38|79:-1,1,55,2|4,0:3|0:1,0:0:0:0:
239,54,179243,6,0,L|249:115,1,55,2|2,0:0|0:0,0:0:0:0:
235,162,179602,2,0,P|220:206|210:286,1,110,2|8,3:2|0:0,0:0:0:0:
239,315,180141,2,0,B|289:290|289:290|364:292,1,110,2|2,3:2|0:0,0:0:0:0:
451,311,180860,2,0,L|464:247,1,55,2|0,0:0|3:0,0:0:0:0:
432,210,181219,1,8,0:0:0:0:
395,169,181399,2,0,L|382:105,2,55,0|8|0,1:0|0:0|1:0,0:0:0:0:
332,260,182117,6,0,P|306:268|276:272,1,55,2|0,3:2|0:0,0:0:0:0:
234,238,182477,2,0,P|189:209|124:200,1,110,2|2,0:0|3:2,0:0:0:0:
83,221,183016,2,0,P|113:167|106:95,1,110,2|0,3:2|3:0,0:0:0:0:
171,26,183734,2,0,P|202:18|239:15,1,55,2|0,0:0|0:1,0:0:0:0:
265,52,184093,2,0,P|296:60|333:63,1,55,0|0,0:1|1:0,0:0:0:0:
370,44,184453,1,6,0:0:0:0:
439,193,184992,5,2,0:0:0:0:
363,273,185351,2,0,P|357:301|351:343,2,55,2|0|0,3:2|0:0|1:0,0:0:0:0:
330,228,185890,2,0,P|273:234|207:250,1,110,2|0,0:0|0:0,0:0:0:0:
150,329,186608,2,0,P|96:317|41:311,1,110,2|0,0:0|3:0,0:0:0:0:
104,221,187327,1,2,0:0:0:0:
101,165,187507,6,0,P|78:106|58:62,1,110,6|0,0:0|0:0,0:0:0:0:
103,30,188046,2,0,P|134:23|163:21,1,55,2|0,0:0|3:0,0:0:0:0:
243,89,188585,1,0,1:0:0:0:
285,53,188764,2,0,P|337:38|391:27,1,110,6|0,1:2|0:0,0:0:0:0:
440,125,189483,2,0,P|425:177|414:231,1,110,2|8,0:0|0:3,0:0:0:0:
412,286,190022,1,8,0:3:0:0:
133,121,191638,6,0,B|160:154|160:154|149:224,1,110,4|2,0:1|0:1,0:0:0:0:
120,267,192177,2,0,L|129:322,1,55,2|2,1:0|0:0,0:0:0:0:
179,343,192537,2,0,P|231:332|291:324,1,110,2|2,0:1|1:0,0:0:0:0:
341,334,193076,1,2,0:1:0:0:
429,194,193614,1,2,1:1:0:0:
383,163,193794,2,0,P|320:149|260:149,1,110,2|2,0:1|0:1,0:0:0:0:
230,180,194333,2,0,L|162:195,1,55,2|2,1:0|0:1,0:0:0:0:
101,110,194872,5,0,0:0:0:0:
137,68,195052,2,0,L|200:54,1,55,2|2,1:0|0:0,0:0:0:0:
235,23,195411,2,0,P|285:31|349:33,1,110,2|2,0:1|1:1,0:0:0:0:
398,21,195950,2,0,B|419:60|419:60|420:150,1,110,2|2,0:1|0:1,0:0:0:0:
332,193,196668,2,0,B|311:232|311:232|310:322,1,110,2|2,0:1|0:1,0:0:0:0:
265,328,197207,2,0,P|236:334|207:338,1,55,0|6,1:0|0:0,0:0:0:0:
112,204,197926,6,0,L|99:138,1,55,0|0,1:0|3:0,0:0:0:0:
77,100,198285,2,0,P|45:97|21:104,2,55,2|2|0,0:0|0:0|1:0,0:0:0:0:
122,68,198824,2,0,P|178:67|241:58,1,110,2|0,0:0|0:0,0:0:0:0:
307,140,199543,2,0,P|314:194|315:249,1,110,2|2,0:0|0:0,0:0:0:0:
416,292,200261,2,0,P|408:237|407:182,1,110,2|0,0:0|3:0,0:0:0:0:
439,137,200800,2,0,L|426:61,1,55,2|2,1:2|0:0,0:0:0:0:
267,51,201519,5,2,1:2:0:0:
231,92,201698,2,0,P|222:143|214:212,1,110,6|6,0:0|0:0,0:0:0:0:
320,232,202417,2,0,P|328:283|337:352,1,110,6|6,0:0|0:0,0:0:0:0:
231,304,203135,1,4,0:1:0:0:
146,162,203674,6,0,L|89:171,1,55,2|2,1:0|0:0,0:0:0:0:
39,187,204034,2,0,L|40:132,2,55,2|2|2,0:1|0:1|1:0,0:0:0:0:
64,235,204573,2,0,P|79:290|82:344,1,110,2|2,0:0|0:1,0:0:0:0:
181,294,205291,2,0,P|236:281|295:271,1,110,2|2,0:1|0:1,0:0:0:0:
338,294,205830,2,0,L|395:303,1,55,2|0,1:1|0:0,0:0:0:0:
425,197,206369,6,0,L|416:134,1,55,2|2,0:1|1:0,0:0:0:0:
421,87,206728,1,0,3:0:0:0:
391,40,206908,2,0,P|334:29|264:27,1,110,2|2,0:1|1:1,0:0:0:0:
250,72,207447,2,0,P|201:133|107:149,1,165,2|0,0:1|1:0,0:0:0:0:
66,135,208165,1,2,0:0:0:0:
90,242,208525,2,0,P|96:279|95:313,1,55,0|4,0:1|1:0,0:0:0:0:
83,349,208884,6,0,P|141:335|198:316,1,110,0|0,0:0|0:0,0:0:0:0:
232,285,209423,1,0,1:0:0:0:
375,203,209962,2,0,L|425:255,1,55,2|0,0:0|1:0,0:0:0:0:
458,273,210321,2,0,P|475:209|494:158,1,110,2|2,0:0|0:0,0:0:0:0:
395,111,211040,2,0,P|377:47|359:-4,1,110,2|2,0:0|0:0,0:0:0:0:
276,74,211758,2,0,P|220:99|103:80,1,165,2|0,0:0|1:0,0:0:0:0:
20,38,212656,1,2,0:0:0:0:
33,147,213016,2,0,L|44:225,1,55,8|4,0:2|0:1,0:0:0:0:
256,192,213284,12,4,214632,0:1:0:0:
