osu file format v14

[General]
AudioFilename: audio.mp3
AudioLeadIn: 0
PreviewTime: 52229
Countdown: 1
SampleSet: Soft
StackLeniency: 0.7
Mode: 0
LetterboxInBreaks: 0
WidescreenStoryboard: 1

[Editor]
DistanceSpacing: 1.6
BeatDivisor: 4
GridSize: 32
TimelineZoom: 1.5

[Metadata]
Title:Four Leaves
TitleUnicode:Four Leaves
Artist:Endorfin.
ArtistUnicode:Endorfin.
Creator:Erisu
Version:hvick225's Clover
Source:SOUND VOLTEX IV HEAVENLY HAVEN
Tags:sdvx 4th sdvx4 konami bemani 藍月なくる aitsuki nakuru sky_delta sky delta Alt.Strato hvick225 didah shikibe mayu kazato asa shizuku- lanzhu mayuzumi fuyuko video game vgm pop jpop j-pop japanese
BeatmapID:3616546
BeatmapSetID:1576274

[Difficulty]
HPDrainRate:6
CircleSize:4.2
OverallDifficulty:9.2
ApproachRate:9.3
SliderMultiplier:1.8
SliderTickRate:1

[Events]
//Background and Video events
0,0,"d.jpg",0,0
//Break Periods
2,87527,91579
//Storyboard Layer 0 (Background)
//Storyboard Layer 1 (Fail)
//Storyboard Layer 2 (Pass)
//Storyboard Layer 3 (Foreground)
//Storyboard Layer 4 (Overlay)
//Storyboard Sound Samples

[TimingPoints]
1305,331.491712707182,4,2,1,50,1,0
1305,-200,4,2,1,50,0,0
7934,-200,4,2,1,40,0,0
8266,-200,4,2,1,50,0,0
8597,-200,4,2,1,60,0,0
9260,-200,4,2,1,70,0,0
10752,-200,4,2,1,40,0,0
12575,-100,4,2,1,60,0,0
13072,-200,4,2,1,40,0,0
22520,-200,4,2,1,50,0,0
23680,-100,4,2,1,60,0,0
27161,-76.9230769230769,4,2,1,60,0,0
27824,-100,4,2,1,60,0,0
31139,-76.9230769230769,4,2,1,60,0,0
31802,-100,4,2,1,60,0,0
34454,-100,4,2,1,50,0,0
34785,-200,4,2,1,50,0,0
35117,-100,4,2,1,50,0,0
35448,-76.9230769230769,4,2,1,50,0,0
36443,-100,4,2,1,50,0,0
36774,-76.9230769230769,4,2,1,50,0,0
37271,-200,4,2,1,50,0,0
37769,-100,4,2,1,50,0,0
38100,-76.9230769230769,4,2,1,50,0,0
38763,-100,4,2,1,50,0,0
39426,-76.9230769230769,4,2,1,50,0,0
39923,-200,4,2,1,50,0,0
41415,-100,4,2,1,50,0,0
42078,-76.9230769230769,4,2,1,50,0,0
43404,-100,4,2,1,50,0,0
44730,-76.9230769230769,4,2,1,50,0,0
45061,-200,4,2,1,60,0,0
46387,-125,4,2,1,60,0,0
47713,-125,4,2,1,70,0,0
50697,-100,4,2,1,70,0,0
52078,-100,4,2,1,5,0,0
52520,-100,4,2,1,30,0,0
52851,-90.9090909090909,4,2,1,80,0,1
55338,-76.9230769230769,4,2,1,80,0,1
55669,-90.9090909090909,4,2,1,80,0,1
60310,-83.3333333333333,4,2,1,80,0,1
60642,-76.9230769230769,4,2,1,80,0,1
62133,-90.9090909090909,4,2,1,80,0,1
65945,-76.9230769230769,4,2,1,80,0,1
66774,-90.9090909090909,4,2,1,80,0,1
87327,-90.9090909090909,4,2,1,70,0,0
92133,-333,4,2,1,70,0,0
95117,-66.6666666666667,4,2,1,70,0,0
95448,-66.6666666666667,4,2,1,80,0,1
95614,-90.9090909090909,4,2,1,80,0,1
96608,-76.9230769230769,4,2,1,80,0,1
97106,-90.9090909090909,4,2,1,80,0,1
100421,-76.9230769230769,4,2,1,80,0,1
101912,-90.9090909090909,4,2,1,80,0,1
103404,-76.9230769230769,4,2,1,80,0,1
108708,-200,4,2,1,60,0,0

[Colours]
Combo1 : 168,207,255
Combo2 : 164,255,225

[HitObjects]
177,58,1305,6,0,L|166:152,1,90,6|0,1:2|0:0,0:0:0:0:
50,214,1802,1,0,1:0:0:0:
66,202,1885,1,0,1:0:0:0:
85,200,1967,1,0,1:0:0:0:
150,277,2133,1,0,1:0:0:0:
255,301,2299,1,2,0:2:0:0:
378,183,2465,6,0,L|268:199,1,90,0|0,1:0|0:0,0:0:0:0:
289,196,2962,2,0,P|297:169|304:135,1,45,0|0,0:0|1:0,0:0:0:0:
194,35,3293,2,0,P|173:77|164:127,1,90,2|0,1:2|0:0,0:0:0:0:
88,325,3956,6,0,L|70:225,1,90,6|0,1:2|0:0,0:0:0:0:
164,118,4454,1,0,1:0:0:0:
176,133,4537,1,0,1:0:0:0:
179,153,4619,1,0,1:0:0:0:
151,254,4785,1,0,0:0:0:0:
217,339,4951,1,0,1:0:0:0:
382,374,5117,6,0,L|372:265,1,90,8|0,0:0|1:0,0:0:0:0:
389,259,5531,5,0,1:0:0:0:
362,283,5614,1,0,1:0:0:0:
327,291,5697,1,0,1:0:0:0:
292,279,5780,1,0,1:0:0:0:
264,256,5863,1,0,1:0:0:0:
223,237,5945,5,0,1:0:0:0:
180,250,6028,1,0,1:0:0:0:
149,282,6111,2,0,L|155:320,1,22.5,0|0,1:0|1:0,0:0:0:0:
30,239,6277,5,0,1:0:0:0:
66,280,6360,1,0,1:0:0:0:
81,228,6443,1,0,1:0:0:0:
222,101,6608,6,0,P|174:107|131:84,1,90,2|2,0:2|0:2,0:0:0:0:
304,65,7106,1,2,1:2:0:0:
313,85,7188,1,0,0:0:0:0:
312,107,7271,1,2,1:2:0:0:
244,195,7437,1,0,0:2:0:0:
327,317,7603,1,0,1:2:0:0:
256,177,7769,1,0,1:2:0:0:
70,319,7934,5,0,1:0:0:0:
72,310,8017,1,0,1:0:0:0:
80,305,8100,1,0,1:0:0:0:
88,307,8183,1,0,1:0:0:0:
93,315,8266,1,0,1:0:0:0:
91,324,8349,1,0,1:0:0:0:
83,329,8432,1,0,1:0:0:0:
74,326,8514,1,0,1:0:0:0:
82,318,8597,5,8,0:0:0:0:
112,298,8680,1,8,0:0:0:0:
158,292,8763,1,8,0:0:0:0:
203,319,8846,1,8,0:0:0:0:
265,356,8929,1,8,0:0:0:0:
338,351,9012,1,8,0:0:0:0:
403,300,9095,1,8,0:0:0:0:
435,220,9177,1,8,0:0:0:0:
423,133,9260,5,4,1:2:0:0:
292,255,9426,1,0,1:0:0:0:
438,123,9592,1,0,1:0:0:0:
221,58,9758,1,4,1:2:0:0:
321,153,9923,5,0,1:0:0:0:
111,174,10089,1,8,0:0:0:0:
111,174,10172,1,8,0:0:0:0:
111,174,10255,6,0,B|142:159|154:120|154:120|149:162|178:194,1,135,8|0,0:0|1:0,0:0:0:0:
184,201,10918,1,0,1:0:0:0:
210,206,11084,1,0,1:0:0:0:
311,192,11249,1,0,1:0:0:0:
378,109,11415,1,0,1:0:0:0:
346,7,11581,5,8,0:0:0:0:
353,117,11746,1,8,0:0:0:0:
408,223,11912,1,8,0:0:0:0:
512,280,12078,1,8,0:0:0:0:
391,200,12244,1,8,0:0:0:0:
222,272,12409,5,0,1:0:0:0:
232,305,12492,1,0,0:0:0:0:
218,334,12575,2,0,L|174:322,1,45,8|8,0:0|0:0,0:0:0:0:
105,375,12741,5,8,0:0:0:0:
61,348,12824,1,8,0:0:0:0:
13,361,12907,1,8,0:3:0:0:
0,173,13072,6,0,L|143:193,1,135,4|0,1:2|0:0,0:0:0:0:
149,194,13735,1,2,0:0:0:0:
223,39,13901,2,0,P|196:84|206:128,1,90,2|2,0:0|0:2,0:0:0:0:
353,271,14398,6,0,L|343:212,2,45,2|0|0,0:2|0:0|0:0,0:0:0:0:
314,343,14896,1,2,0:2:0:0:
314,343,15061,2,0,P|367:318|413:325,1,90,2|2,0:2|0:2,0:0:0:0:
419,330,15724,1,2,0:2:0:0:
485,249,15890,6,0,L|474:156,1,90,0|2,0:0|0:2,0:0:0:0:
353,29,16387,2,0,L|342:122,1,90,2|0,0:2|0:0,0:0:0:0:
127,49,16885,1,2,0:2:0:0:
127,49,17050,6,0,B|207:28|191:96|270:69,1,135,2|0,0:2|0:0,0:0:0:0:
271,67,17713,1,2,0:2:0:0:
448,153,17879,2,0,B|393:141|402:175|345:164|345:164|364:175|373:199,1,135,2|2,0:2|0:2,0:0:0:0:
459,304,18542,6,0,P|427:288|402:295,1,45,2|0,0:0|0:0,0:0:0:0:
333,334,18874,1,0,0:0:0:0:
244,320,19039,2,0,L|353:337,1,90,2|0,0:0|0:0,0:0:0:0:
297,133,19537,5,2,0:0:0:0:
297,133,19702,2,0,P|314:176|303:219,1,90,2|0,0:0|0:0,0:0:0:0:
123,292,20200,1,2,0:2:0:0:
66,233,20365,2,0,L|169:252,1,90,2|0,0:2|0:0,0:0:0:0:
219,377,20863,6,0,L|229:337,1,22.5,2|0,1:2|1:2,0:0:0:0:
255,248,21028,2,0,L|265:288,1,22.5,2|0,1:2|1:2,0:0:0:0:
305,341,21194,5,4,1:2:0:0:
318,338,21277,1,0,1:2:0:0:
331,335,21360,1,0,1:2:0:0:
344,332,21443,1,0,1:2:0:0:
357,329,21525,1,0,1:2:0:0:
370,326,21608,1,0,1:2:0:0:
383,323,21691,1,0,1:2:0:0:
396,320,21774,1,0,1:2:0:0:
409,317,21857,5,0,1:2:0:0:
375,309,21940,1,0,1:2:0:0:
341,301,22023,1,2,1:2:0:0:
307,293,22106,1,0,1:2:0:0:
274,285,22188,1,2,1:2:0:0:
240,277,22271,1,0,1:2:0:0:
206,270,22354,1,2,1:2:0:0:
172,262,22437,1,0,1:2:0:0:
138,255,22520,5,10,0:2:0:0:
179,220,22603,1,8,0:2:0:0:
233,220,22686,1,8,0:2:0:0:
278,249,22769,1,8,0:2:0:0:
307,293,22851,1,8,0:2:0:0:
336,337,22934,1,8,0:2:0:0:
381,366,23017,1,10,0:2:0:0:
435,366,23100,1,8,0:2:0:0:
476,331,23183,5,10,0:2:0:0:
467,259,23266,1,8,0:2:0:0:
458,187,23349,1,8,0:2:0:0:
449,115,23432,1,8,0:2:0:0:
440,44,23514,1,8,0:2:0:0:
155,95,23680,6,0,B|284:72|284:72|323:119,1,180,4|0,1:2|1:0,0:0:0:0:
372,195,24177,1,8,0:2:0:0:
174,285,24343,1,2,0:2:0:0:
240,365,24509,2,0,P|281:314|256:225,1,135,0|0,1:2|0:0,0:0:0:0:
256,163,24840,2,0,L|245:259,1,90,10|2,0:2|1:2,0:0:0:0:
422,367,25172,5,0,0:0:0:0:
329,204,25338,1,0,1:0:0:0:
240,365,25503,1,10,0:2:0:0:
398,268,25669,2,0,P|449:266|493:298,2,90,2|0|2,0:2|1:2|1:2,0:0:0:0:
335,384,26166,1,8,0:2:0:0:
256,163,26332,1,2,1:2:0:0:
267,156,26415,1,0,1:0:0:0:
279,151,26498,6,0,B|272:200|272:200|288:236|288:236|277:291,1,135,4|0,1:2|0:0,0:0:0:0:
212,338,26829,2,0,L|118:322,1,90,10|2,0:2|0:2,0:0:0:0:
21,164,27161,6,0,B|67:153|67:153|95:161|95:161|163:143,2,117,0|0|10,1:2|1:2|0:2,0:0:0:0:
101,63,27658,1,2,1:2:0:0:
271,202,27824,6,0,L|120:181,1,135,0|0,0:0|0:0,0:0:0:0:
68,234,28155,2,0,P|51:274|68:340,1,90,8|2,0:2|0:2,0:0:0:0:
204,155,28487,1,2,1:2:0:0:
128,61,28653,1,8,0:3:0:0:
101,63,28735,1,8,0:3:0:0:
78,78,28818,2,0,L|87:135,1,45,10|0,0:2|0:0,0:0:0:0:
140,282,28984,2,0,L|149:225,1,45,10|0,0:2|0:0,0:0:0:0:
264,82,29150,6,0,B|341:70|341:70|368:88|368:88|449:73,2,180,4|8|0,1:2|0:2|1:2,0:0:0:0:
433,209,29979,2,0,B|389:187|389:187|327:200,1,90,0|10,1:2|0:2,0:0:0:0:
266,241,30310,1,2,1:2:0:0:
279,375,30476,2,0,L|265:231,1,135,0|0,0:0|0:0,0:0:0:0:
253,141,30807,1,10,0:2:0:0:
253,141,30973,1,2,0:2:0:0:
90,302,31139,6,0,P|149:296|186:334,2,117,0|0|10,1:0|1:0|0:2,0:0:0:0:
25,379,31636,1,10,0:2:0:0:
186,334,31802,6,0,B|168:282|168:282|201:186,1,135,2|0,1:2|0:0,0:0:0:0:
253,141,32133,2,0,L|353:163,1,90,8|0,0:2|0:0,0:0:0:0:
431,89,32465,1,0,1:2:0:0:
489,221,32630,1,0,1:2:0:0:
490,247,32713,1,0,1:0:0:0:
476,270,32796,1,10,0:2:0:0:
277,348,32962,2,0,P|300:317|308:287,1,45,2|0,1:2|0:0,0:0:0:0:
253,141,33128,6,0,P|224:188|225:275,1,135,0|0,0:0|0:0,0:0:0:0:
253,141,33459,2,0,P|180:153|184:208,1,135,8|0,0:2|0:0,0:0:0:0:
226,268,33791,1,8,0:2:0:0:
234,280,33956,5,10,0:2:0:0:
245,318,34039,1,8,0:2:0:0:
229,355,34122,1,8,0:2:0:0:
191,370,34205,1,8,0:2:0:0:
151,362,34288,1,10,0:2:0:0:
128,328,34371,1,8,0:2:0:0:
130,287,34454,5,4,1:2:0:0:
305,222,34619,1,0,0:0:0:0:
480,157,34785,2,0,L|469:218,1,45,0|0,1:0|0:0,0:0:0:0:
419,366,35117,6,0,L|402:275,1,90,8|0,0:0|0:0,0:0:0:0:
345,53,35448,6,0,B|218:30|218:30|183:83,1,175.499991966248,4|0,1:2|0:0,0:0:0:0:
224,158,35780,1,0,1:0:0:0:
229,149,35945,1,0,0:0:0:0:
105,15,36111,1,8,0:0:0:0:
38,188,36277,1,10,0:0:0:0:
0,85,36443,2,0,L|89:100,1,90,2|0,0:0|1:0,0:0:0:0:
142,172,36691,1,0,1:0:0:0:
142,172,36774,6,0,B|160:208|160:208|124:306|124:306|142:339,1,175.499991966248,10|0,0:0|0:0,0:0:0:0:
220,373,37106,5,4,1:2:0:0:
413,341,37271,1,0,0:0:0:0:
488,152,37437,2,0,L|426:139,1,45,0|0,1:2|0:0,0:0:0:0:
287,72,37769,6,0,L|386:53,1,90,8|0,0:2|0:0,0:0:0:0:
496,258,38100,6,0,B|419:242|419:242|393:251|393:251|306:232,1,175.499991966248,4|0,1:2|0:0,0:0:0:0:
248,202,38432,1,0,1:2:0:0:
245,191,38597,1,0,0:0:0:0:
79,63,38763,5,8,0:2:0:0:
230,117,38929,1,10,0:2:0:0:
373,1,39095,5,2,0:2:0:0:
174,45,39260,1,0,1:2:0:0:
174,45,39343,1,0,1:2:0:0:
174,45,39426,2,0,B|156:77|156:77|184:178|184:178|152:250,1,175.499991966248,8|0,0:2|0:0,0:0:0:0:
94,255,39758,1,4,1:2:0:0:
268,194,39923,6,0,L|369:210,1,90,0|0,0:0|1:2,0:0:0:0:
83,115,40421,1,8,0:2:0:0:
64,105,40752,1,2,0:2:0:0:
95,9,40918,2,0,P|53:24|-7:18,1,90,2|8,1:2|0:2,0:0:0:0:
180,80,41415,6,0,P|224:78|266:93,1,90,2|0,0:2|1:2,0:0:0:0:
366,177,41746,1,8,0:2:0:0:
400,50,41912,1,0,1:2:0:0:
400,50,41995,1,0,1:2:0:0:
400,50,42078,6,0,P|363:106|364:168,1,117,10|8,0:2|0:3,0:0:0:0:
398,345,42409,5,14,1:2:0:0:
213,200,42575,1,0,1:2:0:0:
448,121,42741,1,0,1:2:0:0:
152,307,42907,5,10,0:2:0:0:
387,228,43072,1,0,1:2:0:0:
202,83,43238,1,8,0:2:0:0:
202,83,43321,1,8,0:2:0:0:
202,83,43404,6,0,P|257:38|259:122,1,180,10|0,0:2|0:0,0:0:0:0:
152,307,43901,2,0,P|142:354|165:387,2,90,0|8|0,1:0|0:2|1:2,0:0:0:0:
255,215,44398,1,10,0:2:0:0:
96,189,44564,1,0,1:2:0:0:
96,189,44647,1,0,1:2:0:0:
96,189,44730,6,0,B|139:200|167:189|167:189|189:218|189:218|221:207|299:221,1,175.5,10|0,0:2|0:0,0:0:0:0:
351,188,45061,6,0,P|334:234|326:280,1,90,4|0,1:2|1:2,0:0:0:0:
315,287,45559,1,0,0:0:0:0:
468,238,45724,2,0,P|437:243|408:252,1,45,2|2,1:2|0:2,0:0:0:0:
229,127,46056,2,0,P|250:132|273:135,1,45,2|2,1:2|0:2,0:0:0:0:
342,0,46387,6,0,P|355:43|366:97,1,72,0|2,1:2|1:2,0:0:0:0:
442,176,46719,2,0,P|431:219|414:272,1,72,0|2,1:2|1:2,0:0:0:0:
274,218,47050,6,0,P|231:230|177:242,1,72,0|2,1:2|1:2,0:0:0:0:
361,69,47382,2,0,P|396:77|430:88,1,72,0|0,1:2|1:0,0:0:0:0:
212,135,47713,5,0,1:2:0:0:
376,165,47879,1,8,0:2:0:0:
274,218,48045,5,0,1:2:0:0:
475,180,48211,1,8,0:2:0:0:
389,265,48376,5,0,1:2:0:0:
361,69,48542,1,8,0:2:0:0:
212,3,48708,5,0,1:2:0:0:
184,199,48874,1,8,0:2:0:0:
299,152,49039,5,0,1:2:0:0:
98,114,49205,1,8,0:2:0:0:
361,69,49371,5,0,1:2:0:0:
197,99,49537,1,10,0:2:0:0:
395,218,49702,5,2,1:2:0:0:
184,199,49868,1,8,0:2:0:0:
374,376,50034,5,2,1:2:0:0:
145,292,50200,1,10,0:2:0:0:
479,195,50365,5,8,0:2:0:0:
325,54,50531,1,0,1:2:0:0:
325,54,50614,1,0,1:2:0:0:
325,54,50697,2,0,P|301:61|277:86,1,45,0|0,1:2|1:2,0:0:0:0:
232,310,50863,2,0,L|223:255,1,45,8|0,0:2|1:2,0:0:0:0:
211,182,51028,5,0,1:2:0:0:
185,150,51111,1,0,1:2:0:0:
147,134,51194,1,0,1:2:0:0:
106,138,51277,1,0,1:2:0:0:
46,197,51360,5,8,0:0:0:0:
51,230,51443,1,8,0:0:0:0:
64,212,51525,1,8,0:0:0:0:
31,217,51608,1,8,0:0:0:0:
235,366,52023,6,0,L|239:337,1,30,2|0,0:1|0:0,0:0:0:0:
235,366,52520,6,0,P|210:315|278:299,1,135,2|0,0:0|0:0,0:0:0:0:
345,352,52851,6,0,B|484:331|484:331|502:259,1,198,6|2,1:2|1:2,0:0:0:0:
379,73,53349,1,8,0:2:0:0:
511,187,53514,1,2,0:2:0:0:
398,252,53680,2,0,L|387:147,1,99,2|2,1:2|1:2,0:0:0:0:
198,165,54012,5,10,0:2:0:0:
133,5,54177,2,0,B|119:54|119:54|138:101,1,99,2|0,1:2|0:0,0:0:0:0:
360,166,54509,2,0,B|324:129|324:129|274:122,1,99,2|8,1:2|0:2,0:0:0:0:
86,300,54840,2,0,B|135:287|135:287|166:247,1,99,2|0,0:2|1:2,0:0:0:0:
217,18,55172,1,2,1:2:0:0:
217,18,55338,2,0,L|245:200,1,175.5,8|0,0:2|0:0,0:0:0:0:
244,192,55669,6,0,P|195:164|149:159,1,99,6|0,1:2|0:0,0:0:0:0:
337,285,56001,2,0,P|385:277|427:251,1,99,10|2,0:0|0:2,0:0:0:0:
498,88,56332,1,0,1:2:0:0:
427,250,56498,1,2,1:2:0:0:
319,55,56664,1,8,0:0:0:0:
495,108,56829,6,0,L|487:163,1,49.5,2|0,1:2|0:0,0:0:0:0:
504,262,56995,2,0,P|427:257|382:328,1,148.5,0|0,0:0|0:0,0:0:0:0:
349,383,57327,2,0,L|336:280,1,99,8|2,0:0|0:2,0:0:0:0:
359,112,57658,6,0,L|310:107,1,49.5,2|0,1:2|0:0,0:0:0:0:
141,40,57824,2,0,L|190:45,1,49.5,0|0,1:2|0:0,0:0:0:0:
199,166,57990,1,8,0:0:0:0:
307,22,58155,1,10,0:0:0:0:
362,235,58321,6,0,B|320:202|273:202|273:202|238:268|160:243,1,198,4|10,1:2|0:0,0:0:0:0:
191,250,58818,1,2,0:0:0:0:
284,124,58984,5,2,1:2:0:0:
93,240,59150,1,0,1:2:0:0:
301,306,59316,1,10,0:0:0:0:
128,133,59481,2,0,L|17:148,1,99,2|0,1:2|0:0,0:0:0:0:
30,147,59813,1,0,1:0:0:0:
200,64,59979,6,0,P|230:118|225:157,1,99,10|0,0:0|0:0,0:0:0:0:
77,292,60310,2,0,P|107:239|151:218,1,108,2|0,1:2|1:0,0:0:0:0:
350,292,60642,2,0,P|288:292|245:247,1,117,10|8,0:0|0:0,0:0:0:0:
200,64,60973,5,6,1:2:0:0:
434,142,61139,1,2,1:2:0:0:
250,257,61305,1,2,1:2:0:0:
476,43,61470,5,8,0:2:0:0:
260,160,61636,1,0,1:2:0:0:
461,241,61802,1,8,0:0:0:0:
422,217,61885,1,8,0:0:0:0:
378,223,61967,1,10,0:2:0:0:
246,12,62133,6,0,L|260:162,1,148.5,6|0,1:2|0:0,0:0:0:0:
260,160,62465,1,0,1:2:0:0:
114,101,62630,2,0,L|99:212,1,99,8|2,0:0|0:0,0:0:0:0:
86,283,62879,1,0,0:0:0:0:
82,310,62962,1,8,0:0:0:0:
281,212,63128,5,8,0:3:0:0:
263,185,63211,1,8,0:0:0:0:
255,152,63293,5,8,0:0:0:0:
257,110,63376,1,8,0:0:0:0:
307,51,63459,1,10,0:0:0:0:
382,25,63542,1,8,0:0:0:0:
463,35,63625,6,0,B|492:86|435:140|476:192,1,148.5,6|0,1:2|0:0,0:0:0:0:
512,254,63956,1,10,0:2:0:0:
379,99,64122,2,0,P|338:123|365:153,1,99,2|0,0:2|1:2,0:0:0:0:
233,324,64454,2,0,P|274:300|247:270,1,99,2|8,1:2|0:2,0:0:0:0:
30,159,64785,6,0,B|144:138|144:138|158:98,1,148.5,2|0,1:2|0:0,0:0:0:0:
177,29,65117,1,0,1:0:0:0:
203,209,65282,2,0,B|136:222|136:222|127:259,1,99,10|0,0:2|0:0,0:0:0:0:
15,79,65614,2,0,B|82:66|82:66|91:29,1,99,0|0,1:2|1:2,0:0:0:0:
275,0,65945,6,0,B|249:123|249:123|282:169,1,175.5,10|0,0:2|0:0,0:0:0:0:
335,222,66277,1,2,1:2:0:0:
148,125,66443,1,0,0:0:0:0:
424,52,66608,1,2,1:2:0:0:
278,163,66774,6,0,L|269:61,1,99,10|0,0:2|0:0,0:0:0:0:
439,204,67106,2,0,L|433:269,1,49.5,2|0,1:2|0:0,0:0:0:0:
420,365,67271,1,0,1:2:0:0:
280,336,67437,6,0,B|362:314|346:392|437:359,1,148.5,10|0,0:2|0:0,0:0:0:0:
500,320,67769,1,0,1:0:0:0:
372,143,67934,2,0,B|349:192|349:192|360:238,1,99,10|0,0:2|0:0,0:0:0:0:
170,359,68266,5,0,1:2:0:0:
205,258,68432,1,0,1:2:0:0:
280,336,68597,1,10,0:2:0:0:
135,179,68763,1,8,0:2:0:0:
246,160,68929,5,6,1:2:0:0:
170,359,69095,1,0,0:0:0:0:
354,147,69260,5,10,0:2:0:0:
205,258,69426,1,0,1:2:0:0:
410,294,69592,5,8,0:2:0:0:
135,179,69758,1,0,1:2:0:0:
278,70,69923,5,8,0:2:0:0:
170,359,70089,1,0,1:2:0:0:
482,228,70255,5,8,0:2:0:0:
438,204,70338,1,0,1:2:0:0:
388,202,70421,1,0,1:2:0:0:
345,226,70503,1,0,1:2:0:0:
320,269,70586,5,2,1:2:0:0:
322,283,70669,1,0,1:2:0:0:
324,297,70752,1,0,1:2:0:0:
326,311,70835,1,0,1:2:0:0:
328,325,70918,5,10,0:2:0:0:
298,355,71001,1,8,0:2:0:0:
251,352,71084,1,8,0:2:0:0:
192,305,71166,1,8,0:2:0:0:
172,225,71249,5,10,0:2:0:0:
132,152,71332,1,8,0:2:0:0:
65,120,71415,1,8,0:2:0:0:
21,143,71498,1,8,0:2:0:0:
11,180,71581,1,4,1:2:0:0:
258,83,71746,5,2,0:2:0:0:
276,71,71829,1,2,0:2:0:0:
283,52,71912,5,10,0:2:0:0:
238,29,71995,1,2,0:2:0:0:
194,52,72078,1,2,0:2:0:0:
186,100,72161,1,2,0:2:0:0:
217,138,72244,6,0,P|264:157|327:153,1,99,2|0,1:2|0:0,0:0:0:0:
431,167,72492,2,0,P|381:167|336:185,1,99,2|0,1:2|0:0,0:0:0:0:
281,341,72741,1,0,1:2:0:0:
70,274,72907,6,0,L|170:259,1,99,0|2,0:0|1:2,0:0:0:0:
70,274,73238,1,8,0:2:0:0:
242,163,73404,2,0,L|180:152,1,49.5,2|0,0:2|0:0,0:0:0:0:
93,134,73570,1,0,1:2:0:0:
336,184,73735,1,2,1:2:0:0:
93,134,73901,6,0,P|113:105|139:93,1,49.5,8|0,0:2|0:0,0:0:0:0:
236,74,74067,2,0,P|271:76|294:93,1,49.5,2|0,0:3|0:0,0:0:0:0:
336,184,74233,1,0,1:2:0:0:
181,231,74398,5,2,0:2:0:0:
163,219,74481,1,2,0:2:0:0:
156,200,74564,5,10,0:2:0:0:
201,177,74647,1,2,0:2:0:0:
245,200,74730,1,2,0:2:0:0:
253,248,74813,1,2,0:2:0:0:
221,286,74896,6,0,P|169:304|111:294,1,99,2|0,1:2|0:0,0:0:0:0:
40,230,75144,2,0,P|81:266|101:321,1,99,2|0,1:2|0:0,0:0:0:0:
215,384,75393,1,0,1:2:0:0:
156,200,75559,6,0,L|172:96,1,99,0|2,0:0|1:2,0:0:0:0:
156,200,75890,1,8,0:2:0:0:
310,19,76056,2,0,L|317:75,1,49.5,2|0,0:2|0:0,0:0:0:0:
328,163,76222,1,0,1:2:0:0:
153,86,76387,1,2,1:2:0:0:
328,163,76553,6,0,L|335:219,1,49.5,8|0,0:2|0:0,0:0:0:0:
346,308,76719,2,0,L|353:364,1,49.5,2|0,0:3|0:0,0:0:0:0:
241,382,76885,6,0,B|171:357|171:357|65:374,1,148.5,4|0,1:2|0:0,0:0:0:0:
98,369,77216,2,0,L|89:303,1,49.5,10|0,0:2|0:0,0:0:0:0:
160,180,77382,2,0,L|172:283,1,99,2|0,0:2|1:2,0:0:0:0:
352,357,77713,6,0,P|378:312|359:248,1,99,2|8,1:2|0:2,0:0:0:0:
263,131,78045,2,0,P|237:176|256:240,1,99,2|0,1:2|0:0,0:0:0:0:
408,193,78376,5,2,1:2:0:0:
380,182,78459,1,2,0:2:0:0:
350,187,78542,5,10,0:2:0:0:
301,221,78625,1,2,0:2:0:0:
243,220,78708,1,2,0:2:0:0:
191,189,78791,1,2,0:2:0:0:
177,131,78874,5,2,1:2:0:0:
160,90,78956,1,2,0:2:0:0:
120,68,79039,1,2,1:2:0:0:
76,75,79122,1,2,0:2:0:0:
47,108,79205,6,0,L|60:181,1,49.5,10|0,0:2|0:0,0:0:0:0:
84,341,79371,1,2,0:3:0:0:
42,252,79537,6,0,B|94:243|94:243|165:274,1,99,0|0,1:2|0:0,0:0:0:0:
342,345,79868,2,0,B|253:357|253:357|220:303,1,148.5,10|0,0:0|0:0,0:0:0:0:
224,208,80200,6,0,L|203:315,1,99,2|0,1:2|0:0,0:0:0:0:
246,226,80448,2,0,L|225:119,1,99,2|0,0:2|0:0,0:0:0:0:
202,28,80697,1,2,1:2:0:0:
326,186,80863,1,0,0:0:0:0:
115,128,81028,5,2,1:2:0:0:
239,105,81194,1,10,0:0:0:0:
367,80,81360,1,2,0:0:0:0:
439,263,81525,5,10,0:0:0:0:
439,263,81608,2,0,P|468:218|452:164,1,99,0|8,0:0|0:3,0:0:0:0:
367,80,81857,2,0,L|379:148,1,49.5,8|0,0:0|0:0,0:0:0:0:
291,278,82023,1,8,0:0:0:0:
296,258,82106,1,8,0:0:0:0:
301,239,82188,5,6,1:2:0:0:
206,352,82354,1,0,0:0:0:0:
361,309,82520,5,10,0:2:0:0:
121,338,82686,1,2,1:2:0:0:
18,199,82851,5,8,0:2:0:0:
201,233,83017,1,0,1:2:0:0:
78,123,83183,5,10,0:2:0:0:
121,338,83349,1,2,1:2:0:0:
291,375,83514,5,10,0:2:0:0:
324,212,83680,1,0,1:2:0:0:
458,260,83846,5,8,0:2:0:0:
473,367,84012,1,2,1:2:0:0:
506,137,84177,5,0,1:2:0:0:
327,297,84343,1,10,0:2:0:0:
252,60,84509,5,2,1:2:0:0:
249,79,84592,1,0,1:2:0:0:
244,108,84675,1,10,0:2:0:0:
238,147,84758,1,10,0:2:0:0:
229,195,84840,5,6,1:2:0:0:
458,260,85006,1,0,0:0:0:0:
336,121,85172,5,10,0:2:0:0:
117,216,85338,1,2,1:2:0:0:
332,321,85503,5,8,0:2:0:0:
279,56,85669,2,0,P|261:79|256:117,1,49.5,0|0,1:2|0:0,0:0:0:0:
350,208,85835,2,0,L|430:186,1,49.5,10|0,0:2|0:0,0:0:0:0:
497,116,86001,1,2,1:2:0:0:
497,116,86084,1,0,1:0:0:0:
497,116,86166,5,2,1:2:0:0:
485,99,86249,1,0,1:2:0:0:
470,85,86332,1,0,1:2:0:0:
452,76,86415,1,0,1:2:0:0:
432,71,86498,1,0,1:2:0:0:
412,69,86581,1,0,1:2:0:0:
392,72,86664,1,0,1:2:0:0:
374,81,86746,1,0,1:2:0:0:
359,95,86829,5,8,0:2:0:0:
337,133,86912,1,8,0:2:0:0:
302,169,86995,1,10,0:2:0:0:
229,188,87078,1,8,0:2:0:0:
151,172,87161,1,8,0:2:0:0:
91,110,87244,1,8,0:2:0:0:
75,25,87327,1,2,0:2:0:0:
474,125,92133,6,0,L|387:114,1,81.0810810810811,0|2,0:0|0:0,0:0:0:0:
311,62,92796,5,2,1:2:0:0:
302,64,92879,1,0,0:0:0:0:
293,66,92962,1,0,0:0:0:0:
284,68,93045,1,0,0:0:0:0:
275,70,93128,1,2,1:2:0:0:
276,78,93211,1,0,1:2:0:0:
277,86,93293,1,2,1:2:0:0:
278,94,93376,1,0,1:2:0:0:
279,102,93459,5,2,1:2:0:0:
280,115,93542,1,0,1:2:0:0:
282,132,93625,1,2,1:2:0:0:
284,154,93708,1,0,1:2:0:0:
287,180,93791,1,2,1:2:0:0:
291,210,93874,1,0,1:2:0:0:
296,246,93956,1,2,1:2:0:0:
301,286,94039,1,0,1:2:0:0:
307,330,94122,5,0,1:2:0:0:
268,285,94205,1,0,1:2:0:0:
212,266,94288,1,0,1:2:0:0:
158,290,94371,1,0,1:2:0:0:
131,342,94454,1,2,1:2:0:0:
73,354,94537,1,0,1:2:0:0:
22,325,94619,1,0,1:2:0:0:
3,269,94702,1,0,1:2:0:0:
26,216,94785,5,2,1:2:0:0:
97,172,94868,1,0,1:2:0:0:
181,188,94951,1,0,1:2:0:0:
255,145,95034,1,0,1:2:0:0:
334,180,95117,6,0,B|398:157|398:157|457:169|457:169|485:150|485:150|414:124,1,202.5,10|0,0:2|0:0,0:0:0:0:
400,32,95448,5,6,1:2:0:0:
499,247,95614,2,0,L|428:236,1,49.5,2|0,1:2|0:0,0:0:0:0:
400,32,95780,2,0,L|329:43,1,49.5,2|0,1:2|0:0,0:0:0:0:
256,189,95945,1,8,0:0:0:0:
112,32,96111,6,0,L|183:43,1,49.5,0|0,1:2|0:0,0:0:0:0:
256,227,96277,1,8,0:0:0:0:
256,208,96360,1,8,0:0:0:0:
256,189,96443,1,2,1:2:0:0:
13,246,96608,6,0,B|75:234|75:234|104:205|104:205|189:223,1,175.5,6|0,1:2|0:0,0:0:0:0:
209,298,96940,1,0,1:0:0:0:
320,118,97106,2,0,B|273:95|273:95|221:101,1,99,8|2,0:0|0:0,0:0:0:0:
49,23,97437,5,10,0:0:0:0:
68,42,97520,2,0,P|84:90|38:123,1,99,8|8,0:0|0:0,0:0:0:0:
5,191,97769,1,8,0:0:0:0:
65,141,97851,1,8,0:0:0:0:
143,129,97934,1,10,0:0:0:0:
213,166,98017,1,8,0:0:0:0:
246,237,98100,6,0,P|299:292|381:277,1,148.5,6|0,1:2|0:0,0:0:0:0:
442,249,98432,1,10,0:2:0:0:
392,70,98597,6,0,P|348:93|350:138,1,99,2|0,0:2|1:2,0:0:0:0:
484,317,98929,2,0,P|483:269|441:249,1,99,2|8,1:2|0:2,0:0:0:0:
263,335,99260,6,0,B|181:345|181:345|142:287|63:314,1,198,2|0,1:2|1:0,0:0:0:0:
212,155,99758,2,0,B|231:207|231:207|214:262,1,99,10|0,0:2|0:0,0:0:0:0:
10,362,100089,2,0,B|-9:310|-9:310|8:255,1,99,0|0,1:2|1:2,0:0:0:0:
60,69,100421,6,0,B|115:50|115:50|175:77|175:77|266:51,1,175.5,10|0,0:2|0:0,0:0:0:0:
311,24,100752,1,2,1:2:0:0:
319,39,100835,1,0,1:0:0:0:
327,54,100918,2,0,L|317:117,1,58.5,0|0,0:0|0:0,0:0:0:0:
370,250,101084,1,2,1:2:0:0:
502,121,101249,6,0,P|465:123|421:153,1,58.5,10|0,0:2|0:0,0:0:0:0:
370,250,101415,1,0,0:0:0:0:
179,45,101581,6,0,P|216:47|260:77,1,58.5,2|0,1:2|0:0,0:0:0:0:
370,250,101746,1,0,1:2:0:0:
138,182,101912,6,0,P|220:190|308:140,1,148.5,10|0,0:2|0:0,0:0:0:0:
349,87,102244,1,0,1:0:0:0:
179,45,102409,5,10,0:2:0:0:
279,165,102575,1,0,0:0:0:0:
61,0,102741,5,0,1:2:0:0:
138,182,102907,1,0,1:2:0:0:
0,98,103072,5,10,0:2:0:0:
279,165,103238,1,8,0:2:0:0:
24,301,103404,6,0,B|68:287|68:287|155:312|155:312|234:285,1,175.5,6|0,1:2|0:0,0:0:0:0:
275,263,103735,1,10,0:2:0:0:
188,95,103901,1,2,1:2:0:0:
275,263,104067,5,8,0:2:0:0:
338,44,104233,1,0,1:2:0:0:
154,201,104398,5,10,0:2:0:0:
393,157,104564,1,2,1:2:0:0:
154,201,104730,5,8,0:2:0:0:
348,341,104896,1,0,1:2:0:0:
274,126,105061,5,8,0:2:0:0:
193,369,105227,1,8,0:2:0:0:
393,157,105393,5,0,1:0:0:0:
167,286,105559,2,0,P|132:285|98:259,1,58.5,8|0,0:2|0:0,0:0:0:0:
4,88,105724,1,0,3:2:0:0:
44,111,105807,1,0,3:0:0:0:
64,152,105890,1,8,3:2:0:0:
63,198,105973,1,0,3:0:0:0:
36,236,106056,5,6,3:2:0:0:
246,183,106222,1,0,1:0:0:0:
36,236,106387,1,10,0:2:0:0:
246,183,106553,1,2,1:2:0:0:
126,34,106719,6,0,L|119:97,1,58.5,10|0,0:2|0:0,0:0:0:0:
239,328,106885,1,2,1:2:0:0:
239,328,107050,6,0,L|232:265,1,58.5,10|0,0:2|0:0,0:0:0:0:
347,55,107216,1,2,1:2:0:0:
101,134,107382,1,10,0:2:0:0:
88,121,107465,1,0,1:2:0:0:
89,103,107548,1,0,1:2:0:0:
102,91,107630,1,0,1:2:0:0:
119,92,107713,1,8,0:2:0:0:
131,104,107796,1,0,1:2:0:0:
131,122,107879,1,0,1:2:0:0:
118,134,107962,1,0,1:2:0:0:
101,134,108045,5,8,0:2:0:0:
136,66,108128,1,0,1:2:0:0:
211,56,108211,1,0,1:2:0:0:
266,109,108293,1,0,1:2:0:0:
254,184,108376,1,8,0:2:0:0:
191,235,108459,1,8,0:2:0:0:
201,310,108542,1,8,0:2:0:0:
269,342,108625,1,8,0:2:0:0:
337,307,108708,6,0,L|430:316,2,90,6|2|2,1:2|0:2|0:2,0:0:0:0:
265,193,109702,1,2,0:2:0:0:
191,235,109868,2,0,P|206:191|185:137,1,90,2|0,0:2|0:0,0:0:0:0:
12,112,110531,1,2,0:2:0:0:
57,39,110697,2,0,L|71:175,1,135,2|0,0:2|0:0,0:0:0:0:
302,93,111360,6,0,L|207:83,2,90,2|2|2,0:2|0:2|0:2,0:0:0:0:
160,217,112354,1,2,0:2:0:0:
8,163,112520,2,0,B|6:164|46:143|46:143|94:150,1,90,2|2,0:2|0:2,0:0:0:0:
437,69,113183,5,8,0:3:0:0:
416,77,113266,1,8,0:3:0:0:
393,75,113349,1,8,0:0:0:0:
219,33,113514,1,8,0:0:0:0:
93,151,113680,1,8,0:0:0:0:
257,357,113846,5,8,0:0:0:0:
