osu file format v14

[General]
AudioFilename: audio.mp3
AudioLeadIn: 0
PreviewTime: 52229
Countdown: 1
SampleSet: Soft
StackLeniency: 0.4
Mode: 0
LetterboxInBreaks: 0
WidescreenStoryboard: 1

[Editor]
DistanceSpacing: 1
BeatDivisor: 4
GridSize: 32
TimelineZoom: 1.6

[Metadata]
Title:Four Leaves
TitleUnicode:Four Leaves
Artist:Endorfin.
ArtistUnicode:Endorfin.
Creator:Erisu
Version:Normal
Source:SOUND VOLTEX IV HEAVENLY HAVEN
Tags:sdvx 4th sdvx4 konami bemani 藍月なくる aitsuki nakuru sky_delta sky delta Alt.Strato hvick225 didah shikibe mayu kazato asa shizuku- lanzhu mayuzumi fuyuko video game vgm pop jpop j-pop japanese
BeatmapID:3218555
BeatmapSetID:1576274

[Difficulty]
HPDrainRate:3.5
CircleSize:3
OverallDifficulty:4.5
ApproachRate:5.5
SliderMultiplier:0.999999999999999
SliderTickRate:1

[Events]
//Background and Video events
0,0,"image.jpg",0,0
//Break Periods
2,87527,91671
2,108908,112224
//Storyboard Layer 0 (Background)
//Storyboard Layer 1 (Fail)
//Storyboard Layer 2 (Pass)
//Storyboard Layer 3 (Foreground)
//Storyboard Layer 4 (Overlay)
//Storyboard Sound Samples

[TimingPoints]
1305,331.491712707182,4,2,1,50,1,0
1305,-100,4,2,1,50,0,0
3790,-100,4,2,1,50,0,0
3956,-100,4,2,1,50,0,0
5448,-100,4,2,1,50,0,0
5614,-100,4,2,1,50,0,0
7934,-100,4,2,1,40,0,0
8266,-100,4,2,1,50,0,0
8597,-100,4,2,1,60,0,0
9260,-100,4,2,1,70,0,0
10255,-100,4,2,1,70,0,0
10503,-100,4,2,1,40,0,0
11581,-100,4,2,1,60,0,0
13072,-100,4,2,1,40,0,0
14066,-100,4,2,1,40,0,0
14233,-100,4,2,1,40,0,0
14729,-100,4,2,1,40,0,0
14896,-100,4,2,1,40,0,0
15641,-100,4,2,1,40,0,0
15724,-100,4,2,1,40,0,0
16055,-100,4,2,1,40,0,0
16222,-100,4,2,1,40,0,0
16718,-100,4,2,1,40,0,0
16885,-100,4,2,1,40,0,0
20696,-100,4,2,1,40,0,0
20863,-100,4,2,1,40,0,0
22520,-100,4,2,1,50,0,0
23680,-100,4,2,1,60,0,0
24011,-100,4,2,1,60,0,0
24177,-100,4,2,1,60,0,0
25337,-100,4,2,1,60,0,0
25503,-100,4,2,1,60,0,0
30641,-100,4,2,1,60,0,0
30807,-100,4,2,1,60,0,0
31304,-100,4,2,1,60,0,0
31470,-100,4,2,1,60,0,0
33210,-100,4,2,1,60,0,0
33293,-100,4,2,1,60,0,0
34454,-100,4,2,1,50,0,0
43901,-100,4,2,1,50,0,0
44067,-100,4,2,1,50,0,0
45061,-100,4,2,1,60,0,0
47630,-100,4,2,1,60,0,0
47713,-100,4,2,1,70,0,0
52078,-100,4,2,1,5,0,0
52520,-100,4,2,1,30,0,0
52768,-100,4,2,1,30,0,0
52851,-95.2380952380952,4,2,1,80,0,1
57160,-95.2380952380952,4,2,1,80,0,1
57327,-95.2380952380952,4,2,1,80,0,1
59812,-95.2380952380952,4,2,1,80,0,1
59979,-95.2380952380952,4,2,1,80,0,1
60144,-95.2380952380952,4,2,1,80,0,1
60310,-95.2380952380952,4,2,1,80,0,1
60475,-95.2380952380952,4,2,1,80,0,1
60642,-95.2380952380952,4,2,1,80,0,1
62464,-95.2380952380952,4,2,1,80,0,1
62630,-95.2380952380952,4,2,1,80,0,1
65116,-95.2380952380952,4,2,1,80,0,1
65282,-95.2380952380952,4,2,1,80,0,1
65447,-95.2380952380952,4,2,1,80,0,1
65614,-95.2380952380952,4,2,1,80,0,1
67851,-95.2380952380952,4,2,1,80,0,1
67934,-95.2380952380952,4,2,1,80,0,1
68099,-95.2380952380952,4,2,1,80,0,1
68266,-95.2380952380952,4,2,1,80,0,1
72409,-95.2380952380952,4,2,1,80,0,1
72492,-95.2380952380952,4,2,1,80,0,1
75061,-95.2380952380952,4,2,1,80,0,1
75144,-95.2380952380952,4,2,1,80,0,1
75641,-95.2380952380952,4,2,1,80,0,1
75724,-95.2380952380952,4,2,1,80,0,1
77133,-95.2380952380952,4,2,1,80,0,1
77216,-95.2380952380952,4,2,1,80,0,1
80945,-95.2380952380952,4,2,1,80,0,1
81028,-95.2380952380952,4,2,1,80,0,1
82436,-95.2380952380952,4,2,1,80,0,1
82520,-95.2380952380952,4,2,1,80,0,1
85088,-95.2380952380952,4,2,1,80,0,1
85172,-95.2380952380952,4,2,1,80,0,1
87327,-100,4,2,1,70,0,0
92961,-100,4,2,1,70,0,0
93128,-100,4,2,1,70,0,0
95448,-95.2380952380952,4,2,1,80,0,1
96939,-95.2380952380952,4,2,1,80,0,1
97106,-95.2380952380952,4,2,1,80,0,1
99591,-95.2380952380952,4,2,1,80,0,1
99758,-95.2380952380952,4,2,1,80,0,1
102243,-95.2380952380952,4,2,1,80,0,1
102409,-95.2380952380952,4,2,1,80,0,1
102574,-95.2380952380952,4,2,1,80,0,1
102741,-95.2380952380952,4,2,1,80,0,1
108708,-100,4,2,1,60,0,0

[Colours]
Combo1 : 192,192,192
Combo2 : 255,128,128
Combo3 : 168,207,255

[HitObjects]
38,314,1305,6,0,P|94:283|176:316,1,150,6|0,1:2|1:0,0:0:0:0:
208,342,1967,1,0,1:0:0:0:
208,342,2133,1,0,1:0:0:0:
307,354,2465,2,0,P|324:302|298:242,1,99.9999999999999,0|0,1:0|0:0,0:0:0:0:
226,208,3128,2,0,P|209:156|235:96,1,99.9999999999999,0|0,1:0|1:0,0:0:0:0:
352,42,3956,6,0,B|444:35|444:35|489:93,1,150,6|0,1:2|1:0,0:0:0:0:
480,130,4619,1,0,1:0:0:0:
480,130,4785,1,0,0:0:0:0:
414,205,5117,2,0,P|403:239|430:314,1,99.9999999999999,8|0,0:0|0:2,0:0:0:0:
452,335,5614,1,0,1:0:0:0:
361,376,5945,2,0,L|246:353,1,99.9999999999999,0|0,1:0|1:0,0:0:0:0:
173,311,6608,6,0,L|110:332,1,50,2|2,3:2|0:2,0:0:0:0:
84,297,6940,1,0,0:2:0:0:
106,199,7271,2,0,L|153:183,1,50,2|2,1:2|0:2,0:0:0:0:
195,213,7603,1,0,1:2:0:0:
235,121,7934,1,0,1:0:0:0:
189,31,8266,1,0,1:0:0:0:
89,22,8597,1,8,0:0:0:0:
24,98,8929,1,8,0:0:0:0:
44,195,9260,6,0,L|147:164,1,99.9999999999999,4|0,1:2|1:0,0:0:0:0:
178,133,9758,2,0,L|281:164,1,99.9999999999999,4|8,1:2|0:0,0:0:0:0:
308,197,10255,1,8,0:0:0:0:
453,161,10752,1,0,1:0:0:0:
453,161,10918,2,0,P|450:134|426:107,1,50,0|0,1:0|1:0,0:0:0:0:
422,67,11249,2,0,P|397:56|361:63,1,50,0|0,1:0|1:0,0:0:0:0:
335,89,11581,1,8,0:0:0:0:
250,35,11912,5,8,0:0:0:0:
179,97,12244,2,0,L|112:72,1,50,8|0,0:0|1:0,0:0:0:0:
92,49,12575,2,0,L|25:74,1,50,8|8,0:0|0:0,0:0:0:0:
19,110,12907,1,8,0:3:0:0:
19,110,13072,6,0,L|43:227,1,99.9999999999999,4|0,1:2|0:0,0:0:0:0:
41,312,13735,1,2,0:0:0:0:
41,312,13901,1,2,0:0:0:0:
138,282,14233,1,2,0:2:0:0:
138,282,14398,2,0,P|185:280|230:308,1,99.9999999999999,2|0,0:2|0:0,0:0:0:0:
273,340,14896,1,2,0:2:0:0:
273,340,15061,1,2,0:2:0:0:
368,369,15393,1,2,0:2:0:0:
456,322,15724,6,0,P|471:254|427:182,1,150,2|2,0:2|0:2,0:0:0:0:
385,173,16387,2,0,L|390:62,1,99.9999999999999,2|0,0:2|0:0,0:0:0:0:
431,44,16885,1,2,0:2:0:0:
431,44,17050,1,2,0:2:0:0:
497,118,17382,1,0,0:0:0:0:
479,219,17713,1,2,0:2:0:0:
479,219,17879,2,0,L|500:322,1,99.9999999999999,2|2,0:2|0:2,0:0:0:0:
415,372,18542,6,0,P|362:382|318:357,1,99.9999999999999
289,324,19039,2,0,P|236:314|192:339,1,99.9999999999999,2|0,0:0|0:0,0:0:0:0:
167,375,19537,1,2,0:2:0:0:
167,375,19702,1,2,0:2:0:0:
48,287,20200,1,2,0:2:0:0:
48,287,20365,2,0,L|61:186,1,99.9999999999999,2|0,0:2|0:0,0:0:0:0:
96,151,20863,1,2,1:2:0:0:
40,68,21194,5,4,1:2:0:0:
127,20,21525,1,0,1:2:0:0:
209,77,21857,2,0,L|259:92,1,50,0|2,1:2|1:2,0:0:0:0:
304,106,22188,2,0,L|354:91,1,50,2|2,1:2|1:2,0:0:0:0:
387,56,22520,1,10,0:2:0:0:
460,131,22851,1,8,0:2:0:0:
460,131,23017,2,0,P|455:161|438:188,1,50,10|10,0:2|0:2,0:0:0:0:
412,215,23349,2,0,P|383:225|351:224,1,50,8|8,0:2|0:2,0:0:0:0:
320,202,23680,6,0,B|280:214|280:214|259:212|259:212|217:223,1,99.9999999999999,4|0,1:2|1:2,0:0:0:0:
174,206,24177,1,8,0:2:0:0:
104,277,24509,2,0,L|40:260,2,50,0|0|10,1:2|1:2|0:2,0:0:0:0:
139,312,25006,2,0,B|184:328|184:328|241:311,1,99.9999999999999,2|0,1:2|1:2,0:0:0:0:
272,281,25503,1,10,0:2:0:0:
360,327,25835,2,0,L|347:384,2,50,0|2|8,1:2|1:2|0:2,0:0:0:0:
407,305,26332,1,2,1:2:0:0:
407,305,26498,6,0,L|393:193,1,99.9999999999999,4|10,1:2|0:2,0:0:0:0:
367,163,26995,1,2,0:2:0:0:
367,163,27161,1,0,1:2:0:0:
410,75,27492,1,10,0:2:0:0:
410,75,27658,2,0,P|460:70|513:108,1,99.9999999999999,2|2,1:2|1:2,0:0:0:0:
505,143,28155,1,8,0:2:0:0:
475,238,28487,1,2,1:2:0:0:
511,330,28818,2,0,L|459:344,1,50,10|10,0:2|0:2,0:0:0:0:
415,359,29150,6,0,L|299:342,1,99.9999999999999,4|8,1:2|0:2,0:0:0:0:
225,300,29813,2,0,L|238:237,1,50,0|0,1:2|1:2,0:0:0:0:
258,209,30144,1,10,0:2:0:0:
258,209,30310,2,0,L|244:98,1,99.9999999999999,2|0,1:2|1:2,0:0:0:0:
274,69,30807,1,10,0:2:0:0:
274,69,30973,1,2,0:2:0:0:
189,15,31304,1,0,1:2:0:0:
189,15,31470,6,0,P|140:12|98:48,1,99.9999999999999,10|2,0:2|1:2,0:0:0:0:
4,16,32133,1,8,0:2:0:0:
10,115,32465,2,0,L|25:181,1,50,0|0,1:2|1:2,0:0:0:0:
68,192,32796,1,10,0:2:0:0:
68,192,32962,1,2,1:2:0:0:
19,279,33293,2,0,L|1:384,2,99.9999999999999,2|2|10,1:2|0:2|0:2,0:0:0:0:
116,304,34288,1,10,0:2:0:0:
116,304,34454,6,0,P|173:323|259:273,1,150,4|0,1:2|0:0,0:0:0:0:
270,239,35117,1,8,0:0:0:0:
347,176,35448,2,0,L|440:235,2,99.9999999999999,4|0|8,1:2|1:0|0:0,0:0:0:0:
309,141,36277,1,10,0:0:0:0:
309,141,36443,1,2,0:0:0:0:
335,44,36774,2,0,L|395:36,1,50,10|2,0:0|0:0,0:0:0:0:
422,3,37106,6,0,B|473:28|473:28|454:130,1,150,4|0,1:2|0:0,0:0:0:0:
489,156,37769,1,8,0:2:0:0:
437,241,38100,2,0,P|451:290|464:356,2,99.9999999999999,4|0|8,1:2|1:2|0:2,0:0:0:0:
398,209,38929,1,10,0:2:0:0:
398,209,39095,1,2,0:2:0:0:
346,294,39426,2,0,L|281:319,1,50,8|2,0:2|0:2,0:0:0:0:
265,348,39758,6,0,B|191:360|191:360|113:314,1,150,4|0,1:2|1:2,0:0:0:0:
78,335,40421,1,8,0:2:0:0:
18,254,40752,1,2,0:2:0:0:
18,254,40918,2,0,L|36:146,1,99.9999999999999,2|8,1:2|0:2,0:0:0:0:
78,131,41415,1,2,0:2:0:0:
32,42,41746,1,8,0:2:0:0:
124,2,42078,1,10,0:2:0:0:
187,78,42409,6,0,L|167:134,2,50,14|0|0,1:2|1:2|1:2,0:0:0:0:
224,44,42907,2,0,P|255:49|285:76,1,50,10|0,0:2|1:2,0:0:0:0:
302,97,43238,1,8,0:2:0:0:
302,97,43404,2,0,L|286:209,1,99.9999999999999,10|0,0:2|0:0,0:0:0:0:
309,241,43901,1,0,1:2:0:0:
309,241,44067,1,8,0:2:0:0:
387,303,44398,2,0,L|367:363,2,50,10|0|10,0:2|1:2|0:2,0:0:0:0:
455,229,45061,6,0,L|431:124,1,99.9999999999999,4|0,1:2|1:2,0:0:0:0:
463,36,45724,2,0,L|523:48,2,50,2|2|2,1:2|0:2|1:2,0:0:0:0:
419,10,46222,2,0,P|373:8|312:47,1,99.9999999999999,2|2,0:2|1:2,0:0:0:0:
260,107,46885,1,2,1:2:0:0:
189,35,47216,2,0,P|126:38|89:72,1,99.9999999999999,2|0,1:2|1:2,0:0:0:0:
81,106,47713,5,0,1:2:0:0:
9,175,48045,1,0,1:2:0:0:
9,274,48376,1,0,1:2:0:0:
93,328,48708,1,0,1:2:0:0:
182,284,49039,1,0,1:2:0:0:
191,188,49371,1,0,1:2:0:0:
191,188,49537,2,0,L|122:174,2,50,10|2|8,0:2|1:2|0:2,0:0:0:0:
236,166,50034,2,0,L|298:154,1,50,2|10,1:2|0:2,0:0:0:0:
342,166,50365,5,8,0:2:0:0:
342,166,50531,1,0,1:2:0:0:
433,205,50863,2,0,P|434:233|415:261,1,50,8|0,0:2|1:2,0:0:0:0:
441,300,51194,2,0,P|417:314|383:312,1,50,0|8,1:2|0:2,0:0:0:0:
349,323,51525,1,8,0:2:0:0:
349,323,51691,1,8,0:2:0:0:
257,363,52023,1,2,0:1:0:0:
28,229,52851,6,0,P|22:181|56:126,1,104.999996795654,6|2,1:2|1:2,0:0:0:0:
84,93,53349,1,8,0:2:0:0:
84,93,53514,2,0,L|68:27,2,52.4999983978271,2|2|2,0:2|1:2|1:2,0:0:0:0:
127,122,54012,1,10,0:2:0:0:
127,122,54177,1,2,1:2:0:0:
209,56,54509,1,2,1:2:0:0:
294,117,54840,2,0,L|352:105,1,52.4999983978271,2|0,0:2|1:2,0:0:0:0:
389,77,55172,2,0,L|447:89,1,52.4999983978271,2|8,1:2|0:2,0:0:0:0:
476,126,55503,5,10,0:2:0:0:
476,126,55669,2,0,B|487:179|487:179|461:243,1,104.999996795654,6|10,1:2|0:0,0:0:0:0:
472,278,56166,1,2,0:2:0:0:
389,343,56498,2,0,P|358:341|332:331,1,52.4999983978271,2|8,1:2|0:0,0:0:0:0:
299,298,56829,2,0,P|304:246|307:187,1,104.999996795654,2|0,1:2|1:2,0:0:0:0:
268,157,57327,1,8,0:0:0:0:
326,70,57658,1,2,1:2:0:0:
326,70,57824,1,0,1:2:0:0:
236,16,58155,1,10,0:0:0:0:
236,16,58321,6,0,P|178:15|133:54,1,104.999996795654,4|10,1:2|0:0,0:0:0:0:
93,63,58818,2,0,L|28:41,2,52.4999983978271,2|2|0,0:0|1:2|1:2,0:0:0:0:
112,117,59316,1,10,0:0:0:0:
112,117,59481,2,0,B|121:167|121:167|117:185|117:185|126:227,1,104.999996795654,2|0,1:2|1:2,0:0:0:0:
110,270,59979,1,10,0:0:0:0:
198,326,60310,1,2,1:2:0:0:
294,284,60642,1,10,0:0:0:0:
373,215,60973,6,0,P|380:160|337:112,1,104.999996795654,6|2,1:2|1:2,0:0:0:0:
301,129,61470,2,0,L|189:147,1,104.999996795654,8|8,0:0|0:0,0:0:0:0:
153,116,61967,1,10,0:2:0:0:
153,116,62133,1,6,1:2:0:0:
223,38,62465,2,0,L|284:52,1,52.4999983978271,0|8,1:2|0:0,0:0:0:0:
325,37,62796,1,2,0:0:0:0:
325,37,62962,1,8,0:0:0:0:
428,18,63293,2,0,P|455:24|478:48,1,52.4999983978271,8|10,0:0|0:0,0:0:0:0:
478,92,63625,6,0,L|454:211,1,104.999996795654,6|10,1:2|0:2,0:0:0:0:
422,234,64122,1,2,0:2:0:0:
487,316,64454,1,2,1:2:0:0:
396,368,64785,2,0,L|283:349,1,104.999996795654,2|0,1:2|1:2,0:0:0:0:
261,308,65282,1,10,0:2:0:0:
165,264,65614,2,0,L|97:281,2,52.4999983978271,0|0|10,1:2|1:2|0:2,0:0:0:0:
198,223,66111,1,8,0:2:0:0:
198,223,66277,6,0,P|197:177|161:131,1,104.999996795654,2|2,1:2|1:2,0:0:0:0:
111,118,66774,1,10,0:2:0:0:
18,167,67106,1,2,1:2:0:0:
27,271,67437,1,10,0:2:0:0:
27,271,67603,2,0,P|80:303|138:282,1,104.999996795654,2|10,0:2|0:2,0:0:0:0:
207,237,68266,1,0,1:2:0:0:
305,272,68597,2,0,L|367:244,1,52.4999983978271,10|8,0:2|0:2,0:0:0:0:
398,224,68929,6,0,P|406:172|369:130,1,104.999996795654,6|10,1:2|0:2,0:0:0:0:
312,48,69592,2,0,P|407:32|427:32,1,104.999996795654,8|8,0:2|0:2,0:0:0:0:
462,55,70089,1,0,1:2:0:0:
462,55,70255,1,8,0:2:0:0:
508,148,70586,1,2,1:2:0:0:
413,194,70918,2,0,L|433:251,1,52.4999983978271,10|8,0:2|0:2,0:0:0:0:
474,271,71249,2,0,L|456:320,1,52.4999983978271,10|8,0:2|0:2,0:0:0:0:
416,355,71581,6,0,P|364:326|300:333,1,104.999996795654,4|10,1:2|0:2,0:0:0:0:
272,340,72078,1,2,0:0:0:0:
272,340,72244,2,0,B|200:358,1,52.4999983978271,2|0,1:2|1:2,0:0:0:0:
179,331,72575,1,8,0:2:0:0:
179,331,72741,1,0,1:2:0:0:
228,238,73072,1,2,1:2:0:0:
151,166,73404,1,2,0:2:0:0:
201,74,73735,1,2,1:2:0:0:
113,25,74067,1,2,0:3:0:0:
113,25,74233,6,0,P|66:38|42:88,1,104.999996795654,0|10,1:2|0:2,0:0:0:0:
98,174,74896,2,0,L|152:178,1,52.4999983978271,2|0,1:2|1:2,0:0:0:0:
205,168,75227,1,8,0:2:0:0:
205,168,75393,1,0,1:2:0:0:
276,94,75724,1,2,1:2:0:0:
359,157,76056,1,2,0:2:0:0:
445,97,76387,2,0,L|428:27,2,52.4999983978271,2|8|2,1:2|0:2|0:3,0:0:0:0:
483,133,76885,6,0,P|470:188|462:253,1,104.999996795654,4|10,1:2|0:2,0:0:0:0:
421,268,77382,1,2,0:2:0:0:
471,359,77713,1,2,1:2:0:0:
366,373,78045,2,0,B|313:378|313:378|248:353,1,104.999996795654,2|2,1:2|1:2,0:0:0:0:
222,328,78542,2,0,L|236:258,1,52.4999983978271,10|2,0:2|1:2,0:0:0:0:
257,230,78874,1,2,1:2:0:0:
213,134,79205,2,0,P|190:129|147:125,1,52.4999983978271,10|2,0:2|0:3,0:0:0:0:
111,142,79537,6,0,P|122:185|122:253,1,104.999996795654,0|10,1:2|0:0,0:0:0:0:
72,343,80200,2,0,L|11:362,2,52.4999983978271,2|0|8,1:2|1:2|0:0,0:0:0:0:
120,363,80697,2,0,P|171:369|233:380,1,104.999996795654,2|2,1:2|1:2,0:0:0:0:
267,349,81194,1,10,0:0:0:0:
370,368,81525,2,0,P|386:346|390:314,1,52.4999983978271,10|8,0:0|0:3,0:0:0:0:
420,278,81857,2,0,P|408:253|383:233,1,52.4999983978271,8|8,0:0|0:0,0:0:0:0:
338,224,82188,5,6,1:2:0:0:
235,248,82520,1,10,0:2:0:0:
235,248,82686,2,0,P|196:237|168:232,1,52.4999983978271,2|8,1:2|0:2,0:0:0:0:
144,209,83017,1,0,1:0:0:0:
144,209,83183,2,0,P|130:177|142:139,1,52.4999983978271,10|2,0:2|1:2,0:0:0:0:
162,116,83514,2,0,L|288:94,1,104.999996795654,10|8,0:2|0:2,0:0:0:0:
315,81,84012,1,2,1:2:0:0:
415,127,84343,1,10,0:2:0:0:
415,127,84509,2,0,L|401:197,1,52.4999983978271,2|10,1:2|0:2,0:0:0:0:
426,226,84840,5,6,1:2:0:0:
371,317,85172,1,10,0:2:0:0:
371,317,85338,2,0,P|336:309|300:304,1,52.4999983978271,2|8,1:2|0:2,0:0:0:0:
227,256,85835,2,0,P|197:268|165:291,1,52.4999983978271,10|2,0:2|1:2,0:0:0:0:
131,298,86166,2,0,P|105:256|119:189,1,104.999996795654,2|0,1:2|1:2,0:0:0:0:
157,177,86664,2,0,B|140:111,1,52.4999983978271,0|8,1:2|0:2,0:0:0:0:
104,91,86995,1,10,0:2:0:0:
181,27,87327,5,2,0:2:0:0:
475,112,92796,6,0,B|433:88|433:88|378:107,1,99.9999999999999,2|2,1:2|1:2,0:0:0:0:
359,148,93293,1,2,1:2:0:0:
359,148,93459,1,2,1:2:0:0:
262,120,93791,1,2,1:2:0:0:
262,120,93956,2,0,L|148:146,1,99.9999999999999,2|0,1:2|1:2,0:0:0:0:
121,116,94454,1,2,1:2:0:0:
44,180,94785,1,2,1:2:0:0:
95,265,95117,1,10,0:2:0:0:
195,235,95448,6,0,L|303:257,1,104.999996795654,6|2,1:2|1:2,0:0:0:0:
330,297,95945,2,0,L|438:275,1,104.999996795654,8|8,0:0|0:0,0:0:0:0:
467,235,96443,1,10,0:2:0:0:
467,235,96608,1,6,1:2:0:0:
491,132,96940,2,0,L|438:89,1,52.4999983978271,0|8,1:2|0:0,0:0:0:0:
398,105,97271,1,2,0:0:0:0:
398,105,97437,1,8,0:0:0:0:
311,45,97769,2,0,L|245:69,1,52.4999983978271,8|10,0:0|0:0,0:0:0:0:
209,57,98100,6,0,B|178:101|178:101|185:176,1,104.999996795654,6|10,1:2|0:2,0:0:0:0:
205,199,98597,1,2,0:2:0:0:
139,281,98929,1,2,1:2:0:0:
43,237,99260,2,0,L|59:127,1,104.999996795654,2|0,1:2|1:2,0:0:0:0:
57,80,99757,1,10,0:2:0:0:
157,47,100089,2,0,L|175:-14,2,52.4999983978271,0|0|10,1:2|1:2|0:2,0:0:0:0:
180,94,100586,1,8,0:2:0:0:
180,94,100752,6,0,B|230:115|230:115|303:99,1,104.999996795654,2|2,1:2|1:2,0:0:0:0:
319,69,101249,1,10,0:2:0:0:
423,76,101581,2,0,L|457:141,1,52.4999983978271,2|0,1:2|1:2,0:0:0:0:
433,176,101912,1,10,0:2:0:0:
433,176,102078,2,0,L|418:288,1,104.999996795654,0|10,0:0|0:2,0:0:0:0:
343,353,102741,1,0,1:2:0:0:
259,289,103072,2,0,L|200:311,1,52.4999983978271,10|8,0:2|0:2,0:0:0:0:
177,349,103404,6,0,P|115:336|55:330,1,104.999996795654,6|10,1:2|0:2,0:0:0:0:
48,229,104067,2,0,B|90:193|90:193|152:204,1,104.999996795654,8|10,0:2|0:2,0:0:0:0:
186,176,104564,1,2,1:2:0:0:
186,176,104730,1,8,0:2:0:0:
258,100,105061,1,8,0:2:0:0:
171,40,105393,2,0,L|110:60,1,52.4999983978271,0|8,1:2|0:2,0:0:0:0:
71,39,105724,2,0,L|53:88,1,52.4999983978271,0|8,1:2|0:2,0:0:0:0:
26,134,106056,6,0,L|64:244,1,104.999996795654,6|10,1:2|0:2,0:0:0:0:
140,300,106719,1,8,0:2:0:0:
224,238,107050,1,10,0:2:0:0:
300,309,107382,2,0,L|410:294,1,104.999996795654,10|8,0:2|0:2,0:0:0:0:
440,256,107879,1,0,1:2:0:0:
440,256,108045,2,0,P|431:227|399:203,1,52.4999983978271,8|0,0:2|1:2,0:0:0:0:
390,165,108376,2,0,P|360:158|323:174,1,52.4999983978271,8|8,0:2|0:2,0:0:0:0:
299,194,108708,5,6,1:2:0:0:
68,111,113349,6,0,L|82:165,1,50,8|8,0:0|0:0,0:0:0:0:
101,210,113680,1,8,0:0:0:0:
101,210,113846,1,8,0:0:0:0:
