osu file format v14

[General]
AudioFilename: audio.mp3
AudioLeadIn: 0
PreviewTime: 52229
Countdown: 1
SampleSet: Soft
StackLeniency: 0.7
Mode: 0
LetterboxInBreaks: 0
WidescreenStoryboard: 1

[Editor]
DistanceSpacing: 1
BeatDivisor: 4
GridSize: 8
TimelineZoom: 1.5

[Metadata]
Title:Four Leaves
TitleUnicode:Four Leaves
Artist:Endorfin.
ArtistUnicode:Endorfin.
Creator:Erisu
Version:Mayu's Hard
Source:SOUND VOLTEX IV HEAVENLY HAVEN
Tags:sdvx 4th sdvx4 konami bemani 藍月なくる aitsuki nakuru sky_delta sky delta Alt.Strato hvick225 didah shikibe mayu kazato asa shizuku- lanzhu mayuzumi fuyuko video game vgm pop jpop j-pop japanese
BeatmapID:3218183
BeatmapSetID:1576274

[Difficulty]
HPDrainRate:4.5
CircleSize:3.8
OverallDifficulty:6
ApproachRate:8
SliderMultiplier:1.4
SliderTickRate:1

[Events]
//Background and Video events
0,0,"image.jpg",0,0
//Break Periods
2,87526,92046
//Storyboard Layer 0 (Background)
//Storyboard Layer 1 (Fail)
//Storyboard Layer 2 (Pass)
//Storyboard Layer 3 (Foreground)
//Storyboard Layer 4 (Overlay)
//Storyboard Sound Samples

[TimingPoints]
1305,331.491712707182,4,2,1,50,1,0
1305,-125,4,2,1,50,0,0
7934,-100,4,2,1,40,0,0
8266,-100,4,2,1,50,0,0
8597,-100,4,2,1,60,0,0
9260,-100,4,2,1,70,0,0
10255,-142.857142857143,4,2,1,70,0,0
10338,-100,4,2,1,70,0,0
10503,-100,4,2,1,40,0,0
11581,-100,4,2,1,60,0,0
13072,-100,4,2,1,40,0,0
13735,-125,4,2,1,40,0,0
21194,-100,4,2,1,40,0,0
21857,-100,4,2,1,40,0,0
22520,-100,4,2,1,50,0,0
23680,-100,4,2,1,60,0,0
27161,-100,4,2,1,60,0,0
27658,-100,4,2,1,60,0,0
31139,-100,4,2,1,60,0,0
31802,-100,4,2,1,60,0,0
34454,-100,4,2,1,50,0,0
34619,-100,4,2,1,50,0,0
35117,-100,4,2,1,50,0,0
35614,-100,4,2,1,50,0,0
36111,-100,4,2,1,50,0,0
36774,-100,4,2,1,50,0,0
37271,-100,4,2,1,50,0,0
37769,-100,4,2,1,50,0,0
38266,-100,4,2,1,50,0,0
38763,-100,4,2,1,50,0,0
39426,-100,4,2,1,50,0,0
39923,-100,4,2,1,50,0,0
41415,-100,4,2,1,50,0,0
42078,-100,4,2,1,50,0,0
43404,-100,4,2,1,50,0,0
44730,-100,4,2,1,50,0,0
45061,-100,4,2,1,60,0,0
46387,-100,4,2,1,60,0,0
47713,-100,4,2,1,70,0,0
49039,-100,4,2,1,70,0,0
52078,-100,4,2,1,5,0,0
52520,-100,4,2,1,30,0,0
52851,-100,4,2,1,80,0,1
55338,-100,4,2,1,80,0,1
55669,-100,4,2,1,80,0,1
60310,-100,4,2,1,80,0,1
60642,-100,4,2,1,80,0,1
62133,-100,4,2,1,80,0,1
65945,-100,4,2,1,80,0,1
66774,-100,4,2,1,80,0,1
86166,-100,4,2,1,80,0,1
86829,-100,4,2,1,80,0,1
87327,-100,4,2,1,70,0,0
92133,-100,4,2,1,70,0,0
92796,-100,4,2,1,70,0,0
93791,-100,4,2,1,70,0,0
94454,-100,4,2,1,70,0,0
95117,-100,4,2,1,70,0,0
95448,-100,4,2,1,80,0,1
96608,-100,4,2,1,80,0,1
97106,-100,4,2,1,80,0,1
100421,-100,4,2,1,80,0,1
101912,-100,4,2,1,80,0,1
103404,-100,4,2,1,80,0,1
107465,-100,4,2,1,80,0,1
108045,-100,4,2,1,80,0,1
108708,-100,4,2,1,60,0,0

[Colours]
Combo1 : 192,192,192
Combo2 : 255,128,128
Combo3 : 168,207,255

[HitObjects]
239,368,1305,6,0,P|196:329|134:344,1,112,6|0,1:2|0:0,0:0:0:0:
62,304,1802,1,0,1:0:0:0:
62,304,1885,1,0,1:0:0:0:
62,304,1967,2,0,L|49:378,2,56,0|0|2,1:0|1:0|0:2,0:0:0:0:
0,232,2465,2,0,P|-4:162|32:121,1,112,0|0,1:0|0:0,0:0:0:0:
152,182,3128,2,0,L|278:161,1,112,0|0,1:0|1:0,0:0:0:0:
262,163,3625,1,0,0:0:0:0:
352,19,3956,6,0,P|392:46|461:36,1,112,6|0,1:2|0:0,0:0:0:0:
490,120,4454,1,0,1:0:0:0:
490,120,4537,1,0,1:0:0:0:
490,120,4619,2,0,L|474:181,1,56,0|0,1:0|0:0,0:0:0:0:
431,244,4951,1,0,1:0:0:0:
505,292,5117,2,0,P|445:332|389:316,1,112,8|0,0:0|0:2,0:0:0:0:
342,373,5614,1,0,1:0:0:0:
283,318,5780,2,0,L|304:198,1,112,0|0,1:0|1:0,0:0:0:0:
302,207,6277,1,0,1:0:0:0:
267,68,6608,6,0,L|395:49,2,112,2|0|2,3:2|0:2|1:2,0:0:0:0:
140,11,7603,1,0,1:2:0:0:
140,11,7769,2,0,P|113:62|119:121,1,112,0|0,1:2|1:0,0:0:0:0:
24,187,8432,1,0,1:0:0:0:
24,187,8514,1,0,1:0:0:0:
24,187,8597,2,0,L|36:270,1,70,8|8,0:0|0:0,0:0:0:0:
106,294,8929,2,0,L|100:335,3,35,8|8|8|8,0:0|0:0|0:0|0:0,0:0:0:0:
97,342,9260,5,4,1:2:0:0:
181,381,9426,2,0,P|196:341|189:304,1,70,0|0,1:0|1:0,0:0:0:0:
157,216,9758,2,0,L|178:60,1,140,4|8,1:2|0:0,0:0:0:0:
175,77,10172,1,8,0:0:0:0:
175,77,10255,6,0,P|247:105|335:33,1,195.999994018555,8|0,0:0|1:0,0:0:0:0:
406,92,11084,1,0,1:0:0:0:
406,92,11249,2,0,L|480:76,1,70,0|0,1:0|1:0,0:0:0:0:
380,193,11581,1,8,0:0:0:0:
380,193,11746,6,0,L|306:177,1,70,8|8,0:0|0:0,0:0:0:0:
240,224,12078,1,8,0:0:0:0:
168,159,12244,2,0,L|184:87,1,70,8|0,0:0|1:0,0:0:0:0:
183,90,12492,1,0,1:0:0:0:
183,90,12575,1,8,0:0:0:0:
131,16,12741,2,0,P|85:37|42:32,1,70,8|8,0:0|0:3,0:0:0:0:
66,37,12990,1,8,0:3:0:0:
66,37,13072,1,4,1:2:0:0:
17,212,13735,6,0,L|27:278,2,56,2|2|0,0:0|0:0|0:0,0:0:0:0:
80,157,14233,1,2,0:2:0:0:
80,157,14398,2,0,P|119:194|189:180,1,112,2|0,0:2|0:0,0:0:0:0:
239,132,14896,1,2,0:2:0:0:
239,132,15061,1,2,0:2:0:0:
320,27,15393,2,0,L|431:46,1,112,2|2,0:2|0:2,0:0:0:0:
512,37,15890,6,0,P|466:79|474:140,1,112,0|2,0:0|0:2,0:0:0:0:
501,198,16387,2,0,P|461:170|384:184,1,112,2|0,0:2|0:0,0:0:0:0:
332,131,16885,1,2,0:2:0:0:
332,131,17050,2,0,P|347:198|356:255,1,112,2|0,0:2|0:0,0:0:0:0:
251,382,17713,5,2,0:2:0:0:
174,359,17879,2,0,P|138:315|154:247,1,112,2|2,0:2|0:2,0:0:0:0:
177,189,18376,1,2,0:2:0:0:
177,189,18459,1,0,0:0:0:0:
177,189,18542,2,0,P|118:209|52:228,1,112
5,168,19039,2,0,L|20:99,1,56,2|0,0:0|0:0,0:0:0:0:
118,0,19537,2,0,L|133:69,1,56,2|2,0:2|0:2,0:0:0:0:
183,117,19868,6,0,P|251:113|285:70,1,112,0|2,0:0|0:2,0:0:0:0:
344,24,20365,2,0,L|305:195,1,168,2|2,0:2|1:2,0:0:0:0:
207,233,21028,1,2,1:2:0:0:
207,233,21111,1,0,1:2:0:0:
207,233,21194,2,0,L|216:285,7,35,4|0|0|0|0|0|0|0,1:2|1:2|1:2|1:2|1:2|1:2|1:2|1:2,0:0:0:0:
239,291,21857,2,0,L|233:325,7,35,0|0|2|0|2|0|2|0,1:2|1:2|1:2|1:2|1:2|1:2|1:2|1:2,0:0:0:0:
257,352,22520,6,0,L|406:314,1,140,10|8,0:2|0:2,0:0:0:0:
487,255,23017,1,10,0:2:0:0:
424,179,23183,2,0,L|441:83,1,70,10|8,0:2|0:2,0:0:0:0:
436,110,23432,1,8,0:2:0:0:
436,110,23514,1,8,0:2:0:0:
470,16,23680,6,0,P|420:71|335:64,1,140,4|0,1:2|1:2,0:0:0:0:
280,16,24177,2,0,L|267:90,1,70,8|2,0:2|0:2,0:0:0:0:
314,164,24509,2,0,P|257:129|173:128,1,140,0|10,1:2|0:2,0:0:0:0:
111,76,25006,1,2,1:2:0:0:
43,131,25172,6,0,P|53:178|58:223,1,70,0|0,0:0|1:2,0:0:0:0:
0,257,25503,1,10,0:2:0:0:
40,333,25669,2,0,P|93:367|171:353,1,140,2|2,0:2|1:2,0:0:0:0:
264,311,26166,2,0,P|256:350|252:389,1,70,8|2,0:2|1:2,0:0:0:0:
182,270,26498,6,0,P|157:208|179:128,1,140,4|10,1:2|0:2,0:0:0:0:
110,74,26995,1,2,0:2:0:0:
110,74,27161,2,0,L|32:88,2,70,0|0|10,1:2|1:2|0:2,0:0:0:0:
188,21,27658,2,0,B|226:24|248:55|248:55|282:33|329:35,1,140,2|2,1:2|1:2,0:0:0:0:
401,11,28155,2,0,P|423:47|428:93,1,70,8|2,0:2|0:2,0:0:0:0:
512,126,28487,6,0,P|428:129|375:185,1,140,2|10,1:2|0:2,0:0:0:0:
310,124,28984,1,10,0:2:0:0:
310,124,29150,1,4,1:2:0:0:
236,320,29481,6,0,P|282:327|315:334,1,70,8|0,0:0|0:0,0:0:0:0:
375,380,29813,2,0,P|388:328|378:296,1,70,0|0,1:2|1:2,0:0:0:0:
438,240,30144,5,10,0:2:0:0:
393,170,30310,2,0,L|243:198,1,140,2|0,1:2|1:2,0:0:0:0:
187,260,30807,1,10,0:2:0:0:
187,260,30973,2,0,P|198:297|188:346,2,70,2|0|0,0:2|1:2|1:2,0:0:0:0:
102,218,31470,1,10,0:2:0:0:
20,244,31636,1,10,0:2:0:0:
20,244,31802,6,0,B|29:195|29:195|23:163|23:163|39:91,1,140,2|8,1:2|0:2,0:0:0:0:
0,21,32299,2,0,P|63:55|133:38,1,140,0|0,0:0|1:2,0:0:0:0:
203,9,32796,1,10,0:2:0:0:
259,82,32962,6,0,L|236:197,1,105,2|0,1:2|0:0,0:0:0:0:
238,184,33293,2,0,P|199:200|177:226,1,70,2|8,1:2|0:2,0:0:0:0:
112,272,33625,2,0,P|184:273|245:325,1,140,2|10,0:2|0:2,0:0:0:0:
296,376,34122,1,8,0:2:0:0:
382,349,34288,5,8,0:0:0:0:
382,349,34371,1,8,0:0:0:0:
382,349,34454,2,0,B|484:367|484:367|455:264,1,210,4|0,1:2|1:0,0:0:0:0:
507,190,35117,1,8,0:0:0:0:
305,242,35448,6,0,L|337:27,1,210,4|0,1:2|0:0,0:0:0:0:
413,0,36111,2,0,P|420:42|401:83,1,70,8|10,0:0|0:0,0:0:0:0:
351,132,36443,1,2,0:0:0:0:
425,197,36608,1,0,1:0:0:0:
425,197,36691,1,0,1:0:0:0:
425,197,36774,2,0,L|498:181,1,70,10|2,0:0|0:0,0:0:0:0:
351,132,37106,6,0,B|241:101|270:191|142:171,1,210,4|0,1:2|1:0,0:0:0:0:
79,120,37769,1,8,0:2:0:0:
0,310,38100,6,0,P|48:360|178:340,1,210,4|0,1:2|0:0,0:0:0:0:
255,380,38763,2,0,L|269:299,1,70,8|10,0:2|0:2,0:0:0:0:
201,258,39095,2,0,P|187:221|198:179,1,70,2|0,0:2|1:2,0:0:0:0:
191,191,39343,1,0,1:2:0:0:
191,191,39426,2,0,L|265:177,1,70,8|2,0:2|0:2,0:0:0:0:
309,79,39758,6,0,B|355:134|419:123|419:123|445:82|489:76,1,210,4|0,1:2|1:2,0:0:0:0:
499,161,40421,1,8,0:2:0:0:
409,342,40752,5,2,0:2:0:0:
486,291,40918,2,0,P|428:253|350:276,1,140,2|8,1:2|0:2,0:0:0:0:
284,222,41415,2,0,L|270:297,1,70,2|0,0:2|1:2,0:0:0:0:
176,299,41746,2,0,L|190:374,1,70,8|0,0:2|1:2,0:0:0:0:
188,367,41995,1,0,1:2:0:0:
188,367,42078,2,0,P|149:368|100:388,1,70,10|8,0:2|0:3,0:0:0:0:
22,331,42409,6,0,P|36:258|6:189,1,140,14|0,1:2|1:2,0:0:0:0:
48,124,42907,1,10,0:2:0:0:
194,211,43238,5,8,0:2:0:0:
194,211,43321,1,8,0:2:0:0:
194,211,43404,2,0,L|420:173,1,210,10|0,0:2|1:2,0:0:0:0:
479,223,44067,2,0,P|489:181|485:151,1,70,8|0,0:2|1:2,0:0:0:0:
511,81,44398,1,10,0:2:0:0:
439,23,44564,1,0,1:2:0:0:
439,23,44647,1,0,1:2:0:0:
439,23,44730,2,0,L|367:41,1,70,10|2,0:2|0:2,0:0:0:0:
287,13,45061,6,0,B|271:66|302:109|302:109|286:170,1,140,4|0,1:2|1:2,0:0:0:0:
236,269,45724,2,0,L|249:343,1,70,2|2,1:2|0:2,0:0:0:0:
169,378,46056,1,2,1:2:0:0:
169,378,46222,2,0,P|133:371|94:363,1,70,2|0,0:2|1:2,0:0:0:0:
13,379,46553,2,0,P|6:343|-2:304,1,70,2|0,1:2|1:2,0:0:0:0:
24,217,46885,2,0,P|81:254|170:236,1,140,2|2,1:2|1:2,0:0:0:0:
223,202,47382,2,0,L|298:216,1,70,0|0,1:2|1:2,0:0:0:0:
361,277,47713,6,0,B|398:238|452:236|452:236|461:196,1,140,0|0,1:2|1:2,0:0:0:0:
505,133,48211,1,8,0:2:0:0:
451,76,48376,2,0,L|434:4,1,70,0|8,1:2|0:2,0:0:0:0:
361,61,48708,2,0,L|377:129,1,70,0|8,1:2|0:2,0:0:0:0:
293,191,49039,5,0,1:2:0:0:
206,150,49205,2,0,L|219:72,2,70,8|0|10,0:2|1:2|0:2,0:0:0:0:
158,227,49702,2,0,P|160:261|181:300,1,70,2|8,1:2|0:2,0:0:0:0:
175,293,49951,1,0,0:0:0:0:
175,293,50034,2,0,L|107:312,1,70,2|10,1:2|0:2,0:0:0:0:
22,256,50365,6,0,L|30:211,5,35,8|0|0|0|0|0,0:2|1:2|1:2|1:2|1:2|1:2,0:0:0:0:
17,189,50863,2,0,L|25:144,5,35,8|0|0|0|0|0,0:2|1:2|1:2|1:2|1:2|1:2,0:0:0:0:
10,124,51360,1,8,0:2:0:0:
50,31,51525,1,8,0:2:0:0:
50,31,51608,1,8,0:2:0:0:
50,31,51691,1,8,0:2:0:0:
135,111,52023,6,0,B|194:126|230:85|221:64|211:41|273:7|325:38,1,210,2|2,0:1|0:0,0:0:0:0:
465,96,52851,6,0,L|432:249,1,140,6|2,1:2|1:2,0:0:0:0:
484,302,53349,2,0,P|438:317|408:312,1,70,8|2,0:2|0:2,0:0:0:0:
343,374,53680,1,2,1:2:0:0:
272,323,53846,2,0,L|287:244,1,70,2|10,1:2|0:2,0:0:0:0:
353,188,54177,6,0,P|365:138|344:80,1,105,2|0,1:2|0:0,0:0:0:0:
349,87,54509,2,0,L|276:74,1,70,2|8,1:2|0:2,0:0:0:0:
209,18,54840,2,0,B|174:30|158:66|158:66|124:46|82:54,1,140,2|2,0:2|1:2,0:0:0:0:
24,128,55338,1,8,0:2:0:0:
24,128,55503,1,10,0:2:0:0:
61,214,55669,6,0,L|145:197,1,70,6|0,1:2|0:0,0:0:0:0:
202,235,56001,1,10,0:0:0:0:
277,197,56166,2,0,P|306:146|292:85,1,105,2|0,0:2|0:0,0:0:0:0:
293,95,56498,2,0,L|308:18,1,70,2|8,1:2|0:0,0:0:0:0:
400,0,56829,6,0,P|445:56|433:120,1,140,2|0,1:2|1:2,0:0:0:0:
472,200,57327,2,0,L|456:272,1,70,8|2,0:0|0:2,0:0:0:0:
486,343,57658,5,2,1:2:0:0:
410,381,57824,2,0,P|378:368|339:369,1,70,0|8,1:2|0:0,0:0:0:0:
277,318,58155,1,10,0:0:0:0:
316,247,58321,6,0,L|301:162,1,70,4|0,1:2|0:0,0:0:0:0:
368,116,58653,2,0,P|376:76|370:41,1,70,10|2,0:0|0:0,0:0:0:0:
294,4,58984,2,0,P|230:54|165:48,1,140,2|10,1:2|0:0,0:0:0:0:
93,24,59481,6,0,L|71:147,1,105,2|0,1:2|0:0,0:0:0:0:
74,127,59813,1,0,1:2:0:0:
67,210,59979,2,0,P|107:207|138:186,1,70,10|0,0:0|0:0,0:0:0:0:
217,235,60310,2,0,L|235:117,1,105,2|0,1:2|0:0,0:0:0:0:
232,120,60642,2,0,P|222:81|228:43,1,70,10|8,0:0|0:0,0:0:0:0:
304,0,60973,5,6,1:2:0:0:
361,52,61139,2,0,L|454:36,1,70,2|2,1:2|1:2,0:0:0:0:
512,144,61470,5,8,0:0:0:0:
455,196,61636,2,0,L|362:180,1,70,0|8,1:2|0:0,0:0:0:0:
386,184,61885,1,8,0:0:0:0:
386,184,61967,1,10,0:2:0:0:
318,246,62133,6,0,B|285:205|303:157|303:157|280:93,1,140,2|0,0:2|1:2,0:0:0:0:
249,33,62630,1,8,0:0:0:0:
165,69,62796,1,2,0:0:0:0:
165,69,62879,1,0,0:0:0:0:
165,69,62962,2,0,L|51:51,1,105,8|8,0:0|0:3,0:0:0:0:
61,52,63293,1,8,0:0:0:0:
18,144,63459,5,10,0:0:0:0:
18,144,63542,1,8,0:0:0:0:
18,144,63625,2,0,P|64:184|147:164,1,140,6|10,1:2|0:2,0:0:0:0:
220,204,64122,2,0,L|301:189,1,70,2|0,0:2|1:2,0:0:0:0:
351,127,64454,2,0,P|384:143|429:140,1,70,2|8,1:2|0:2,0:0:0:0:
486,84,64785,6,0,L|452:239,1,140,2|0,1:2|1:2,0:0:0:0:
507,306,65282,2,0,P|440:306|403:332,1,105,10|0,0:2|0:0,0:0:0:0:
403,333,65614,2,0,L|334:347,1,70,0|0,1:2|1:2,0:0:0:0:
275,279,65945,2,0,L|291:203,1,70,10|8,0:2|0:2,0:0:0:0:
353,157,66277,6,0,B|385:120|385:120|383:76|344:37,1,140,2|2,1:2|1:2,0:0:0:0:
273,10,66774,2,0,P|210:56|168:41,1,105,10|0,0:2|0:0,0:0:0:0:
182,47,67106,2,0,L|107:65,1,70,2|0,1:2|1:2,0:0:0:0:
26,144,67437,6,0,B|82:156|82:156|104:182|104:182|166:193,1,140,10|0,0:2|1:2,0:0:0:0:
220,239,67934,2,0,P|236:198|225:152,1,70,10|0,0:2|0:0,0:0:0:0:
284,64,68266,5,0,1:2:0:0:
343,119,68432,1,0,1:2:0:0:
410,69,68597,2,0,L|398:-15,1,70,10|8,0:2|0:2,0:0:0:0:
497,131,68929,6,0,L|479:257,1,105,6|0,1:2|0:0,0:0:0:0:
482,234,69260,1,10,0:2:0:0:
512,318,69426,2,0,P|467:330|445:352,1,70,0|8,1:2|0:2,0:0:0:0:
380,382,69758,1,0,1:2:0:0:
315,320,69923,1,8,0:2:0:0:
380,382,70089,6,0,L|355:214,1,140,0|0,1:2|1:2,0:0:0:0:
298,184,70586,2,0,P|313:150|305:103,1,70,2|0,1:2|1:2,0:0:0:0:
299,100,70835,1,0,1:2:0:0:
299,100,70918,2,0,L|310:59,2,35,10|8|8,0:2|0:2|0:2,0:0:0:0:
213,132,71249,1,10,0:2:0:0:
141,72,71415,5,8,0:2:0:0:
141,72,71498,1,8,0:2:0:0:
141,72,71581,2,0,L|71:87,1,70,4|2,1:2|0:2,0:0:0:0:
19,148,71912,1,10,0:2:0:0:
64,231,72078,1,2,0:2:0:0:
64,231,72161,1,2,0:2:0:0:
64,231,72244,2,0,L|40:337,2,105,2|2|0,1:2|1:2|1:2,0:0:0:0:
129,160,72907,5,0,0:0:0:0:
215,190,73072,2,0,P|233:140|223:103,1,70,2|8,1:2|0:2,0:0:0:0:
294,61,73404,2,0,P|334:85|399:75,1,105,2|0,0:2|0:0,0:0:0:0:
399,75,73735,2,0,L|412:5,1,70,2|8,1:2|0:2,0:0:0:0:
482,117,74067,1,2,0:3:0:0:
437,198,74233,6,0,L|450:268,1,70,0|2,1:2|0:2,0:0:0:0:
449,266,74481,1,2,0:2:0:0:
449,266,74564,2,0,P|449:307|425:343,1,70,10|2,0:2|0:2,0:0:0:0:
367,378,74896,2,0,P|323:347|265:353,1,105,2|2,1:2|1:2,0:0:0:0:
265,355,75227,2,0,L|251:282,1,70,8|0,0:2|1:2,0:0:0:0:
318,227,75559,5,0,0:0:0:0:
262,162,75724,2,0,L|276:89,1,70,2|8,1:2|0:2,0:0:0:0:
212,17,76056,2,0,B|143:33|143:33|142:36|142:36|57:60,1,140,2|2,0:2|1:2,0:0:0:0:
15,111,76553,2,0,L|-1:180,1,70,8|2,0:2|0:3,0:0:0:0:
42,248,76885,6,0,B|83:212|126:213|126:213|146:226|176:223,1,140,4|10,1:2|0:2,0:0:0:0:
248,264,77382,2,0,L|270:166,1,70,2|0,0:2|1:2,0:0:0:0:
216,128,77713,2,0,L|238:30,1,70,2|8,1:2|0:2,0:0:0:0:
296,5,78045,6,0,B|332:39|332:39|379:33|421:-3,1,140,2|2,1:2|1:2,0:0:0:0:
482,59,78542,1,10,0:2:0:0:
444,143,78708,1,2,0:2:0:0:
444,143,78791,1,2,0:2:0:0:
444,143,78874,2,0,L|370:159,1,70,2|2,1:2|1:2,0:0:0:0:
311,206,79205,1,10,0:2:0:0:
238,150,79371,6,0,P|205:231|239:298,1,140,2|2,0:3|0:0,0:0:0:0:
208,365,79868,2,0,L|285:347,1,70,10|0,0:0|0:0,0:0:0:0:
358,378,80200,2,0,L|435:360,1,70,2|0,1:2|1:2,0:0:0:0:
426,362,80448,1,2,0:2:0:0:
426,362,80531,1,8,0:0:0:0:
491,308,80697,6,0,B|473:260|473:260|481:222|481:222|457:165,1,140,2|2,1:2|1:2,0:0:0:0:
369,207,81194,2,0,L|289:193,1,70,10|2,0:0|0:0,0:0:0:0:
234,258,81525,2,0,P|198:265|171:286,1,70,10|8,0:0|0:3,0:0:0:0:
172,284,81774,1,8,0:3:0:0:
172,284,81857,2,0,L|97:299,1,70,8|8,0:0|0:0,0:0:0:0:
11,253,82188,6,0,L|36:134,1,105,6|0,1:2|0:0,0:0:0:0:
34,141,82520,1,10,0:2:0:0:
0,66,82686,2,0,L|85:49,1,70,2|8,1:2|0:2,0:0:0:0:
137,0,83017,2,0,P|184:17|204:57,1,70,0|10,1:2|0:2,0:0:0:0:
288,1,83349,6,0,L|254:153,1,140,2|0,1:2|1:2,0:0:0:0:
186,193,83846,1,8,0:2:0:0:
209,278,84012,2,0,P|292:318|347:299,1,140,2|10,1:2|0:2,0:0:0:0:
400,359,84509,1,2,1:2:0:0:
488,328,84675,5,10,0:2:0:0:
488,328,84758,1,10,0:2:0:0:
488,328,84840,2,0,L|514:179,1,140,6|10,1:2|0:2,0:0:0:0:
470,116,85338,2,0,P|415:124|395:151,1,70,2|8,1:2|0:2,0:0:0:0:
326,86,85669,2,0,L|309:160,1,70,0|10,1:2|0:2,0:0:0:0:
349,233,86001,6,0,L|185:263,1,140,2|0,1:2|1:2,0:0:0:0:
140,329,86498,2,0,L|92:322,3,35,0|0|0|0,1:2|1:2|1:2|1:2,0:0:0:0:
88,334,86829,2,0,L|40:327,3,35,8|8|10|8,0:2|0:2|0:2|0:2,0:0:0:0:
40,323,87161,6,0,L|22:242,1,70,8|2,0:2|0:2,0:0:0:0:
256,192,92796,12,10,95117,0:2:0:0:
382,23,95448,5,6,1:2:0:0:
438,85,95614,2,0,L|424:158,1,70,2|2,1:2|1:2,0:0:0:0:
476,226,95945,2,0,P|415:193|341:211,1,140,8|8,0:0|0:0,0:0:0:0:
348,206,96360,1,8,0:0:0:0:
348,206,96443,1,6,1:2:0:0:
291,266,96608,6,0,L|316:114,1,140,6|0,1:2|1:2,0:0:0:0:
248,56,97106,2,0,P|205:73|165:65,1,70,8|2,0:0|0:0,0:0:0:0:
124,4,97437,1,8,0:0:0:0:
37,49,97603,1,8,0:3:0:0:
37,49,97686,1,8,0:3:0:0:
37,49,97769,2,0,L|28:86,3,35,8|8|10|8,0:0|0:0|0:0|0:0,0:0:0:0:
17,99,98100,6,0,P|23:170|84:203,1,140,6|10,1:2|0:2,0:0:0:0:
145,251,98597,2,0,L|227:235,1,70,2|0,0:2|1:2,0:0:0:0:
265,165,98929,2,0,L|347:149,1,70,2|8,1:2|0:2,0:0:0:0:
395,88,99260,6,0,P|384:152|369:243,1,140,2|0,1:2|1:2,0:0:0:0:
301,283,99758,2,0,P|313:327|321:368,1,70,10|0,0:2|0:0,0:0:0:0:
318,350,100006,1,0,0:0:0:0:
318,350,100089,2,0,L|391:369,1,70,0|0,1:2|1:2,0:0:0:0:
466,341,100421,2,0,P|480:296|471:259,1,70,10|8,0:2|0:2,0:0:0:0:
510,176,100752,6,0,P|447:193|388:132,1,140,2|2,1:2|1:2,0:0:0:0:
326,206,101249,2,0,L|247:222,1,70,10|0,0:2|0:0,0:0:0:0:
200,289,101581,5,2,1:2:0:0:
224,369,101746,1,0,1:2:0:0:
130,341,101912,2,0,P|48:343|-9:289,1,140,10|0,0:2|1:2,0:0:0:0:
27,224,102409,2,0,L|14:131,1,70,10|0,0:2|0:0,0:0:0:0:
97,94,102741,2,0,L|106:163,1,70,0|0,1:2|1:2,0:0:0:0:
106,163,102990,1,0,0:0:0:0:
106,163,103072,2,0,P|145:162|187:184,1,70,10|8,0:2|0:2,0:0:0:0:
232,244,103404,6,0,B|315:267|315:267|381:230,1,140,6|10,1:2|0:2,0:0:0:0:
447,263,103901,2,0,P|454:223|466:182,1,70,2|8,1:2|0:2,0:0:0:0:
395,140,104233,1,0,1:2:0:0:
452,71,104398,2,0,P|445:31|433:-10,1,70,10|2,0:2|1:2,0:0:0:0:
331,50,104730,6,0,P|280:16|196:37,1,140,8|8,0:2|0:2,0:0:0:0:
151,103,105227,2,0,L|165:185,1,70,8|0,0:2|1:2,0:0:0:0:
232,226,105559,1,8,0:2:0:0:
172,308,105724,2,0,P|134:315|94:345,1,70,0|8,1:2|0:2,0:0:0:0:
107,331,105973,1,0,0:0:0:0:
107,331,106056,6,0,P|44:333|2:244,1,140,6|10,1:2|0:2,0:0:0:0:
21,199,106553,1,2,1:2:0:0:
38,120,106719,2,0,L|109:107,1,70,8|0,0:2|1:2,0:0:0:0:
175,171,107050,1,10,0:2:0:0:
271,144,107216,1,0,1:2:0:0:
271,144,107299,1,0,1:2:0:0:
271,144,107382,2,0,L|284:68,1,70,10|0,0:2|1:2,0:0:0:0:
384,49,107713,2,0,L|372:117,1,70,8|0,0:2|1:2,0:0:0:0:
344,224,108045,6,0,L|383:217,3,35,8|0|0|0,0:2|1:2|1:2|1:2,0:0:0:0:
411,233,108376,2,0,L|450:226,3,35,8|8|8|8,0:2|0:2|0:2|0:2,0:0:0:0:
478,242,108707,1,6,1:2:0:0:
256,192,108791,12,8,113846,0:2:0:0:
