osu file format v14

[General]
AudioFilename: audio.mp3
AudioLeadIn: 0
PreviewTime: 52229
Countdown: 1
SampleSet: Soft
StackLeniency: 0.6
Mode: 0
LetterboxInBreaks: 0
WidescreenStoryboard: 1

[Editor]
DistanceSpacing: 1
BeatDivisor: 4
GridSize: 32
TimelineZoom: 1.6

[Metadata]
Title:Four Leaves
TitleUnicode:Four Leaves
Artist:Endorfin.
ArtistUnicode:Endorfin.
Creator:Erisu
Version:Extra
Source:SOUND VOLTEX IV HEAVENLY HAVEN
Tags:sdvx 4th sdvx4 konami bemani 藍月なくる aitsuki nakuru sky_delta sky delta Alt.Strato hvick225 didah shikibe mayu kazato asa shizuku- lanzhu mayuzumi fuyuko video game vgm pop jpop j-pop japanese
BeatmapID:3218180
BeatmapSetID:1576274

[Difficulty]
HPDrainRate:5.5
CircleSize:4
OverallDifficulty:9
ApproachRate:9.2
SliderMultiplier:1.9
SliderTickRate:1

[Events]
//Background and Video events
0,0,"image.jpg",0,0
//Break Periods
2,87527,92060
//Storyboard Layer 0 (Background)
//Storyboard Layer 1 (Fail)
//Storyboard Layer 2 (Pass)
//Storyboard Layer 3 (Foreground)
//Storyboard Layer 4 (Overlay)
//Storyboard Sound Samples

[TimingPoints]
1305,331.491712707182,4,2,1,50,1,0
1305,-142.857142857143,4,2,1,50,0,0
3790,-142.857142857143,4,2,1,50,0,0
3956,-142.857142857143,4,2,1,50,0,0
5448,-142.857142857143,4,2,1,50,0,0
5614,-142.857142857143,4,2,1,50,0,0
7934,-142.857142857143,4,2,1,40,0,0
8266,-142.857142857143,4,2,1,50,0,0
8597,-100,4,2,1,60,0,0
9260,-100,4,2,1,70,0,0
10255,-125,4,2,1,70,0,0
10503,-125,4,2,1,40,0,0
11581,-125,4,2,1,60,0,0
13072,-125,4,2,1,40,0,0
14066,-125,4,2,1,40,0,0
14233,-125,4,2,1,40,0,0
14729,-125,4,2,1,40,0,0
14896,-125,4,2,1,40,0,0
15641,-125,4,2,1,40,0,0
15724,-125,4,2,1,40,0,0
16055,-125,4,2,1,40,0,0
16222,-125,4,2,1,40,0,0
16718,-125,4,2,1,40,0,0
16885,-125,4,2,1,40,0,0
20696,-125,4,2,1,40,0,0
20863,-125,4,2,1,40,0,0
22520,-125,4,2,1,50,0,0
23680,-111.111111111111,4,2,1,60,0,0
24011,-111.111111111111,4,2,1,60,0,0
24177,-111.111111111111,4,2,1,60,0,0
25337,-111.111111111111,4,2,1,60,0,0
25503,-111.111111111111,4,2,1,60,0,0
30641,-111.111111111111,4,2,1,60,0,0
30807,-111.111111111111,4,2,1,60,0,0
31304,-111.111111111111,4,2,1,60,0,0
31470,-111.111111111111,4,2,1,60,0,0
33210,-111.111111111111,4,2,1,60,0,0
33293,-111.111111111111,4,2,1,60,0,0
34454,-142.857142857143,4,2,1,50,0,0
43901,-142.857142857143,4,2,1,50,0,0
44067,-142.857142857143,4,2,1,50,0,0
45061,-111.111111111111,4,2,1,60,0,0
47630,-111.111111111111,4,2,1,60,0,0
47713,-111.111111111111,4,2,1,70,0,0
52023,-125,4,2,1,70,0,0
52078,-111.111111111111,4,2,1,5,0,0
52520,-588.235294117647,4,2,1,30,0,0
52768,-625,4,2,1,30,0,0
52851,-90.9090909090909,4,2,1,80,0,1
57160,-90.9090909090909,4,2,1,80,0,1
57327,-90.9090909090909,4,2,1,80,0,1
59812,-90.9090909090909,4,2,1,80,0,1
59979,-90.9090909090909,4,2,1,80,0,1
60144,-90.9090909090909,4,2,1,80,0,1
60310,-90.9090909090909,4,2,1,80,0,1
60475,-90.9090909090909,4,2,1,80,0,1
60642,-90.9090909090909,4,2,1,80,0,1
62464,-90.9090909090909,4,2,1,80,0,1
62630,-90.9090909090909,4,2,1,80,0,1
65116,-90.9090909090909,4,2,1,80,0,1
65282,-90.9090909090909,4,2,1,80,0,1
65447,-90.9090909090909,4,2,1,80,0,1
65614,-90.9090909090909,4,2,1,80,0,1
67851,-90.9090909090909,4,2,1,80,0,1
67934,-90.9090909090909,4,2,1,80,0,1
68099,-90.9090909090909,4,2,1,80,0,1
68266,-90.9090909090909,4,2,1,80,0,1
72409,-90.9090909090909,4,2,1,80,0,1
72492,-90.9090909090909,4,2,1,80,0,1
75061,-90.9090909090909,4,2,1,80,0,1
75144,-90.9090909090909,4,2,1,80,0,1
75641,-90.9090909090909,4,2,1,80,0,1
75724,-90.9090909090909,4,2,1,80,0,1
77133,-90.9090909090909,4,2,1,80,0,1
77216,-90.9090909090909,4,2,1,80,0,1
80945,-90.9090909090909,4,2,1,80,0,1
81028,-90.9090909090909,4,2,1,80,0,1
82436,-90.9090909090909,4,2,1,80,0,1
82520,-90.9090909090909,4,2,1,80,0,1
85088,-90.9090909090909,4,2,1,80,0,1
85172,-90.9090909090909,4,2,1,80,0,1
87327,-125,4,2,1,70,0,0
92961,-125,4,2,1,70,0,0
93128,-125,4,2,1,70,0,0
95448,-90.9090909090909,4,2,1,80,0,1
96939,-90.9090909090909,4,2,1,80,0,1
97106,-90.9090909090909,4,2,1,80,0,1
99591,-90.9090909090909,4,2,1,80,0,1
99758,-90.9090909090909,4,2,1,80,0,1
102243,-90.9090909090909,4,2,1,80,0,1
102409,-90.9090909090909,4,2,1,80,0,1
102574,-90.9090909090909,4,2,1,80,0,1
102741,-90.9090909090909,4,2,1,80,0,1
108708,-125,4,2,1,60,0,0

[Colours]
Combo1 : 192,192,192
Combo2 : 255,128,128
Combo3 : 168,207,255

[HitObjects]
39,118,1305,6,0,P|89:96|159:128,1,133,6|0,1:2|0:0,0:0:0:0:
261,228,1802,2,0,L|312:237,2,33.2499989852906,0|0|0,1:0|1:0|1:0,0:0:0:0:
188,198,2133,1,0,1:0:0:0:
253,142,2299,1,2,0:2:0:0:
253,142,2465,6,0,P|252:90|266:1,2,133,0|0|0,1:0|0:0|1:0,0:0:0:0:
253,142,3211,1,0,0:0:0:0:
253,142,3293,1,2,1:2:0:0:
345,98,3459,1,0,1:0:0:0:
422,135,3625,2,0,L|405:215,1,66.4999979705811
473,259,3956,6,0,P|423:256|380:326,1,133,6|0,1:2|0:0,0:0:0:0:
304,378,4454,2,0,L|266:386,2,33.2499989852906,0|0|0,1:0|1:0|1:0,0:0:0:0:
379,318,4785,1,0,0:0:0:0:
289,279,4951,1,0,1:0:0:0:
289,279,5117,6,0,P|286:227|280:141,1,133,8|0,0:0|0:0,0:0:0:0:
174,103,5614,1,0,1:0:0:0:
174,103,5697,1,0,1:0:0:0:
174,103,5780,2,0,L|142:123,1,33.25,0|0,1:0|1:0,0:0:0:0:
134,236,5945,2,0,L|148:284,3,33.2499989852906,0|0|0|0,1:0|1:0|1:0|1:0,0:0:0:0:
227,332,6277,5,0,1:0:0:0:
249,325,6360,1,0,1:0:0:0:
267,310,6443,1,0,1:0:0:0:
277,288,6525,1,0,1:0:0:0:
278,267,6608,5,2,0:2:0:0:
268,176,6774,1,2,0:2:0:0:
257,95,6940,1,2,0:2:0:0:
139,28,7106,5,2,1:2:0:0:
127,109,7271,1,2,1:2:0:0:
118,199,7437,1,0,0:2:0:0:
164,283,7603,5,0,1:2:0:0:
186,277,7686,1,0,1:2:0:0:
210,278,7769,1,0,1:2:0:0:
232,286,7851,1,0,1:0:0:0:
251,300,7934,5,0,1:0:0:0:
272,309,8017,1,0,1:0:0:0:
296,311,8100,1,0,1:0:0:0:
319,305,8183,1,0,1:0:0:0:
339,293,8266,6,0,L|374:274,1,33.25,0|0,1:0|1:0,0:0:0:0:
491,181,8432,2,0,L|455:162,1,33.25,0|0,1:0|1:0,0:0:0:0:
314,59,8597,2,0,L|359:35,1,47.5,8|8,0:0|0:0,0:0:0:0:
485,199,8763,2,0,L|443:177,1,47.5,8|8,0:0|0:0,0:0:0:0:
344,311,8929,2,0,L|390:286,1,47.5,8|8,0:0|0:0,0:0:0:0:
303,183,9095,1,8,0:0:0:0:
303,183,9177,1,8,0:0:0:0:
303,183,9260,5,4,1:2:0:0:
128,152,9426,1,0,1:0:0:0:
49,8,9592,1,0,1:0:0:0:
299,171,9758,5,4,1:2:0:0:
122,186,9923,1,0,1:0:0:0:
11,75,10089,2,0,L|73:95,1,47.5,8|8,0:0|0:0,0:0:0:0:
238,3,10255,6,0,P|225:57|215:167,1,152,8|0,0:0|0:0,0:0:0:0:
451,20,10752,1,0,1:0:0:0:
507,116,10918,1,0,1:0:0:0:
453,247,11084,1,0,1:0:0:0:
295,328,11249,1,0,1:0:0:0:
129,245,11415,1,0,1:0:0:0:
158,147,11581,5,8,0:0:0:0:
141,267,11746,1,8,0:0:0:0:
257,333,11912,1,8,0:0:0:0:
436,273,12078,1,8,0:0:0:0:
488,89,12244,1,8,0:0:0:0:
303,0,12409,1,0,1:0:0:0:
272,192,12575,5,8,0:0:0:0:
234,197,12657,1,8,0:0:0:0:
203,217,12740,1,8,0:0:0:0:
183,250,12823,1,8,0:0:0:0:
180,287,12906,1,8,0:3:0:0:
193,323,12989,1,8,0:3:0:0:
204,338,13072,6,0,B|104:364|104:364|39:324|94:241,1,228,4|0,1:2|0:0,0:0:0:0:
189,135,13735,1,2,0:0:0:0:
286,152,13901,2,0,P|248:147|180:136,1,76,2|0,0:0|0:0,0:0:0:0:
116,40,14233,1,2,0:2:0:0:
23,47,14398,6,0,P|60:42|80:146,1,152,2|0,0:2|0:0,0:0:0:0:
224,33,14896,1,2,0:2:0:0:
224,33,15061,2,0,P|264:28|301:73,1,76,2|0,0:2|0:0,0:0:0:0:
439,100,15393,2,0,P|399:95|362:140,1,76,2|0,0:2|0:0,0:0:0:0:
453,221,15724,6,0,P|377:214|301:214,1,152,2|0,0:2|0:0,0:0:0:0:
180,239,16222,1,2,0:2:0:0:
110,356,16387,2,0,P|158:328|167:209,1,152,2|0,0:2|0:0,0:0:0:0:
238,83,16885,1,2,0:2:0:0:
112,140,17050,2,0,B|209:122|175:175|274:159,2,152,2|0|2,0:2|0:0|0:2,0:0:0:0:
238,83,17879,2,0,P|292:82|339:161,1,152,2|2,0:2|0:2,0:0:0:0:
472,220,18376,1,2,0:2:0:0:
352,269,18542,6,0,P|399:213|472:220,1,152,2|0,0:0|0:0,0:0:0:0:
396,335,19039,2,0,P|323:341|276:285,1,152,2|0,0:0|0:0,0:0:0:0:
213,232,19537,1,2,0:0:0:0:
198,309,19702,2,0,P|188:342|181:393,2,76,2|0|0,0:0|0:0|0:0,0:0:0:0:
89,202,20200,1,2,0:2:0:0:
75,279,20365,2,0,B|165:286|123:222|229:234,1,152,2|0,0:2|0:0,0:0:0:0:
326,145,20863,6,0,L|278:129,3,38,2|0|2|0,1:2|1:2|1:2|1:2,0:0:0:0:
208,40,21194,2,0,L|160:56,3,38,4|0|0|0,1:2|1:2|1:2|1:2,0:0:0:0:
74,140,21525,2,0,L|63:189,3,38,0|0|0|0,1:2|1:2|1:2|1:2,0:0:0:0:
128,273,21857,5,0,1:2:0:0:
127,291,21939,1,0,1:2:0:0:
127,310,22022,1,2,1:2:0:0:
126,329,22105,1,0,1:2:0:0:
126,348,22188,5,2,1:2:0:0:
91,361,22270,1,0,1:2:0:0:
54,352,22353,1,2,1:2:0:0:
30,324,22436,1,0,1:2:0:0:
75,255,22520,5,10,0:2:0:0:
107,235,22602,1,8,0:2:0:0:
121,201,22685,1,8,0:2:0:0:
114,164,22768,1,8,0:2:0:0:
86,140,22851,2,0,L|28:172,1,38,8|8,0:2|0:2,0:0:0:0:
151,25,23017,5,10,0:2:0:0:
151,25,23100,1,8,0:2:0:0:
151,25,23183,2,0,L|203:45,1,38,10|8,0:2|0:2,0:0:0:0:
395,169,23349,2,0,L|359:182,1,38,8|8,0:2|0:2,0:0:0:0:
201,314,23514,2,0,L|236:327,1,38,8|8,0:2|0:2,0:0:0:0:
484,372,23680,6,0,P|487:274|492:178,1,170.999994781494,4|0,1:2|1:0,0:0:0:0:
472,16,24177,1,8,0:2:0:0:
389,34,24343,2,0,P|428:23|490:16,1,85.4999973907472,2|0,0:2|1:2,0:0:0:0:
369,229,24675,2,0,P|330:218|268:211,1,85.4999973907472,0|10,1:2|0:2,0:0:0:0:
113,45,25006,6,0,B|186:28|186:28|235:71|204:126,1,170.999994781494,2|0,1:2|1:0,0:0:0:0:
113,45,25503,1,10,0:2:0:0:
26,202,25669,2,0,B|9:161|9:161|22:97,1,85.4999973907472,2|0,0:2|1:2,0:0:0:0:
177,222,26001,1,2,1:2:0:0:
177,222,26166,1,8,0:2:0:0:
36,329,26332,1,2,1:2:0:0:
207,189,26498,6,0,B|285:159|290:247|396:201,1,170.999994781494,4|10,1:2|0:2,0:0:0:0:
227,356,26995,2,0,P|233:313|238:253,1,85.4999973907472,2|0,0:2|1:2,0:0:0:0:
352,55,27327,1,0,1:2:0:0:
142,123,27492,1,10,0:2:0:0:
352,55,27658,6,0,B|389:98|389:98|364:236,1,170.999994781494,2|2,1:2|1:2,0:0:0:0:
183,19,28155,2,0,P|220:5|274:17,1,85.4999973907472,8|2,0:2|0:2,0:0:0:0:
430,148,28487,1,2,1:2:0:0:
270,241,28653,1,8,0:3:0:0:
273,213,28735,1,8,0:3:0:0:
277,185,28818,1,10,0:2:0:0:
256,325,28984,1,10,0:2:0:0:
292,106,29150,6,0,B|240:77|186:113|219:122|178:160|100:137,2,170.999994781494,4|8|0,1:2|0:2|1:2,0:0:0:0:
292,106,29979,1,0,1:2:0:0:
461,164,30144,1,10,0:2:0:0:
512,38,30310,2,0,P|450:77|486:182,1,170.999994781494,2|0,1:2|1:0,0:0:0:0:
367,324,30807,1,10,0:2:0:0:
495,375,30973,2,0,P|455:313|350:349,1,170.999994781494,2|0,0:2|1:0,0:0:0:0:
113,371,31470,1,10,0:2:0:0:
322,207,31636,1,10,0:2:0:0:
124,200,31802,6,0,P|120:271|113:370,2,170.999994781494,2|8|0,1:2|0:2|1:2,0:0:0:0:
160,12,32630,1,0,1:2:0:0:
21,180,32796,1,10,0:2:0:0:
211,92,32962,6,0,P|264:72|326:117,1,128.249996086121,2|0,1:2|0:0,0:0:0:0:
293,183,33293,2,0,P|251:188|208:160,1,85.4999973907472,2|8,1:2|0:2,0:0:0:0:
288,0,33625,1,2,0:2:0:0:
452,199,33791,1,8,0:2:0:0:
505,130,33956,1,10,0:2:0:0:
467,112,34038,1,8,0:2:0:0:
425,115,34121,1,8,0:2:0:0:
389,138,34204,1,8,0:2:0:0:
370,175,34288,2,0,L|388:242,1,42.7499986953736,10|8,0:2|0:2,0:0:0:0:
400,362,34454,6,0,P|466:357|510:292,2,132.999995941162,4|0|8,1:2|1:0|0:0,0:0:0:0:
86,203,35448,1,4,1:2:0:0:
86,203,35780,2,0,P|92:169|128:137,1,66.4999979705811,0|0,1:0|0:0,0:0:0:0:
248,226,36111,1,8,0:0:0:0:
174,51,36277,2,0,P|200:73|210:120,1,66.4999979705811,10|2,0:0|0:0,0:0:0:0:
148,289,36608,1,0,1:0:0:0:
148,289,36691,1,0,1:0:0:0:
148,289,36774,1,10,0:0:0:0:
172,201,36940,1,2,0:0:0:0:
277,301,37106,6,0,B|327:292|327:292|349:277|349:277|413:271,1,132.999995941162,4|0,1:2|1:2,0:0:0:0:
451,38,37769,1,8,0:2:0:0:
451,38,38100,2,0,L|371:64,1,66.4999979705811,4|0,1:2|0:0,0:0:0:0:
365,182,38432,1,0,1:2:0:0:
261,31,38597,2,0,L|279:100,1,66.4999979705811,0|8,0:0|0:2,0:0:0:0:
326,282,38929,1,10,0:2:0:0:
483,161,39095,1,2,0:2:0:0:
365,182,39260,1,0,1:2:0:0:
365,182,39343,1,0,1:2:0:0:
365,182,39426,1,8,0:2:0:0:
436,261,39592,1,2,0:2:0:0:
265,191,39758,6,0,B|182:175|215:227|121:220,1,132.999995941162,4|0,1:2|0:0,0:0:0:0:
1,159,40255,1,0,1:2:0:0:
47,97,40421,2,0,P|72:133|47:226,1,132.999995941162,8|2,0:2|0:2,0:0:0:0:
11,384,40918,2,0,P|47:359|140:384,1,132.999995941162,2|8,1:2|0:2,0:0:0:0:
267,286,41415,2,0,P|229:286|193:313,1,66.4999979705811,2|0,0:2|1:2,0:0:0:0:
317,370,41746,2,0,P|355:370|391:343,1,66.4999979705811,8|0,0:2|1:2,0:0:0:0:
392,332,41995,1,0,1:2:0:0:
392,332,42078,1,10,0:2:0:0:
477,222,42244,1,8,0:3:0:0:
299,39,42409,6,0,P|268:40|232:75,1,66.4999979705811,14|0,1:2|1:2,0:0:0:0:
42,300,42741,1,0,1:2:0:0:
98,22,42907,6,0,P|88:51|108:97,1,66.4999979705811,10|0,0:2|1:2,0:0:0:0:
225,322,43239,1,8,0:2:0:0:
230,289,43321,1,8,0:2:0:0:
235,256,43404,2,0,B|286:143|181:183|246:43,1,199.499993911743,10|0,0:2|1:0,0:0:0:0:
408,25,44067,5,8,0:2:0:0:
172,207,44233,1,0,1:2:0:0:
449,169,44398,1,10,0:2:0:0:
393,117,44564,1,0,1:2:0:0:
376,145,44647,1,0,1:2:0:0:
374,177,44729,1,10,0:2:0:0:
431,335,44896,1,2,0:2:0:0:
466,270,45061,6,0,B|417:245|370:273|384:285|353:325|292:308,1,170.999994781494,4|0,1:2|1:2,0:0:0:0:
75,236,45559,1,0,0:0:0:0:
75,236,45724,2,0,L|61:152,1,85.4999973907472,2|2,1:2|0:2,0:0:0:0:
222,58,46056,2,0,L|207:142,1,85.4999973907472,2|2,1:2|0:2,0:0:0:0:
2,0,46387,6,0,L|16:84,1,85.4999973907472,0|2,1:2|1:2,0:0:0:0:
207,142,46719,2,0,L|222:58,1,85.4999973907472,0|2,1:2|1:2,0:0:0:0:
75,236,47050,2,0,L|61:152,1,85.4999973907472,0|2,1:2|1:2,0:0:0:0:
190,275,47382,2,0,P|247:246|321:273,1,128.249996086121,0|0,1:2|0:0,0:0:0:0:
333,280,47713,5,0,1:2:0:0:
454,216,47879,1,8,0:2:0:0:
441,297,48045,5,0,1:2:0:0:
346,159,48211,1,8,0:2:0:0:
430,139,48376,5,0,1:2:0:0:
269,248,48542,1,8,0:2:0:0:
261,167,48708,5,0,1:2:0:0:
386,353,48874,1,8,0:2:0:0:
441,297,49039,5,0,1:2:0:0:
218,331,49205,1,8,0:2:0:0:
38,133,49371,5,0,1:2:0:0:
261,167,49537,1,10,0:2:0:0:
117,72,49702,5,2,1:2:0:0:
89,313,49868,1,8,0:2:0:0:
18,250,50034,5,2,1:2:0:0:
203,67,50200,1,10,0:2:0:0:
177,274,50365,5,8,0:2:0:0:
211,298,50447,1,0,1:2:0:0:
253,306,50530,1,0,1:2:0:0:
294,295,50613,1,0,1:2:0:0:
328,269,50697,2,0,L|303:202,1,42.7499986953736,0|0,1:2|1:2,0:0:0:0:
121,43,50863,5,8,0:2:0:0:
117,72,50945,1,0,1:2:0:0:
113,103,51028,1,0,1:2:0:0:
111,133,51111,1,0,1:2:0:0:
107,163,51194,2,0,L|102:215,1,42.7499986953736,0|0,1:2|1:2,0:0:0:0:
68,339,51360,5,8,0:0:0:0:
51,333,51443,1,8,0:0:0:0:
51,316,51525,1,8,0:0:0:0:
68,311,51608,1,8,0:0:0:0:
78,325,51691,1,8,0:0:0:0:
308,106,52023,6,0,L|302:133,1,25.3333333333333,2|0,0:1|0:0,0:0:0:0:
308,106,52520,6,0,L|303:131,1,24.2250001478577,2|0,0:0|0:0,0:0:0:0:
378,78,52851,6,0,B|316:105|276:50|287:32|246:-4|173:33,1,209.000006378174,6|2,1:2|1:2,0:0:0:0:
15,229,53349,2,0,P|68:229|115:177,1,104.500003189087,8|2,0:2|0:2,0:0:0:0:
56,28,53680,1,2,1:2:0:0:
56,28,53846,1,2,1:2:0:0:
215,177,54012,5,10,0:2:0:0:
188,278,54177,2,0,L|219:159,1,104.500003189087,2|0,1:2|0:0,0:0:0:0:
377,350,54509,2,0,L|347:236,1,104.500003189087,2|8,1:2|0:2,0:0:0:0:
390,31,54840,1,2,0:2:0:0:
501,182,55006,1,0,1:2:0:0:
292,111,55172,1,2,1:2:0:0:
503,59,55338,1,8,0:2:0:0:
411,141,55503,1,10,0:2:0:0:
308,228,55669,6,0,B|228:219|228:219|152:165|242:71,1,209.000006378174,6|10,1:2|0:0,0:0:0:0:
212,107,56166,1,2,0:2:0:0:
469,37,56332,2,0,P|428:9|367:12,1,104.500003189087,0|2,1:2|1:2,0:0:0:0:
308,228,56664,1,8,0:0:0:0:
251,18,56829,6,0,B|168:33|168:33|134:69|134:69|50:91,1,209.000006378174,2|0,1:2|1:0,0:0:0:0:
325,125,57327,2,0,B|371:133|371:133|385:142|385:142|430:153,1,104.500003189087,8|2,0:0|0:2,0:0:0:0:
206,304,57658,1,2,1:2:0:0:
425,151,57824,2,0,B|386:142|386:142|372:133|372:133|326:125,1,104.500003189087,0|8,1:2|0:0,0:0:0:0:
463,296,58155,1,10,0:0:0:0:
490,95,58321,6,0,P|459:173|465:301,1,209.000006378174,4|10,1:2|0:0,0:0:0:0:
498,183,58818,1,2,0:0:0:0:
370,234,58984,1,2,1:2:0:0:
314,374,59150,1,0,1:2:0:0:
463,296,59316,1,10,0:0:0:0:
239,290,59481,6,0,B|153:249|95:290|95:290|118:305|155:275,1,209.000006378174,2|0,1:2|1:0,0:0:0:0:
229,170,59979,2,0,P|285:185|352:202,1,104.500003189087,10|0,0:0|0:0,0:0:0:0:
119,35,60310,2,0,P|68:47|18:61,1,104.500003189087,2|0,1:2|1:0,0:0:0:0:
66,205,60642,1,10,0:0:0:0:
164,119,60807,1,8,0:0:0:0:
252,30,60973,6,0,L|364:60,1,104.500003189087,6|2,1:2|1:2,0:0:0:0:
158,290,61304,1,2,1:2:0:0:
346,63,61470,6,0,L|246:36,1,104.500003189087,8|0,0:2|1:2,0:0:0:0:
465,303,61802,1,8,0:0:0:0:
466,276,61884,1,8,0:0:0:0:
467,250,61967,1,10,0:2:0:0:
501,177,62133,6,0,B|441:148|400:196|404:198|408:200|386:263|298:235,1,209.000006378174,6|0,1:2|1:2,0:0:0:0:
109,361,62630,1,8,0:0:0:0:
225,282,62796,1,2,0:0:0:0:
18,207,62962,1,8,0:0:0:0:
208,363,63128,5,8,0:3:0:0:
259,360,63210,1,8,0:0:0:0:
299,328,63293,1,8,0:0:0:0:
313,279,63376,1,8,0:0:0:0:
296,230,63459,1,10,0:0:0:0:
253,201,63542,1,8,0:0:0:0:
201,201,63625,6,0,B|311:175|275:292|429:235,1,209.000006378174,6|10,1:2|0:2,0:0:0:0:
312,66,64122,2,0,P|352:102|342:183,1,104.500003189087,2|0,0:2|1:2,0:0:0:0:
180,296,64454,1,2,1:2:0:0:
180,296,64619,1,8,0:2:0:0:
80,117,64785,2,0,B|162:96|162:96|238:140|187:233,1,209.000006378174,2|0,1:2|1:0,0:0:0:0:
87,384,65282,6,0,P|63:336|78:284,1,104.500003189087,10|0,0:2|0:0,0:0:0:0:
283,218,65614,1,0,1:2:0:0:
371,266,65780,1,0,1:2:0:0:
458,308,65945,1,10,0:2:0:0:
295,372,66111,1,8,0:2:0:0:
487,235,66277,6,0,P|483:135|489:9,1,209.000006378174,2|2,1:2|1:2,0:0:0:0:
352,223,66774,2,0,P|300:231|243:189,1,104.500003189087,10|0,0:2|0:0,0:0:0:0:
377,15,67106,2,0,P|368:64|365:144,1,104.500003189087,2|0,1:2|1:2,0:0:0:0:
261,311,67437,1,10,0:2:0:0:
217,59,67603,6,0,P|130:52|78:106,1,156.750004783631,2|0,0:0|0:0,0:0:0:0:
92,180,67934,2,0,P|140:166|215:158,1,104.500003189087,10|0,0:2|0:0,0:0:0:0:
340,66,68266,1,0,1:2:0:0:
340,66,68432,1,0,1:2:0:0:
355,269,68597,2,0,P|309:276|245:228,1,104.500003189087,10|8,0:2|0:2,0:0:0:0:
317,79,68929,5,6,1:2:0:0:
445,308,69095,1,0,0:0:0:0:
203,129,69260,5,10,0:2:0:0:
447,279,69426,1,0,1:2:0:0:
156,244,69592,5,8,0:2:0:0:
449,248,69758,1,0,1:2:0:0:
186,348,69923,5,8,0:2:0:0:
450,221,70089,1,0,1:2:0:0:
240,57,70255,5,8,0:2:0:0:
240,57,70338,1,0,1:2:0:0:
240,57,70421,2,0,L|167:81,1,52.2500015945435,0|0,1:2|1:2,0:0:0:0:
284,213,70586,5,2,1:2:0:0:
302,212,70668,1,0,1:2:0:0:
319,210,70751,1,0,1:2:0:0:
338,208,70834,1,0,1:2:0:0:
356,206,70918,5,10,0:2:0:0:
404,221,71000,1,8,0:2:0:0:
432,265,71083,1,8,0:2:0:0:
426,315,71166,1,8,0:2:0:0:
389,351,71249,2,0,L|305:333,1,52.2500015945435,10|8,0:2|0:2,0:0:0:0:
174,248,71415,2,0,L|89:266,1,52.2500015945435,8|8,0:2|0:2,0:0:0:0:
254,365,71581,5,4,1:2:0:0:
260,203,71746,1,2,0:2:0:0:
220,177,71829,1,2,0:2:0:0:
215,131,71912,1,10,0:2:0:0:
248,97,71995,1,2,0:2:0:0:
295,102,72078,1,2,0:2:0:0:
320,143,72161,1,2,0:2:0:0:
305,187,72244,2,0,L|420:196,1,104.500003189087,2|0,1:2|0:0,0:0:0:0:
490,203,72492,1,2,1:2:0:0:
490,203,72575,1,8,0:2:0:0:
335,17,72741,6,0,P|229:13|176:121,1,209.000006378174,0|2,1:2|1:2,0:0:0:0:
24,283,73238,1,8,0:2:0:0:
68,41,73404,2,0,P|82:88|106:170,1,104.500003189087,2|0,0:2|1:2,0:0:0:0:
304,195,73735,2,0,P|289:242|266:324,1,104.500003189087,2|8,1:2|0:2,0:0:0:0:
54,384,74067,2,0,P|39:333|24:283,1,104.500003189087,2|0,0:3|1:2,0:0:0:0:
144,189,74398,5,2,0:2:0:0:
193,171,74480,1,2,0:2:0:0:
244,171,74563,1,10,0:2:0:0:
270,189,74646,1,2,0:2:0:0:
290,205,74729,1,2,0:2:0:0:
341,206,74812,1,2,0:2:0:0:
392,192,74896,2,0,P|396:133|339:84,1,104.500003189087,2|0,1:2|0:0,0:0:0:0:
334,72,75144,1,2,1:2:0:0:
334,72,75227,1,8,0:2:0:0:
512,21,75393,6,0,P|504:66|492:201,1,156.750004783631,0|0,1:2|0:0,0:0:0:0:
512,257,75724,2,0,P|456:253|406:303,1,104.500003189087,2|8,1:2|0:2,0:0:0:0:
228,365,76056,2,0,P|276:369|344:378,1,104.500003189087,2|0,0:2|1:2,0:0:0:0:
164,188,76387,1,2,1:2:0:0:
116,357,76553,1,8,0:2:0:0:
116,357,76719,1,2,0:3:0:0:
247,233,76885,6,0,B|274:169|235:110|235:110|226:155,1,156.750004783631,4|0,1:2|0:0,0:0:0:0:
230,137,77216,2,0,P|279:137|338:95,1,104.500003189087,10|2,0:2|0:2,0:0:0:0:
499,24,77548,1,0,1:2:0:0:
499,156,77713,1,2,1:2:0:0:
378,234,77879,1,8,0:2:0:0:
406,21,78045,2,0,L|432:153,1,104.500003189087,2|0,1:2|0:0,0:0:0:0:
495,361,78376,5,2,1:2:0:0:
455,328,78458,1,2,0:2:0:0:
404,321,78541,1,10,0:2:0:0:
356,341,78624,1,2,0:2:0:0:
327,384,78708,5,2,0:2:0:0:
326,357,78790,1,2,0:2:0:0:
326,331,78873,1,2,1:2:0:0:
326,305,78956,1,2,0:2:0:0:
326,279,79039,2,0,L|372:250,1,52.2500015945435,2|2,1:2|0:2,0:0:0:0:
473,169,79205,2,0,L|427:140,1,52.2500015945435,10|0,0:2|0:0,0:0:0:0:
237,240,79371,1,2,0:3:0:0:
257,28,79537,6,0,B|242:108|242:108|255:136|255:136|238:253,1,209.000006378174,0|10,1:2|0:0,0:0:0:0:
257,28,80034,1,0,0:0:0:0:
381,182,80200,1,2,1:2:0:0:
371,150,80282,1,2,0:0:0:0:
460,57,80448,1,2,0:2:0:0:
450,89,80530,1,8,0:0:0:0:
496,255,80697,6,0,P|438:249|370:337,1,156.750004783631,2|0,1:2|0:0,0:0:0:0:
364,360,81028,1,2,1:2:0:0:
496,255,81194,1,10,0:0:0:0:
282,212,81360,1,2,0:0:0:0:
439,70,81525,6,0,P|428:119|419:192,1,104.500003189087,10|8,0:0|0:3,0:0:0:0:
420,172,81774,1,8,0:3:0:0:
420,172,81857,1,8,0:0:0:0:
268,20,82023,1,8,0:0:0:0:
296,40,82105,1,8,0:0:0:0:
298,73,82188,2,0,L|115:96,1,156.750004783631,6|0,1:2|0:0,0:0:0:0:
106,75,82520,5,10,0:2:0:0:
232,311,82686,1,2,1:2:0:0:
41,151,82851,5,8,0:2:0:0:
234,281,83017,1,0,1:2:0:0:
19,268,83183,5,10,0:2:0:0:
235,247,83349,1,2,1:2:0:0:
35,361,83514,5,10,0:2:0:0:
234,219,83680,1,0,1:2:0:0:
144,384,83846,5,8,0:2:0:0:
232,189,84012,1,2,1:2:0:0:
304,364,84177,1,0,1:2:0:0:
126,223,84343,1,10,0:2:0:0:
342,155,84509,5,2,1:2:0:0:
380,148,84591,1,0,1:2:0:0:
416,164,84674,1,10,0:2:0:0:
437,197,84757,1,10,0:2:0:0:
436,236,84840,2,0,L|450:47,1,156.750004783631,6|0,1:2|0:0,0:0:0:0:
431,41,85172,5,10,0:2:0:0:
173,157,85338,1,2,1:2:0:0:
349,250,85503,5,8,0:2:0:0:
144,146,85669,1,0,1:2:0:0:
342,14,85835,5,10,0:2:0:0:
106,139,86001,1,2,1:2:0:0:
216,25,86166,5,2,1:2:0:0:
216,25,86249,1,0,1:2:0:0:
216,25,86332,2,0,L|234:104,1,52.2500015945435,0|0,1:2|1:2,0:0:0:0:
266,188,86498,5,0,1:2:0:0:
264,206,86580,1,0,1:2:0:0:
262,225,86663,1,0,1:2:0:0:
260,244,86746,1,0,1:2:0:0:
258,263,86829,5,8,0:2:0:0:
214,289,86911,1,8,0:2:0:0:
162,285,86994,1,10,0:2:0:0:
124,251,87077,1,8,0:2:0:0:
113,201,87161,2,0,L|198:174,1,52.2500015945435,8|8,0:2|0:2,0:0:0:0:
320,135,87327,5,2,0:2:0:0:
430,282,92630,5,2,0:0:0:0:
440,357,92796,6,0,L|428:268,1,76,2|0,1:2|0:0,0:0:0:0:
386,164,93128,6,0,P|359:172|340:193,3,38,2|0|2|0,1:2|1:2|1:2|1:2,0:0:0:0:
287,264,93459,2,0,P|260:256|239:241,3,38,2|0|2|0,1:2|1:2|1:2|1:2,0:0:0:0:
177,165,93791,5,2,1:2:0:0:
177,165,93874,1,0,1:2:0:0:
177,165,93956,1,2,1:2:0:0:
177,165,94039,1,0,1:2:0:0:
177,165,94122,5,0,1:2:0:0:
157,163,94204,1,0,1:2:0:0:
137,162,94287,1,0,1:2:0:0:
117,161,94370,1,0,1:2:0:0:
97,160,94455,5,2,1:2:0:0:
75,129,94537,1,0,1:2:0:0:
73,91,94620,1,0,1:2:0:0:
90,58,94703,1,0,1:2:0:0:
122,38,94785,5,2,1:2:0:0:
159,45,94867,1,0,1:2:0:0:
197,53,94950,1,0,1:2:0:0:
234,60,95033,1,0,1:2:0:0:
271,67,95116,5,10,0:2:0:0:
480,100,95282,1,8,0:3:0:0:
401,18,95448,5,6,1:2:0:0:
455,284,95614,1,2,1:2:0:0:
455,284,95780,1,2,1:2:0:0:
271,67,95945,5,8,0:0:0:0:
499,209,96111,1,0,1:2:0:0:
331,272,96277,1,8,0:0:0:0:
335,234,96359,1,8,0:0:0:0:
339,196,96442,1,2,1:2:0:0:
347,117,96608,6,0,B|207:103|207:103|185:139|146:150,1,209.000006378174,6|0,1:2|1:0,0:0:0:0:
7,35,97106,2,0,P|55:29|131:14,1,104.500003189087,8|2,0:0|0:0,0:0:0:0:
35,158,97437,5,10,0:0:0:0:
64,178,97519,1,8,0:0:0:0:
80,211,97602,1,8,0:0:0:0:
76,247,97685,1,8,0:0:0:0:
55,256,97769,5,8,0:0:0:0:
32,283,97851,1,8,0:0:0:0:
27,319,97934,1,10,0:0:0:0:
43,352,98017,1,8,0:0:0:0:
52,357,98100,6,0,P|258:331|263:331,1,209.000006378174,6|10,1:2|0:2,0:0:0:0:
471,237,98597,2,0,P|459:287|457:367,1,104.500003189087,2|0,0:2|1:2,0:0:0:0:
300,130,98929,2,0,P|312:180|314:260,1,104.500003189087,2|8,1:2|0:2,0:0:0:0:
463,99,99260,2,0,P|401:25|296:44,1,209.000006378174,2|0,1:2|1:0,0:0:0:0:
147,159,99758,5,10,0:2:0:0:
368,134,99923,1,0,0:0:0:0:
191,54,100089,1,0,1:2:0:0:
195,257,100255,1,0,1:2:0:0:
284,134,100421,1,10,0:2:0:0:
284,134,100586,1,8,0:2:0:0:
139,350,100752,6,0,B|100:257|100:257|151:152,1,209.000006378174,2|2,1:2|1:2,0:0:0:0:
350,338,101249,2,0,P|307:366|256:362,1,104.500003189087,10|0,0:2|0:0,0:0:0:0:
383,90,101581,1,2,1:2:0:0:
467,361,101746,1,0,1:2:0:0:
299,176,101912,6,0,B|278:131|221:120|163:161|214:225|75:194,1,209.000006378174,10|0,0:2|1:0,0:0:0:0:
293,22,102409,2,0,P|346:29|420:43,1,104.500003189087,10|0,0:2|0:0,0:0:0:0:
247,233,102741,1,0,1:2:0:0:
247,233,102907,1,0,1:2:0:0:
142,18,103072,2,0,P|135:66|126:136,1,104.500003189087,10|8,0:2|0:2,0:0:0:0:
117,345,103404,5,6,1:2:0:0:
375,229,103570,1,0,0:0:0:0:
199,136,103735,5,10,0:2:0:0:
405,237,103901,1,2,1:2:0:0:
206,372,104067,5,8,0:2:0:0:
438,245,104233,1,0,1:2:0:0:
314,82,104398,5,10,0:2:0:0:
371,353,104564,1,2,1:2:0:0:
412,62,104730,5,8,0:2:0:0:
279,303,104896,1,0,1:2:0:0:
483,313,105061,1,8,0:2:0:0:
356,183,105227,1,8,0:2:0:0:
0,384,105559,5,8,0:2:0:0:
0,243,105724,5,0,1:2:0:0:
32,203,105806,1,0,1:2:0:0:
80,183,105889,1,8,1:2:0:0:
132,187,105972,1,0,1:2:0:0:
175,216,106055,5,6,1:2:0:0:
123,384,106222,1,0,0:0:0:0:
244,282,106387,5,10,0:2:0:0:
206,89,106554,1,2,1:2:0:0:
312,191,106719,5,10,0:2:0:0:
274,384,106886,1,2,1:2:0:0:
397,244,107050,5,10,0:2:0:0:
359,51,107217,1,2,1:2:0:0:
198,298,107382,5,10,0:2:0:0:
177,295,107464,1,0,1:2:0:0:
157,291,107547,1,0,1:2:0:0:
137,287,107630,1,0,1:2:0:0:
117,283,107714,5,8,0:2:0:0:
71,260,107796,1,0,1:2:0:0:
48,214,107879,1,0,1:2:0:0:
57,163,107962,1,0,1:2:0:0:
95,128,108045,6,0,P|121:116|161:127,3,52.2500015945435,8|0|0|0,0:2|1:2|1:2|1:2,0:0:0:0:
288,176,108376,1,8,0:2:0:0:
288,176,108459,1,8,0:2:0:0:
288,176,108542,1,8,0:2:0:0:
288,176,108625,1,8,0:2:0:0:
288,176,108708,6,0,P|265:214|215:238,1,76,6|2,1:2|0:2,0:0:0:0:
288,176,109039,1,2,0:2:0:0:
437,295,109205,6,0,P|406:273|388:240,1,76,2|2,0:2|0:2,0:0:0:0:
437,295,109537,1,2,0:2:0:0:
387,111,109702,6,0,L|478:85,1,76,2|2,0:2|0:2,0:0:0:0:
390,114,110034,1,2,0:2:0:0:
285,173,110200,6,0,L|194:147,1,76,0|2,0:0|0:2,0:0:0:0:
288,176,110532,1,2,0:2:0:0:
393,240,110697,6,0,L|484:214,1,76,2|2,0:2|0:2,0:0:0:0:
393,240,111029,1,2,0:2:0:0:
12,259,111360,6,0,L|26:345,1,76,2|2,0:2|0:2,0:0:0:0:
12,259,111691,1,2,0:2:0:0:
109,176,111857,6,0,L|123:90,1,76,2|2,0:2|0:2,0:0:0:0:
109,176,112188,1,2,0:2:0:0:
217,0,112354,6,0,L|231:86,1,76,2|2,0:2|0:2,0:0:0:0:
217,0,112685,1,2,0:2:0:0:
334,169,112851,6,0,L|348:83,1,76,2|2,0:2|0:2,0:0:0:0:
334,169,113182,1,8,0:3:0:0:
334,169,113266,1,8,0:3:0:0:
334,169,113349,1,8,0:0:0:0:
468,270,113514,1,8,0:0:0:0:
250,316,113680,1,8,0:0:0:0:
459,179,113846,1,8,0:0:0:0:
