osu file format v14

[General]
AudioFilename: audio.mp3
AudioLeadIn: 0
PreviewTime: 52229
Countdown: 1
SampleSet: Soft
StackLeniency: 0.6
Mode: 0
LetterboxInBreaks: 0
WidescreenStoryboard: 1

[Editor]
DistanceSpacing: 1
BeatDivisor: 4
GridSize: 32
TimelineZoom: 1.6

[Metadata]
Title:Four Leaves
TitleUnicode:Four Leaves
Artist:Endorfin.
ArtistUnicode:Endorfin.
Creator:Erisu
Version:Expert
Source:SOUND VOLTEX IV HEAVENLY HAVEN
Tags:sdvx 4th sdvx4 konami bemani 藍月なくる aitsuki nakuru sky_delta sky delta Alt.Strato hvick225 didah shikibe mayu kazato asa shizuku- lanzhu mayuzumi fuyuko video game vgm pop jpop j-pop japanese
BeatmapID:3617289
BeatmapSetID:1576274

[Difficulty]
HPDrainRate:5.5
CircleSize:4
OverallDifficulty:8.8
ApproachRate:9.2
SliderMultiplier:1.8
SliderTickRate:1

[Events]
//Background and Video events
0,0,"image.jpg",0,0
//Break Periods
2,87527,92226
//Storyboard Layer 0 (Background)
//Storyboard Layer 1 (Fail)
//Storyboard Layer 2 (Pass)
//Storyboard Layer 3 (Foreground)
//Storyboard Layer 4 (Overlay)
//Storyboard Sound Samples

[TimingPoints]
1305,331.491712707182,4,2,1,50,1,0
1305,-142.857142857143,4,2,1,50,0,0
3790,-142.857142857143,4,2,1,50,0,0
3956,-142.857142857143,4,2,1,50,0,0
5448,-142.857142857143,4,2,1,50,0,0
5614,-142.857142857143,4,2,1,50,0,0
7934,-142.857142857143,4,2,1,40,0,0
8266,-142.857142857143,4,2,1,50,0,0
8597,-100,4,2,1,60,0,0
9260,-100,4,2,1,70,0,0
10255,-125,4,2,1,70,0,0
10503,-125,4,2,1,40,0,0
11581,-125,4,2,1,60,0,0
13072,-125,4,2,1,40,0,0
14066,-125,4,2,1,40,0,0
14233,-125,4,2,1,40,0,0
14729,-125,4,2,1,40,0,0
14896,-125,4,2,1,40,0,0
15641,-125,4,2,1,40,0,0
15724,-125,4,2,1,40,0,0
16055,-125,4,2,1,40,0,0
16222,-125,4,2,1,40,0,0
16718,-125,4,2,1,40,0,0
16885,-125,4,2,1,40,0,0
20696,-125,4,2,1,40,0,0
20863,-125,4,2,1,40,0,0
22520,-125,4,2,1,50,0,0
23680,-111.111111111111,4,2,1,60,0,0
24011,-111.111111111111,4,2,1,60,0,0
24177,-111.111111111111,4,2,1,60,0,0
25337,-111.111111111111,4,2,1,60,0,0
25503,-111.111111111111,4,2,1,60,0,0
30641,-111.111111111111,4,2,1,60,0,0
30807,-111.111111111111,4,2,1,60,0,0
31304,-111.111111111111,4,2,1,60,0,0
31470,-111.111111111111,4,2,1,60,0,0
33210,-111.111111111111,4,2,1,60,0,0
33293,-111.111111111111,4,2,1,60,0,0
34454,-142.857142857143,4,2,1,50,0,0
42409,-125,4,2,1,60,0,0
43901,-142.857142857143,4,2,1,50,0,0
44067,-142.857142857143,4,2,1,50,0,0
45061,-111.111111111111,4,2,1,60,0,0
47630,-111.111111111111,4,2,1,60,0,0
47713,-111.111111111111,4,2,1,70,0,0
52023,-125,4,2,1,70,0,0
52078,-111.111111111111,4,2,1,70,0,0
52768,-625,4,2,1,30,0,0
52851,-90.9090909090909,4,2,1,80,0,1
57160,-90.9090909090909,4,2,1,80,0,1
57327,-90.9090909090909,4,2,1,80,0,1
59812,-90.9090909090909,4,2,1,80,0,1
59979,-90.9090909090909,4,2,1,80,0,1
60144,-90.9090909090909,4,2,1,80,0,1
60310,-90.9090909090909,4,2,1,80,0,1
60475,-90.9090909090909,4,2,1,80,0,1
60642,-90.9090909090909,4,2,1,80,0,1
62464,-90.9090909090909,4,2,1,80,0,1
62630,-90.9090909090909,4,2,1,80,0,1
65116,-90.9090909090909,4,2,1,80,0,1
65282,-90.9090909090909,4,2,1,80,0,1
65447,-90.9090909090909,4,2,1,80,0,1
65614,-90.9090909090909,4,2,1,80,0,1
67851,-90.9090909090909,4,2,1,80,0,1
67934,-90.9090909090909,4,2,1,80,0,1
68099,-90.9090909090909,4,2,1,80,0,1
68266,-90.9090909090909,4,2,1,80,0,1
72409,-90.9090909090909,4,2,1,80,0,1
72492,-90.9090909090909,4,2,1,80,0,1
75061,-90.9090909090909,4,2,1,80,0,1
75144,-90.9090909090909,4,2,1,80,0,1
75641,-90.9090909090909,4,2,1,80,0,1
75724,-90.9090909090909,4,2,1,80,0,1
77133,-90.9090909090909,4,2,1,80,0,1
77216,-90.9090909090909,4,2,1,80,0,1
80945,-90.9090909090909,4,2,1,80,0,1
81028,-90.9090909090909,4,2,1,80,0,1
82436,-90.9090909090909,4,2,1,80,0,1
82520,-90.9090909090909,4,2,1,80,0,1
85088,-90.9090909090909,4,2,1,80,0,1
85172,-90.9090909090909,4,2,1,80,0,1
87327,-125,4,2,1,70,0,0
92961,-125,4,2,1,70,0,0
93128,-125,4,2,1,70,0,0
95448,-90.9090909090909,4,2,1,80,0,1
96939,-90.9090909090909,4,2,1,80,0,1
97106,-90.9090909090909,4,2,1,80,0,1
99591,-90.9090909090909,4,2,1,80,0,1
99758,-90.9090909090909,4,2,1,80,0,1
102243,-90.9090909090909,4,2,1,80,0,1
102409,-90.9090909090909,4,2,1,80,0,1
102574,-90.9090909090909,4,2,1,80,0,1
102741,-90.9090909090909,4,2,1,80,0,1
108708,-125,4,2,1,60,0,0

[Colours]
Combo1 : 192,192,192
Combo2 : 255,128,128
Combo3 : 168,207,255

[HitObjects]
162,306,1305,6,0,B|102:305|114:260|42:255,1,125.999996154785,6|0,1:2|0:0,0:0:0:0:
113,101,1802,1,0,1:0:0:0:
113,101,1885,1,0,1:0:0:0:
113,101,1967,1,0,1:0:0:0:
171,150,2133,1,0,1:0:0:0:
159,225,2299,1,2,0:2:0:0:
113,101,2465,6,0,P|190:113|266:128,1,125.999996154785,0|0,1:0|0:0,0:0:0:0:
237,121,2962,1,0,0:0:0:0:
391,51,3128,2,0,L|335:60,1,31.4999990386963,0|0,1:0|0:0,0:0:0:0:
286,21,3293,1,2,1:2:0:0:
346,134,3459,1,0,1:0:0:0:
292,255,3625,1,0,0:0:0:0:
284,258,3956,6,0,P|346:265|428:293,1,125.999996154785,6|0,1:2|0:0,0:0:0:0:
489,127,4454,1,0,1:0:0:0:
489,127,4537,1,0,1:0:0:0:
489,127,4619,2,0,P|450:132|426:168,1,62.9999980773926,0|0,1:0|0:0,0:0:0:0:
456,252,4951,1,0,1:0:0:0:
331,370,5117,2,0,L|341:300,1,62.9999980773926,8|0,0:0|0:0,0:0:0:0:
243,167,5448,5,0,0:0:0:0:
331,144,5614,1,0,1:0:0:0:
247,292,5780,1,0,1:0:0:0:
202,282,5863,1,0,1:0:0:0:
159,269,5946,1,0,1:0:0:0:
75,252,6111,1,0,1:0:0:0:
105,167,6277,1,0,1:0:0:0:
44,348,6443,1,0,1:0:0:0:
106,167,6608,6,0,P|106:134|76:103,1,62.9999980773926,2|2,0:2|0:2,0:0:0:0:
27,63,6940,1,2,0:2:0:0:
190,185,7106,6,0,P|218:168|230:127,1,62.9999980773926,2|2,1:2|1:2,0:0:0:0:
241,63,7438,1,0,0:2:0:0:
125,254,7603,6,0,P|141:282|182:294,1,62.9999980773926,0|0,1:2|1:2,0:0:0:0:
247,305,7935,1,0,1:0:0:0:
310,229,8100,5,0,1:0:0:0:
310,229,8183,1,0,1:0:0:0:
310,229,8266,2,0,L|359:240,3,31.4999990386963,0|0|0|0,1:0|1:0|1:0|1:0,0:0:0:0:
421,314,8597,2,0,P|428:286|437:253,1,45,8|8,0:0|0:0,0:0:0:0:
493,202,8763,2,0,P|486:174|477:141,1,45,8|8,0:0|0:0,0:0:0:0:
442,26,8929,1,8,0:0:0:0:
398,19,9011,1,8,0:0:0:0:
358,40,9094,1,8,0:0:0:0:
339,79,9177,1,8,0:0:0:0:
346,123,9260,5,4,1:2:0:0:
223,322,9426,1,0,1:0:0:0:
223,322,9592,1,0,1:0:0:0:
156,105,9758,5,4,1:2:0:0:
338,267,9923,1,0,1:0:0:0:
156,105,10089,1,8,0:0:0:0:
156,105,10172,1,8,0:0:0:0:
156,105,10255,2,0,P|98:129|92:223,1,144,8|0,0:0|0:0,0:0:0:0:
29,263,10752,5,0,1:0:0:0:
164,227,10918,1,0,1:0:0:0:
183,244,11084,5,0,1:0:0:0:
337,288,11249,1,0,1:0:0:0:
250,340,11415,5,0,1:0:0:0:
303,188,11581,1,8,0:0:0:0:
316,171,11746,5,8,0:0:0:0:
263,19,11912,1,8,0:0:0:0:
227,101,12078,5,8,0:0:0:0:
402,54,12244,1,8,0:0:0:0:
485,113,12409,5,0,1:0:0:0:
485,113,12492,1,0,0:0:0:0:
485,113,12575,1,8,0:0:0:0:
479,148,12657,1,8,0:0:0:0:
473,184,12740,1,8,0:0:0:0:
468,219,12823,1,8,0:0:0:0:
462,255,12907,2,0,L|453:306,1,36,8|8,0:3|0:3,0:0:0:0:
441,362,13072,6,0,P|406:293|277:314,1,216,4|0,1:2|0:0,0:0:0:0:
203,357,13735,2,0,P|165:358|123:369,2,72,2|2|0,0:0|0:0|0:0,0:0:0:0:
150,233,14233,1,2,0:2:0:0:
150,233,14398,2,0,P|79:234|39:314,1,144,2|0,0:2|0:0,0:0:0:0:
234,239,14896,1,2,0:2:0:0:
234,239,15061,2,0,P|254:204|254:163,1,72,2|0,0:2|0:0,0:0:0:0:
201,34,15393,1,2,0:2:0:0:
145,119,15559,1,0,0:0:0:0:
38,28,15724,1,2,0:2:0:0:
38,28,15807,1,0,0:0:0:0:
38,28,15890,6,0,P|110:34|198:52,1,144,0|2,0:0|0:2,0:0:0:0:
372,89,16387,1,2,0:2:0:0:
341,11,16553,2,0,P|297:42|310:146,1,144,0|2,0:0|0:2,0:0:0:0:
371,216,17050,2,0,P|361:250|351:301,1,72,2|0,0:2|0:0,0:0:0:0:
238,376,17382,2,0,P|230:340|220:306,1,72
143,226,17713,1,2,0:2:0:0:
25,362,17879,2,0,P|34:306|64:213,1,144,2|2,0:2|0:2,0:0:0:0:
191,85,18376,1,2,0:2:0:0:
198,177,18542,6,0,B|175:165|139:158|139:158|123:141|123:141|85:140|67:126,1,144,2|0,0:0|0:0,0:0:0:0:
214,64,19039,2,0,B|295:71|270:110|356:111,1,144,2|0,0:0|0:0,0:0:0:0:
477,59,19537,1,2,0:0:0:0:
438,130,19702,2,0,P|428:193|417:273,1,144,2|0,0:0|0:0,0:0:0:0:
271,354,20200,1,2,0:2:0:0:
213,297,20365,2,0,P|274:321|355:335,1,144,2|0,0:2|0:0,0:0:0:0:
225,216,20863,2,0,P|185:217|149:239,1,72,2|2,1:2|1:2,0:0:0:0:
51,341,21194,6,0,L|34:283,3,36,4|0|0|0,1:2|1:2|1:2|1:2,0:0:0:0:
63,228,21525,2,0,L|80:170,3,36,0|0|0|0,1:2|1:2|1:2|1:2,0:0:0:0:
22,114,21857,1,0,1:2:0:0:
22,114,21940,1,0,1:2:0:0:
22,114,22023,2,0,L|86:99,1,36,2|0,1:2|1:2,0:0:0:0:
138,56,22188,1,2,1:2:0:0:
138,56,22271,1,0,1:2:0:0:
138,56,22354,2,0,L|202:71,1,36,2|0,1:2|1:2,0:0:0:0:
293,112,22520,5,10,0:2:0:0:
293,112,22603,1,8,0:2:0:0:
293,112,22686,1,8,0:2:0:0:
293,112,22769,1,8,0:2:0:0:
293,112,22851,6,0,L|277:160,1,36,8|8,0:2|0:2,0:0:0:0:
415,155,23017,2,0,L|367:139,1,36,10|8,0:2|0:2,0:0:0:0:
357,269,23183,2,0,L|373:220,1,36,10|8,0:2|0:2,0:0:0:0:
258,232,23349,1,8,0:2:0:0:
223,225,23431,1,8,0:2:0:0:
189,237,23514,1,8,0:2:0:0:
167,265,23597,1,8,0:2:0:0:
161,300,23680,6,0,B|113:282|20:273|21:273,1,121.499996292114,4|0,1:2|0:0,0:0:0:0:
2,262,24012,1,0,1:0:0:0:
95,105,24177,1,8,0:2:0:0:
95,105,24343,2,0,P|110:201|110:202,1,80.9999975280763,2|0,0:2|1:2,0:0:0:0:
247,84,24675,1,0,1:2:0:0:
174,45,24840,1,10,0:2:0:0:
244,183,25006,6,0,P|304:163|408:154,1,161.999995056153,2|0,1:2|1:0,0:0:0:0:
336,253,25503,1,10,0:2:0:0:
461,347,25669,2,0,P|465:305|476:259,1,80.9999975280763,2|0,0:2|1:2,0:0:0:0:
296,338,26001,2,0,P|337:342|400:362,1,80.9999975280763,2|8,1:2|0:2,0:0:0:0:
235,270,26332,1,2,1:2:0:0:
235,270,26415,1,0,1:0:0:0:
235,270,26498,6,0,B|155:274|157:333|80:327,1,161.999995056153,4|10,1:2|0:2,0:0:0:0:
26,207,26995,1,2,0:2:0:0:
106,162,27161,1,0,1:2:0:0:
111,251,27327,1,0,1:2:0:0:
18,98,27492,1,10,0:2:0:0:
18,98,27658,6,0,P|56:91|196:74,1,161.999995056153,2|2,1:2|1:2,0:0:0:0:
356,171,28155,1,8,0:2:0:0:
298,56,28321,1,2,0:2:0:0:
356,171,28487,1,2,1:2:0:0:
257,184,28653,1,8,0:3:0:0:
257,184,28735,1,8,0:3:0:0:
257,184,28818,1,10,0:2:0:0:
406,90,28984,1,10,0:2:0:0:
256,182,29150,6,0,P|275:245|289:346,2,161.999995056153,4|8|0,1:2|0:2|1:2,0:0:0:0:
406,327,29979,1,0,1:2:0:0:
406,327,30144,1,10,0:2:0:0:
465,265,30310,6,0,P|465:184|492:91,1,161.999995056153,2|0,1:2|1:0,0:0:0:0:
331,21,30807,1,10,0:2:0:0:
242,47,30973,2,0,P|339:61|423:84,1,161.999995056153,2|0,0:2|1:0,0:0:0:0:
239,192,31470,1,10,0:2:0:0:
134,54,31636,1,10,0:2:0:0:
18,181,31802,6,0,B|1:100|65:121|53:25,2,161.999995056153,2|8|0,1:2|0:2|1:2,0:0:0:0:
100,327,32630,1,0,1:2:0:0:
30,276,32796,1,10,0:2:0:0:
30,276,32962,6,0,P|88:247|172:268,1,121.499996292114,2|0,1:2|0:0,0:0:0:0:
171,273,33293,2,0,P|213:278|259:296,1,80.9999975280763,2|8,1:2|0:2,0:0:0:0:
253,106,33625,2,0,P|227:139|189:170,1,80.9999975280763,2|8,0:2|0:2,0:0:0:0:
358,230,33956,2,0,P|341:191|333:142,1,80.9999975280763,10|8,0:2|0:2,0:0:0:0:
365,81,34205,1,8,0:2:0:0:
365,81,34288,2,0,L|428:96,1,40.4999987640381,10|8,0:2|0:2,0:0:0:0:
456,161,34454,6,0,P|487:117|463:42,2,125.999996154785,4|0|8,1:2|1:0|0:0,0:0:0:0:
486,276,35282,1,0,0:0:0:0:
486,276,35448,2,0,B|419:283|419:323|345:327,1,125.999996154785,4|0,1:2|1:0,0:0:0:0:
370,323,35945,1,0,0:0:0:0:
208,238,36111,5,8,0:0:0:0:
302,203,36277,1,10,0:0:0:0:
239,357,36443,1,2,0:0:0:0:
126,300,36608,2,0,L|141:240,1,31.4999990386963,0|0,1:0|1:0,0:0:0:0:
161,177,36774,1,10,0:0:0:0:
27,319,36940,1,2,0:0:0:0:
161,177,37106,6,0,P|115:135|53:134,2,125.999996154785,4|0|8,1:2|1:2|0:2,0:0:0:0:
302,57,37934,1,0,0:0:0:0:
302,57,38100,2,0,P|237:64|166:81,1,125.999996154785,4|0,1:2|1:2,0:0:0:0:
177,77,38597,1,0,0:0:0:0:
287,186,38763,5,8,0:2:0:0:
451,114,38929,2,0,L|361:127,1,62.9999980773926,10|2,0:2|0:2,0:0:0:0:
451,285,39260,1,0,1:2:0:0:
451,285,39343,1,0,1:2:0:0:
451,285,39426,1,8,0:2:0:0:
488,209,39592,1,2,0:2:0:0:
370,224,39758,6,0,P|301:232|268:301,1,125.999996154785,4|0,1:2|0:0,0:0:0:0:
164,351,40255,1,0,1:2:0:0:
164,351,40421,2,0,L|246:368,1,62.9999980773926,8|0,0:2|0:0,0:0:0:0:
145,234,40752,1,2,0:2:0:0:
67,332,40918,6,0,P|63:269|50:189,1,125.999996154785,2|8,1:2|0:2,0:0:0:0:
42,72,41415,1,2,0:2:0:0:
146,43,41581,1,0,1:2:0:0:
265,139,41746,1,8,0:2:0:0:
160,145,41912,1,0,1:2:0:0:
160,145,41995,1,0,1:2:0:0:
160,145,42078,1,10,0:2:0:0:
268,38,42244,1,8,0:3:0:0:
408,57,42409,6,0,P|401:89|394:144,1,72,14|0,1:2|1:2,0:0:0:0:
231,358,42741,1,0,1:2:0:0:
461,235,42907,6,0,L|361:248,1,72,10|0,0:2|1:2,0:0:0:0:
120,288,43238,1,8,0:2:0:0:
120,288,43321,1,8,0:2:0:0:
120,288,43404,2,0,P|79:240|95:139,1,144,10|0,0:2|0:0,0:0:0:0:
177,92,43901,5,0,1:0:0:0:
281,207,44067,2,0,L|199:194,1,62.9999980773926,8|0,0:2|1:2,0:0:0:0:
230,299,44316,1,0,0:0:0:0:
230,299,44398,2,0,L|312:286,1,62.9999980773926,10|0,0:2|1:2,0:0:0:0:
309,287,44647,1,0,1:2:0:0:
325,286,44730,1,10,0:2:0:0:
416,349,44896,1,2,0:2:0:0:
503,246,45061,6,0,P|509:167|461:77,1,161.999995056153,4|0,1:2|1:2,0:0:0:0:
475,93,45559,1,0,0:0:0:0:
325,40,45724,1,2,1:2:0:0:
218,161,45890,1,2,0:2:0:0:
339,140,46056,1,2,1:2:0:0:
182,67,46222,6,0,P|126:65|56:121,1,121.499996292114,2|0,0:2|0:0,0:0:0:0:
71,97,46553,2,0,P|82:140|92:197,1,80.9999975280763,2|0,1:2|1:2,0:0:0:0:
213,274,46885,2,0,P|220:234|230:194,1,80.9999975280763,2|0,1:2|1:2,0:0:0:0:
52,316,47216,2,0,B|102:299|135:318|135:318|158:362|215:365,1,161.999995056153,2|0,1:2|1:0,0:0:0:0:
421,240,47713,5,0,1:2:0:0:
329,307,47879,1,8,0:2:0:0:
453,344,48045,1,0,1:2:0:0:
501,181,48211,1,8,0:2:0:0:
309,169,48376,1,0,1:2:0:0:
419,266,48542,1,8,0:2:0:0:
437,72,48708,1,0,1:2:0:0:
304,164,48874,1,8,0:2:0:0:
242,22,49039,5,0,1:2:0:0:
394,134,49205,1,8,0:2:0:0:
251,275,49371,1,0,1:2:0:0:
134,135,49537,1,10,0:2:0:0:
381,250,49702,2,0,L|461:241,1,80.9999975280763,2|8,1:2|0:2,0:0:0:0:
230,112,50034,1,2,1:2:0:0:
128,358,50200,1,10,0:2:0:0:
17,224,50365,5,8,0:2:0:0:
17,224,50448,1,0,1:2:0:0:
17,224,50531,2,0,L|83:242,3,40.4999987640381,0|0|0|0,1:2|1:2|1:2|1:2,0:0:0:0:
162,272,50862,1,8,0:2:0:0:
162,272,50945,1,0,1:2:0:0:
162,272,51028,2,0,L|228:254,3,40.4999987640381,0|0|0|0,1:2|1:2|1:2|1:2,0:0:0:0:
369,165,51360,5,8,0:0:0:0:
330,175,51442,1,8,0:0:0:0:
300,202,51525,1,8,0:0:0:0:
287,240,51608,1,8,0:0:0:0:
294,279,51691,1,8,0:0:0:0:
157,64,52023,5,2,0:1:0:0:
294,279,52520,6,0,B|323:262|354:281|354:281|379:324|439:309,1,121.499996292114,2|0,0:0|0:0,0:0:0:0:
478,361,52851,6,0,B|436:364|415:335|415:335|422:268|457:194,1,198.000006042481,6|2,1:2|1:2,0:0:0:0:
329,37,53349,1,8,0:2:0:0:
403,107,53514,2,0,P|352:113|286:140,1,99.0000030212403,2|2,0:2|1:2,0:0:0:0:
135,192,53846,1,2,1:2:0:0:
169,49,54012,2,0,P|189:73|188:110,1,49.5000015106202,10|0,0:2|0:0,0:0:0:0:
35,283,54177,6,0,B|70:259|102:282|102:282|124:322|169:313,1,148.50000453186,2|0,1:2|0:0,0:0:0:0:
228,275,54509,2,0,P|220:224|203:163,1,99.0000030212403,2|8,1:2|0:2,0:0:0:0:
38,17,54840,2,0,P|25:64|18:113,1,99.0000030212403,2|0,0:2|1:2,0:0:0:0:
91,284,55172,1,2,1:2:0:0:
273,86,55338,1,8,0:2:0:0:
148,31,55503,1,10,0:2:0:0:
319,174,55669,6,0,P|305:249|290:393,1,198.000006042481,6|10,1:2|0:0,0:0:0:0:
482,231,56166,2,0,P|434:237|406:305,1,99.0000030212403,2|0,0:2|1:2,0:0:0:0:
168,185,56498,2,0,P|216:191|244:259,1,99.0000030212403,2|8,1:2|0:0,0:0:0:0:
452,42,56829,6,0,B|427:53|383:52|383:52|347:84|347:84|302:81|260:99,1,198.000006042481,2|0,1:2|1:0,0:0:0:0:
25,301,57327,1,8,0:0:0:0:
149,335,57492,2,0,P|141:300|132:257,1,49.5000015106202,2|0,0:2|0:0,0:0:0:0:
77,49,57658,1,2,1:2:0:0:
26,174,57824,1,0,1:2:0:0:
163,116,57990,1,8,0:0:0:0:
36,274,58155,1,10,0:0:0:0:
36,274,58238,1,0,0:0:0:0:
36,274,58321,6,0,P|107:283|205:311,1,148.50000453186,4|0,1:2|0:0,0:0:0:0:
216,312,58653,1,10,0:0:0:0:
356,203,58818,1,2,0:0:0:0:
414,252,58984,1,2,1:2:0:0:
400,325,59150,1,0,1:2:0:0:
282,115,59316,2,0,P|299:93|336:89,1,49.5000015106202,10|0,0:0|0:0,0:0:0:0:
503,46,59481,6,0,B|439:72|388:45|388:45|411:88|385:128,1,198.000006042481,2|0,1:2|1:0,0:0:0:0:
196,25,59979,2,0,P|239:28|314:44,1,99.0000030212403,10|0,0:0|0:0,0:0:0:0:
123,196,60310,2,0,P|92:155|103:93,1,99.0000030212403,2|0,1:2|1:0,0:0:0:0:
289,184,60642,2,0,P|290:260|243:320,1,148.50000453186,10|0,0:0|0:0,0:0:0:0:
176,342,60973,5,6,1:2:0:0:
433,228,61139,1,2,1:2:0:0:
451,218,61304,1,2,1:2:0:0:
164,232,61470,5,8,0:2:0:0:
469,209,61636,1,0,1:2:0:0:
323,63,61802,1,8,0:0:0:0:
288,96,61884,1,8,0:0:0:0:
282,144,61967,1,10,0:2:0:0:
486,354,62133,6,0,B|444:334|429:295|429:295|380:336|292:335,1,198.000006042481,6|0,1:2|1:2,0:0:0:0:
117,304,62630,1,8,0:0:0:0:
164,229,62796,2,0,P|200:265|186:343,1,99.0000030212403,2|8,0:0|0:0,0:0:0:0:
3,305,63128,2,0,P|9:276|22:238,1,49.5000015106202,8|8,0:3|0:0,0:0:0:0:
70,138,63293,2,0,P|76:166|89:205,1,49.5000015106202,8|8,0:0|0:0,0:0:0:0:
181,101,63459,2,0,P|159:85|117:82,1,49.5000015106202,10|8,0:0|0:0,0:0:0:0:
16,51,63625,6,0,P|103:42|250:29,1,198.000006042481,6|10,1:2|0:2,0:0:0:0:
376,52,64122,1,2,0:2:0:0:
413,128,64288,1,0,1:2:0:0:
286,263,64454,1,2,1:2:0:0:
315,182,64619,1,8,0:2:0:0:
489,315,64785,6,0,B|405:301|421:369|286:355,1,198.000006042481,2|0,1:2|1:0,0:0:0:0:
78,255,65282,2,0,P|126:244|174:234,1,99.0000030212403,10|0,0:2|0:0,0:0:0:0:
415,138,65614,2,0,P|366:127|318:117,1,99.0000030212403,0|0,1:2|1:2,0:0:0:0:
85,167,65945,1,10,0:2:0:0:
182,12,66111,1,8,0:2:0:0:
182,12,66194,1,8,0:0:0:0:
182,12,66277,6,0,P|205:100|221:224,1,198.000006042481,2|2,1:2|1:2,0:0:0:0:
357,350,66774,2,0,P|362:306|373:251,1,99.0000030212403,10|0,0:2|0:0,0:0:0:0:
331,47,67106,1,2,1:2:0:0:
469,135,67271,1,0,1:2:0:0:
375,154,67437,2,0,L|305:143,1,49.5000015106202,10|0,0:2|0:0,0:0:0:0:
119,247,67603,6,0,P|190:254|266:316,1,148.50000453186,2|0,0:0|0:0,0:0:0:0:
237,307,67934,2,0,P|192:344|128:333,1,99.0000030212403,10|0,0:2|0:0,0:0:0:0:
22,177,68266,1,0,1:2:0:0:
22,177,68432,1,0,1:2:0:0:
229,65,68597,2,0,P|184:74|129:90,1,99.0000030212403,10|8,0:2|0:2,0:0:0:0:
54,320,68929,5,6,1:2:0:0:
54,320,69260,5,10,0:2:0:0:
394,322,69426,1,0,1:2:0:0:
63,203,69592,5,8,0:2:0:0:
403,201,69758,1,0,1:2:0:0:
68,67,69923,5,8,0:2:0:0:
408,69,70089,1,0,1:2:0:0:
221,25,70255,5,8,0:2:0:0:
221,25,70338,1,0,1:2:0:0:
221,25,70421,1,0,1:2:0:0:
221,25,70503,1,0,1:2:0:0:
221,25,70586,2,0,L|237:90,3,49.5000015106202,2|0|0|0,1:2|1:2|1:2|1:2,0:0:0:0:
285,160,70918,2,0,L|273:208,3,49.5000015106202,10|8|8|8,0:2|0:2|0:2|0:2,0:0:0:0:
234,297,71249,1,10,0:2:0:0:
258,292,71331,1,8,0:2:0:0:
282,297,71414,1,8,0:2:0:0:
303,310,71497,1,8,0:2:0:0:
317,329,71580,5,4,1:2:0:0:
489,185,71746,1,2,0:2:0:0:
445,208,71828,1,2,0:2:0:0:
418,248,71911,1,10,0:2:0:0:
413,297,71994,1,2,0:2:0:0:
431,342,72078,2,0,P|458:337|496:328,1,49.5000015106202,2|2,0:2|0:2,0:0:0:0:
368,147,72244,6,0,P|317:154|254:167,1,99.0000030212403,2|0,1:2|0:0,0:0:0:0:
257,172,72492,1,2,1:2:0:0:
247,177,72575,1,8,0:2:0:0:
52,52,72741,1,0,1:2:0:0:
130,26,72907,1,0,0:0:0:0:
35,153,73072,6,0,P|50:199|73:315,1,148.50000453186,2|0,1:2|0:0,0:0:0:0:
90,332,73404,2,0,B|140:342|140:342|209:311,1,99.0000030212403,2|0,0:2|1:2,0:0:0:0:
381,248,73735,1,2,1:2:0:0:
296,231,73901,1,8,0:2:0:0:
454,338,74067,6,0,P|507:278|448:152,1,198.000006042481,2|2,0:3|0:2,0:0:0:0:
469,87,74481,1,2,0:2:0:0:
473,73,74564,1,10,0:2:0:0:
428,52,74646,1,2,0:2:0:0:
380,60,74729,1,2,0:2:0:0:
344,92,74812,1,2,0:2:0:0:
331,139,74896,6,0,P|342:191|351:272,1,99.0000030212403,2|0,1:2|0:0,0:0:0:0:
351,256,75144,1,2,1:2:0:0:
351,256,75227,1,8,0:2:0:0:
142,182,75393,2,0,P|182:153|251:170,1,99.0000030212403,0|0,1:2|0:0,0:0:0:0:
115,345,75724,2,0,P|66:347|27:318,1,99.0000030212403,2|8,1:2|0:2,0:0:0:0:
20,107,76056,2,0,P|33:144|43:228,1,99.0000030212403,2|0,0:2|1:2,0:0:0:0:
264,37,76387,1,2,1:2:0:0:
156,18,76553,1,8,0:2:0:0:
211,202,76719,1,2,0:3:0:0:
306,161,76885,6,0,P|401:170|511:199,1,198.000006042481,4|10,1:2|0:2,0:0:0:0:
416,72,77382,2,0,P|409:112|403:190,1,99.0000030212403,2|0,0:2|1:2,0:0:0:0:
292,349,77713,1,2,1:2:0:0:
173,175,77879,1,8,0:2:0:0:
288,252,78045,2,0,P|241:264|174:289,1,99.0000030212403,2|0,1:2|0:0,0:0:0:0:
44,337,78376,5,2,1:2:0:0:
44,337,78459,1,2,0:2:0:0:
44,337,78542,2,0,L|26:269,3,49.5000015106202,10|2|2|2,0:2|0:2|0:2|0:2,0:0:0:0:
73,212,78874,2,0,L|85:164,3,49.5000015106202,2|2|2|2,1:2|0:2|1:2|0:2,0:0:0:0:
26,108,79205,1,10,0:2:0:0:
127,29,79371,1,2,0:3:0:0:
127,29,79454,1,0,1:0:0:0:
127,29,79537,6,0,P|215:57|216:134,1,148.50000453186,0|0,1:2|0:0,0:0:0:0:
186,168,79868,2,0,P|196:208|200:273,1,99.0000030212403,10|0,0:0|0:0,0:0:0:0:
339,366,80200,2,0,P|339:320|353:268,1,99.0000030212403,2|0,1:2|0:0,0:0:0:0:
365,261,80448,1,2,0:2:0:0:
377,254,80531,1,8,0:0:0:0:
498,107,80697,6,0,B|448:83|406:101|406:101|375:162|287:146,1,198.000006042481,2|2,1:2|1:2,0:0:0:0:
111,44,81194,1,10,0:0:0:0:
232,23,81360,1,2,0:0:0:0:
82,133,81525,1,10,0:0:0:0:
209,212,81691,1,8,0:3:0:0:
21,222,81857,1,8,0:0:0:0:
123,351,82023,1,8,0:0:0:0:
123,351,82106,1,8,0:0:0:0:
123,351,82188,6,0,P|134:283|91:202,1,148.50000453186,6|0,1:2|0:0,0:0:0:0:
56,145,82520,5,10,0:2:0:0:
381,281,82686,1,2,1:2:0:0:
60,238,82851,5,8,0:2:0:0:
395,253,83017,1,0,1:2:0:0:
82,320,83183,5,10,0:2:0:0:
390,216,83349,1,2,1:2:0:0:
215,53,83514,6,0,L|204:183,1,99.0000030212403,10|0,0:2|1:2,0:0:0:0:
281,346,83846,1,8,0:2:0:0:
489,118,84012,1,2,1:2:0:0:
489,118,84343,1,10,0:2:0:0:
293,158,84509,1,2,1:2:0:0:
270,115,84591,1,0,1:2:0:0:
282,68,84674,1,10,0:2:0:0:
322,40,84757,1,10,0:2:0:0:
371,47,84840,6,0,P|383:113|403:224,1,148.50000453186,6|0,1:2|0:0,0:0:0:0:
302,363,85172,5,10,0:2:0:0:
406,104,85338,1,2,1:2:0:0:
271,348,85503,5,8,0:2:0:0:
213,56,85669,1,0,1:2:0:0:
244,363,85835,5,10,0:2:0:0:
56,157,86001,1,2,1:2:0:0:
229,204,86166,6,0,L|306:219,3,49.5000015106202,2|0|0|0,1:2|1:2|1:2|1:2,0:0:0:0:
357,265,86498,2,0,L|434:250,3,49.5000015106202,0|0|0|0,1:2|1:2|1:2|1:2,0:0:0:0:
493,159,86829,1,8,0:2:0:0:
493,159,86912,1,8,0:2:0:0:
493,159,86995,1,10,0:2:0:0:
493,159,87078,1,8,0:2:0:0:
493,159,87161,2,0,L|413:144,1,49.5000015106202,8|8,0:2|0:2,0:0:0:0:
332,37,87327,5,2,0:2:0:0:
49,58,92796,6,0,L|66:117,3,36,2|0|0|0,1:2|0:0|0:0|0:0,0:0:0:0:
140,152,93128,2,0,L|149:117,3,36,2|0|2|0,1:2|1:2|1:2|1:2,0:0:0:0:
232,47,93459,2,0,L|241:81,3,36,2|0|2|0,1:2|1:2|1:2|1:2,0:0:0:0:
319,162,93791,2,0,L|328:128,3,36,2|0|2|0,1:2|1:2|1:2|1:2,0:0:0:0:
416,53,94122,5,0,1:2:0:0:
416,53,94205,1,0,1:2:0:0:
416,53,94288,1,0,1:2:0:0:
416,53,94371,1,0,1:2:0:0:
416,53,94454,5,2,1:2:0:0:
442,74,94536,1,0,1:2:0:0:
457,107,94619,1,0,1:2:0:0:
455,143,94702,1,0,1:2:0:0:
439,153,94785,5,2,1:2:0:0:
413,177,94867,1,0,1:2:0:0:
401,211,94950,1,0,1:2:0:0:
406,246,95033,1,0,1:2:0:0:
426,275,95117,2,0,L|411:339,1,36,10|0,0:2|0:0,0:0:0:0:
248,363,95282,2,0,L|233:299,1,36,8|0,0:3|0:0,0:0:0:0:
55,136,95448,5,6,1:2:0:0:
286,59,95614,1,2,1:2:0:0:
244,174,95780,1,2,1:2:0:0:
98,16,95945,5,8,0:0:0:0:
371,142,96111,1,0,1:2:0:0:
330,260,96277,1,8,0:0:0:0:
322,283,96359,1,8,0:0:0:0:
315,307,96442,1,2,1:2:0:0:
119,153,96608,6,0,B|151:160|199:154|199:154|230:181|230:181|282:176|334:208,1,198.000006042481,6|0,1:2|1:0,0:0:0:0:
463,58,97106,1,8,0:0:0:0:
380,119,97271,1,2,0:0:0:0:
491,202,97437,1,10,0:0:0:0:
359,283,97603,1,8,0:0:0:0:
492,362,97769,2,0,P|497:335|509:303,1,49.5000015106202,8|8,0:0|0:0,0:0:0:0:
388,205,97934,1,10,0:0:0:0:
388,205,98017,1,8,0:0:0:0:
388,205,98100,6,0,P|325:204|275:278,1,148.50000453186,6|0,1:2|0:0,0:0:0:0:
275,267,98432,1,10,0:2:0:0:
44,256,98597,2,0,P|82:245|175:233,1,99.0000030212403,2|0,0:2|1:2,0:0:0:0:
96,25,98929,2,0,P|58:61|73:139,1,99.0000030212403,2|8,1:2|0:2,0:0:0:0:
332,56,99260,6,0,B|284:48|252:71|252:71|223:71|223:71|189:106|120:100,1,198.000006042481,2|0,1:2|1:0,0:0:0:0:
284,163,99758,2,0,P|269:211|263:274,1,99.0000030212403,10|0,0:2|0:0,0:0:0:0:
472,107,100089,2,0,P|465:57|451:10,1,99.0000030212403,0|0,1:2|1:2,0:0:0:0:
390,206,100421,1,10,0:2:0:0:
487,358,100586,1,8,0:2:0:0:
390,206,100752,6,0,B|338:174|289:205|289:205|263:262|196:253,1,198.000006042481,2|2,1:2|1:2,0:0:0:0:
349,384,101249,2,0,P|352:334|362:271,1,99.0000030212403,10|0,0:2|0:0,0:0:0:0:
359,42,101581,1,2,1:2:0:0:
469,7,101746,1,0,1:2:0:0:
388,163,101912,1,10,0:2:0:0:
278,128,102078,6,0,P|226:139|177:154,1,99.0000030212403,0|0,0:0|1:0,0:0:0:0:
39,40,102409,1,10,0:2:0:0:
39,40,102741,1,0,1:2:0:0:
191,42,102907,1,0,1:2:0:0:
67,199,103072,2,0,P|56:243|44:318,1,99.0000030212403,10|8,0:2|0:2,0:0:0:0:
41,309,103321,1,8,0:0:0:0:
39,321,103404,5,6,1:2:0:0:
39,321,103735,5,10,0:2:0:0:
103,79,103901,1,2,1:2:0:0:
134,313,104067,5,8,0:2:0:0:
231,82,104233,1,0,1:2:0:0:
232,301,104398,5,10,0:2:0:0:
360,85,104564,1,2,1:2:0:0:
452,295,104730,5,8,0:2:0:0:
146,184,104896,1,0,1:2:0:0:
452,295,105061,1,8,0:2:0:0:
146,184,105227,2,0,P|95:192|36:207,1,99.0000030212403,8|0,0:2|1:0,0:0:0:0:
226,34,105559,1,8,0:2:0:0:
329,150,105724,2,0,L|300:227,1,49.5000015106202,0|0,1:2|1:0,0:0:0:0:
179,347,105890,2,0,L|150:270,1,49.5000015106202,0|0,1:2|1:0,0:0:0:0:
76,79,106056,5,6,1:2:0:0:
76,79,106387,5,10,0:2:0:0:
372,40,106553,1,2,1:2:0:0:
102,171,106719,5,10,0:2:0:0:
400,173,106885,1,2,1:2:0:0:
90,268,107050,5,10,0:2:0:0:
384,311,107216,1,2,1:2:0:0:
235,362,107382,1,10,0:2:0:0:
235,362,107465,1,0,1:2:0:0:
235,362,107548,1,0,1:2:0:0:
235,362,107630,1,0,1:2:0:0:
235,362,107713,5,8,0:2:0:0:
269,327,107795,1,0,1:2:0:0:
275,279,107878,1,0,1:2:0:0:
252,236,107961,1,0,1:2:0:0:
208,216,108045,5,8,0:2:0:0:
210,265,108127,1,0,1:2:0:0:
236,307,108210,1,0,1:2:0:0:
278,332,108293,1,0,1:2:0:0:
327,334,108376,2,0,L|401:318,1,49.5000015106202,8|8,0:2|0:2,0:0:0:0:
500,228,108542,2,0,L|426:211,1,49.5000015106202,8|8,0:2|0:2,0:0:0:0:
267,141,108708,6,0,P|205:150|107:176,2,144,6|2|2,1:2|0:2|0:2,0:0:0:0:
461,69,109702,1,2,0:2:0:0:
388,11,109868,2,0,P|365:63|369:164,1,144,2|0,0:2|0:0,0:0:0:0:
404,250,110365,1,2,0:2:0:0:
471,343,110531,1,2,0:2:0:0:
486,262,110697,2,0,B|398:251|436:306|322:304,1,144,2|2,0:2|0:2,0:0:0:0:
352,302,111194,1,0,0:0:0:0:
250,355,111360,6,0,P|177:337|97:330,2,144,2|2|2,0:2|0:2|0:2,0:0:0:0:
118,144,112354,1,2,0:2:0:0:
118,144,112520,2,0,P|63:169|48:267,1,144,2|2,0:2|0:2,0:0:0:0:
40,244,113017,1,2,0:2:0:0:
225,218,113183,6,0,L|292:208,2,36,8|8|8,0:3|0:3|0:0,0:0:0:0:
86,63,113514,1,8,0:0:0:0:
368,137,113680,1,8,0:0:0:0:
164,354,113846,1,8,0:0:0:0:
