osu file format v14

[General]
AudioFilename: audio.mp3
AudioLeadIn: 0
PreviewTime: 52229
Countdown: 1
SampleSet: Soft
StackLeniency: 0.7
Mode: 0
LetterboxInBreaks: 0
WidescreenStoryboard: 1

[Editor]
DistanceSpacing: 0.5
BeatDivisor: 4
GridSize: 32
TimelineZoom: 2.4

[Metadata]
Title:Four Leaves
TitleUnicode:Four Leaves
Artist:Endorfin.
ArtistUnicode:Endorfin.
Creator:Erisu
Version:Didah's Another
Source:SOUND VOLTEX IV HEAVENLY HAVEN
Tags:sdvx 4th sdvx4 konami bemani 藍月なくる aitsuki nakuru sky_delta sky delta Alt.Strato hvick225 didah shikibe mayu kazato asa shizuku- lanzhu mayuzumi fuyuko video game vgm pop jpop j-pop japanese
BeatmapID:3617288
BeatmapSetID:1576274

[Difficulty]
HPDrainRate:5
CircleSize:3.8
OverallDifficulty:8
ApproachRate:9
SliderMultiplier:1.7
SliderTickRate:1

[Events]
//Background and Video events
0,0,"image.jpg",0,0
//Break Periods
2,87527,92196
//Storyboard Layer 0 (Background)
//Storyboard Layer 1 (Fail)
//Storyboard Layer 2 (Pass)
//Storyboard Layer 3 (Foreground)
//Storyboard Layer 4 (Overlay)
//Storyboard Sound Samples

[TimingPoints]
1305,331.491712707182,4,2,1,50,1,0
1305,-111.111111111111,4,2,1,50,0,0
7934,-111.111111111111,4,2,1,40,0,0
8266,-111.111111111111,4,2,1,50,0,0
8597,-111.111111111111,4,2,1,60,0,0
9260,-100,4,2,1,70,0,0
10503,-100,4,2,1,40,0,0
11581,-100,4,2,1,60,0,0
13072,-125,4,2,1,40,0,0
22520,-125,4,2,1,50,0,0
23680,-111.111111111111,4,2,1,60,0,0
34454,-133.333333333333,4,2,1,50,0,0
45061,-111.111111111111,4,2,1,60,0,0
47713,-111.111111111111,4,2,1,70,0,0
52078,-111.111111111111,4,2,1,5,0,0
52520,-133.333333333333,4,2,1,30,0,0
52851,-100,4,2,1,80,0,0
87327,-111.111111111111,4,2,1,70,0,0
95448,-111.111111111111,4,2,1,80,0,0
98100,-100,4,2,1,80,0,0
108708,-111.111111111111,4,2,1,60,0,0

[Colours]
Combo1 : 192,192,192
Combo2 : 255,128,128
Combo3 : 168,207,255

[HitObjects]
47,149,1305,6,0,P|96:129|178:198,1,152.999995330811,6|0,1:2|0:0,0:0:0:0:
202,351,1802,1,0,3:0:0:0:
202,351,1885,1,0,3:0:0:0:
202,351,1967,1,0,3:0:0:0:
319,274,2133,2,0,L|217:253,1,76.4999976654053,0|2,1:0|0:2,0:0:0:0:
244,258,2465,1,0,1:0:0:0:
248,262,3128,6,0,L|235:214,1,38.2499988327027,0|0,1:0|0:0,0:0:0:0:
257,87,3293,1,2,1:2:0:0:
311,159,3459,2,0,P|269:176|172:116,1,152.999995330811,0|0,1:0|0:0,0:0:0:0:
178,130,3956,5,6,1:2:0:0:
272,12,4288,2,0,L|252:109,1,76.4999976654053,0|0,0:0|3:0,0:0:0:0:
256,86,4537,1,0,3:0:0:0:
256,86,4619,1,0,3:0:0:0:
381,273,4951,2,0,L|371:237,1,38.2499988327027,0|0,1:0|0:0,0:0:0:0:
317,167,5117,2,0,P|359:150|456:210,1,152.999995330811,8|0,0:0|0:0,0:0:0:0:
449,195,5614,5,0,1:0:0:0:
512,95,5780,1,0,1:0:0:0:
512,95,5863,1,0,1:0:0:0:
512,95,5945,2,0,L|502:59,3,38.2499988327027,0|0|0|0,1:0|1:0|1:0|1:0,0:0:0:0:
402,0,6277,2,0,L|392:36,3,38.2499988327027,0|0|0|0,1:0|1:0|1:0|1:0,0:0:0:0:
317,167,6608,6,0,P|276:173|242:180,1,76.4999976654053,2|2,0:2|0:2,0:0:0:0:
155,335,6940,2,0,P|161:297|168:260,1,76.4999976654053,2|2,0:2|1:2,0:0:0:0:
168,259,7188,1,0,0:0:0:0:
168,259,7271,1,2,1:2:0:0:
50,156,7437,1,0,0:2:0:0:
117,99,7603,2,0,L|159:88,3,38.2499988327027,0|0|0|0,1:2|1:2|1:2|1:0,0:0:0:0:
242,179,7934,5,0,1:0:0:0:
242,179,8017,1,0,1:0:0:0:
242,179,8100,2,0,P|249:154|250:142,1,38.2499988327027,0|0,1:0|1:0,0:0:0:0:
342,50,8266,1,0,1:0:0:0:
342,50,8349,1,0,1:0:0:0:
342,50,8432,2,0,P|344:74|349:87,1,38.2499988327027,0|0,1:0|1:0,0:0:0:0:
481,277,8597,6,0,P|462:270|443:269,1,38.2499988327027,8|8,0:0|0:0,0:0:0:0:
357,187,8763,2,0,P|376:186|394:179,1,38.2499988327027,8|8,0:0|0:0,0:0:0:0:
498,129,8929,2,0,P|491:147|490:166,1,38.2499988327027,8|8,0:0|0:0,0:0:0:0:
361,327,9095,2,0,P|360:307|353:289,1,38.2499988327027,8|8,0:0|0:0,0:0:0:0:
250,141,9260,5,4,1:2:0:0:
129,310,9426,1,0,1:0:0:0:
49,143,9592,1,0,1:0:0:0:
198,230,9758,2,0,P|155:218|114:212,1,85,4|0,1:2|1:0,0:0:0:0:
196,62,10089,1,8,0:0:0:0:
196,62,10172,1,8,0:0:0:0:
196,62,10255,2,0,P|249:45|343:115,1,170,8|0,0:0|0:0,0:0:0:0:
406,185,10752,5,0,1:0:0:0:
406,185,10918,2,0,P|436:160|503:161,1,85,0|0,1:0|1:0,0:0:0:0:
455,332,11249,2,0,L|477:250,1,85,0|0,1:0|1:0,0:0:0:0:
250,141,11581,1,8,0:0:0:0:
350,315,11746,1,8,0:0:0:0:
208,258,11912,2,0,L|290:235,1,85,8|8,0:0|0:0,0:0:0:0:
123,150,12244,1,8,0:0:0:0:
59,266,12409,5,0,1:0:0:0:
59,266,12492,1,0,1:0:0:0:
59,266,12575,2,0,L|110:254,1,42.5,8|8,0:0|0:0,0:0:0:0:
250,141,12741,2,0,L|199:129,1,42.5,8|8,0:0|0:0,0:0:0:0:
54,37,12907,1,8,0:3:0:0:
58,57,12989,1,8,0:3:0:0:
63,78,13072,5,4,1:2:0:0:
264,215,13735,1,2,0:0:0:0:
264,215,13901,2,0,L|357:188,1,68,2|0,0:0|0:0,0:0:0:0:
479,321,14233,5,2,0:2:0:0:
479,321,14398,2,0,P|443:284|358:304,1,136,2|0,0:2|0:0,0:0:0:0:
177,342,14896,1,2,0:2:0:0:
261,384,15061,2,0,P|268:340|274:317,1,68,2|0,0:2|0:0,0:0:0:0:
217,171,15393,2,0,P|210:214|203:237,1,68,2|0,0:2|0:0,0:0:0:0:
44,287,15724,1,2,0:2:0:0:
0,211,15890,6,0,P|50:169|113:186,1,136,0|2,0:0|0:2,0:0:0:0:
236,40,16387,2,0,B|222:89|222:89|231:121|231:121|217:170,1,136,2|0,0:2|0:0,0:0:0:0:
317,327,16885,1,2,0:2:0:0:
334,243,17050,2,0,B|254:227|283:281|206:269,1,136,2|0,0:2|0:0,0:0:0:0:
306,55,17713,5,2,0:2:0:0:
306,55,17879,2,0,L|380:75,1,68,2|0,0:2|0:0,0:0:0:0:
334,243,18211,1,2,0:2:0:0:
421,147,18376,1,2,0:2:0:0:
465,224,18542,6,0,B|416:238|416:238|384:229|384:229|335:243,1,136,2|0,0:0|0:0,0:0:0:0:
238,305,19039,2,0,P|292:293|351:358,1,136,2|0,0:0|0:0,0:0:0:0:
194,182,19537,5,2,0:0:0:0:
141,251,19702,2,0,P|87:239|28:304,1,136,2|0,0:0|0:0,0:0:0:0:
132,110,20200,1,2,0:2:0:0:
194,182,20365,2,0,P|231:141|204:57,1,136,2|0,0:2|0:0,0:0:0:0:
66,126,20863,2,0,L|149:105,1,68,2|2,1:2|1:2,0:0:0:0:
221,62,21194,6,0,B|301:46|272:100|349:88,1,136,4|0,1:2|1:2,0:0:0:0:
512,160,21691,1,0,1:2:0:0:
459,0,21857,2,0,L|440:92,1,68,0|2,1:2|1:2,0:0:0:0:
445,66,22106,1,0,1:2:0:0:
445,66,22188,1,2,1:2:0:0:
312,208,22354,1,2,1:2:0:0:
405,285,22520,6,0,L|414:317,3,34,10|8|8|8,0:2|0:2|0:2|0:2,0:0:0:0:
312,208,22851,2,0,L|321:175,3,34,8|8|10|8,0:2|0:2|0:2|0:2,0:0:0:0:
240,306,23183,1,10,0:2:0:0:
220,333,23265,1,8,0:2:0:0:
190,349,23348,1,8,0:2:0:0:
157,350,23431,1,8,0:2:0:0:
126,335,23514,2,0,L|116:302,1,34,8|8,0:2|0:2,0:0:0:0:
26,187,23680,6,0,B|55:154|97:166|97:166|120:197|163:194,1,152.999995330811,4|0,1:2|1:0,0:0:0:0:
33,75,24177,1,8,0:2:0:0:
196,25,24343,2,0,L|181:111,1,76.4999976654053,2|0,0:2|1:2,0:0:0:0:
373,186,24675,1,0,1:2:0:0:
308,98,24840,1,10,0:2:0:0:
332,295,25006,6,0,P|386:244|458:258,1,152.999995330811,2|0,1:2|1:0,0:0:0:0:
259,384,25503,1,10,0:2:0:0:
155,271,25669,2,0,P|192:259|251:247,1,76.4999976654053,2|0,0:2|1:2,0:0:0:0:
48,345,26001,2,0,P|84:356|121:366,1,76.4999976654053,2|8,1:2|0:2,0:0:0:0:
228,251,26332,1,2,1:2:0:0:
163,175,26498,6,0,B|73:185|109:126|20:140,1,152.999995330811,4|10,1:2|0:2,0:0:0:0:
150,76,26995,2,0,B|211:60|211:60|240:70|240:70|297:55,1,152.999995330811,2|0,0:2|1:2,0:0:0:0:
396,248,27492,1,10,0:2:0:0:
434,100,27658,1,2,1:2:0:0:
465,192,27824,2,0,P|419:158|364:165,1,114.749996498108
333,181,28155,5,8,0:2:0:0:
198,299,28321,1,2,0:2:0:0:
91,156,28487,1,2,1:2:0:0:
222,210,28653,1,8,0:3:0:0:
96,337,28818,2,0,P|87:295|76:252,1,76.4999976654053,10|10,0:2|0:2,0:0:0:0:
97,147,29150,6,0,P|129:110|241:127,1,152.999995330811,4|8,1:2|0:2,0:0:0:0:
353,36,29647,1,0,0:0:0:0:
333,181,29813,2,0,P|343:218|363:288,1,76.4999976654053,0|0,1:2|1:2,0:0:0:0:
445,172,30144,1,10,0:2:0:0:
388,352,30310,6,0,P|331:304|258:318,1,152.999995330811,2|0,1:2|0:0,0:0:0:0:
103,252,30807,2,0,P|152:259|212:205,1,114.749996498108,10|0,0:2|0:0,0:0:0:0:
219,192,31139,1,0,1:0:0:0:
151,125,31304,1,0,1:0:0:0:
298,0,31470,1,10,0:2:0:0:
256,92,31636,1,10,0:2:0:0:
105,18,31802,6,0,P|143:26|193:37,1,76.4999976654053,2|0,1:2|0:0,0:0:0:0:
385,59,32133,2,0,P|312:45|255:92,1,152.999995330811,8|0,0:2|1:2,0:0:0:0:
219,192,32630,1,0,1:2:0:0:
336,134,32796,1,10,0:2:0:0:
385,280,32962,6,0,P|346:271|295:261,1,76.4999976654053,2|0,1:2|0:0,0:0:0:0:
145,212,33293,2,0,P|183:201|232:188,1,76.4999976654053,2|8,1:2|0:2,0:0:0:0:
67,140,33625,1,2,0:2:0:0:
192,300,33791,2,0,P|181:337|174:374,1,76.4999976654053,8|10,0:2|0:2,0:0:0:0:
311,262,34122,1,8,0:2:0:0:
335,233,34204,1,8,0:2:0:0:
370,219,34287,1,10,0:2:0:0:
408,222,34370,1,8,0:2:0:0:
440,243,34453,5,4,1:2:0:0:
468,61,34785,1,0,1:0:0:0:
468,61,35117,1,8,0:0:0:0:
286,33,35282,1,0,0:0:0:0:
258,215,35448,6,0,B|182:199|207:248|136:234,1,127.500004863739,4|0,1:2|1:0,0:0:0:0:
32,99,35945,1,2,0:0:0:0:
32,99,36028,1,0,0:0:0:0:
32,99,36111,1,8,0:0:0:0:
178,128,36277,1,10,0:0:0:0:
108,248,36443,2,0,L|126:332,1,63.7500024318696,2|0,0:0|1:0,0:0:0:0:
121,310,36691,1,0,1:0:0:0:
121,310,36774,1,10,0:0:0:0:
16,229,36940,1,2,0:0:0:0:
218,278,37106,6,0,P|265:275|305:299,1,95.6250036478044,4|0,1:2|0:0,0:0:0:0:
305,299,37437,2,0,P|310:267|318:236,1,63.7500024318696,0|0,1:2|0:0,0:0:0:0:
436,30,37769,1,8,0:2:0:0:
352,93,37934,1,0,0:0:0:0:
459,196,38100,5,4,1:2:0:0:
319,237,38432,1,0,1:2:0:0:
352,93,38763,1,8,0:2:0:0:
377,175,38929,5,10,0:2:0:0:
327,11,39095,1,2,0:2:0:0:
163,61,39260,1,0,1:2:0:0:
163,61,39343,1,0,1:2:0:0:
163,61,39426,1,8,0:2:0:0:
213,225,39592,1,2,0:2:0:0:
270,118,39758,5,4,1:2:0:0:
270,118,40255,1,0,1:2:0:0:
213,225,40421,2,0,P|173:190|94:213,1,127.500004863739,8|2,0:2|0:2,0:0:0:0:
33,287,40918,1,2,1:2:0:0:
148,384,41084,6,0,L|133:309,1,63.7500024318696,0|8,0:0|0:2,0:0:0:0:
213,225,41415,2,0,L|225:287,1,63.7500024318696,2|0,0:2|1:2,0:0:0:0:
364,353,41746,2,0,L|301:340,1,63.7500024318696,8|0,0:2|1:2,0:0:0:0:
301,340,41995,1,0,1:2:0:0:
301,340,42078,1,10,0:2:0:0:
425,288,42244,1,8,0:3:0:0:
279,161,42409,5,14,1:2:0:0:
377,208,42575,1,0,1:2:0:0:
451,102,42741,1,0,1:2:0:0:
272,168,42907,2,0,L|210:156,1,63.7500024318696,10|0,0:2|1:2,0:0:0:0:
49,280,43238,1,8,0:2:0:0:
49,280,43321,1,8,0:2:0:0:
49,280,43404,2,0,P|91:241|161:257,1,127.500004863739,10|0,0:2|0:0,0:0:0:0:
209,155,43901,5,0,1:0:0:0:
50,85,44067,2,0,L|62:147,1,63.7500024318696,8|0,0:2|1:2,0:0:0:0:
143,315,44398,2,0,L|155:253,1,63.7500024318696,10|0,0:2|1:2,0:0:0:0:
155,252,44647,1,0,1:2:0:0:
155,252,44730,1,10,0:2:0:0:
49,280,44896,1,2,0:2:0:0:
209,155,45061,5,4,1:2:0:0:
209,155,45393,1,0,1:2:0:0:
209,155,45724,2,0,L|298:133,1,76.4999976654053,2|2,1:2|0:2,0:0:0:0:
474,74,46056,1,2,1:2:0:0:
390,0,46222,6,0,P|380:38|368:84,1,76.4999976654053,2|0,0:2|1:2,0:0:0:0:
457,243,46553,2,0,P|398:202|350:218,1,114.749996498108,2|0,1:2|0:0,0:0:0:0:
335,234,46885,2,0,P|345:270|355:309,1,76.4999976654053,2|0,1:2|1:2,0:0:0:0:
157,266,47216,1,2,1:2:0:0:
112,187,47382,2,0,P|153:149|208:154,1,114.749996498108,0|0,1:2|0:0,0:0:0:0:
230,176,47713,5,0,1:2:0:0:
91,77,47879,1,8,0:2:0:0:
37,169,48045,2,0,P|74:177|113:187,1,76.4999976654053,0|8,1:2|0:2,0:0:0:0:
236,17,48376,2,0,P|198:8|160:-1,1,76.4999976654053,0|8,1:2|0:2,0:0:0:0:
230,176,48708,1,0,1:2:0:0:
348,56,48874,1,8,0:2:0:0:
391,222,49039,6,0,P|434:232|498:194,1,114.749996498108,0|0,1:2|0:0,0:0:0:0:
493,200,49371,2,0,P|501:237|512:273,1,76.4999976654053,0|10,1:2|0:2,0:0:0:0:
426,138,49702,1,2,1:2:0:0:
330,279,49868,1,8,0:2:0:0:
266,96,50034,1,2,1:2:0:0:
333,181,50200,1,10,0:2:0:0:
167,75,50365,5,8,0:2:0:0:
167,75,50448,1,0,1:2:0:0:
167,75,50531,2,0,L|178:24,3,38.2499988327027,0|0|0|0,1:2|1:2|1:2|1:2,0:0:0:0:
230,176,50863,2,0,L|222:213,1,38.2499988327027,8|0,0:2|1:2,0:0:0:0:
135,348,51028,5,0,1:2:0:0:
156,316,51111,1,0,1:2:0:0:
190,298,51194,1,0,1:2:0:0:
227,298,51277,1,0,1:2:0:0:
261,315,51360,2,0,L|298:323,1,38.2499988327027,8|8,0:2|0:2,0:0:0:0:
370,172,51525,2,0,L|333:180,1,38.2499988327027,8|8,0:2|0:2,0:0:0:0:
230,176,51691,5,8,0:2:0:0:
175,37,52023,5,2,0:1:0:0:
175,37,52520,2,0,P|130:29|87:59,1,95.6250036478044,2|0,0:0|0:0,0:0:0:0:
20,88,52851,6,0,B|119:67|81:134|181:118,1,170,6|2,1:2|1:2,0:0:0:0:
352,170,53349,1,8,0:2:0:0:
155,230,53514,1,2,0:2:0:0:
265,55,53680,1,2,1:2:0:0:
265,55,53846,1,2,1:2:0:0:
352,170,54012,1,10,0:2:0:0:
485,93,54177,6,0,P|442:85|399:75,1,85,2|0,1:2|0:0,0:0:0:0:
244,197,54509,2,0,P|299:156|366:184,1,127.5,2|0,1:2|0:0,0:0:0:0:
376,189,54840,2,0,P|364:230|356:273,1,85,2|0,0:2|1:2,0:0:0:0:
258,384,55172,2,0,P|248:340|237:300,1,85,2|8,1:2|0:2,0:0:0:0:
126,143,55503,1,10,0:2:0:0:
66,218,55669,6,0,P|116:240|214:181,1,170,6|10,1:2|0:0,0:0:0:0:
308,38,56166,2,0,P|266:50|226:60,1,85,2|0,0:2|1:2,0:0:0:0:
376,189,56498,2,0,P|386:145|406:76,1,85,2|8,1:2|0:0,0:0:0:0:
493,180,56829,1,2,1:2:0:0:
336,275,56995,6,0,P|346:316|355:357,1,85,0|0,0:0|1:0,0:0:0:0:
376,189,57327,2,0,P|315:177|263:216,1,127.5,8|0,0:0|0:0,0:0:0:0:
249,243,57658,1,2,1:2:0:0:
60,154,57824,1,0,1:2:0:0:
110,227,57990,1,8,0:0:0:0:
241,75,58155,1,10,0:0:0:0:
130,0,58321,6,0,P|143:62|154:125,1,127.5,4|0,1:2|0:0,0:0:0:0:
161,158,58653,1,10,0:0:0:0:
300,0,58818,1,2,0:0:0:0:
323,93,58984,2,0,P|278:83|238:74,1,85,2|0,1:2|1:2,0:0:0:0:
428,265,59316,1,10,0:0:0:0:
484,186,59481,6,0,P|403:170|338:222,1,170,2|0,1:2|1:0,0:0:0:0:
154,125,59979,2,0,P|206:161|276:144,1,127.5,10|0,0:0|0:0,0:0:0:0:
294,128,60310,1,2,1:2:0:0:
110,232,60476,1,0,1:0:0:0:
244,368,60642,2,0,P|234:323|223:283,1,85,10|8,0:0|0:0,0:0:0:0:
120,336,60973,5,6,1:2:0:0:
306,227,61139,1,2,1:2:0:0:
343,345,61304,5,2,1:2:0:0:
195,194,61470,1,8,0:2:0:0:
419,141,61636,1,0,1:2:0:0:
306,227,61802,1,8,0:0:0:0:
306,227,61885,1,8,0:0:0:0:
306,227,61967,1,6,1:2:0:0:
207,86,62133,6,0,P|248:76|304:61,1,85,2|0,0:2|0:0,0:0:0:0:
46,43,62465,1,0,1:2:0:0:
90,203,62630,2,0,P|100:158|111:120,1,85,8|2,0:0|0:0,0:0:0:0:
290,66,62962,5,8,0:0:0:0:
455,151,63128,1,8,0:3:0:0:
455,151,63211,1,8,0:0:0:0:
455,151,63293,2,0,L|406:138,1,42.5,8|8,0:0|0:0,0:0:0:0:
290,66,63459,2,0,L|339:53,1,42.5,10|8,0:0|0:0,0:0:0:0:
410,257,63625,6,0,B|371:263|347:280|347:280|308:268|308:268|282:283|247:287,1,170,6|10,1:2|0:2,0:0:0:0:
74,183,64122,1,2,0:2:0:0:
116,343,64288,2,0,P|126:301|139:261,1,85,0|2,1:2|1:2,0:0:0:0:
248,53,64619,1,8,0:2:0:0:
157,123,64785,6,0,P|237:105|305:160,1,170,2|0,1:2|1:0,0:0:0:0:
512,41,65282,2,0,P|463:80|401:73,1,127.5,10|0,0:2|0:0,0:0:0:0:
369,56,65614,1,0,1:2:0:0:
497,172,65780,1,0,1:2:0:0:
325,263,65945,2,0,P|315:221|304:180,1,85,10|8,0:2|0:2,0:0:0:0:
302,155,66194,1,2,0:0:0:0:
302,155,66277,5,2,1:2:0:0:
212,239,66443,1,0,0:0:0:0:
418,192,66608,1,2,1:2:0:0:
351,372,66774,2,0,P|310:358|269:347,1,85,10|0,0:2|0:0,0:0:0:0:
130,215,67106,2,0,P|171:227|212:239,1,85,2|0,1:2|1:2,0:0:0:0:
362,82,67437,6,0,P|280:65|204:133,1,170,10|0,0:2|1:0,0:0:0:0:
35,249,67934,2,0,B|14:150|81:188|65:88,1,170,8|0,0:2|1:2,0:0:0:0:
148,315,68432,1,0,1:2:0:0:
212,236,68597,2,0,P|171:224|130:215,1,85,10|8,0:2|0:2,0:0:0:0:
305,211,68929,6,0,P|365:203|423:261,1,127.5,6|0,1:2|0:0,0:0:0:0:
429,265,69260,1,10,0:2:0:0:
512,161,69426,1,0,1:2:0:0:
430,286,69592,1,8,0:2:0:0:
431,94,69758,1,0,1:2:0:0:
426,304,69923,1,8,0:2:0:0:
330,78,70089,1,0,1:2:0:0:
421,324,70255,6,0,L|365:337,3,42.5,8|0|0|0,0:2|1:2|1:2|1:2,0:0:0:0:
263,220,70586,2,0,L|304:210,3,42.5,2|0|0|0,1:2|1:2|1:2|1:2,0:0:0:0:
178,361,70918,6,0,L|187:319,1,42.5,10|8,0:2|0:2,0:0:0:0:
85,211,71084,2,0,L|94:252,1,42.5,8|8,0:2|0:2,0:0:0:0:
169,166,71249,1,10,0:2:0:0:
146,130,71331,1,8,0:2:0:0:
109,110,71414,1,8,0:2:0:0:
66,111,71497,1,8,0:2:0:0:
30,132,71580,1,4,1:2:0:0:
316,7,71746,5,2,0:2:0:0:
323,42,71829,1,2,0:2:0:0:
330,78,71912,2,0,P|302:81|286:88,1,42.5,10|2,0:2|0:2,0:0:0:0:
169,166,72078,2,0,P|196:169|212:176,1,42.5,2|2,0:2|0:2,0:0:0:0:
295,254,72244,6,0,P|329:230|371:232,1,85,2|0,1:2|0:0,0:0:0:0:
407,362,72492,2,0,P|369:343|349:306,1,85,2|0,1:2|0:0,0:0:0:0:
428,290,72741,1,0,1:2:0:0:
428,290,73072,5,2,1:2:0:0:
330,78,73238,1,8,0:2:0:0:
195,268,73404,1,2,0:2:0:0:
195,268,73735,1,2,1:2:0:0:
195,268,74067,1,2,0:3:0:0:
313,212,74233,1,0,1:2:0:0:
139,150,74398,5,2,0:2:0:0:
139,150,74481,1,2,0:2:0:0:
139,150,74564,2,0,L|188:138,1,42.5,10|2,0:2|0:2,0:0:0:0:
313,212,74730,2,0,L|264:200,1,42.5,2|2,0:2|0:2,0:0:0:0:
214,350,74896,6,0,L|195:268,1,85,2|0,1:2|0:0,0:0:0:0:
108,256,75144,2,0,L|127:338,1,85,2|0,1:2|0:0,0:0:0:0:
40,322,75393,1,0,1:2:0:0:
40,322,75724,1,2,1:2:0:0:
108,256,75890,1,8,0:2:0:0:
0,83,76056,1,2,0:2:0:0:
0,83,76387,2,0,L|82:64,1,85,2|8,1:2|0:2,0:0:0:0:
155,0,76719,1,2,0:3:0:0:
88,173,76885,6,0,P|97:212|107:255,1,85,4|0,1:2|0:0,0:0:0:0:
203,205,77216,1,10,0:2:0:0:
29,318,77382,2,0,P|88:307|145:368,1,127.5,2|0,0:2|0:0,0:0:0:0:
213,384,77713,2,0,P|221:337|231:301,1,85,2|8,1:2|0:2,0:0:0:0:
334,110,78045,6,0,B|340:149|357:173|357:173|345:212|345:212|360:238|364:273,1,170,2|2,1:2|1:2,0:0:0:0:
363,270,78459,1,2,0:2:0:0:
363,270,78542,2,0,L|423:283,1,42.5,10|2,0:2|0:2,0:0:0:0:
503,210,78708,2,0,L|461:201,1,42.5,2|2,0:2|0:2,0:0:0:0:
327,103,78874,5,2,1:2:0:0:
305,126,78957,1,2,0:2:0:0:
276,139,79040,1,2,1:2:0:0:
245,139,79123,1,2,0:2:0:0:
216,126,79205,2,0,L|207:84,1,42.5,10|0,0:2|0:0,0:0:0:0:
127,0,79371,5,2,0:3:0:0:
127,0,79702,1,0,0:0:0:0:
24,119,79868,2,0,P|66:106|117:95,1,85,10|0,0:0|0:0,0:0:0:0:
271,231,80200,2,0,P|223:194|150:218,1,127.5,2|2,1:2|0:2,0:0:0:0:
142,236,80531,2,0,P|151:278|163:335,1,85,8|2,0:0|1:2,0:0:0:0:
305,126,80863,6,0,P|344:136|387:147,1,85,0|2,0:0|1:2,0:0:0:0:
372,340,81194,1,10,0:0:0:0:
271,231,81360,1,2,0:0:0:0:
483,169,81525,1,10,0:0:0:0:
392,247,81691,1,8,0:3:0:0:
392,247,81774,1,8,0:3:0:0:
392,247,81857,1,8,0:0:0:0:
321,27,82023,2,0,L|279:37,1,42.5,8|8,0:0|0:0,0:0:0:0:
194,90,82188,6,0,P|259:85|308:125,1,127.5,6|0,1:2|0:0,0:0:0:0:
322,152,82520,1,10,0:2:0:0:
149,261,82686,1,2,1:2:0:0:
280,366,82851,2,0,P|268:321|258:270,1,85,8|0,0:2|1:2,0:0:0:0:
66,240,83183,2,0,P|107:251|148:260,1,85,10|2,0:2|1:2,0:0:0:0:
227,169,83514,5,10,0:2:0:0:
95,73,83680,2,0,P|105:114|114:155,1,85,0|8,1:2|0:2,0:0:0:0:
260,283,84012,2,0,P|309:245|372:257,1,127.5,2|0,1:2|0:0,0:0:0:0:
401,282,84343,1,10,0:2:0:0:
510,372,84509,2,0,L|470:384,3,42.5,2|0|10|10,1:2|1:2|0:2|0:2,0:0:0:0:
382,364,84840,6,0,L|401:280,1,85,6|0,1:2|0:0,0:0:0:0:
312,64,85172,1,10,0:2:0:0:
512,196,85338,2,0,P|450:206|401:169,1,127.5,2|0,1:2|0:0,0:0:0:0:
376,142,85669,2,0,P|336:152|294:162,1,85,0|10,1:2|0:2,0:0:0:0:
108,219,86001,1,2,1:2:0:0:
217,312,86166,5,2,1:2:0:0:
217,312,86249,1,0,1:2:0:0:
217,312,86332,2,0,L|230:253,1,42.5,0|0,1:2|1:2,0:0:0:0:
98,177,86498,1,0,1:2:0:0:
98,177,86581,1,0,1:2:0:0:
98,177,86664,2,0,L|111:236,1,42.5,0|0,1:2|1:2,0:0:0:0:
192,89,86829,6,0,L|233:98,1,42.5,8|8,0:2|0:2,0:0:0:0:
293,162,86995,2,0,L|328:139,1,42.5,10|8,0:2|0:2,0:0:0:0:
420,134,87161,2,0,L|429:92,1,42.5,8|8,0:2|0:2,0:0:0:0:
488,26,87327,5,2,0:2:0:0:
256,192,92796,6,0,B|168:172|194:226|109:209,1,152.999995330811,2|2,1:2|1:2,0:0:0:0:
2,155,93293,1,2,1:2:0:0:
83,45,93459,2,0,P|90:81|101:141,1,76.4999976654053,2|2,1:2|1:2,0:0:0:0:
188,244,93791,1,2,1:2:0:0:
308,108,93956,1,2,1:2:0:0:
399,188,94122,6,0,L|361:197,3,38.2499988327027,0|0|0|0,1:2|1:2|1:2|1:2,0:0:0:0:
476,60,94454,2,0,L|514:70,3,38.2499988327027,2|0|0|0,1:2|1:2|1:2|1:2,0:0:0:0:
341,17,94785,5,2,1:2:0:0:
303,7,94867,1,0,1:2:0:0:
266,13,94950,1,0,1:2:0:0:
238,38,95033,1,0,1:2:0:0:
209,63,95116,1,10,0:2:0:0:
172,70,95199,1,8,0:0:0:0:
135,61,95282,2,0,L|125:24,1,38.2499988327027,8|0,0:3|0:0,0:0:0:0:
256,192,95448,5,6,1:2:0:0:
134,164,95614,1,2,1:2:0:0:
12,136,95780,1,2,1:2:0:0:
56,252,95945,5,8,0:0:0:0:
135,61,96111,1,0,1:2:0:0:
256,192,96277,1,8,0:0:0:0:
256,192,96360,1,8,0:0:0:0:
256,192,96443,1,6,1:2:0:0:
341,17,96608,6,0,B|398:32|398:32|427:22|427:22|488:38,1,152.999995330811,2|0,0:2|1:0,0:0:0:0:
459,202,97106,2,0,L|433:92,1,76.4999976654053,8|2,0:0|0:0,0:0:0:0:
440,127,97354,1,0,0:0:0:0:
440,127,97437,1,10,0:0:0:0:
256,192,97603,6,0,L|293:200,1,38.2499988327027,8|8,0:0|0:0,0:0:0:0:
432,312,97769,1,8,0:0:0:0:
399,292,97851,1,8,0:0:0:0:
361,290,97934,1,10,0:0:0:0:
327,306,98017,1,8,0:0:0:0:
305,337,98100,6,0,B|206:358|244:291|144:307,1,170,6|10,1:2|0:2,0:0:0:0:
42,188,98597,1,2,0:2:0:0:
214,91,98763,1,0,1:2:0:0:
96,14,98929,2,0,P|105:55|116:119,1,85,2|8,1:2|0:2,0:0:0:0:
0,285,99260,6,0,P|31:243|152:253,1,170,2|0,1:2|0:0,0:0:0:0:
296,111,99758,2,0,P|252:100|194:86,1,85,10|0,0:2|0:0,0:0:0:0:
437,207,100089,2,0,P|394:218|354:227,1,85,0|0,1:2|1:2,0:0:0:0:
250,211,100421,1,10,0:2:0:0:
355,327,100586,1,8,0:2:0:0:
508,136,100752,6,0,P|446:148|396:108,1,127.5,2|0,1:2|0:0,0:0:0:0:
379,76,101084,1,2,1:2:0:0:
203,17,101249,2,0,P|212:57|222:106,1,85,10|0,0:2|0:0,0:0:0:0:
305,9,101581,1,2,1:2:0:0:
111,86,101746,1,0,1:2:0:0:
130,177,101912,6,0,B|171:139|216:154|216:154|243:197|299:193,1,170,10|0,0:2|0:0,0:0:0:0:
376,293,102409,2,0,P|314:281|264:321,1,127.5,10|0,0:2|0:0,0:0:0:0:
247,350,102741,1,0,1:2:0:0:
130,177,102907,1,0,1:2:0:0:
59,258,103072,2,0,P|101:264|154:277,1,85,10|8,0:2|0:2,0:0:0:0:
413,97,103404,6,0,B|370:112|347:150|347:150|318:122|270:122,1,170,6|10,1:2|0:2,0:0:0:0:
497,53,103901,1,2,1:2:0:0:
347,149,104067,2,0,P|334:192|323:245,1,85,8|0,0:2|1:2,0:0:0:0:
201,47,104398,2,0,P|242:37|283:25,1,85,8|0,0:2|1:2,0:0:0:0:
7,107,104730,5,8,0:2:0:0:
171,227,104896,1,0,1:2:0:0:
201,47,105061,1,8,0:2:0:0:
71,196,105227,1,8,0:2:0:0:
260,279,105393,2,0,P|300:265|343:256,1,85,0|8,0:0|0:2,0:0:0:0:
374,88,105724,2,0,L|368:130,3,42.5,0|0|8|0,1:2|0:0|0:2|0:0,0:0:0:0:
300,172,106056,6,0,P|351:160|419:201,1,127.5,6|0,1:2|0:0,0:0:0:0:
438,226,106387,1,10,0:2:0:0:
288,24,106553,1,2,1:2:0:0:
456,68,106719,2,0,P|415:77|368:89,1,85,10|2,0:2|1:2,0:0:0:0:
177,213,107050,6,0,P|227:248|287:233,1,127.5,10|0,0:2|0:0,0:0:0:0:
309,213,107382,2,0,L|299:171,1,42.5,10|0,0:2|1:2,0:0:0:0:
205,38,107548,2,0,L|195:80,1,42.5,0|0,1:2|1:2,0:0:0:0:
56,190,107713,5,8,0:2:0:0:
56,190,107796,1,0,1:2:0:0:
56,190,107879,1,0,1:2:0:0:
77,167,107961,1,0,1:2:0:0:
107,155,108044,1,8,0:2:0:0:
138,156,108127,1,0,1:2:0:0:
167,171,108211,2,0,L|177:213,1,42.5,0|0,1:2|1:2,0:0:0:0:
133,344,108376,2,0,L|123:302,1,42.5,8|8,0:2|0:2,0:0:0:0:
268,204,108542,5,8,0:2:0:0:
288,208,108624,1,8,0:2:0:0:
309,213,108708,2,0,L|393:195,1,76.4999976654053,6|2,1:2|0:2,0:0:0:0:
384,17,109039,2,0,L|366:101,1,76.4999976654053,2|2,0:2|0:2,0:0:0:0:
131,63,109371,2,0,P|183:28|241:46,1,114.749996498108,2|0,0:2|0:0,0:0:0:0:
257,59,109702,1,2,0:2:0:0:
191,241,109868,1,2,0:2:0:0:
87,143,110034,6,0,B|144:158|144:158|173:148|173:148|234:164,2,152.999995330811,2|2|2,0:2|0:2|0:2,0:0:0:0:
87,143,110863,1,2,0:2:0:0:
196,245,111028,2,0,L|214:329,1,76.4999976654053,2|0,0:2|0:0,0:0:0:0:
423,213,111360,5,2,0:2:0:0:
330,189,111525,1,2,0:2:0:0:
430,45,111691,2,0,L|448:129,1,76.4999976654053,2|2,0:2|0:2,0:0:0:0:
346,263,112023,2,0,L|329:188,1,76.4999976654053,2|2,0:2|0:2,0:0:0:0:
260,71,112354,5,2,0:2:0:0:
353,95,112519,1,2,0:2:0:0:
260,71,112686,2,0,L|186:89,1,76.4999976654053,2|2,0:2|0:2,0:0:0:0:
77,165,113017,2,0,L|151:183,1,76.4999976654053,2|2,0:2|0:2,0:0:0:0:
152,184,113266,1,8,0:3:0:0:
152,184,113349,5,8,0:0:0:0:
94,73,113514,1,8,0:0:0:0:
101,296,113680,1,8,0:0:0:0:
291,177,113846,1,8,0:0:0:0:
