osu file format v14

[General]
AudioFilename: audio.mp3
AudioLeadIn: 0
PreviewTime:52226
Countdown: 0
SampleSet: None
StackLeniency: 0.7
Mode: 0
LetterboxInBreaks: 0
WidescreenStoryboard: 0

[Editor]
Bookmarks: 13359,22723,23469,32585,34243,44850,52640,71370,81977,87281,92585,93911
DistanceSpacing: 1.2
BeatDivisor: 4
GridSize: 16
TimelineZoom: 1.8

[Metadata]
Title:Four Leaves
TitleUnicode:Four Leaves
Artist:Endorfin.
ArtistUnicode:Endorfin.
Creator:-Atri-
Version:Toyosaki's Normal
Source:SOUND VOLTEX IV HEAVENLY HAVEN
Tags:KuranteMelodii krt Firis Mistlud Toyosaki Aki DigiDrake hvick225 hvick snowwhite AncuL Cherry Blossom CB sukinathan nathan sdvx 藍月なくる aitsuki nakuru sky_delta sky delta video games japanese pop
BeatmapID:2205836
BeatmapSetID:903220

[Difficulty]
HPDrainRate:4
CircleSize:3.2
OverallDifficulty:5
ApproachRate:5
SliderMultiplier:1.1
SliderTickRate:1

[Events]
//Background and Video events
0,0,"clover.jpg"
//Break Periods
2,13060,19783
2,87315,91385
//Storyboard Layer 0 (Background)
//Storyboard Layer 1 (Fail)
//Storyboard Layer 2 (Pass)
//Storyboard Layer 3 (Foreground)
//Storyboard Layer 4 (Overlay)
//Storyboard Sound Samples

[TimingPoints]
1094,331.491712707182,4,2,1,70,1,0
9049,-100,4,2,1,70,0,0
10044,-100,4,2,1,70,0,0
11370,-100,4,2,1,70,0,0
20983,-100,4,2,1,40,0,0
21646,-100,4,2,1,50,0,0
22309,-100,4,2,1,70,0,0
47502,-100,4,2,1,40,0,0
48828,-100,4,2,1,70,0,0
52640,-100,4,2,1,70,0,1
60762,-100,4,2,1,70,0,1
61922,-100,4,2,1,70,0,1
62751,-100,4,2,1,70,0,0
63414,-100,4,2,1,70,0,1
68718,-100,4,2,1,70,0,1
71370,-100,4,2,1,70,0,0
81977,-100,4,2,1,70,0,0
84629,-100,4,2,1,70,0,0
85955,-100,4,2,1,40,0,0
86618,-100,4,2,1,60,0,0
87116,-100,4,2,1,70,0,0
92585,-100,4,2,1,40,0,0
93580,-100,4,2,1,50,0,0
94243,-100,4,2,1,60,0,0
94906,-100,4,2,1,70,0,0
95237,-100,4,2,1,70,0,1
96397,-100,4,2,1,70,0,1
97226,-100,4,2,1,70,0,0
97889,-100,4,2,1,70,0,1
103193,-100,4,2,1,70,0,1
107254,-100,4,2,1,50,0,1
107834,-100,4,2,1,70,0,1
108497,-100,4,2,1,70,0,0

[Colours]
Combo1 : 63,169,248
Combo2 : 0,128,0
Combo3 : 138,0,0
Combo4 : 0,255,0

[HitObjects]
114,251,1094,6,0,P|126:304|135:358,2,110,4|0|0,3:2|0:0|1:0,0:0:0:0:
80,207,1922,2,0,L|94:153,1,55,0|0,1:0|1:0,0:0:0:0:
113,101,2254,1,0,1:0:0:0:
199,169,2585,2,0,P|250:183|294:153,1,110,0|0,0:0|1:0,0:0:0:0:
324,107,3082,2,0,L|313:53,2,55
419,161,3745,6,0,B|407:205|407:205|411:218|411:218|399:267,1,110,4|0,3:2|0:0,0:0:0:0:
389,321,4243,1,0,1:0:0:0:
389,321,4408,2,0,P|344:291|291:302,1,110,0|0,1:0|0:0,0:0:0:0:
246,334,4906,2,0,L|231:280,1,55,8|0,0:0|0:0,0:0:0:0:
193,241,5237,1,2,0:0:0:0:
84,259,5569,1,0,1:0:0:0:
84,259,5734,2,0,L|96:205,1,55,0|0,1:0|1:0,0:0:0:0:
133,164,6066,1,0,1:0:0:0:
73,71,6397,6,0,L|14:83,2,55,4|0|0,3:2|0:0|0:0,0:0:0:0:
115,35,6895,1,0,1:0:0:0:
115,35,7060,2,0,L|174:47,1,55,0|0,1:0|1:0,0:0:0:0:
222,60,7392,1,0,1:0:0:0:
298,138,7723,1,0,1:0:0:0:
298,138,7889,2,0,L|351:127,2,55,0|0|0,1:0|1:0|1:0,0:0:0:0:
264,181,8386,1,2,1:2:0:0:
298,285,8718,1,2,1:2:0:0:
214,356,9049,5,14,0:2:0:0:
214,356,9215,2,0,L|154:343,1,55,0|0,1:0|0:0,0:0:0:0:
107,361,9547,2,0,B|87:307|87:307|116:264,1,110,14|8,0:0|0:0,0:0:0:0:
165,238,10044,2,0,L|140:74,1,165,6|0,3:2|3:0,0:0:0:0:
161,23,10707,1,0,1:0:0:0:
243,95,11038,6,0,B|283:89|283:89|307:74|307:74|348:69,1,110,2|0,1:2|1:0,0:0:0:0:
398,46,11535,2,0,P|441:76|442:129,1,110,2|0,1:2|1:0,0:0:0:0:
404,169,12033,1,2,1:2:0:0:
404,169,12198,2,0,L|426:290,2,110,2|2|4,1:2|1:2|3:2,0:0:0:0:
83,281,20983,6,0,B|57:330|57:330|81:379,2,110,2|0|2,1:2|1:0|1:2,0:0:0:0:
77,225,21812,2,0,P|124:250|173:229,1,110,2|0,1:2|1:0,0:0:0:0:
193,178,22309,1,2,1:2:0:0:
288,232,22640,1,2,1:2:0:0:
392,195,22972,2,0,P|418:187|444:180,2,55,2|2|10,1:2|1:2|0:2,0:0:0:0:
342,170,23469,6,0,L|359:61,1,110,4|0,3:2|3:0,0:0:0:0:
337,11,23966,1,8,0:0:0:0:
254,83,24298,2,0,B|144:68,1,110,0|10,3:0|0:0,0:0:0:0:
95,44,24795,2,0,B|57:73|57:73|74:132,1,110,2|0,3:2|3:0,0:0:0:0:
90,185,25292,1,10,0:0:0:0:
186,238,25624,1,0,3:0:0:0:
186,238,25790,2,0,P|177:265|170:291,1,55,2|8,3:2|0:0,0:0:0:0:
154,343,26121,6,0,P|201:368|252:351,1,110,2|0,3:2|3:0,0:0:0:0:
286,308,26618,1,8,0:0:0:0:
390,341,26950,1,0,3:0:0:0:
390,341,27116,2,0,L|380:286,1,55,0|8,3:0|0:0,0:0:0:0:
348,241,27447,2,0,P|356:186|366:132,1,110,0|0,3:0|3:0,0:0:0:0:
390,83,27944,1,8,0:0:0:0:
293,29,28276,2,0,P|266:35|239:41,1,55,2|0,3:2|3:0,0:0:0:0:
202,82,28607,2,0,P|175:76|148:69,1,55,10|6,0:0|3:2,0:0:0:0:
101,40,28939,6,0,P|114:93|126:147,1,110,6|8,3:2|0:0,0:0:0:0:
211,217,29602,1,0,3:0:0:0:
211,217,29768,2,0,P|203:243|196:270,1,55,0|8,3:0|0:0,0:0:0:0:
176,321,30099,2,0,P|123:329|83:294,1,110,2|0,3:2|3:0,0:0:0:0:
67,241,30596,1,10,0:0:0:0:
126,147,30928,1,0,3:0:0:0:
126,147,31093,2,0,L|113:93,2,55,0|10|10,3:0|0:0|0:0,0:0:0:0:
172,176,31591,6,0,L|279:151,1,110,4|8,3:2|0:0,0:0:0:0:
362,79,32254,2,0,P|375:103|386:128,1,55,0|0,3:0|3:0,0:0:0:0:
432,157,32585,1,10,0:0:0:0:
432,157,32751,2,0,P|417:209|403:263,1,110,2|8,3:2|0:0,0:0:0:0:
342,354,33414,2,0,P|330:329|318:304,1,55,2|8,0:0|0:0,0:0:0:0:
270,277,33745,2,0,P|280:251|289:225,2,55,2|0|2,1:2|1:0|1:2,0:0:0:0:
222,305,34243,6,0,P|169:319|126:284,1,110,6|0,3:2|3:0,0:0:0:0:
167,184,34906,1,8,0:0:0:0:
123,82,35237,2,0,B|81:68|81:68|20:92,2,110,4|0|8,3:2|3:0|0:0,0:0:0:0:
174,103,36066,1,10,0:0:0:0:
174,103,36232,2,0,P|227:90|281:80,1,110,0|10,3:0|0:0,0:0:0:0:
346,169,36895,6,0,P|292:179|238:191,1,110,6|0,3:2|3:0,0:0:0:0:
143,247,37558,1,8,0:0:0:0:
36,218,37889,2,0,B|12:246|12:246|26:317,2,110,4|0|8,3:2|3:0|0:0,0:0:0:0:
73,177,38718,1,10,0:0:0:0:
73,177,38884,2,0,P|66:150|61:123,1,55,0|0,0:0|3:0,0:0:0:0:
39,72,39215,1,10,0:0:0:0:
137,22,39547,6,0,B|173:52|173:52|162:114,1,110,6|0,3:2|0:0,0:0:0:0:
179,167,40044,1,0,3:0:0:0:
179,167,40210,2,0,P|228:144|280:158,1,110,8|0,0:0|0:0,0:0:0:0:
300,210,40707,2,0,P|352:223|401:201,1,110,2|8,3:2|0:0,0:0:0:0:
432,156,41204,1,0,0:0:0:0:
474,257,41535,1,8,0:0:0:0:
414,349,41867,2,0,P|386:343|356:338,1,55,8|0,0:0|3:0,0:0:0:0:
317,303,42198,5,14,0:0:0:0:
317,303,42364,2,0,P|289:308|259:314,1,55,0|0,3:0|3:0,0:0:0:0:
218,345,42696,2,0,P|221:290|227:235,1,110,14|0,0:0|3:0,0:0:0:0:
207,184,43193,2,0,P|132:168|99:237,1,165,6|0,3:2|3:0,0:0:0:0:
128,284,43856,1,8,0:0:0:0:
21,310,44187,2,0,L|8:363,2,55,8|0|14,0:0|3:0|0:0,0:0:0:0:
3,201,44850,5,6,0:0:0:0:
87,130,45182,1,2,0:0:0:0:
69,21,45513,2,0,L|126:32,1,55,2|0,0:0|0:0,0:0:0:0:
166,66,45845,2,0,L|223:77,1,55,2|0,0:0|0:0,0:0:0:0:
265,47,46176,2,0,P|318:35|361:66,2,110,2|2|2,0:0|0:0|0:0,0:0:0:0:
245,155,47171,1,2,0:0:0:0:
323,231,47502,6,0,L|308:339,1,110,2|0,1:2|1:0,0:0:0:0:
199,359,48165,2,0,L|213:250,1,110,0|0,1:0|1:0,0:0:0:0:
147,161,48828,2,0,L|39:182,1,110,0|0,1:0|1:0,0:0:0:0:
10,76,49491,2,0,L|117:54,1,110,2|2,1:2|1:2,0:0:0:0:
223,85,50154,5,0,1:0:0:0:
330,63,50486,1,0,3:0:0:0:
391,154,50817,1,0,3:0:0:0:
284,176,51149,1,8,0:0:0:0:
238,289,51480,1,0,3:0:0:0:
345,267,51812,1,2,0:0:0:0:
131,311,52640,6,0,P|121:256|110:202,1,110,4|0,3:2|3:0,0:0:0:0:
79,156,53138,1,8,0:0:0:0:
127,57,53469,1,0,3:0:0:0:
127,57,53635,2,0,P|153:63|180:69,1,55,0|8,3:0|0:0,0:0:0:0:
223,103,53966,2,0,P|264:68|317:72,2,110,0|0|8,3:0|3:0|0:0,0:0:0:0:
191,148,54795,2,0,L|204:201,1,55,0|0,3:0|3:0,0:0:0:0:
256,219,55127,2,0,L|242:272,1,55,8|8,0:0|0:0,0:0:0:0:
228,324,55458,6,0,B|281:346|281:346|330:323,1,110,0|8,3:0|0:0,0:0:0:0:
439,313,56121,1,0,3:0:0:0:
439,313,56287,2,0,P|432:286|425:259,1,55,0|8,3:0|0:0,0:0:0:0:
382,223,56618,2,0,P|390:168|401:114,1,110,0|0,3:0|3:0,0:0:0:0:
426,65,57116,1,8,0:0:0:0:
319,36,57447,2,0,P|291:40|264:45,1,55,0|0,3:0|3:0,0:0:0:0:
220,79,57779,2,0,P|192:73|165:69,1,55,8|8,0:0|0:0,0:0:0:0:
119,39,58110,6,0,P|128:93|136:147,1,110,0|8,3:0|0:0,0:0:0:0:
219,220,58773,1,0,3:0:0:0:
219,220,58939,2,0,L|209:274,1,55,0|8,3:0|0:0,0:0:0:0:
201,328,59270,2,0,B|263:317|263:317|297:291|297:291|355:284,1,165,0|8,3:0|0:0,0:0:0:0:
463,309,60099,1,0,3:0:0:0:
511,210,60431,1,8,0:0:0:0:
430,134,60762,5,12,0:0:0:0:
430,134,60928,2,0,L|368:147,1,55,0|0,3:0|3:0,0:0:0:0:
329,175,61259,1,12,0:0:0:0:
329,175,61425,2,0,L|275:163,1,55,0|0,3:0|3:0,0:0:0:0:
228,134,61756,1,0,1:0:0:0:
228,134,61922,2,0,P|174:144|120:156,1,110,6|0,3:2|3:0,0:0:0:0:
67,170,62419,1,8,0:0:0:0:
114,269,62751,2,0,P|104:315|91:372,2,82.5,8|0|0,0:0|1:0|1:0,0:0:0:0:
154,231,63414,6,0,B|193:261|193:261|251:247,1,110,4|8,3:2|0:0,0:0:0:0:
359,271,64077,2,0,L|411:287,2,55,0|0|8,3:0|3:0|0:0,0:0:0:0:
331,223,64574,2,0,P|336:168|343:113,1,110,4|0,3:2|3:0,0:0:0:0:
320,63,65071,1,8,0:0:0:0:
221,112,65403,2,0,P|194:106|164:99,1,55,0|0,3:0|3:0,0:0:0:0:
135,54,65734,2,0,P|108:60|81:66,1,55,8|8,0:0|0:0,0:0:0:0:
27,79,66066,6,0,P|1:126|19:176,1,110,4|0,3:2|3:0,0:0:0:0:
67,204,66563,1,8,0:0:0:0:
174,180,66895,2,0,P|167:206|160:233,1,55,0|0,3:0|3:0,0:0:0:0:
146,286,67226,2,0,B|193:266|193:266|249:286,1,110,8|0,0:0|3:0,0:0:0:0:
297,309,67723,2,0,P|323:261|302:208,1,110,8|0,0:0|3:0,0:0:0:0:
257,182,68221,1,0,3:0:0:0:
257,182,68386,2,0,P|263:155|270:128,1,55,12|0,0:0|0:0,0:0:0:0:
259,74,68718,5,12,0:0:0:0:
363,38,69049,1,8,0:0:0:0:
449,106,69381,2,0,L|433:159,1,55,8|0,0:0|3:0,0:0:0:0:
386,188,69712,2,0,L|402:241,1,55,8|0,0:0|3:0,0:0:0:0:
421,292,70044,1,8,0:0:0:0:
326,348,70375,1,8,0:0:0:0:
250,267,70707,2,0,L|263:207,2,55,0|0|8,3:0|1:0|0:0,0:0:0:0:
172,345,71370,6,0,B|133:323|133:323|70:342,1,110,4|10,3:2|0:0,0:0:0:0:
8,251,72033,1,2,3:2:0:0:
8,251,72198,2,0,L|21:194,1,55,0|8,3:0|0:0,0:0:0:0:
62,161,72530,2,0,P|49:107|35:54,2,110,2|2|2,0:0|3:2|0:0,0:0:0:0:
147,230,73524,1,2,0:0:0:0:
214,142,73856,6,0,B|251:129|251:129|317:152,1,110,2|0,3:2|3:0,0:0:0:0:
368,173,74353,1,10,0:0:0:0:
429,264,74685,2,0,L|482:249,2,55,2|0|8,3:2|3:0|0:0,0:0:0:0:
390,302,75182,1,2,0:0:0:0:
289,258,75513,1,2,0:0:0:0:
198,321,75845,1,2,0:0:0:0:
97,277,76176,1,2,0:0:0:0:
97,277,76342,2,0,L|107:222,1,55,8|0,0:0|3:0,0:0:0:0:
85,170,76674,6,0,P|136:189|184:166,1,110,4|10,3:2|0:0,0:0:0:0:
235,69,77337,2,0,P|230:41|224:15,2,55,0|2|8,3:0|3:2|0:0,0:0:0:0:
271,110,77834,2,0,P|324:97|378:84,1,110,2|2,3:2|3:2,0:0:0:0:
431,73,78331,2,0,L|423:127,1,55,10|2,0:0|0:0,0:0:0:0:
384,167,78663,2,0,L|376:221,1,55,2|2,3:2|3:2,0:0:0:0:
406,267,78994,2,0,L|398:321,1,55,8|2,0:0|0:0,0:0:0:0:
359,360,79326,5,0,3:0:0:0:
276,287,79657,1,8,0:0:0:0:
185,351,79989,2,0,P|148:366|108:359,2,82.5,2|2|2,3:2|0:0|3:2,0:0:0:0:
173,241,80817,1,2,3:2:0:0:
173,241,80983,2,0,L|181:186,1,55,10|2,0:0|3:2,0:0:0:0:
211,140,81314,2,0,P|248:156|287:171,2,82.5,2|2|2,3:2|0:0|3:2,0:0:0:0:
180,94,81977,5,12,0:0:0:0:
71,113,82309,1,8,0:0:0:0:
11,205,82640,1,8,0:0:0:0:
120,224,82972,1,8,0:0:0:0:
181,314,83303,2,0,P|234:299|287:286,1,110,8|8,0:0|0:0,0:0:0:0:
363,207,83966,2,0,P|309:192|256:179,1,110,8|0,0:0|1:0,0:0:0:0:
196,86,84629,5,4,3:2:0:0:
264,1,84961,1,12,0:0:0:0:
368,39,85292,1,8,0:0:0:0:
361,149,85624,1,10,0:0:0:0:
256,179,85955,2,0,P|95:171|154:322,1,385,0|4,1:0|1:0,0:0:0:0:
359,259,92585,6,0,P|398:223|452:225,2,110,0|0|0,1:0|1:0|1:0,0:0:0:0:
317,361,93580,1,0,1:0:0:0:
253,271,93911,2,0,B|217:295|217:295|152:276,2,110,0|0|0,1:0|1:0|1:0,0:0:0:0:
299,170,94906,1,12,0:0:0:0:
217,95,95237,5,12,0:0:0:0:
217,95,95403,2,0,L|162:108,1,55,0|0,3:0|3:0,0:0:0:0:
121,143,95733,1,12,0:0:0:0:
121,143,95900,2,0,L|67:130,1,55,0|0,3:0|3:0,0:0:0:0:
18,103,96232,1,8,0:0:0:0:
18,103,96397,2,0,P|33:155|45:209,1,110,4|0,3:2|3:0,0:0:0:0:
30,262,96895,1,8,0:0:0:0:
119,325,97226,2,0,P|155:343|193:332,2,82.5,10|2|2,0:0|0:0|1:2,0:0:0:0:
118,269,97889,6,0,L|148:159,1,110,4|8,3:2|0:0,0:0:0:0:
206,69,98552,1,0,3:0:0:0:
206,69,98718,2,0,P|214:95|223:121,1,55,0|8,3:0|0:0,0:0:0:0:
239,173,99049,2,0,P|285:145|337:159,1,110,0|0,3:0|3:0,0:0:0:0:
376,197,99547,2,0,P|367:224|361:250,1,55,8|0,0:0|0:0,0:0:0:0:
317,284,99878,2,0,P|325:310|331:336,1,55,0|0,3:0|3:0,0:0:0:0:
370,376,100210,1,8,0:0:0:0:
470,332,100541,6,0,B|486:299|486:299|467:226,1,110,0|0,3:0|3:0,0:0:0:0:
453,174,101038,1,8,0:0:0:0:
456,63,101370,2,0,L|517:44,2,55,0|0|8,3:0|3:0|0:2,0:0:0:0:
409,91,101867,1,0,3:0:0:0:
321,24,102198,1,8,0:0:0:0:
222,73,102530,2,0,L|167:65,2,55,0|0|12,3:0|3:0|0:0,0:0:0:0:
311,136,103193,5,12,0:0:0:0:
330,244,103524,1,8,0:0:0:0:
349,352,103856,2,0,P|322:346|295:340,1,55,8|0,0:0|3:0,0:0:0:0:
255,302,104187,2,0,P|228:308|201:313,1,55,8|0,0:0|3:0,0:0:0:0:
147,325,104519,2,0,B|121:296|121:296|138:227,1,110,8|10,0:0|0:0,0:0:0:0:
186,200,105016,2,0,L|167:91,1,110,10|8,0:0|0:0,0:0:0:0:
161,36,105513,2,0,L|214:50,1,55,4|4,0:3|0:3,0:0:0:0:
260,81,105845,5,12,0:0:0:0:
361,41,106176,1,8,0:0:0:0:
450,105,106508,2,0,L|438:158,1,55,8|0,0:0|3:0,0:0:0:0:
391,187,106839,2,0,L|402:240,1,55,8|0,0:0|3:0,0:0:0:0:
413,294,107171,1,12,0:2:0:0:
308,260,107502,1,8,0:0:0:0:
218,323,107834,2,0,L|111:296,2,110,0|0|6,1:0|1:0|0:0,0:0:0:0:
256,192,108580,12,0,110486,0:0:0:0:
188,244,111149,6,0,P|138:222|89:243,2,110,2|0|0,0:0|0:0|0:0,0:0:0:0:
238,341,112143,1,2,0:0:0:0:
238,341,112309,2,0,P|291:328|345:318,1,110,2|0,0:0|0:0,0:0:0:0:
436,256,112972,1,2,0:0:0:0:
436,256,113138,2,0,L|421:194,1,55,0|0,1:0|1:0,0:0:0:0:
374,177,113469,2,0,L|386:123,1,55,0|0,1:0|1:0,0:0:0:0:
