osu file format v14

[General]
AudioFilename: audio.mp3
AudioLeadIn: 0
PreviewTime: 81600
Countdown: 0
SampleSet: Soft
StackLeniency: 0.4
Mode: 0
LetterboxInBreaks: 0
WidescreenStoryboard: 0

[Editor]
Bookmarks: 50237
DistanceSpacing: 0.4
BeatDivisor: 4
GridSize: 8
TimelineZoom: 3.499999

[Metadata]
Title:Fatalism
TitleUnicode:Fatalism
Artist:Endorfin.
ArtistUnicode:Endorfin.
Creator:gazimal
Version:Innocent truth
Source:
Tags:japanese electronic 藍月なくる aitsuki nakuru Horizon Claire sky_delta pnky Clammbon
BeatmapID:4365201
BeatmapSetID:2084016

[Difficulty]
HPDrainRate:5
CircleSize:4.2
OverallDifficulty:9.2
ApproachRate:9.4
SliderMultiplier:2
SliderTickRate:1

[Events]
//Background and Video events
0,0,"BG.jpg",0,0
//Break Periods
//Storyboard Layer 0 (Background)
//Storyboard Layer 1 (Fail)
//Storyboard Layer 2 (Pass)
//Storyboard Layer 3 (Foreground)
//Storyboard Layer 4 (Overlay)
//Storyboard Sound Samples

[TimingPoints]
367,389.61038961039,4,2,0,60,1,0
6600,-100,4,2,1,50,0,0
6990,-100,4,2,2,50,0,0
7379,-100,4,2,3,50,0,0
7769,-100,4,2,2,50,0,0
8159,-125,4,2,1,50,0,0
8548,-125,4,2,2,50,0,0
8938,-125,4,2,1,50,0,0
9328,-125,4,2,2,50,0,0
9717,-125,4,2,4,50,0,0
10107,-125,4,2,2,50,0,0
10496,-125,4,2,3,50,0,0
10886,-125,4,2,2,50,0,0
11276,-125,4,2,4,50,0,0
11957,-125,4,2,4,5,0,0
12055,-125,4,2,4,50,0,0
12737,-125,4,2,4,5,0,0
12834,-125,4,2,1,50,0,0
13224,-125,4,2,2,50,0,0
14392,-100,4,2,4,50,0,0
14782,-100,4,2,2,50,0,0
15172,-100,4,2,1,50,0,0
15561,-100,4,2,2,50,0,0
15951,-100,4,2,4,50,0,0
16341,-100,4,2,2,50,0,0
16730,-100,4,2,3,50,0,0
17120,-100,4,2,2,50,0,0
17509,-100,4,2,4,50,0,0
18094,-100,4,2,1,50,0,0
18289,-100,4,2,4,50,0,0
18386,-100,4,2,1,50,0,0
19068,-100,4,2,1,60,0,0
19457,-100,4,2,2,60,0,0
19750,-125,4,2,2,5,0,0
19847,-76.9230769230769,4,2,2,60,0,0
20139,-125,4,2,2,5,0,0
20237,-333.333333333333,4,2,2,60,0,0
20529,-125,4,2,2,5,0,0
20626,-76.9230769230769,4,2,2,60,0,0
21698,-125,4,2,2,5,0,0
21795,-133.333333333333,4,2,2,60,0,0
22185,-100,4,2,2,60,0,0
22867,-125,4,2,2,5,0,0
22964,-100,4,2,2,60,0,0
23159,-200,4,2,2,60,0,0
23743,-71.4285714285714,4,2,2,60,0,0
24522,-100,4,2,2,60,0,0
24717,-133.333333333333,4,2,2,60,0,0
24912,-55.5555555555556,4,2,2,60,0,0
25302,-55.5555555555556,4,2,2,65,0,0
26860,-76.9230769230769,4,2,2,65,0,0
28029,-200,4,2,2,65,0,0
28418,-200,4,2,2,70,0,0
29198,-200,4,2,3,70,0,0
29587,-200,4,2,2,70,0,0
30951,-100,4,2,2,70,0,0
31146,-52.6315789473684,4,2,2,70,0,0
31438,-125,4,2,2,5,0,0
31535,-83.3333333333333,4,2,5,65,0,0
31633,-83.3333333333333,4,2,1,65,0,0
31925,-83.3333333333333,4,2,5,65,0,0
32022,-83.3333333333333,4,2,1,65,0,0
32315,-200,4,2,5,65,0,0
32412,-200,4,2,1,65,0,0
32704,-200,4,2,5,65,0,0
32802,-200,4,2,1,65,0,0
33873,-200,4,2,5,65,0,0
33970,-200,4,2,1,65,0,0
34165,-200,4,2,5,65,0,0
34360,-200,4,2,1,65,0,0
34457,-200,4,2,5,65,0,0
34555,-200,4,2,1,65,0,0
34652,-133.333333333333,4,2,5,65,0,0
34847,-133.333333333333,4,2,1,65,0,0
35042,-133.333333333333,4,2,5,65,0,0
35139,-133.333333333333,4,2,1,65,0,0
35431,-200,4,2,5,65,0,0
35626,-200,4,2,1,65,0,0
35821,-200,4,2,5,65,0,0
35918,-200,4,2,1,65,0,0
36211,-83.3333333333333,4,2,1,65,0,0
36405,-125,4,2,1,65,0,0
36503,-83.3333333333333,4,2,1,65,0,0
36698,-125,4,2,1,5,0,0
36795,-100,4,2,5,65,0,0
36892,-100,4,2,1,65,0,0
36990,-100,4,2,5,65,0,0
37379,-133.333333333333,4,2,1,65,0,0
37672,-125,4,2,1,5,0,0
37769,-58.8235294117647,4,2,5,65,0,0
37867,-58.8235294117647,4,2,1,65,0,0
38159,-83.3333333333333,4,2,1,65,0,0
38354,-133.333333333333,4,2,5,65,0,0
38451,-133.333333333333,4,2,1,65,0,0
38646,-66.6666666666667,4,2,5,65,0,0
38841,-125,4,2,5,65,0,0
38938,-83.3333333333333,4,2,1,65,0,0
39133,-83.3333333333333,4,2,5,65,0,0
39425,-83.3333333333333,4,2,1,65,0,0
39620,-83.3333333333333,4,2,5,65,0,0
39717,-83.3333333333333,4,2,1,65,0,0
39912,-83.3333333333333,4,2,5,65,0,0
40009,-83.3333333333333,4,2,1,65,0,0
40107,-83.3333333333333,4,2,5,65,0,0
40302,-83.3333333333333,4,2,1,65,0,0
40399,-83.3333333333333,4,2,5,65,0,0
40496,-83.3333333333333,4,2,1,65,0,0
40691,-83.3333333333333,4,2,5,65,0,0
40886,-58.8235294117647,4,2,5,70,0,0
42444,-200,4,2,1,70,0,0
42834,-200,4,2,2,70,0,0
43613,-500,4,2,2,70,0,0
43905,-125,4,2,2,5,0,0
44003,-40,4,2,2,70,0,0
44295,-125,4,2,2,5,0,0
44392,-40,4,2,1,65,0,0
44539,-125,4,2,1,5,0,0
44587,-100,4,2,1,65,0,0
44782,-133.333333333333,4,2,1,65,0,0
44879,-50,4,2,1,65,0,0
45074,-125,4,2,1,65,0,0
45172,-50,4,2,1,65,0,0
45464,-100,4,2,1,65,0,0
47022,-125,4,2,1,5,0,0
47120,-66.6666666666667,4,2,1,65,0,0
47315,-100,4,2,1,65,0,0
47509,-52.6315789473684,4,2,6,65,0,0
47802,-125,4,2,6,5,0,0
47899,-66.6666666666667,4,2,6,65,0,0
47964,-66.6666666666667,4,2,1,65,0,0
48094,-100,4,2,1,65,0,0
48289,-52.6315789473684,4,2,6,65,0,0
48581,-125,4,2,6,5,0,0
48678,-52.6315789473684,4,2,6,65,0,0
48776,-52.6315789473684,4,2,1,65,0,0
50237,-41.6666666666667,4,2,1,65,0,0
50529,-125,4,2,1,65,0,0
50626,-41.6666666666667,4,2,1,65,0,0
50772,-125,4,2,1,5,0,0
50821,-133.333333333333,4,2,1,65,0,0
51113,-333.333333333333,4,2,1,65,0,0
51308,-333.333333333333,4,2,1,65,0,0
51503,-333.333333333333,4,2,2,65,0,0
51698,-333.333333333333,4,2,1,65,0,0
52185,-66.6666666666667,4,2,1,65,0,0
52477,-133.333333333333,4,2,1,65,0,0
52769,-66.6666666666667,4,2,2,65,0,0
52867,-58.8235294117647,4,2,2,65,0,0
52964,-58.8235294117647,4,2,1,65,0,0
53159,-66.6666666666667,4,2,2,65,0,0
53354,-41.6666666666667,4,2,2,65,0,0
53548,-41.6666666666667,4,2,1,65,0,0
53646,-125,4,2,1,65,0,0
53743,-100,4,2,1,65,0,0
54522,-50,4,2,1,65,0,0
54912,-43.4782608695652,4,2,1,70,0,0
55204,-125,4,2,1,5,0,0
55302,-43.4782608695652,4,2,1,70,0,0
55594,-125,4,2,1,5,0,0
55691,-43.4782608695652,4,2,1,70,0,0
55983,-125,4,2,1,5,0,0
56081,-133.333333333333,4,2,2,60,0,0
56470,-40,4,2,1,70,0,0
56763,-125,4,2,1,5,0,0
56860,-40,4,2,1,60,0,0
57006,-125,4,2,1,5,0,0
57055,-100,4,2,1,60,0,0
57250,-66.6666666666667,4,2,1,60,0,0
57347,-50,4,2,1,60,0,0
57493,-125,4,2,1,5,0,0
57542,-100,4,2,1,60,0,0
57834,-55.5555555555556,4,2,1,60,0,0
58711,-100,4,2,1,60,0,0
59198,-100,4,2,7,60,0,0
59295,-100,4,2,2,60,0,0
59587,-43.4782608695652,4,2,1,60,0,0
59879,-125,4,2,1,5,0,0
59977,-43.4782608695652,4,2,6,60,0,0
60269,-125,4,2,6,5,0,0
60367,-66.6666666666667,4,2,6,60,0,0
60431,-66.6666666666667,4,2,1,60,0,0
60561,-100,4,2,1,60,0,0
60756,-41.6666666666667,4,2,4,60,0,0
61048,-125,4,2,4,5,0,0
61146,-41.6666666666667,4,2,4,60,0,0
61243,-41.6666666666667,4,2,1,60,0,0
62217,-100,4,2,1,60,0,0
62704,-45.4545454545455,4,2,1,70,0,0
62996,-125,4,2,1,5,0,0
63094,-41.6666666666667,4,2,1,60,0,0
63240,-125,4,2,1,5,0,0
63289,-100,4,2,1,60,0,0
63581,-333.333333333333,4,2,1,60,0,0
63970,-200,4,2,2,60,0,0
64165,-200,4,2,1,60,0,0
64652,-66.6666666666667,4,2,1,60,0,0
64944,-133.333333333333,4,2,1,60,0,0
65237,-100,4,2,1,60,0,0
65821,-66.6666666666667,4,2,1,70,0,0
66308,-125,4,2,1,5,0,0
66405,-66.6666666666667,4,2,1,70,0,0
66892,-125,4,2,1,5,0,0
66990,-1000,4,2,1,70,0,0
67477,-125,4,2,1,5,0,0
67574,-100,4,2,1,60,0,0
67867,-125,4,2,1,5,0,0
67964,-66.6666666666667,4,2,1,60,0,0
68646,-76.9230769230769,4,2,1,60,0,0
68743,-90.9090909090909,4,2,1,60,0,0
68841,-111.111111111111,4,2,1,60,0,0
68938,-45.4545454545455,4,2,1,70,0,0
69230,-125,4,2,1,5,0,0
69328,-66.6666666666667,4,2,2,60,0,0
69522,-66.6666666666667,4,2,1,60,0,0
69620,-125,4,2,1,60,0,0
69717,-66.6666666666667,4,2,2,60,0,0
69815,-66.6666666666667,4,2,1,60,0,0
70009,-66.6666666666667,4,2,3,60,0,0
70204,-66.6666666666667,4,2,1,60,0,0
70302,-58.8235294117647,4,2,2,60,0,0
70399,-58.8235294117647,4,2,1,60,0,0
70448,-125,4,2,1,5,0,0
70496,-100,4,2,1,60,0,0
71665,-133.333333333333,4,2,1,60,0,0
72055,-66.6666666666667,4,2,1,60,0,0
72250,-100,4,2,1,60,0,0
72444,-50,4,2,6,60,0,0
72737,-125,4,2,6,5,0,0
72834,-66.6666666666667,4,2,6,60,0,0
72899,-66.6666666666667,4,2,1,60,0,0
73029,-100,4,2,1,60,0,0
73224,-50,4,2,6,60,0,0
73516,-125,4,2,6,5,0,0
73613,-50,4,2,6,60,0,0
73711,-50,4,2,1,60,0,0
74003,-50,4,2,6,60,0,0
74100,-50,4,2,1,60,0,0
74782,-100,4,2,1,60,0,0
74879,-100,4,2,2,60,0,0
74928,-100,4,2,1,60,0,0
74977,-100,4,2,2,60,0,0
75026,-100,4,2,1,60,0,0
75074,-100,4,2,2,60,0,0
75172,-43.4782608695652,4,2,1,70,0,0
75464,-125,4,2,1,70,0,0
75561,-47.6190476190476,4,2,3,60,0,0
75756,-47.6190476190476,4,2,1,60,0,0
75854,-125,4,2,1,60,0,0
75951,-50,4,2,2,60,0,0
76048,-50,4,2,1,60,0,0
76243,-50,4,2,3,60,0,0
76341,-66.6666666666667,4,2,3,60,0,0
76438,-66.6666666666667,4,2,2,60,0,0
76535,-58.8235294117647,4,2,2,60,0,0
76633,-58.8235294117647,4,2,1,60,0,0
76681,-125,4,2,1,5,0,0
76730,-100,4,2,1,60,0,0
77315,-83.3333333333333,4,2,1,60,0,0
77704,-83.3333333333333,4,2,2,60,0,0
77802,-62.5,4,2,2,60,0,0
77899,-62.5,4,2,1,60,0,0
78094,-62.5,4,2,2,60,0,0
78289,-55.5555555555556,4,2,2,60,0,0
78483,-55.5555555555556,4,2,1,60,0,0
78581,-125,4,2,1,60,0,0
78678,-250,4,2,1,60,0,0
79263,-100,4,2,1,60,0,0
79457,-50,4,2,1,60,0,0
79847,-41.6666666666667,4,2,1,60,0,0
80139,-125,4,2,1,5,0,0
80237,-41.6666666666667,4,2,1,60,0,0
80529,-125,4,2,1,5,0,0
80626,-41.6666666666667,4,2,1,60,0,0
80918,-125,4,2,1,5,0,0
81016,-133.333333333333,4,2,3,60,0,0
81048,-133.333333333333,4,2,1,60,0,0
81405,-250,4,2,1,80,0,0
81698,-125,4,2,1,5,0,0
81795,-43.4782608695652,4,2,2,80,0,0
82087,-125,4,2,2,5,0,0
82185,-66.6666666666667,4,2,2,80,0,0
82769,-100,4,2,2,80,0,0
82964,-58.8235294117647,4,2,2,80,0,0
83110,-125,4,2,2,5,0,0
83159,-100,4,2,1,80,0,0
83548,-66.6666666666667,4,2,2,80,0,0
83646,-66.6666666666667,4,2,1,80,0,0
83938,-66.6666666666667,4,2,2,80,0,0
84035,-66.6666666666667,4,2,1,80,0,0
84133,-66.6666666666667,4,2,8,80,0,0
84230,-66.6666666666667,4,2,1,80,0,0
84328,-66.6666666666667,4,2,4,80,0,0
84425,-66.6666666666667,4,2,1,80,0,0
84522,-50,4,2,4,80,0,0
84815,-50,4,2,2,80,0,0
84912,-66.6666666666667,4,2,2,80,0,0
85107,-100,4,2,2,80,0,0
85302,-66.6666666666667,4,2,2,80,0,0
85496,-66.6666666666667,4,2,1,80,0,0
85886,-100,4,2,2,80,0,0
86081,-71.4285714285714,4,2,2,80,0,0
86470,-71.4285714285714,4,2,9,80,0,0
86568,-71.4285714285714,4,2,1,80,0,0
86665,-71.4285714285714,4,2,2,80,0,0
86763,-71.4285714285714,4,2,1,80,0,0
86860,-71.4285714285714,4,2,2,80,0,0
86957,-71.4285714285714,4,2,1,80,0,0
87152,-71.4285714285714,4,2,4,80,0,0
87250,-71.4285714285714,4,2,9,80,0,0
87347,-71.4285714285714,4,2,1,80,0,0
87444,-71.4285714285714,4,2,4,80,0,0
87542,-71.4285714285714,4,2,1,80,0,0
87639,-71.4285714285714,4,2,4,80,0,0
88029,-71.4285714285714,4,2,1,80,0,0
88224,-71.4285714285714,4,2,4,80,0,0
88321,-71.4285714285714,4,2,1,80,0,0
88418,-71.4285714285714,4,2,2,80,0,0
88613,-71.4285714285714,4,2,4,80,0,0
88808,-71.4285714285714,4,2,1,80,0,0
89003,-71.4285714285714,4,2,4,80,0,0
89198,-55.5555555555556,4,2,2,80,0,0
89587,-55.5555555555556,4,2,1,80,0,0
89782,-55.5555555555556,4,2,4,80,0,0
89879,-55.5555555555556,4,2,1,80,0,0
89977,-55.5555555555556,4,2,2,80,0,0
90074,-55.5555555555556,4,2,1,80,0,0
90172,-55.5555555555556,4,2,2,80,0,0
90269,-55.5555555555556,4,2,4,80,0,0
90367,-55.5555555555556,4,2,1,80,0,0
90561,-55.5555555555556,4,2,4,80,0,0
90659,-55.5555555555556,4,2,1,80,0,0
90756,-66.6666666666667,4,2,1,80,0,0
90951,-66.6666666666667,4,2,2,80,0,0
91146,-66.6666666666667,4,2,8,80,0,0
91243,-66.6666666666667,4,2,1,80,0,0
91341,-66.6666666666667,4,2,4,80,0,0
91438,-66.6666666666667,4,2,1,80,0,0
91535,-55.5555555555556,4,2,2,80,0,0
91925,-66.6666666666667,4,2,2,80,0,0
92120,-133.333333333333,4,2,2,80,0,0
92315,-55.5555555555556,4,2,2,80,0,0
92704,-43.4782608695652,4,2,2,80,0,0
92899,-125,4,2,2,80,0,0
92996,-43.4782608695652,4,2,2,80,0,0
93191,-125,4,2,2,5,0,0
93289,-100,4,2,2,80,0,0
93581,-58.8235294117647,4,2,2,80,0,0
93873,-250,4,2,2,80,0,0
94165,-125,4,2,2,5,0,0
94263,-43.4782608695652,4,2,2,80,0,0
94555,-125,4,2,2,5,0,0
94652,-66.6666666666667,4,2,2,80,0,0
95237,-100,4,2,2,80,0,0
95431,-55.5555555555556,4,2,2,80,0,0
95578,-125,4,2,2,5,0,0
95626,-100,4,2,2,80,0,0
95821,-100,4,2,9,80,0,0
95918,-100,4,2,1,80,0,0
96016,-66.6666666666667,4,2,4,80,0,0
96113,-66.6666666666667,4,2,1,80,0,0
96405,-66.6666666666667,4,2,2,80,0,0
96503,-66.6666666666667,4,2,1,80,0,0
96600,-66.6666666666667,4,2,10,80,0,0
96698,-66.6666666666667,4,2,1,80,0,0
96795,-66.6666666666667,4,2,4,80,0,0
96892,-66.6666666666667,4,2,1,80,0,0
96990,-50,4,2,4,80,0,0
97282,-50,4,2,2,80,0,0
97379,-66.6666666666667,4,2,2,80,0,0
97574,-100,4,2,2,80,0,0
97769,-66.6666666666667,4,2,2,80,0,0
98061,-66.6666666666667,4,2,1,80,0,0
98354,-100,4,2,2,80,0,0
98548,-71.4285714285714,4,2,2,80,0,0
98938,-71.4285714285714,4,2,1,80,0,0
99133,-71.4285714285714,4,2,2,80,0,0
99230,-71.4285714285714,4,2,1,80,0,0
99328,-71.4285714285714,4,2,2,80,0,0
99425,-71.4285714285714,4,2,1,80,0,0
99620,-71.4285714285714,4,2,4,80,0,0
99717,-71.4285714285714,4,2,1,80,0,0
99912,-71.4285714285714,4,2,4,80,0,0
100009,-71.4285714285714,4,2,1,80,0,0
100691,-71.4285714285714,4,2,2,80,0,0
100789,-71.4285714285714,4,2,1,80,0,0
100886,-71.4285714285714,4,2,2,80,0,0
101081,-71.4285714285714,4,2,1,80,0,0
101178,-71.4285714285714,4,2,2,80,0,0
101373,-71.4285714285714,4,2,1,80,0,0
101470,-71.4285714285714,4,2,2,80,0,0
101568,-71.4285714285714,4,2,1,80,0,0
101665,-55.5555555555556,4,2,2,80,0,0
102055,-55.5555555555556,4,2,1,80,0,0
102250,-55.5555555555556,4,2,2,80,0,0
102347,-55.5555555555556,4,2,1,80,0,0
102444,-55.5555555555556,4,2,2,80,0,0
102542,-55.5555555555556,4,2,1,80,0,0
102639,-55.5555555555556,4,2,2,80,0,0
102737,-55.5555555555556,4,2,4,80,0,0
102834,-55.5555555555556,4,2,1,80,0,0
103029,-55.5555555555556,4,2,2,80,0,0
103126,-55.5555555555556,4,2,1,80,0,0
103224,-66.6666666666667,4,2,1,80,0,0
103418,-66.6666666666667,4,2,2,80,0,0
103808,-100,4,2,2,80,0,0
104003,-62.5,4,2,2,80,0,0
104587,-100,4,2,2,80,0,0
104782,-66.6666666666667,4,2,2,80,0,0
105074,-100,4,2,2,80,0,0
105269,-66.6666666666667,4,2,2,80,0,0
105756,-100,4,2,2,80,0,0
105951,-100,4,2,11,80,0,0
106048,-100,4,2,1,80,0,0
106341,-100,4,2,5,60,0,0
106535,-100,4,2,1,45,0,0
106730,-200,4,2,3,45,0,0
106828,-200,4,2,1,45,0,0
107120,-200,4,2,11,50,0,0
107217,-200,4,2,1,50,0,0
107509,-200,4,2,3,55,0,0
107607,-200,4,2,1,55,0,0
107899,-200,4,2,11,60,0,0
107996,-200,4,2,1,60,0,0
108289,-200,4,2,11,65,0,0
108386,-200,4,2,1,65,0,0
108678,-200,4,2,11,70,0,0
108776,-200,4,2,1,70,0,0
109068,-55.5555555555556,4,2,11,75,0,0
109360,-125,4,2,11,5,0,0
109457,-83.3333333333333,4,2,11,55,0,0
109604,-125,4,2,11,5,0,0
109652,-133.333333333333,4,2,1,55,0,0
109847,-111.111111111111,4,2,1,55,0,0
110821,-133.333333333333,4,2,1,55,0,0
111016,-83.3333333333333,4,2,1,55,0,0
111162,-125,4,2,1,5,0,0
111211,-133.333333333333,4,2,1,55,0,0
111892,-111.111111111111,4,2,1,55,0,0
112379,-133.333333333333,4,2,1,55,0,0
112574,-76.9230769230769,4,2,1,55,0,0
112720,-125,4,2,1,5,0,0
112769,-133.333333333333,4,2,1,55,0,0
112964,-100,4,2,1,55,0,0
113354,-90.9090909090909,4,2,1,55,0,0
113938,-133.333333333333,4,2,1,55,0,0
114133,-83.3333333333333,4,2,1,55,0,0
114279,-125,4,2,1,5,0,0
114328,-133.333333333333,4,2,1,55,0,0
115009,-200,4,2,1,55,0,0
116032,-125,4,2,1,5,0,0
116081,-50,4,2,1,55,0,0
116470,-133.333333333333,4,2,1,55,0,0
117639,-76.9230769230769,4,2,1,55,0,0
118029,-133.333333333333,4,2,1,55,0,0
119198,-76.9230769230769,4,2,1,55,0,0
119587,-133.333333333333,4,2,1,55,0,0
120756,-76.9230769230769,4,2,1,55,0,0
121535,-133.333333333333,4,2,1,55,0,0
121828,-125,4,2,1,5,0,0
121925,-50,4,2,1,55,0,0
122217,-125,4,2,1,5,0,0
122315,-100,4,2,1,55,0,0
123289,-133.333333333333,4,2,1,55,0,0
123873,-66.6666666666667,4,2,1,55,0,0
124019,-125,4,2,1,5,0,0
124068,-133.333333333333,4,2,1,55,0,0
124457,-133.333333333333,4,2,2,55,0,0
124652,-133.333333333333,4,2,1,55,0,0
124750,-133.333333333333,4,2,2,55,0,0
124847,-133.333333333333,4,2,1,55,0,0
125237,-133.333333333333,4,2,2,55,0,0
125334,-133.333333333333,4,2,1,55,0,0
127185,-133.333333333333,4,2,2,55,0,0
127282,-133.333333333333,4,2,1,55,0,0
128548,-83.3333333333333,4,2,1,55,0,0
128841,-125,4,2,1,5,0,0
128938,-100,4,2,1,55,0,0
129328,-83.3333333333333,4,2,1,55,0,0
129522,-100,4,2,1,55,0,0
130107,-62.5,4,2,1,55,0,0
130253,-125,4,2,1,5,0,0
130302,-133.333333333333,4,2,1,55,0,0
130691,-58.8235294117647,4,2,2,55,0,0
130789,-58.8235294117647,4,2,1,55,0,0
130983,-133.333333333333,4,2,2,55,0,0
131032,-133.333333333333,4,2,1,55,0,0
131276,-83.3333333333333,4,2,1,55,0,0
131470,-58.8235294117647,4,2,2,55,0,0
131568,-58.8235294117647,4,2,1,55,0,0
131957,-200,4,2,1,55,0,0
132250,-66.6666666666667,4,2,1,55,0,0
132444,-200,4,2,1,55,0,0
133613,-133.333333333333,4,2,1,55,0,0
137509,-133.333333333333,4,2,7,50,0,0
139068,-133.333333333333,4,2,1,50,0,0
149977,-200,4,2,2,50,0,0
150172,-200,4,2,1,50,0,0
152509,-200,4,2,2,50,0,0
152704,-200,4,2,1,50,0,0
153094,-200,4,2,2,50,0,0
153289,-200,4,2,1,50,0,0
154652,-200,4,2,2,50,0,0
154847,-200,4,2,1,50,0,0
156211,-200,4,2,2,50,0,0
156405,-200,4,2,1,50,0,0
157769,-200,4,2,2,50,0,0
157867,-200,4,2,1,50,0,0
161665,-200,4,2,1,55,0,0
162055,-200,4,2,1,60,0,0
162444,-83.3333333333333,4,2,1,60,0,0
162834,-83.3333333333333,4,2,2,50,0,0
163613,-166.666666666667,4,2,2,50,0,0
163905,-125,4,2,2,5,0,0
164003,-100,4,2,2,50,0,0
164782,-166.666666666667,4,2,1,50,0,0
165172,-166.666666666667,4,2,3,50,0,0
165269,-166.666666666667,4,2,1,50,0,0
165561,-100,4,2,2,50,0,0
166341,-100,4,2,12,50,0,0
166438,-100,4,2,1,50,0,0
166730,-166.666666666667,4,2,3,50,0,0
166828,-166.666666666667,4,2,1,50,0,0
167120,-90.909090909091,4,2,2,50,0,0
167899,-133.333333333333,4,2,2,50,0,0
168094,-133.333333333333,4,2,1,50,0,0
168678,-133.333333333333,4,2,2,50,0,0
169555,-133.333333333333,4,2,1,50,0,0
169847,-133.333333333333,4,2,2,50,0,0
170334,-133.333333333333,4,2,1,50,0,0
170626,-181.818181818181,4,2,2,50,0,0
170821,-181.818181818181,4,2,1,50,0,0
171405,-181.818181818181,4,2,2,50,0,0
171503,-181.818181818181,4,2,1,50,0,0
171795,-181.818181818181,4,2,2,50,0,0
171990,-181.818181818181,4,2,1,50,0,0
172574,-181.818181818181,4,2,3,50,0,0
172769,-181.818181818181,4,2,1,50,0,0
172964,-181.818181818181,4,2,2,50,0,0
173548,-100,4,2,1,50,0,0
174133,-100,4,2,4,55,0,0
174230,-100,4,2,2,55,0,0
174912,-100,4,2,2,60,0,0
175594,-125,4,2,2,5,0,0
175691,-76.9230769230769,4,2,2,60,0,0
175983,-125,4,2,2,5,0,0
176081,-100,4,2,2,60,0,0
176373,-125,4,2,2,5,0,0
176470,-100,4,2,2,60,0,0
177250,-76.9230769230769,4,2,2,60,0,0
177542,-125,4,2,2,5,0,0
177639,-100,4,2,2,60,0,0
178029,-76.9230769230769,4,2,2,60,0,0
178711,-125,4,2,2,5,0,0
178808,-83.3333333333333,4,2,2,60,0,0
179003,-166.666666666667,4,2,2,60,0,0
179587,-71.4285714285714,4,2,2,60,0,0
180367,-100,4,2,2,60,0,0
180561,-133.333333333333,4,2,2,60,0,0
180756,-55.5555555555556,4,2,2,60,0,0
181146,-55.5555555555556,4,2,2,65,0,0
182704,-76.9230769230769,4,2,2,65,0,0
183873,-200,4,2,2,65,0,0
185042,-200,4,2,3,65,0,0
185431,-200,4,2,2,65,0,0
186795,-100,4,2,2,65,0,0
187087,-100,4,2,1,65,0,0
187379,-40,4,2,1,80,0,1
187672,-40,4,2,1,5,0,1
187769,-40,4,2,1,80,0,1
188061,-66.6666666666667,4,2,1,80,0,1
188451,-80,4,2,1,80,0,1
189230,-100,4,2,1,80,0,1
189425,-200,4,2,1,80,0,1
189620,-55.5555555555556,4,2,1,80,0,1
190496,-66.6666666666667,4,2,1,80,0,1
192347,-100,4,2,1,80,0,1
192542,-55.5555555555556,4,2,1,80,0,1
192737,-133.333333333333,4,2,1,80,0,1
193613,-100,4,2,1,80,0,1
193808,-100,4,2,2,80,0,1
193905,-52.6315789473684,4,2,2,80,0,1
194100,-52.6315789473684,4,2,1,80,0,1
194198,-52.6315789473684,4,2,4,80,0,1
194295,-100,4,2,4,80,0,1
194490,-100,4,2,1,80,0,1
194587,-100,4,2,4,80,0,1
194685,-66.6666666666667,4,2,4,80,0,1
194782,-66.6666666666667,4,2,1,80,0,1
194977,-66.6666666666667,4,2,4,80,0,1
195074,-52.6315789473684,4,2,4,80,0,1
195269,-52.6315789473684,4,2,1,80,0,1
195367,-52.6315789473684,4,2,4,80,0,1
195464,-83.3333333333333,4,2,1,80,0,1
195659,-200,4,2,1,80,0,1
195756,-200,4,2,4,80,0,1
195854,-55.5555555555556,4,2,4,80,0,1
196048,-55.5555555555556,4,2,1,80,0,1
197022,-66.6666666666667,4,2,1,80,0,1
198289,-133.333333333333,4,2,1,80,0,1
198581,-40,4,2,1,5,0,1
198678,-43.4782608695652,4,2,1,80,0,1
198873,-40,4,2,1,5,0,1
198970,-43.4782608695652,4,2,1,80,0,1
199165,-40,4,2,1,5,0,1
199263,-55.5555555555556,4,2,1,80,0,1
199847,-40,4,2,1,80,0,1
200139,-40,4,2,1,5,0,1
200237,-40,4,2,2,80,0,1
200529,-40,4,2,2,5,0,1
200626,-66.6666666666667,4,2,2,80,0,1
201016,-58.8235294117647,4,2,2,80,0,1
201211,-100,4,2,2,80,0,1
201405,-66.6666666666667,4,2,2,80,0,1
201552,-40,4,2,2,5,0,1
201600,-100,4,2,2,80,0,1
201795,-100,4,2,9,80,0,1
201892,-100,4,2,1,80,0,1
201990,-66.6666666666667,4,2,4,80,0,1
202087,-66.6666666666667,4,2,1,80,0,1
202379,-66.6666666666667,4,2,2,80,0,1
202477,-66.6666666666667,4,2,1,80,0,1
202574,-66.6666666666667,4,2,10,80,0,1
202672,-66.6666666666667,4,2,1,80,0,1
202769,-66.6666666666667,4,2,4,80,0,1
202867,-66.6666666666667,4,2,1,80,0,1
202964,-52.6315789473684,4,2,4,80,0,1
203256,-52.6315789473684,4,2,2,80,0,1
203354,-66.6666666666667,4,2,2,80,0,1
203548,-100,4,2,2,80,0,1
203743,-58.8235294117647,4,2,2,80,0,1
204035,-58.8235294117647,4,2,1,80,0,1
204328,-100,4,2,2,80,0,1
204522,-66.6666666666667,4,2,2,80,0,1
204912,-66.6666666666667,4,2,1,80,0,1
205107,-66.6666666666667,4,2,2,80,0,1
205204,-66.6666666666667,4,2,1,80,0,1
205302,-66.6666666666667,4,2,2,80,0,1
205399,-66.6666666666667,4,2,1,80,0,1
205594,-66.6666666666667,4,2,4,80,0,1
205691,-66.6666666666667,4,2,1,80,0,1
205886,-66.6666666666667,4,2,4,80,0,1
205983,-66.6666666666667,4,2,1,80,0,1
206665,-66.6666666666667,4,2,2,80,0,1
206763,-66.6666666666667,4,2,1,80,0,1
206860,-66.6666666666667,4,2,2,80,0,1
207055,-66.6666666666667,4,2,1,80,0,1
207152,-66.6666666666667,4,2,2,80,0,1
207347,-66.6666666666667,4,2,1,80,0,1
207444,-66.6666666666667,4,2,2,80,0,1
207542,-66.6666666666667,4,2,1,80,0,1
207639,-58.8235294117647,4,2,2,80,0,1
208029,-58.8235294117647,4,2,1,80,0,1
208224,-58.8235294117647,4,2,2,80,0,1
208321,-58.8235294117647,4,2,1,80,0,1
208418,-58.8235294117647,4,2,2,80,0,1
208516,-58.8235294117647,4,2,1,80,0,1
208613,-58.8235294117647,4,2,2,80,0,1
208711,-58.8235294117647,4,2,4,80,0,1
208808,-58.8235294117647,4,2,1,80,0,1
209003,-58.8235294117647,4,2,2,80,0,1
209100,-58.8235294117647,4,2,1,80,0,1
209392,-58.8235294117647,4,2,2,80,0,1
209782,-100,4,2,2,80,0,1
209977,-55.5555555555556,4,2,2,80,0,1
210367,-66.6666666666667,4,2,2,80,0,1
210561,-133.333333333333,4,2,2,80,0,1
210756,-50,4,2,2,80,0,1
211048,-71.4285714285714,4,2,2,80,0,1
211730,-100,4,2,2,80,0,1
211925,-100,4,2,11,80,0,1
212022,-100,4,2,1,80,0,1
212315,-100,4,2,5,60,0,0
212509,-100,4,2,1,45,0,0
212704,-200,4,2,3,45,0,0
212802,-200,4,2,1,45,0,0
213094,-200,4,2,11,50,0,0
213191,-200,4,2,1,50,0,0
213483,-200,4,2,3,50,0,0
213581,-200,4,2,1,50,0,0
213873,-200,4,2,11,55,0,0
213970,-200,4,2,1,55,0,0
214263,-200,4,2,11,60,0,0
214360,-200,4,2,1,60,0,0
214652,-200,4,2,11,65,0,0
214750,-200,4,2,1,65,0,0
215042,-50,4,2,11,70,0,0
215334,-40,4,2,11,5,0,0
215431,-500,4,2,2,100,0,0
215724,-500,4,2,2,5,0,0
215821,-35.7142857142857,4,2,1,70,0,1
215870,-35.7142857142857,4,2,1,70,0,0
215918,-35.7142857142857,4,2,1,70,0,1
215967,-35.7142857142857,4,2,1,70,0,0
216016,-35.7142857142857,4,2,1,70,0,1
216065,-35.7142857142857,4,2,1,70,0,0
216113,-35.7142857142857,4,2,1,70,0,1
216162,-35.7142857142857,4,2,1,70,0,0
216211,-35.7142857142857,4,2,1,65,0,1
216308,-50,4,2,1,65,0,0
216503,-40,4,2,1,65,0,0
216600,-50,4,2,1,65,0,0
216892,-76.9230769230769,4,2,1,65,0,0
217672,-100,4,2,1,65,0,0
218159,-133.333333333333,4,2,1,65,0,0
218548,-66.6666666666667,4,2,1,65,0,0
218743,-100,4,2,1,65,0,0
218938,-45.4545454545455,4,2,6,65,0,0
219230,-40,4,2,6,5,0,0
219328,-66.6666666666667,4,2,6,65,0,0
219392,-66.6666666666667,4,2,1,65,0,0
219522,-100,4,2,1,65,0,0
219717,-41.6666666666667,4,2,6,65,0,0
220009,-40,4,2,6,5,0,0
220107,-41.6666666666667,4,2,6,65,0,0
220204,-41.6666666666667,4,2,1,65,0,0
221957,-40,4,2,1,65,0,0
222055,-41.6666666666667,4,2,1,65,0,0
222201,-40,4,2,1,5,0,0
222250,-133.333333333333,4,2,1,65,0,0
222542,-333.333333333333,4,2,1,65,0,0
222931,-333.333333333333,4,2,2,65,0,0
223126,-333.333333333333,4,2,1,65,0,0
223613,-66.6666666666667,4,2,1,65,0,0
223905,-133.333333333333,4,2,1,65,0,0
224198,-66.6666666666667,4,2,2,65,0,0
224295,-58.8235294117647,4,2,2,65,0,0
224392,-58.8235294117647,4,2,1,65,0,0
224587,-66.6666666666667,4,2,2,65,0,0
224782,-41.6666666666667,4,2,2,65,0,0
224977,-41.6666666666667,4,2,1,65,0,0
225074,-40,4,2,1,65,0,0
225172,-83.3333333333333,4,2,1,65,0,0
225756,-100,4,2,1,65,0,0
225951,-50,4,2,1,65,0,0
226341,-40,4,2,1,70,0,0
226633,-40,4,2,1,5,0,0
226730,-40,4,2,1,70,0,0
227022,-40,4,2,1,5,0,0
227120,-40,4,2,1,70,0,0
227412,-40,4,2,1,5,0,0
227509,-133.333333333333,4,2,2,70,0,0
227899,-40,4,2,1,70,0,0
228191,-40,4,2,1,5,0,0
228289,-40,4,2,2,65,0,0
228435,-40,4,2,2,5,0,0
228483,-133.333333333333,4,2,1,65,0,0
228678,-50,4,2,2,65,0,0
228776,-50,4,2,1,65,0,0
228922,-40,4,2,1,5,0,0
228970,-90.9090909090909,4,2,4,65,0,0
229068,-90.9090909090909,4,2,1,65,0,0
229263,-90.9090909090909,4,2,3,65,0,0
229360,-66.6666666666667,4,2,1,65,0,0
229457,-66.6666666666667,4,2,2,65,0,0
229555,-66.6666666666667,4,2,1,65,0,0
230139,-100,4,2,1,65,0,0
230626,-100,4,2,7,65,0,0
230724,-100,4,2,2,65,0,0
231016,-41.6666666666667,4,2,1,65,0,0
231308,-40,4,2,1,5,0,0
231405,-41.6666666666667,4,2,6,65,0,0
231698,-40,4,2,6,5,0,0
231795,-66.6666666666667,4,2,6,65,0,0
231860,-66.6666666666667,4,2,1,65,0,0
231990,-83.3333333333333,4,2,1,65,0,0
232185,-41.6666666666667,4,2,4,65,0,0
232477,-40,4,2,4,5,0,0
232574,-41.6666666666667,4,2,4,65,0,0
232672,-41.6666666666667,4,2,1,65,0,0
233646,-100,4,2,1,65,0,0
234133,-43.4782608695652,4,2,1,70,0,0
234425,-40,4,2,1,5,0,0
234522,-66.6666666666667,4,2,3,65,0,0
234717,-66.6666666666667,4,2,1,65,0,0
234815,-40,4,2,1,65,0,0
234912,-66.6666666666667,4,2,2,65,0,0
235009,-66.6666666666667,4,2,1,65,0,0
235204,-58.8235294117647,4,2,3,65,0,0
235399,-58.8235294117647,4,2,2,65,0,0
235496,-66.6666666666667,4,2,2,65,0,0
235594,-66.6666666666667,4,2,1,65,0,0
235691,-58.8235294117647,4,2,1,65,0,0
236665,-58.8235294117647,4,2,2,65,0,0
236763,-58.8235294117647,4,2,2,65,0,0
236860,-58.8235294117647,4,2,1,65,0,0
237055,-58.8235294117647,4,2,2,65,0,0
237250,-41.6666666666667,4,2,2,65,0,0
237444,-41.6666666666667,4,2,1,65,0,0
237542,-40,4,2,1,65,0,0
237639,-41.6666666666667,4,2,1,65,0,0
238029,-62.5,4,2,1,65,0,0
238418,-50,4,2,1,65,0,0
238808,-41.6666666666667,4,2,1,70,0,0
239100,-40,4,2,1,5,0,0
239198,-38.4615384615385,4,2,1,70,0,0
239490,-40,4,2,1,5,0,0
239587,-41.6666666666667,4,2,1,70,0,0
239879,-40,4,2,1,5,0,0
239977,-133.333333333333,4,2,2,70,0,0
240009,-133.333333333333,4,2,1,70,0,0
240367,-333.333333333333,4,2,2,100,0,0
240659,-40,4,2,2,5,0,0
240756,-40,4,2,2,70,0,1
240902,-40,4,2,2,5,0,0
240951,-133.333333333333,4,2,1,70,0,0
241146,-133.333333333333,4,2,1,60,0,0
241243,-66.6666666666667,4,2,1,60,0,0
241730,-133.333333333333,4,2,1,60,0,0
241925,-266.666666666667,4,2,1,60,0,0
242315,-66.6666666666667,4,2,1,60,0,0
243191,-133.333333333333,4,2,1,60,0,0
244360,-83.3333333333333,4,2,1,60,0,0
244555,-40,4,2,1,60,0,0
244652,-66.6666666666667,4,2,1,60,0,0
244847,-133.333333333333,4,2,1,60,0,0
246600,-66.6666666666667,4,2,1,60,0,0
246892,-40,4,2,1,60,0,0
246990,-58.8235294117647,4,2,1,60,0,0
247379,-133.333333333333,4,2,1,60,0,0
248548,-66.6666666666667,4,2,1,60,0,0
248841,-40,4,2,1,5,0,0
248938,-66.6666666666667,4,2,1,60,0,0
249133,-100,4,2,1,60,0,0
249425,-66.6666666666667,4,2,1,60,0,0
249620,-40,4,2,1,5,0,0
249717,-66.6666666666667,4,2,1,60,0,0
250496,-100,4,2,1,60,0,0
250691,-58.8235294117647,4,2,1,60,0,0
250886,-66.6666666666667,4,2,1,60,0,0
251178,-40,4,2,1,5,0,0
251276,-66.6666666666667,4,2,1,60,0,0
251373,-133.333333333333,4,2,1,60,0,0
251665,-100,4,2,1,60,0,0
252250,-100,4,2,2,60,0,0
253029,-100,4,2,1,60,0,0
253126,-40,4,2,1,5,0,0
253224,-66.6666666666667,4,2,1,60,0,0
253613,-133.333333333333,4,2,1,60,0,0
254782,-200,4,2,1,60,0,0
255854,-40,4,2,1,5,0,0
255951,-200,4,2,1,60,0,0
259068,-76.9230769230769,4,2,1,60,0,0
259360,-40,4,2,1,5,0,0
259457,-76.9230769230769,4,2,1,60,0,0
259750,-40,4,2,1,5,0,0
259847,-76.9230769230769,4,2,1,60,0,0
259944,-133.333333333333,4,2,1,60,0,0
260626,-200,4,2,1,60,0,0
261016,-76.9230769230769,4,2,1,60,0,0
262087,-40,4,2,1,60,0,0
262185,-333.333333333333,4,2,1,60,0,0
262477,-40,4,2,1,5,0,0
262574,-76.9230769230769,4,2,1,60,0,0
263159,-133.333333333333,4,2,1,60,0,0
263354,-90.9090909090909,4,2,1,60,0,0
263743,-200,4,2,1,60,0,0
264133,-83.3333333333333,4,2,1,60,0,0
264522,-200,4,2,1,60,0,0

[Colours]
Combo1 : 155,0,0
Combo2 : 192,192,192
Combo3 : 91,91,255

[HitObjects]
179,343,6600,6,0,B|174:287|193:191|312:146|461:235|411:336|257:355|270:261,1,400,2|2,2:2|2:2,0:0:0:0:
278,296,8159,6,0,B|228:259|253:181|308:172|310:174|313:176|391:195|438:124|388:71,1,320,2|2,2:2|2:3,0:0:0:0:
266,84,9717,22,0,B|218:110|189:151|189:151|271:96|403:69,1,320,2|2,2:2|2:2,0:0:0:0:
265,371,11276,6,0,B|327:309|269:241|186:270|186:270|252:279|264:330,1,280,2|0,2:2|0:0,0:0:0:0:
247,371,12055,2,0,B|185:309|243:241|326:270|326:270|260:279|248:330,1,280,2|0,2:2|0:0,0:0:0:0:
324,350,12834,22,0,P|167:315|9:292,1,320,2|2,2:2|2:2,0:0:0:0:
9,292,14392,6,0,B|-26:230|24:182|83:210|81:216|149:162|131:80|47:60|47:60|99:98|87:149,1,400,2|2,2:2|2:3,0:0:0:0:
89,121,15951,22,0,B|139:200|286:175|318:67|264:-13|159:-1|155:125|234:127,1,400,2|2,2:2|2:2,0:0:0:0:
233,126,17509,6,0,B|250:93|302:105|313:147|310:149|308:152|320:190|374:204|391:176,1,200,2|0,2:2|0:0,0:0:0:0:
474,299,18094,21,2,2:2:0:0:
492,330,18191,1,2,2:2:0:0:
485,356,18289,5,2,2:2:0:0:
482,337,18386,1,2,2:2:0:0:
469,307,18483,1,2,2:2:0:0:
433,291,18581,1,2,2:2:0:0:
385,308,18678,1,2,2:2:0:0:
319,309,18776,1,2,2:2:0:0:
284,243,18873,1,2,2:2:0:0:
318,176,18970,1,2,2:2:0:0:
391,177,19068,22,0,B|359:181|338:208|338:208|258:192|241:103|314:48|314:48|302:87|319:121,1,350,6|0,3:2|0:0,0:0:0:0:
384,79,19847,2,0,L|193:119,1,194.999991073609,10|0,2:2|0:0,0:0:0:0:
113,141,20237,6,0,L|121:96,1,44.999998626709,2|0,2:2|0:0,0:0:0:0:
74,27,20626,22,0,B|38:69|65:126|116:126|114:122|117:121|169:116|210:155|175:210,1,259.999988098145,2|2,3:2|2:2,0:0:0:0:
55,317,21211,5,8,2:2:0:0:
61,323,21276,21,8,2:2:0:0:
65,330,21341,5,8,2:2:0:0:
67,337,21405,22,0,B|72:372|26:384|25:312|79:277|135:284|183:331,1,194.999991073609,8|0,2:2|0:0,0:0:0:0:
223,379,21795,2,0,P|259:384|288:362,1,75.0000028610231,2|0,2:2|3:3,0:0:0:0:
349,280,22087,5,0,3:3:0:0:
349,280,22185,2,0,B|315:268|308:221|308:221|303:315|405:326|461:274|457:203|397:167,1,350,2|0,3:2|0:0,0:0:0:0:
334,132,22964,2,0,P|317:114|311:90,1,50,8|0,2:2|0:0,0:0:0:0:
387,50,23159,22,0,P|404:68|410:92,1,50,0|2,3:3|2:2,0:0:0:0:
76,99,23743,6,0,B|49:104|22:148|22:148|42:68|128:63|128:63|144:98|178:103,1,279.999991455078,2|0,3:2|0:0,0:0:0:0:
259,28,24328,21,10,2:2:0:0:
256,19,24392,5,0,0:0:0:0:
249,13,24457,21,0,0:0:0:0:
241,12,24522,6,0,P|216:16|198:32,1,50,10|0,2:2|0:0,0:0:0:0:
149,175,24717,2,0,P|130:171|115:161,1,37.5000014305115,0|0,3:3|0:0,0:0:0:0:
262,113,24912,22,0,L|224:289,1,179.999994506836,8|0,2:2|0:0,0:0:0:0:
207,366,25204,1,0,3:3:0:0:
283,337,25302,5,4,3:2:0:0:
81,268,25496,1,0,3:3:0:0:
32,378,25691,21,2,3:2:0:0:
307,257,25886,1,0,3:3:0:0:
369,320,26081,5,10,3:2:0:0:
149,175,26276,1,0,3:3:0:0:
44,192,26470,21,2,3:2:0:0:
346,62,26665,1,0,3:3:0:0:
210,38,26860,6,0,L|223:100,1,64.9999970245363,6|0,3:2|0:0,0:0:0:0:
149,175,27055,2,0,L|135:112,1,64.9999970245363,0|0,3:3|0:0,0:0:0:0:
413,121,27250,22,0,L|399:183,1,64.9999970245363,2|0,3:2|0:0,0:0:0:0:
474,258,27445,2,0,L|487:195,1,64.9999970245363,0|0,3:3|0:0,0:0:0:0:
221,247,27639,6,0,L|234:309,1,64.9999970245363,12|0,3:2|0:0,0:0:0:0:
160,384,27834,2,0,L|146:321,1,64.9999970245363,0|0,3:3|0:0,0:0:0:0:
454,342,28029,22,0,L|448:366,1,25,2|0,3:2|0:0,0:0:0:0:
380,321,28224,2,0,L|374:345,1,25,0|0,3:3|0:0,0:0:0:0:
273,169,28418,5,6,3:2:0:0:
271,151,28516,1,0,3:3:0:0:
287,138,28613,1,0,3:3:0:0:
310,138,28711,1,0,3:3:0:0:
326,168,28808,1,6,3:2:0:0:
301,209,28905,1,0,3:3:0:0:
250,217,29003,1,0,3:3:0:0:
200,193,29100,1,0,3:3:0:0:
183,135,29198,1,14,3:2:0:0:
141,79,29295,1,0,3:3:0:0:
68,69,29392,1,0,3:3:0:0:
9,113,29490,1,0,3:3:0:0:
6,188,29587,21,6,3:2:0:0:
10,193,29685,1,0,3:3:0:0:
14,198,29782,1,0,3:3:0:0:
18,203,29879,1,0,3:3:0:0:
22,208,29977,6,0,L|46:202,1,25,6|0,3:2|0:0,0:0:0:0:
155,176,30172,2,0,L|179:170,1,25,0|0,3:3|0:0,0:0:0:0:
338,138,30367,21,0,3:3:0:0:
405,172,30496,5,0,3:3:0:0:
397,248,30626,21,0,3:3:0:0:
320,268,30756,5,0,3:3:0:0:
311,262,30821,21,0,3:0:0:0:
299,262,30886,5,0,3:0:0:0:
287,269,30951,22,0,P|279:284|278:301,3,25,0|0|0|0,3:3|3:0|3:0|3:0,0:0:0:0:
294,340,31146,6,0,B|364:294|364:294|299:284|299:284|202:338|202:338|211:378,1,284.999992389679,6|0,3:2|0:0,0:0:0:0:
129,384,31535,22,0,L|116:325,1,59.9999981689454,10|2,3:2|2:3,0:0:0:0:
91,192,31730,5,2,2:3:0:0:
76,195,31827,1,2,2:3:0:0:
61,198,31924,1,10,3:2:0:0:
46,201,32022,1,2,2:3:0:0:
32,204,32119,1,2,2:3:0:0:
147,125,32315,21,10,3:2:0:0:
147,125,32412,2,0,L|171:130,2,25,2|0|0,2:3|0:0|0:0,0:0:0:0:
229,74,32704,1,10,3:2:0:0:
244,77,32802,1,2,2:3:0:0:
258,80,32899,1,2,2:3:0:0:
236,189,33094,6,0,L|260:194,1,25,8|0,3:2|0:0,0:0:0:0:
352,226,33289,21,2,2:3:0:0:
349,211,33386,1,2,2:3:0:0:
346,196,33483,1,8,3:2:0:0:
343,181,33581,1,2,2:3:0:0:
340,167,33678,1,2,2:3:0:0:
337,153,33776,1,2,2:3:0:0:
334,139,33873,6,0,L|358:144,1,25,10|2,3:2|2:3,0:0:0:0:
447,220,34068,21,0,0:0:0:0:
447,220,34165,2,0,L|471:225,2,25,10|0|2,3:2|0:0|2:3,0:0:0:0:
276,284,34457,5,10,3:2:0:0:
239,291,34555,1,2,2:3:0:0:
202,299,34652,22,0,L|205:280,6,18.7500007152558,10|0|0|0|2|0|0,3:2|0:0|0:0|0:0|2:3|0:0|0:0,0:0:0:0:
113,355,35042,5,10,3:2:0:0:
98,358,35139,1,2,2:3:0:0:
83,361,35236,1,2,2:3:0:0:
68,364,35334,1,2,2:3:0:0:
54,367,35431,22,0,L|59:342,1,25,10|0,3:2|0:0,0:0:0:0:
6,261,35626,2,0,L|1:286,1,25,2|0,2:3|0:0,0:0:0:0:
109,222,35821,5,10,3:2:0:0:
106,207,35918,1,2,2:3:0:0:
103,192,36015,1,2,2:3:0:0:
100,177,36113,1,2,2:3:0:0:
96,163,36211,22,0,B|86:114|45:127|45:127|71:143|78:190,1,119.999996337891,8|2,3:2|2:3,0:0:0:0:
191,244,36503,2,0,P|247:239|260:185,1,119.999996337891,8|0,3:2|0:0,0:0:0:0:
210,106,36795,2,0,P|191:89|184:65,1,50,10|2,3:2|2:3,0:0:0:0:
340,0,36990,5,10,3:2:0:0:
360,71,37087,1,10,2:2:0:0:
297,108,37185,1,6,2:2:0:0:
447,34,37379,22,0,B|453:11|483:-1|483:-1|446:5|440:36,1,112.500004291535,2|0,2:3|0:0,0:0:0:0:
423,139,37769,2,0,B|398:178|398:178|484:141|484:141|473:102,1,170.000003242493,6|0,3:2|0:0,0:0:0:0:
364,75,38061,1,8,2:2:0:0:
364,75,38159,2,0,L|305:62,1,59.9999981689454,2|2,3:3|2:3,0:0:0:0:
302,177,38354,2,0,L|325:147,1,37.5000014305115,10|2,2:2|2:3,0:0:0:0:
136,83,38548,1,0,3:3:0:0:
226,146,38646,2,0,L|195:0,1,150.000005722046,10|8,2:2|2:2,0:0:0:0:
364,50,38938,2,0,L|305:62,1,59.9999981689454,2|2,3:3|2:3,0:0:0:0:
43,120,39133,1,10,2:2:0:0:
25,123,39230,1,10,2:2:0:0:
7,126,39328,5,4,3:2:0:0:
13,100,39425,1,2,2:3:0:0:
46,91,39522,1,2,2:3:0:0:
86,111,39620,1,10,2:2:0:0:
91,164,39717,1,2,3:3:0:0:
135,202,39815,1,2,2:3:0:0:
197,191,39912,1,10,2:2:0:0:
217,131,40009,1,2,2:3:0:0:
166,75,40107,21,6,3:2:0:0:
185,146,40204,1,10,2:2:0:0:
257,172,40302,1,2,2:3:0:0:
331,169,40399,1,10,2:2:0:0:
367,136,40496,1,2,3:3:0:0:
381,127,40594,1,2,2:3:0:0:
397,126,40691,1,10,2:2:0:0:
411,129,40789,1,10,2:2:0:0:
437,204,40886,6,0,B|450:198|467:200|467:200|496:182|487:154,1,85.0000016212464,6|0,3:2|0:0,0:0:0:0:
291,19,41081,1,0,3:3:0:0:
337,90,41178,2,0,P|378:119|431:128,1,85.0000016212464,0|4,0:0|3:2,0:0:0:0:
373,17,41373,1,0,0:0:0:0:
223,66,41470,2,0,P|176:83|137:112,1,85.0000016212464,4|0,3:2|0:0,0:0:0:0:
15,355,41665,21,4,3:2:0:0:
44,368,41763,1,0,0:0:0:0:
79,350,41860,1,0,3:3:0:0:
83,298,41957,1,0,0:0:0:0:
26,275,42055,1,4,3:2:0:0:
0,208,42152,1,0,0:0:0:0:
47,150,42250,1,0,3:3:0:0:
121,164,42347,1,0,0:0:0:0:
132,239,42444,6,0,L|119:236,7,12.5,2|0|0|0|0|0|0|0,3:2|0:0|0:0|0:0|0:0|0:0|0:0|0:0,0:0:0:0:
133,320,42834,2,0,L|120:317,7,12.5,2|0|0|0|0|0|0|0,0:2|0:0|0:0|0:0|0:0|0:0|0:0|0:0,0:0:0:0:
237,362,43224,2,0,L|250:359,7,12.5,2|0|0|0|0|0|0|0,0:2|0:0|0:0|0:0|0:0|0:0|0:0|0:0,0:0:0:0:
217,287,43613,22,0,L|248:280,1,30,2|0,2:2|0:0,0:0:0:0:
368,202,44003,6,0,B|402:167|456:148|456:148|344:168|344:168|262:228|314:234|354:261|314:306|319:307,1,375,4|0,3:2|0:0,0:0:0:0:
217,287,44392,2,0,L|400:325,1,187.5,10|0,3:1|0:0,0:0:0:0:
410,327,44587,2,0,L|404:302,2,25,2|2|2,2:3|2:3|2:3,0:0:0:0:
494,384,44782,1,0,3:3:0:0:
494,384,44879,2,0,B|506:361|506:361|475:203|475:203|494:178,1,200,2|2,2:2|2:3,0:0:0:0:
390,66,45172,21,10,3:1:0:0:
315,82,45269,1,2,2:2:0:0:
305,160,45367,1,2,2:2:0:0:
368,202,45464,2,0,P|358:179|342:159,1,50,2|0,2:2|3:3,0:0:0:0:
138,12,45659,5,2,2:2:0:0:
88,75,45756,1,2,2:2:0:0:
72,74,45854,1,2,2:2:0:0:
134,36,45951,1,10,3:1:0:0:
204,63,46048,1,2,2:2:0:0:
224,136,46146,1,2,2:2:0:0:
177,196,46243,2,0,P|156:209|143:233,1,50,2|2,2:2|3:2,0:0:0:0:
28,295,46438,21,2,2:3:0:0:
33,303,46535,1,2,2:3:0:0:
38,295,46633,1,2,2:3:0:0:
16,371,46730,6,0,B|0:316|66:278|48:228,1,150,0|0,3:3|0:0,0:0:0:0:
66,139,47120,21,2,3:2:0:0:
72,144,47185,5,2,2:2:0:0:
80,145,47250,21,2,2:2:0:0:
88,142,47315,6,0,P|100:131|116:127,2,33.3333333333333,2|2|2,2:2|2:2|2:2,0:0:0:0:
131,203,47509,22,0,B|160:229|202:218|202:218|244:171|309:125|309:125|344:115|383:136,1,284.999992389679,12|0,3:2|0:0,0:0:0:0:
462,176,47899,5,2,3:2:0:0:
459,167,47964,21,2,2:2:0:0:
457,158,48029,5,2,2:2:0:0:
454,149,48094,22,0,L|447:116,2,33.3333333333333,2|2|2,2:2|2:2|2:2,0:0:0:0:
392,208,48289,6,0,P|253:172|114:142,1,284.999992389679,14|0,3:2|0:0,0:0:0:0:
47,55,48678,21,0,3:3:0:0:
38,69,48776,1,2,2:2:0:0:
63,55,48873,1,2,2:2:0:0:
38,40,48970,1,2,2:2:0:0:
9,113,49068,5,10,3:1:0:0:
74,135,49165,1,2,2:2:0:0:
134,97,49263,1,2,2:2:0:0:
138,26,49360,1,2,2:2:0:0:
119,17,49457,21,2,3:2:0:0:
100,38,49555,1,2,2:2:0:0:
103,74,49652,1,2,2:2:0:0:
134,97,49750,1,2,2:2:0:0:
210,113,49847,1,10,3:1:0:0:
275,166,49944,1,2,2:2:0:0:
268,245,50042,1,2,2:2:0:0:
203,294,50139,1,2,2:2:0:0:
132,264,50237,6,0,B|92:250|92:250|67:206|67:206|332:288,1,359.999989013672,2|2,3:2|2:3,0:0:0:0:
447,320,50626,2,0,B|500:297|500:297|419:354|419:354|394:332,1,179.999994506836,8|0,3:1|0:0,0:0:0:0:
404,326,50821,2,0,L|407:307,2,18.7500007152558,2|0|2,2:3|0:0|2:3,0:0:0:0:
305,373,51016,21,0,3:3:0:0:
294,368,51113,2,0,L|274:361,1,14.9999995422363,2|0,2:3|0:0,0:0:0:0:
462,232,51308,2,0,L|481:223,1,14.9999995422363,2|8,2:3|3:1,0:0:0:0:
325,270,51503,6,0,L|321:284,1,14.9999995422363,2|0,2:3|0:0,0:0:0:0:
254,230,51698,2,0,L|250:244,2,14.9999995422363,2|0|0,2:2|3:3|0:0,0:0:0:0:
387,93,51990,21,2,2:2:0:0:
372,88,52087,1,2,2:2:0:0:
402,166,52185,2,0,L|386:92,1,75.0000028610231,10|0,3:1|0:0,0:0:0:0:
467,112,52379,5,2,2:2:0:0:
316,147,52477,2,0,L|275:154,2,37.5000014305115,2|2|2,2:2|3:2|2:3,0:0:0:0:
189,129,52769,22,0,P|188:147|197:163,1,37.5000014305115,2|0,2:2|0:0,0:0:0:0:
198,164,52867,2,0,P|170:133|125:129,2,85.0000016212464,2|10|2,2:2|3:3|2:3,0:0:0:0:
325,270,53159,2,0,P|288:271|257:292,1,75.0000028610231,2|0,2:2|0:0,0:0:0:0:
40,335,53354,6,0,B|13:342|0:386|0:386|-19:263|136:245|136:245|144:279|179:304,1,359.999989013672,0|2,3:3|2:3,0:0:0:0:
155,376,53743,2,0,P|131:368|112:349,1,50,10|2,3:3|2:3,0:0:0:0:
10,207,53938,1,0,0:0:0:0:
5,198,54035,1,2,2:3:0:0:
0,189,54133,1,0,3:3:0:0:
43,16,54328,22,0,L|32:64,1,50,2|2,2:2|2:2,0:0:0:0:
112,149,54522,5,10,3:1:0:0:
121,146,54587,21,2,2:2:0:0:
129,137,54652,5,2,2:2:0:0:
133,123,54717,21,2,2:2:0:0:
123,110,54782,5,2,2:2:0:0:
101,106,54847,21,2,2:2:0:0:
83,126,54912,6,0,B|112:136|132:167|132:167|142:164|142:164|192:62|289:58|289:58|274:98|296:135,1,345.000006580353,6|0,3:2|0:0,0:0:0:0:
383,256,55302,2,0,B|383:289|421:309|421:309|290:305|293:209|293:209|348:206|364:157,1,345.000006580353,2|0,3:2|0:0,0:0:0:0:
470,50,55691,2,0,B|491:31|526:26|526:26|470:4|470:4|385:7|362:86|362:86|408:87|435:125,1,345.000006580353,6|0,3:2|0:0,0:0:0:0:
456,237,56081,22,0,L|474:233,6,18.7500007152558,2|0|0|0|0|0|0,2:2|0:0|0:0|0:0|0:0|0:0|0:0,0:0:0:0:
164,384,56470,6,0,B|148:335|148:335|363:161|363:161|349:104,1,375,6|0,3:2|0:0,0:0:0:0:
269,96,56860,2,0,L|316:298,1,187.5,10|0,3:1|0:0,0:0:0:0:
315,293,57055,2,0,L|321:317,2,25,2|2|2,2:3|2:3|2:3,0:0:0:0:
211,178,57250,1,0,3:3:0:0:
211,178,57347,2,0,B|217:214|217:214|311:277,1,150,2|0,2:2|0:0,0:0:0:0:
245,336,57542,2,0,L|260:400,1,50,2|10,2:2|3:3,0:0:0:0:
435,232,57737,1,2,2:2:0:0:
452,304,57834,1,2,2:3:0:0:
469,384,57931,2,0,L|380:365,1,89.9999972534181,2|0,2:2|3:3,0:0:0:0:
157,297,58126,21,2,2:2:0:0:
87,361,58224,1,2,2:2:0:0:
98,359,58322,1,2,2:2:0:0:
169,337,58419,1,10,3:1:0:0:
184,260,58516,1,2,2:2:0:0:
129,202,58614,1,2,2:2:0:0:
51,213,58711,2,0,P|27:221|11:240,1,50,2|2,2:2|3:2,0:0:0:0:
211,178,58905,5,2,2:2:0:0:
219,171,59003,1,2,2:2:0:0:
227,164,59100,1,2,2:2:0:0:
311,128,59198,21,2,3:2:0:0:
321,131,59295,1,2,2:2:0:0:
238,73,59393,5,2,2:2:0:0:
236,63,59490,1,2,2:2:0:0:
150,36,59587,22,0,B|73:46|73:46|334:99,1,345.000006580353,2|0,3:2|0:0,0:0:0:0:
456,195,59977,2,0,B|468:155|512:134|512:134|490:39|375:37|375:37|417:66|411:113,1,345.000006580353,12|0,3:2|0:0,0:0:0:0:
367,187,60367,5,2,3:2:0:0:
361,194,60431,21,2,2:2:0:0:
352,198,60496,5,2,2:2:0:0:
343,198,60561,22,0,P|326:187|318:172,2,33.3333333333333,2|2|2,2:2|2:2|2:2,0:0:0:0:
375,243,60756,6,0,B|358:197|273:181|245:215|238:272|241:274|244:276|238:339|202:374|125:376|115:320,1,359.999989013672,12|0,3:2|0:0,0:0:0:0:
74,252,61146,21,0,3:3:0:0:
65,237,61244,1,2,2:2:0:0:
90,252,61341,1,2,2:2:0:0:
65,266,61438,1,2,2:2:0:0:
1,241,61535,5,6,3:2:0:0:
60,194,61633,1,2,2:2:0:0:
131,208,61730,1,2,2:2:0:0:
156,274,61828,1,6,3:2:0:0:
127,301,61925,21,2,2:2:0:0:
101,274,62022,1,10,2:2:0:0:
104,218,62120,1,6,3:2:0:0:
155,172,62217,2,0,P|145:162|133:154,1,25,10|8,2:2|2:2,0:0:0:0:
235,182,62315,1,10,2:2:0:0:
315,151,62412,1,2,2:2:0:0:
326,71,62509,1,2,2:2:0:0:
269,18,62607,1,10,2:2:0:0:
191,31,62704,6,0,L|259:353,1,330.000010070801,6|0,3:2|0:0,0:0:0:0:
375,285,63094,2,0,B|400:237|400:237|321:283|321:283|330:321,1,179.999994506836,8|0,3:1|0:0,0:0:0:0:
344,321,63289,2,0,L|368:326,2,25,2|0|2,2:3|0:0|2:3,0:0:0:0:
156,274,63483,21,0,3:3:0:0:
138,280,63581,2,0,L|119:285,1,14.9999995422363,2|0,2:3|0:0,0:0:0:0:
315,151,63776,2,0,L|334:156,1,14.9999995422363,2|8,2:3|3:1,0:0:0:0:
261,72,63970,6,0,L|255:96,1,25,2|0,2:3|0:0,0:0:0:0:
191,31,64165,2,0,L|185:55,2,25,2|0|0,2:2|3:3|0:0,0:0:0:0:
6,156,64457,1,2,2:2:0:0:
20,151,64555,1,2,2:2:0:0:
100,170,64652,2,0,L|85:97,1,75.0000028610231,10|0,3:1|0:0,0:0:0:0:
178,269,64847,1,2,2:2:0:0:
36,246,64944,2,0,L|0:237,2,37.5000014305115,2|2|2,2:2|3:3|2:3,0:0:0:0:
76,343,65237,22,0,L|27:332,1,50,2|2,2:2|2:2,0:0:0:0:
208,338,65431,5,10,3:1:0:0:
218,332,65496,21,2,2:2:0:0:
226,323,65561,5,2,2:2:0:0:
229,307,65626,21,2,2:2:0:0:
222,290,65691,5,2,2:2:0:0:
205,274,65756,21,2,2:2:0:0:
178,269,65821,6,0,B|94:184|166:100|232:45|342:103|295:221|230:197,1,375.000014305115,6|0,3:2|0:0,0:0:0:0:
50,151,66405,2,0,P|218:194|411:249,1,375.000014305115,4|0,3:2|0:0,0:0:0:0:
512,45,66990,22,0,L|506:20,1,25,4|0,3:2|0:0,0:0:0:0:
439,88,67574,6,0,B|437:145|376:134|376:134|414:120|419:83,1,150,8|0,3:2|0:0,0:0:0:0:
346,59,67964,2,0,P|317:35|280:37,1,75.0000028610231,0|0,3:3|0:0,0:0:0:0:
182,95,68159,2,0,P|123:70|168:23,1,150.000005722046,8|0,2:2|0:0,0:0:0:0:
175,25,68451,1,0,3:3:0:0:
91,75,68548,22,0,P|71:69|61:54,1,37.5000014305115
59,82,68646,6,0,P|49:69|44:53,1,32.4999985122681
39,70,68743,22,0,P|40:56|43:42,1,27.5000008392334
32,62,68841,6,0,P|36:50|46:40,1,22.4999993133545
112,0,68938,22,0,B|152:17|166:78|135:107|84:119|82:118|80:114|23:105|-12:167|0:224|52:241,1,330.000010070801,4|0,3:2|0:0,0:0:0:0:
101,293,69328,2,0,B|137:272|148:240|135:207|105:189|105:189|129:208|138:252|112:279,1,225.000008583069,10|2,3:1|2:3,0:0:0:0:
26,316,69717,1,2,3:2:0:0:
106,380,69815,2,0,P|142:370|172:348,1,75.0000028610231,2|2,2:2|2:3,0:0:0:0:
275,246,70009,1,2,2:3:0:0:
266,238,70107,2,0,P|226:240|209:269,1,75.0000028610231,8|2,3:1|2:2,0:0:0:0:
333,376,70302,6,0,P|392:354|455:340,1,127.50000243187,2|0,2:2|0:0,0:0:0:0:
457,331,70496,2,0,P|432:333|408:340,1,50,0|2,3:3|2:2,0:0:0:0:
341,164,70691,21,2,2:2:0:0:
398,190,70789,1,2,2:2:0:0:
403,251,70886,1,10,3:1:0:0:
366,234,70983,1,2,2:2:0:0:
360,192,71081,1,2,2:2:0:0:
391,158,71178,1,2,2:2:0:0:
467,98,71276,5,2,3:2:0:0:
394,117,71373,1,2,2:3:0:0:
319,137,71470,1,2,2:3:0:0:
244,159,71568,1,2,2:3:0:0:
227,166,71665,22,0,L|230:147,6,18.7500007152558,0|0|0|0|0|0|0,3:3|0:0|0:0|0:0|0:0|0:0|0:0,0:0:0:0:
109,116,72055,5,2,3:2:0:0:
99,118,72120,21,2,2:2:0:0:
89,120,72185,5,2,2:2:0:0:
77,122,72250,22,0,L|44:128,2,33.3333333333333,2|2|2,2:2|2:2|2:2,0:0:0:0:
102,145,72444,6,0,B|120:90|50:12|50:12|120:89|177:85,1,300,12|0,3:2|0:0,0:0:0:0:
331,122,72834,21,2,3:2:0:0:
329,112,72899,5,2,2:2:0:0:
327,102,72964,21,2,2:2:0:0:
325,90,73029,6,0,L|318:57,2,33.3333333333333,2|0|0,2:2|0:0|0:0,0:0:0:0:
335,136,73224,22,0,B|372:55|479:91|492:180|426:225|426:225|396:213|363:236,1,300,14|0,3:2|0:0,0:0:0:0:
225,138,73613,5,0,3:3:0:0:
220,169,73711,1,2,2:2:0:0:
229,147,73808,1,2,2:2:0:0:
239,125,73905,1,2,2:2:0:0:
212,99,74003,21,14,3:2:0:0:
245,141,74100,1,2,2:2:0:0:
208,188,74198,1,2,2:2:0:0:
261,227,74295,1,6,3:2:0:0:
231,304,74392,1,2,2:2:0:0:
212,303,74490,1,2,2:2:0:0:
212,285,74587,1,6,3:2:0:0:
232,285,74685,1,2,2:2:0:0:
206,348,74782,6,0,L|197:374,1,25,10|0,2:2|0:0,0:0:0:0:
244,271,74879,1,2,2:3:0:0:
288,205,74977,1,2,2:3:0:0:
335,136,75074,1,2,3:3:0:0:
406,97,75172,22,0,B|459:120|485:150|485:150|370:93|251:69,1,345.000006580353,6|2,3:2|2:3,0:0:0:0:
97,134,75561,2,0,B|73:138|52:174|52:174|77:76|171:80|171:80|176:131|231:145,1,314.999990386963,10|2,3:1|2:3,0:0:0:0:
314,133,75951,2,0,B|311:77|343:41|343:41|310:75|249:68,1,200,2|0,3:2|0:0,0:0:0:0:
211,244,76243,1,2,2:3:0:0:
224,248,76341,2,0,P|259:241|276:209,1,75.0000028610231,8|2,3:1|2:3,0:0:0:0:
123,208,76535,6,0,P|136:264|149:332,1,127.50000243187,2|0,2:2|0:0,0:0:0:0:
160,338,76730,2,0,P|155:313|149:289,1,50,0|0,3:3|0:0,0:0:0:0:
0,301,76925,21,2,2:2:0:0:
13,337,77022,1,2,2:2:0:0:
51,332,77120,1,10,3:1:0:0:
97,134,77315,1,2,2:2:0:0:
82,137,77412,2,0,P|48:142|23:149,2,59.9999981689454,2|2|2,2:2|3:2|2:3,0:0:0:0:
236,32,77704,1,2,2:2:0:0:
161,54,77802,2,0,P|170:91|206:106,1,80,2|10,2:2|3:3,0:0:0:0:
398,68,77996,1,2,2:3:0:0:
333,16,78094,2,0,P|323:52|316:94,1,80,2|0,2:2|0:0,0:0:0:0:
278,261,78289,6,0,B|296:294|350:302|385:261|377:229|375:228|372:226|376:185|407:149|463:162|477:188,1,269.999991760254,0|2,3:3|2:3,0:0:0:0:
440,323,78678,2,0,L|435:342,1,20,10|2,3:3|2:3,0:0:0:0:
512,254,78873,2,0,L|507:273,1,20,0|2,0:0|2:3,0:0:0:0:
307,184,79068,1,0,3:3:0:0:
349,381,79263,2,0,L|359:332,1,50,2|2,2:2|2:2,0:0:0:0:
186,333,79457,21,10,3:1:0:0:
176,327,79522,5,2,2:2:0:0:
162,326,79587,21,2,2:2:0:0:
146,332,79652,5,2,2:2:0:0:
133,345,79717,21,2,2:2:0:0:
131,367,79782,5,2,2:2:0:0:
142,384,79847,22,0,B|133:208|307:184|307:184|317:229|360:240,1,359.999989013672,6|0,3:2|0:0,0:0:0:0:
470,103,80237,2,0,B|491:86|536:90|536:90|483:52|483:52|393:40|346:122|346:122|376:138|383:177,1,359.999989013672,2|0,3:2|0:0,0:0:0:0:
502,230,80626,2,0,L|149:155,1,359.999989013672,6|0,3:2|0:0,0:0:0:0:
2,222,81016,6,0,L|-1:235,9,12.5000004768372,2|2|2|2|2|2|2|2|2|2,3:3|2:3|2:3|2:3|2:3|2:3|2:3|2:3|2:3|2:3,0:0:0:0:
61,135,81405,22,0,L|48:76,1,60,6|0,3:2|0:0,0:0:0:0:
48,76,81795,6,0,B|-8:71|-26:18|-26:18|-16:134|78:131|78:131|89:95|128:84,1,345.000006580353,10|0,3:2|0:0,0:0:0:0:
215,54,82185,2,0,B|196:10|142:12|142:12|183:18|195:49,1,150.000005722046,2|0,3:2|0:0,0:0:0:0:
236,138,82477,1,2,2:2:0:0:
312,90,82574,2,0,P|338:65|327:10,1,75.0000028610231,8|0,3:2|0:0,0:0:0:0:
149,155,82769,2,0,P|153:176|159:203,1,50,2|0,2:2|0:0,0:0:0:0:
199,366,82964,22,0,P|248:327|310:312,1,127.50000243187,2|0,3:2|0:0,0:0:0:0:
313,302,83159,2,0,P|288:303|264:311,1,50,2|0,2:2|0:0,0:0:0:0:
76,371,83354,2,0,P|50:365|27:360,1,50,10|0,3:2|0:0,0:0:0:0:
0,274,83548,2,0,P|73:291|146:304,2,150.000005722046,2|0|2,2:2|3:3|2:2,0:0:0:0:
0,261,84035,1,2,2:2:0:0:
72,205,84133,5,10,3:2:0:0:
83,142,84230,1,2,2:2:0:0:
43,103,84328,1,2,2:2:0:0:
3,116,84425,1,2,2:2:0:0:
0,157,84522,22,0,P|104:135|195:115,1,200,2|0,3:2|0:0,0:0:0:0:
127,52,84815,1,2,2:2:0:0:
216,193,84912,2,0,P|250:179|269:148,1,75.0000028610231,8|0,3:2|0:0,0:0:0:0:
311,40,85107,2,0,L|262:29,1,50,2|0,2:2|0:0,0:0:0:0:
359,136,85302,2,0,B|410:110|392:55|392:55|386:91|357:105,1,150.000005722046,0|2,3:3|2:2,0:0:0:0:
367,99,85594,1,2,2:2:0:0:
367,99,85691,1,10,3:2:0:0:
440,286,85886,2,0,L|488:275,1,50,2|0,2:2|0:0,0:0:0:0:
331,227,86081,6,0,L|467:197,1,139.999995727539,2|0,3:2|0:0,0:0:0:0:
193,384,86470,21,10,3:2:0:0:
152,322,86568,1,2,2:2:0:0:
189,264,86665,1,2,2:2:0:0:
233,265,86763,1,2,2:2:0:0:
250,280,86860,1,2,3:2:0:0:
251,298,86957,1,2,2:3:0:0:
245,305,87055,1,2,2:3:0:0:
238,307,87152,5,2,2:2:0:0:
277,237,87250,1,10,3:2:0:0:
261,173,87347,1,2,2:2:0:0:
212,146,87444,1,2,2:2:0:0:
169,147,87542,1,2,2:2:0:0:
143,165,87639,22,0,P|174:149|194:121,1,69.9999978637696,2|0,3:2|0:0,0:0:0:0:
310,66,87834,2,0,P|294:35|265:14,1,69.9999978637696
58,132,88029,5,10,3:2:0:0:
0,94,88126,1,2,2:2:0:0:
8,36,88224,1,2,2:2:0:0:
47,20,88321,1,2,2:2:0:0:
77,29,88418,2,0,P|42:34|8:42,1,69.9999978637696,2|0,3:2|0:0,0:0:0:0:
170,178,88613,1,2,2:2:0:0:
196,86,88711,2,0,P|161:91|127:99,1,69.9999978637696,2|10,2:2|3:2,0:0:0:0:
261,212,88905,1,2,2:2:0:0:
346,160,89003,2,0,P|339:126|331:92,1,69.9999978637696,2|0,2:2|0:0,0:0:0:0:
405,36,89198,22,0,P|426:123|442:211,1,179.999994506836,2|0,3:2|0:0,0:0:0:0:
370,384,89587,5,10,3:2:0:0:
393,307,89685,1,2,2:2:0:0:
462,284,89782,1,2,2:2:0:0:
512,306,89879,1,2,2:2:0:0:
511,343,89977,1,2,3:2:0:0:
502,338,90074,1,2,2:2:0:0:
488,337,90172,1,2,2:2:0:0:
475,343,90269,21,2,2:2:0:0:
411,313,90367,1,10,3:2:0:0:
405,240,90464,1,2,2:2:0:0:
431,199,90561,1,2,2:2:0:0:
468,187,90659,1,2,2:2:0:0:
499,195,90756,6,0,P|462:203|425:210,1,75.0000028610231,2|0,3:2|0:0,0:0:0:0:
295,116,90951,2,0,P|330:122|349:154,1,75.0000028610231,2|0,2:2|0:0,0:0:0:0:
293,240,91146,2,0,P|257:233|238:201,1,75.0000028610231,10|2,3:2|2:2,0:0:0:0:
147,81,91341,1,2,2:2:0:0:
153,70,91438,1,2,2:2:0:0:
158,60,91535,2,0,B|179:66|214:64|214:64|147:82|95:98,1,179.999994506836,2|0,3:2|0:0,0:0:0:0:
25,62,91828,1,2,2:2:0:0:
122,176,91925,2,0,P|93:200|74:232,1,75.0000028610231,8|0,3:2|0:0,0:0:0:0:
18,337,92120,2,0,P|7:321|-6:309,1,37.5000014305115,2|0,2:2|0:0,0:0:0:0:
190,384,92315,22,0,B|233:379|264:327|231:281|231:281|232:316|210:339,1,179.999994506836,2|0,3:2|0:0,0:0:0:0:
156,288,92607,1,2,2:2:0:0:
91,359,92704,2,0,P|205:331|315:311,1,230.000004386902,4|2,3:2|2:2,0:0:0:0:
492,317,92996,2,0,B|482:243|408:221|357:251|357:251|385:268|388:299,1,230.000004386902,4|0,3:2|0:0,0:0:0:0:
340,381,93289,2,0,L|388:370,1,50,4|0,3:2|0:0,0:0:0:0:
508,202,93483,1,2,2:2:0:0:
430,159,93581,2,0,P|395:135|375:98,2,85.0000016212464,4|0|0,3:2|0:0|0:0,0:0:0:0:
461,75,93873,6,0,P|482:56|488:27,1,60,4|0,3:2|0:0,0:0:0:0:
461,76,94263,22,0,B|452:-22|353:-37|303:17|303:17|326:72|262:122|224:70,1,345.000006580353,10|0,3:2|0:0,0:0:0:0:
170,36,94652,2,0,B|145:-3|95:1|95:1|133:7|147:33,1,150.000005722046,2|0,3:2|0:0,0:0:0:0:
48,206,94944,1,2,2:2:0:0:
35,127,95042,2,0,P|50:94|82:75,1,75.0000028610231,8|0,3:2|0:0,0:0:0:0:
228,166,95237,2,0,P|203:160|184:144,1,50,2|0,2:2|0:0,0:0:0:0:
375,97,95431,6,0,P|370:164|329:216,1,134.999995880127,0|0,3:3|0:0,0:0:0:0:
323,220,95626,2,0,P|345:210|370:208,1,50
467,147,95821,2,0,P|489:157|506:175,1,50,10|2,3:2|2:2,0:0:0:0:
512,354,96016,2,0,P|438:337|365:322,2,150.000005722046,2|2|2,2:2|3:3|2:2,0:0:0:0:
512,344,96503,1,2,2:2:0:0:
462,271,96600,21,10,3:2:0:0:
392,249,96698,1,2,2:2:0:0:
332,272,96795,1,2,2:2:0:0:
313,324,96892,1,2,2:2:0:0:
326,369,96990,6,0,L|284:173,1,200,2|0,3:2|0:0,0:0:0:0:
392,249,97282,1,2,2:2:0:0:
228,282,97379,2,0,L|154:297,1,75.0000028610231,8|0,3:2|0:0,0:0:0:0:
48,384,97574,2,0,P|63:364|70:340,1,50,2|0,2:2|0:0,0:0:0:0:
71,192,97769,22,0,B|72:138|9:129|9:129|46:152|48:182,1,150.000005722046,2|0,3:2|0:0,0:0:0:0:
44,165,98061,1,2,2:3:0:0:
44,165,98159,1,8,3:2:0:0:
205,72,98354,2,0,L|155:63,1,50,2|0,2:2|0:0,0:0:0:0:
284,173,98548,6,0,L|147:143,1,139.999995727539,2|0,3:2|0:0,0:0:0:0:
334,37,98938,21,10,3:2:0:0:
407,6,99035,1,2,2:2:0:0:
461,29,99133,1,2,2:2:0:0:
480,83,99230,1,2,2:2:0:0:
474,97,99328,1,2,3:2:0:0:
481,92,99425,1,2,2:3:0:0:
485,84,99522,1,2,2:3:0:0:
484,73,99620,5,2,2:2:0:0:
410,83,99717,1,10,3:2:0:0:
380,151,99815,1,2,2:2:0:0:
396,218,99912,1,2,2:2:0:0:
447,244,100009,1,2,2:2:0:0:
484,247,100107,22,0,P|464:218|429:205,1,69.9999978637696,2|0,3:2|0:0,0:0:0:0:
325,131,100302,2,0,P|290:133|263:154,1,69.9999978637696
212,356,100496,5,10,3:2:0:0:
285,331,100594,1,2,2:2:0:0:
296,274,100691,1,2,2:2:0:0:
269,238,100789,1,2,2:2:0:0:
227,234,100886,2,0,P|256:252|288:266,1,69.9999978637696,2|0,3:2|0:0,0:0:0:0:
175,150,101081,1,2,2:2:0:0:
79,194,101178,2,0,P|46:207|17:226,1,69.9999978637696,2|8,2:2|3:2,0:0:0:0:
17,41,101373,1,2,2:2:0:0:
107,88,101470,1,2,2:2:0:0:
97,116,101568,1,2,2:2:0:0:
10,128,101665,22,0,P|92:93|177:61,1,179.999994506836,2|0,3:2|0:0,0:0:0:0:
396,185,102055,5,10,3:2:0:0:
352,120,102152,1,2,2:2:0:0:
373,56,102250,1,2,2:2:0:0:
422,45,102347,1,2,2:2:0:0:
463,62,102444,1,2,3:2:0:0:
450,65,102542,1,2,2:3:0:0:
440,73,102639,1,2,2:2:0:0:
436,86,102737,21,2,2:2:0:0:
365,59,102834,1,10,3:2:0:0:
298,94,102931,1,2,2:2:0:0:
279,152,103029,1,2,2:2:0:0:
296,200,103126,1,2,2:2:0:0:
321,220,103224,6,0,P|334:185|339:148,1,75.0000028610231,2|0,3:2|0:0,0:0:0:0:
195,2,103418,1,2,2:2:0:0:
188,13,103516,1,0,0:0:0:0:
183,23,103613,2,0,P|187:60|201:95,1,75.0000028610231,8|0,3:2|0:0,0:0:0:0:
152,198,103808,2,0,P|159:222|171:244,1,50,2|0,2:2|0:0,0:0:0:0:
319,378,104003,22,0,P|342:345|353:307,1,80,2|0,3:2|0:0,0:0:0:0:
264,310,104198,1,2,2:2:0:0:
425,366,104295,1,2,0:0:0:0:
425,366,104392,2,0,P|462:378|502:384,1,80,10|0,3:2|0:2,0:0:0:0:
321,220,104587,2,0,P|293:224|272:230,1,50,2|0,2:2|0:0,0:0:0:0:
111,381,104782,6,0,B|47:394|24:348|24:348|39:319|32:296,1,150.000005722046,2|2,3:2|2:2,0:0:0:0:
152,289,105074,2,0,P|166:268|171:244,1,50,2|8,2:2|3:2,0:0:0:0:
31,140,105269,1,0,0:0:0:0:
5,226,105367,2,0,P|41:216|78:210,1,75.0000028610231,2|0,2:2|0:0,0:0:0:0:
254,143,105561,2,0,P|233:112|196:92,1,75.0000028610231,0|0,3:3|0:0,0:0:0:0:
80,26,105756,2,0,P|88:49|105:67,1,50,2|0,2:2|0:0,0:0:0:0:
321,220,105951,21,10,3:2:0:0:
381,162,106048,1,2,2:3:0:0:
394,101,106146,1,2,2:3:0:0:
379,52,106243,1,2,2:3:0:0:
355,27,106341,1,6,2:2:0:0:
441,246,106535,5,2,2:3:0:0:
441,246,106633,1,2,2:3:0:0:
441,246,106730,2,0,P|457:250|478:253,3,25,2|2|2|2,2:3|2:3|2:3|2:3,0:0:0:0:
299,233,107120,2,0,P|309:226|320:219,3,25,6|2|2|2,2:2|2:3|2:3|2:3,0:0:0:0:
189,324,107509,2,0,P|192:311|194:299,3,25,2|2|2|2,2:3|2:3|2:3|2:3,0:0:0:0:
100,368,107899,21,6,2:2:0:0:
83,357,107996,1,2,2:3:0:0:
70,338,108094,1,2,2:3:0:0:
66,320,108191,1,2,2:3:0:0:
46,335,108289,5,6,2:2:0:0:
46,281,108386,1,2,2:3:0:0:
75,231,108483,1,2,2:3:0:0:
137,216,108581,1,2,2:3:0:0:
114,202,108678,21,6,2:2:0:0:
186,180,108776,1,2,2:3:0:0:
254,218,108873,1,2,2:3:0:0:
280,291,108970,1,2,2:3:0:0:
257,362,109068,6,0,B|219:358|186:384|186:384|218:310|291:334|291:334|302:373|339:380,1,269.999991760254,14|0,3:2|0:0,0:0:0:0:
365,309,109457,22,0,P|405:291|423:250,1,89.9999972534181,4|0,3:2|0:0,0:0:0:0:
414,245,109652,2,0,P|405:241|398:234,2,18.7500007152558,2|2|2,2:3|2:3|2:3,0:0:0:0:
501,326,109847,2,0,P|460:343|442:384,1,89.9999972534181,8|0,3:1|0:0,0:0:0:0:
512,241,110237,5,2,3:3:0:0:
512,241,110334,2,0,L|493:152,1,89.9999972534181,2|2,2:3|2:3,0:0:0:0:
493,152,110626,1,8,3:1:0:0:
382,130,110821,2,0,L|418:137,1,37.5000014305115,2|2,2:3|2:3,0:0:0:0:
512,78,111016,22,0,L|423:59,1,89.9999972534181,0|0,3:3|0:0,0:0:0:0:
414,56,111211,2,0,L|417:37,2,18.7500007152558,2|2|2,2:3|2:3|2:3,0:0:0:0:
341,22,111405,1,10,3:3:0:0:
341,22,111503,1,0,0:0:0:0:
341,22,111600,2,0,L|333:58,1,37.5000014305115
257,151,111795,5,0,3:3:0:0:
257,151,111892,2,0,L|238:62,1,89.9999972534181,2|2,2:3|2:3,0:0:0:0:
238,62,112185,1,8,3:1:0:0:
382,130,112379,2,0,L|374:166,1,37.5000014305115,2|0,2:3|0:0,0:0:0:0:
388,266,112574,22,0,P|434:263|456:221,1,97.4999955368044,0|0,3:3|0:0,0:0:0:0:
457,207,112769,2,0,P|458:197|460:188,2,18.7500007152558,2|2|2,2:3|2:3|2:3,0:0:0:0:
307,229,112964,2,0,P|261:243|255:290,1,100,8|2,3:1|2:3,0:0:0:0:
316,381,113354,5,0,3:3:0:0:
316,381,113451,2,0,L|208:358,1,110.000003356934,2|2,2:3|2:3,0:0:0:0:
208,358,113743,1,8,3:1:0:0:
127,300,113938,2,0,L|134:336,1,37.5000014305115,2|2,2:3|2:3,0:0:0:0:
60,384,114133,22,0,L|41:295,1,89.9999972534181,0|0,3:3|0:0,0:0:0:0:
38,284,114328,2,0,L|34:265,2,18.7500007152558,2|2|2,2:3|2:3|2:3,0:0:0:0:
140,221,114522,1,8,3:1:0:0:
140,221,114620,1,0,0:0:0:0:
140,221,114717,2,0,L|103:213,1,37.5000014305115,2|0,2:3|0:0,0:0:0:0:
23,186,114912,5,0,3:3:0:0:
23,186,115009,2,0,L|28:161,1,25,2|0,2:3|0:0,0:0:0:0:
86,36,115204,1,2,2:3:0:0:
102,28,115302,21,8,3:1:0:0:
94,64,115399,1,0,0:0:0:0:
67,88,115496,1,2,2:3:0:0:
30,89,115594,1,2,2:3:0:0:
0,68,115691,1,0,3:3:0:0:
147,136,115886,6,0,P|162:126|173:111,1,37.5,2|0,2:3|0:0,0:0:0:0:
173,111,116081,22,0,B|103:99|103:99|224:153,1,200,8|0,3:1|0:0,0:0:0:0:
324,87,116470,5,0,3:3:0:0:
315,89,116568,2,0,L|278:96,1,37.5000014305115,2|0,2:3|0:0,0:0:0:0:
344,163,116763,1,2,2:3:0:0:
335,165,116861,2,0,L|298:172,1,37.5000014305115,10|2,3:3|2:3,0:0:0:0:
404,109,117055,21,2,2:3:0:0:
422,113,117152,1,0,0:0:0:0:
440,117,117250,1,0,3:3:0:0:
512,32,117444,6,0,L|494:29,2,18.7500007152558,2|2|2,2:3|2:3|2:3,0:0:0:0:
404,109,117639,2,0,P|345:105|347:46,1,129.999994049073,8|2,3:1|2:3,0:0:0:0:
194,8,118029,21,0,3:3:0:0:
203,6,118127,2,0,L|240:-1,1,37.5000014305115,2|0,2:3|0:0,0:0:0:0:
214,84,118320,1,2,2:3:0:0:
223,82,118418,2,0,L|260:75,1,37.5000014305115,8|0,3:1|0:0,0:0:0:0:
136,66,118613,5,2,2:3:0:0:
118,62,118710,1,0,0:0:0:0:
100,58,118808,1,0,3:3:0:0:
8,134,119003,22,0,L|11:152,2,18.7500007152558,2|2|2,2:3|2:3|2:3,0:0:0:0:
59,0,119198,2,0,L|86:127,1,129.999994049073,8|2,3:1|2:3,0:0:0:0:
140,269,119587,5,0,3:3:0:0:
142,260,119685,2,0,L|149:223,1,37.5000014305115,2|0,2:3|0:0,0:0:0:0:
64,249,119878,1,2,2:3:0:0:
66,240,119976,2,0,L|73:203,1,37.5000014305115,8|0,3:1|0:0,0:0:0:0:
5,325,120172,21,2,2:3:0:0:
9,343,120269,1,2,2:3:0:0:
13,361,120367,1,0,3:3:0:0:
118,342,120561,6,0,L|99:338,2,18.7500007152558
228,251,120756,2,0,P|287:254|294:314,1,129.999994049073,8|2,2:1|2:3,0:0:0:0:
301,322,121048,21,0,0:0:0:0:
301,322,121146,2,0,P|298:303|300:286,2,32.4999985122681,2|0|0,2:3|0:0|0:0,0:0:0:0:
302,210,121341,2,0,P|314:199|328:192,2,32.4999985122681,2|0|0,2:3|0:0|0:0,0:0:0:0:
228,251,121535,6,0,B|178:266|162:219|120:230,1,112.500004291535,10|0,2:3|0:0,0:0:0:0:
61,270,121925,22,0,P|200:240|354:207,1,300,6|0,3:2|0:0,0:0:0:0:
411,156,122315,2,0,P|391:140|367:133,1,50,8|0,3:1|0:0,0:0:0:0:
463,228,122509,5,2,2:3:0:0:
473,223,122607,1,2,2:3:0:0:
489,194,122705,21,2,3:3:0:0:
483,218,122802,1,2,2:3:0:0:
478,242,122899,1,2,2:3:0:0:
473,267,122997,1,2,2:3:0:0:
468,291,123094,1,10,3:3:0:0:
411,381,123289,2,0,L|447:373,1,37.5000014305115,2|2,2:3|2:3,0:0:0:0:
468,291,123483,5,2,3:3:0:0:
444,297,123580,1,2,2:3:0:0:
420,302,123677,1,2,2:3:0:0:
395,307,123775,1,2,2:3:0:0:
371,312,123873,22,0,B|401:296|392:254|392:254|386:286|360:299,1,112.500004291535,10|0,3:3|0:0,0:0:0:0:
322,240,124068,2,0,P|313:235|306:229,2,18.7500007152558,2|0|0,2:3|0:0|0:0,0:0:0:0:
331,379,124263,1,2,3:3:0:0:
298,355,124360,1,2,2:3:0:0:
254,366,124457,2,0,P|266:352|275:335,1,37.5000014305115,2|0,2:3|0:0,0:0:0:0:
196,277,124652,5,10,3:3:0:0:
197,290,124750,2,0,P|197:299|203:307,2,18.7500007152558,2|0|2,2:3|0:0|2:3,0:0:0:0:
225,187,124944,21,2,2:3:0:0:
220,166,125042,1,2,3:3:0:0:
201,153,125139,1,2,2:3:0:0:
174,153,125237,2,0,P|156:159|142:172,1,37.5000014305115,2|2,2:3|2:3,0:0:0:0:
87,261,125431,1,10,3:3:0:0:
60,261,125529,2,0,P|42:255|28:242,1,37.5000014305115,2|2,2:2|2:3,0:0:0:0:
30,125,125724,1,2,2:3:0:0:
15,153,125821,5,2,3:3:0:0:
40,151,125918,1,2,2:3:0:0:
66,130,126016,1,2,2:3:0:0:
71,90,126113,1,2,2:3:0:0:
43,49,126211,1,10,3:3:0:0:
78,78,126308,2,0,P|93:89|111:93,2,37.5000014305115,2|0|2,2:3|0:0|2:3,0:0:0:0:
197,30,126600,21,2,3:3:0:0:
227,8,126698,1,2,2:3:0:0:
249,38,126795,1,2,2:3:0:0:
271,68,126892,1,2,2:3:0:0:
301,46,126990,1,10,3:3:0:0:
331,24,127088,1,2,2:3:0:0:
353,54,127185,1,2,2:3:0:0:
375,84,127281,1,2,2:3:0:0:
405,62,127379,1,2,3:3:0:0:
495,25,127574,6,0,L|487:61,1,37.5000014305115,2|0,2:2|0:0,0:0:0:0:
428,148,127769,1,8,3:1:0:0:
428,148,127867,2,0,L|464:140,1,37.5000014305115,2|2,2:2|2:2,0:0:0:0:
512,214,128061,2,0,L|476:222,1,37.5000014305115,2|2,2:2|3:3,0:0:0:0:
372,300,128256,21,2,2:3:0:0:
378,276,128353,1,2,2:3:0:0:
383,252,128450,1,2,2:3:0:0:
388,227,128548,6,0,B|366:258|366:258|441:344|441:344|415:392,1,179.999994506836,10|0,3:1|0:0,0:0:0:0:
296,384,128938,2,0,L|344:373,1,50,2|2,3:3|2:3,0:0:0:0:
199,249,129133,1,2,2:3:0:0:
207,242,129230,1,2,2:3:0:0:
215,236,129328,2,0,B|247:239|247:239|260:263,1,59.9999981689454,10|0,3:3|0:0,0:0:0:0:
196,384,129522,1,2,2:3:0:0:
197,374,129620,2,0,L|207:325,1,50,2|2,2:3|3:3,0:0:0:0:
105,263,129815,21,2,2:3:0:0:
68,253,129911,1,2,2:3:0:0:
43,278,130009,1,2,2:3:0:0:
87,333,130107,2,0,L|62:215,1,120,8|0,3:1|0:0,0:0:0:0:
58,199,130302,2,0,L|54:180,2,18.7500007152558,2|2|2,2:3|2:3|2:3,0:0:0:0:
143,197,130496,6,0,L|135:160,1,37.5000014305115,2|2,3:3|2:3,0:0:0:0:
7,75,130691,2,0,B|47:63|47:63|91:95,1,85.0000016212464,2|2,2:3|2:3,0:0:0:0:
218,148,130886,1,10,3:3:0:0:
168,81,130983,2,0,L|171:62,2,18.7500007152558,2|2|2,2:3|2:3|2:3,0:0:0:0:
52,166,131178,21,2,2:3:0:0:
54,180,131276,2,0,L|66:238,1,59.9999981689454,2|2,3:3|2:3,0:0:0:0:
186,289,131470,2,0,B|131:277|131:277|122:290|110:297,1,85.0000016212464,2|2,2:3|2:3,0:0:0:0:
0,332,131665,1,10,3:3:0:0:
157,364,131763,2,0,L|240:381,1,85.0000016212464,2|2,2:2|2:3,0:0:0:0:
75,384,131957,6,0,L|70:360,2,25,2|2|0,2:3|3:3|0:0,0:0:0:0:
273,315,132250,2,0,L|257:241,1,75.0000028610231,2|0,2:2|0:0,0:0:0:0:
143,197,132444,2,0,L|167:202,1,25,8|2,3:1|2:3,0:0:0:0:
347,238,132639,1,2,2:3:0:0:
359,241,132737,1,2,2:3:0:0:
403,277,132834,21,2,3:3:0:0:
427,271,132931,1,2,2:3:0:0:
451,266,133028,1,2,2:3:0:0:
476,261,133126,1,2,2:3:0:0:
463,211,133224,5,10,2:3:0:0:
457,238,133321,1,2,2:3:0:0:
451,266,133418,1,2,2:3:0:0:
445,293,133516,1,2,2:3:0:0:
439,321,133613,22,0,L|457:317,2,18.7500007152558,2|2|2,2:3|2:3|2:3,0:0:0:0:
360,383,133808,2,0,L|378:379,2,18.7500007152558,2|2|2,2:3|2:3|2:3,0:0:0:0:
257,241,134003,5,10,2:3:0:0:
256,192,134100,12,2,137509,2:2:0:0:
371,208,139068,22,0,B|357:241|314:260|314:260|428:295|480:196|480:196|425:176|417:121,1,375.000014305115,2|2,2:2|2:2,0:0:0:0:
271,73,140431,5,2,2:2:0:0:
271,73,140529,1,2,2:2:0:0:
271,73,140626,2,0,B|214:34|170:58|140:99|146:98|114:162|44:167|-12:155|-35:72|-10:-4|79:-9|108:38,1,450.000017166138,2|0,2:2|0:0,0:0:0:0:
302,182,141990,21,2,2:2:0:0:
302,182,142087,1,2,2:2:0:0:
302,182,142185,2,0,B|367:171|381:113|345:64|345:64|346:111|313:141,1,225.000008583069,2|0,2:2|0:0,0:0:0:0:
187,295,142964,2,0,B|166:313|167:360|167:360|131:311|145:253|210:242,1,225.000008583069,2|0,2:2|0:0,0:0:0:0:
367,345,143743,6,0,B|377:295|439:283|439:283|481:216|470:136|394:72|286:92|270:186|270:186|294:212|292:247,1,525.000020027161,2|0,2:2|0:0,0:0:0:0:
28,299,145302,22,0,B|21:349|-28:370|-28:370|54:432|130:360|115:271|111:273|107:274|92:216|160:145|241:192|241:282|188:288,1,525.000020027161,2|0,2:2|0:0,0:0:0:0:
48,200,146860,6,0,B|71:86|-6:-7|-6:-7|45:104|166:129,1,450.000017166138,2|0,2:2|0:0,0:0:0:0:
354,101,148224,21,2,2:2:0:0:
354,101,148321,1,2,2:2:0:0:
354,101,148418,2,0,B|359:84|385:69|385:69|351:67|316:89|321:132,1,150.000005722046,2|0,2:2|0:0,0:0:0:0:
215,204,149003,1,2,2:2:0:0:
215,204,149100,1,2,2:2:0:0:
215,204,149198,2,0,P|288:215|359:239,1,150.000005722046,2|0,2:2|0:0,0:0:0:0:
506,161,149782,5,2,2:2:0:0:
506,161,149879,1,2,2:2:0:0:
506,161,149977,2,0,P|494:165|483:172,1,25,2|0,2:3|0:0,0:0:0:0:
410,158,150172,2,0,P|407:170|408:182,1,25,2|0,2:3|0:0,0:0:0:0:
359,239,150367,2,0,P|368:247|379:252,1,25,2|0,2:3|0:0,0:0:0:0:
391,327,150561,2,0,P|403:324|414:319,1,25,2|0,2:3|0:0,0:0:0:0:
501,307,150756,22,0,P|491:283|478:262,2,50,2|2|2,2:3|2:3|2:3,0:0:0:0:
396,353,151535,5,2,2:3:0:0:
388,348,151633,1,2,2:3:0:0:
385,340,151730,1,2,2:3:0:0:
386,332,151828,1,2,2:3:0:0:
391,326,151925,22,0,P|403:324|414:319,1,25,2|0,2:3|0:0,0:0:0:0:
359,238,152119,2,0,P|368:247|379:252,1,25,2|0,2:3|0:0,0:0:0:0:
410,158,152314,2,0,P|407:170|408:182,1,25,2|0,2:3|0:0,0:0:0:0:
506,161,152509,2,0,P|494:165|483:172,1,25,2|0,2:3|0:0,0:0:0:0:
478,84,152704,6,0,P|467:91|456:94,3,25,2|2|2|2,2:3|2:3|2:3|2:3,0:0:0:0:
383,83,153094,22,0,P|373:74|362:68,1,25,2|0,2:3|0:0,0:0:0:0:
309,12,153289,2,0,P|296:13|284:18,1,25,2|0,2:3|0:0,0:0:0:0:
207,23,153483,2,0,P|200:33|196:45,1,25,2|0,2:3|0:0,0:0:0:0:
160,114,153678,2,0,P|165:125|173:134,1,25,2|0,2:3|0:0,0:0:0:0:
197,216,153873,6,0,P|179:233|157:245,2,50,2|2|2,2:3|2:3|2:3,0:0:0:0:
82,316,154457,21,2,2:2:0:0:
82,316,154555,1,2,2:2:0:0:
82,316,154652,2,0,P|92:307|103:301,1,25,2|0,2:3|0:0,0:0:0:0:
156,245,154847,2,0,P|169:246|181:251,1,25,2|0,2:3|0:0,0:0:0:0:
258,256,155041,2,0,P|265:266|269:278,1,25,2|0,2:3|0:0,0:0:0:0:
305,347,155236,2,0,P|300:358|292:367,1,25,2|0,2:3|0:0,0:0:0:0:
196,358,155431,6,0,P|201:347|209:338,1,25,2|0,2:2|0:0,0:0:0:0:
352,276,155626,2,0,P|348:264|340:253,1,25,2|0,2:3|0:0,0:0:0:0:
224,189,155821,2,0,P|227:177|235:166,3,25,2|2|2|2,2:3|2:3|2:3|2:3,0:0:0:0:
147,164,156211,22,0,P|135:163|123:166,1,25,2|0,2:3|0:0,0:0:0:0:
127,87,156405,2,0,P|121:75|113:66,1,25,2|0,2:3|0:0,0:0:0:0:
183,30,156600,2,0,P|190:19|194:7,1,25,2|0,2:3|0:0,0:0:0:0:
260,49,156795,2,0,P|272:50|284:47,1,25,2|0,2:3|0:0,0:0:0:0:
297,125,156990,6,0,P|317:139|341:143,2,50,2|2|2,2:3|2:3|2:3,0:0:0:0:
308,49,157769,21,2,2:3:0:0:
304,43,157867,1,2,2:3:0:0:
297,40,157964,1,2,2:3:0:0:
289,41,158061,1,2,2:3:0:0:
283,46,158158,6,0,P|271:49|259:48,1,25,2|0,2:3|0:0,0:0:0:0:
193,6,158354,2,0,P|189:18|183:29,1,25,2|0,2:3|0:0,0:0:0:0:
112,65,158548,2,0,P|120:74|126:86,1,25,2|0,2:3|0:0,0:0:0:0:
122,165,158742,2,0,P|134:162|147:164,1,25,2|0,2:3|0:0,0:0:0:0:
213,206,158938,2,0,P|216:194|224:183,3,25,2|2|2|2,2:3|2:3|2:3|2:3,0:0:0:0:
318,221,159328,22,0,P|306:217|297:210,1,25,2|0,2:3|0:0,0:0:0:0:
394,234,159522,2,0,P|393:222|395:210,1,25,2|0,2:3|0:0,0:0:0:0:
424,309,159718,2,0,P|433:301|445:296,1,25,2|0,2:3|0:0,0:0:0:0:
373,372,159912,2,0,P|385:376|395:384,1,25,2|0,2:3|0:0,0:0:0:0:
296,352,160107,6,0,P|278:369|255:380,2,50,2|2|2,2:3|2:3|2:3,0:0:0:0:
196,323,160691,21,2,2:2:0:0:
196,323,160789,1,2,2:2:0:0:
196,323,160886,2,0,P|186:315|174:311,1,25,2|0,2:2|0:0,0:0:0:0:
146,241,161081,2,0,P|134:245|124:253,1,25,2|0,2:3|0:0,0:0:0:0:
49,243,161276,2,0,P|47:255|49:267,1,25,2|0,2:3|0:0,0:0:0:0:
77,349,161470,5,2,2:2:0:0:
90,356,161568,1,2,2:2:0:0:
94,371,161665,21,2,2:2:0:0:
77,349,161763,1,2,2:2:0:0:
86,316,161860,1,2,2:2:0:0:
115,287,161957,1,2,2:2:0:0:
153,273,162055,1,2,2:2:0:0:
177,217,162152,1,2,2:2:0:0:
156,152,162250,1,2,2:2:0:0:
84,145,162347,1,2,2:2:0:0:
39,202,162444,6,0,P|153:164|277:136,2,239.999992675781,4|2|2,3:2|2:2|2:2,0:0:0:0:
310,224,163613,22,0,B|337:216|335:183|335:183|319:204|299:210,1,89.9999972534181,2|0,2:2|0:0,0:0:0:0:
246,278,164003,2,0,B|174:290|196:360|196:360|209:308|249:295,1,200,2|2,2:2|2:2,0:0:0:0:
227,199,164587,1,0,0:0:0:0:
324,304,164782,6,0,L|330:333,3,29.9999990844727,2|2|2|2,2:3|2:3|2:3|2:3,0:0:0:0:
408,308,165172,2,0,L|414:337,3,29.9999990844727,2|2|2|2,2:3|2:3|2:3|2:3,0:0:0:0:
370,230,165561,22,0,B|361:162|436:157|432:166|497:158|481:93,1,200,2|2,2:2|2:2,0:0:0:0:
413,16,166146,1,0,0:0:0:0:
347,59,166341,2,0,P|362:78|383:88,3,50,2|2|2|2,2:2|2:3|2:3|2:3,0:0:0:0:
327,153,166730,2,0,P|316:142|303:135,3,29.9999990844727,2|2|2|2,2:3|2:3|2:3|2:3,0:0:0:0:
261,65,167120,6,0,B|248:15|187:-10|121:17|121:17|158:26|174:60,1,220.000006713867,2|0,2:2|0:0,0:0:0:0:
72,116,167704,1,0,0:0:0:0:
72,116,167802,1,0,0:0:0:0:
72,116,167899,2,0,P|84:102|101:93,1,37.5000014305115,2|0,2:2|0:0,0:0:0:0:
186,218,168094,2,0,P|151:199|135:167,1,75.0000028610231,2|0,2:2|0:0,0:0:0:0:
135,168,168386,1,2,2:2:0:0:
135,168,168483,1,2,2:2:0:0:
64,247,168678,21,2,2:2:0:0:
64,247,169068,6,0,P|98:265|114:297,1,75.0000028610231,2|0,2:2|0:0,0:0:0:0:
55,366,169457,21,2,2:2:0:0:
45,364,169554,1,2,2:3:0:0:
36,362,169651,1,2,2:3:0:0:
27,360,169749,1,2,2:3:0:0:
18,358,169846,1,2,2:2:0:0:
18,358,170237,5,2,2:2:0:0:
45,352,170334,1,2,2:3:0:0:
73,346,170431,1,2,2:3:0:0:
100,340,170529,1,2,2:3:0:0:
128,334,170626,22,0,L|122:360,1,27.5000008392334,2|0,2:2|0:0,0:0:0:0:
206,327,170821,2,0,L|200:353,1,27.5000008392334,2|0,2:3|0:0,0:0:0:0:
284,320,171016,1,2,2:3:0:0:
280,333,171113,1,2,2:3:0:0:
277,346,171210,1,2,2:3:0:0:
361,306,171405,5,2,2:2:0:0:
357,293,171502,1,2,2:3:0:0:
354,280,171599,1,2,2:3:0:0:
350,267,171698,1,2,2:3:0:0:
347,254,171795,22,0,P|359:258|373:261,1,27.5000008392334,2|0,2:2|0:0,0:0:0:0:
439,303,171990,2,0,P|449:294|458:283,1,27.5000008392334,2|0,2:3|0:0,0:0:0:0:
512,218,172185,2,0,P|499:213|485:210,1,27.5000008392334,2|0,2:3|0:0,0:0:0:0:
420,169,172380,2,0,P|409:177|400:188,1,27.5000008392334,2|0,2:3|0:0,0:0:0:0:
346,254,172574,5,2,2:2:0:0:
350,267,172671,1,0,0:0:0:0:
354,280,172770,1,2,2:3:0:0:
357,293,172867,1,0,0:0:0:0:
388,332,172964,21,2,2:2:0:0:
386,340,173061,1,0,0:0:0:0:
384,349,173158,1,0,0:0:0:0:
382,358,173256,1,0,0:0:0:0:
380,367,173354,1,2,2:2:0:0:
239,356,173548,5,2,2:2:0:0:
230,342,173646,2,0,P|210:326|187:317,1,50,2|0,2:2|0:0,0:0:0:0:
54,304,173841,1,2,2:2:0:0:
77,293,173938,1,2,2:2:0:0:
97,258,174035,1,2,2:2:0:0:
86,204,174133,21,2,2:2:0:0:
151,237,174230,1,2,2:2:0:0:
225,223,174328,1,2,2:2:0:0:
265,160,174425,1,2,2:2:0:0:
294,133,174522,1,2,2:2:0:0:
330,134,174620,1,2,2:2:0:0:
351,154,174717,1,2,2:2:0:0:
355,171,174815,1,2,2:2:0:0:
352,182,174912,6,0,B|311:98|395:3|487:50|487:50|483:119|418:125,1,350,4|0,3:2|0:0,0:0:0:0:
426,128,175691,2,0,B|370:149|336:116|336:116|309:59|253:68,1,194.999991073609,10|0,2:2|0:0,0:0:0:0:
173,70,176081,2,0,B|171:24|214:5|214:5|177:28|181:69,1,150,2|0,2:2|0:0,0:0:0:0:
132,146,176470,22,0,B|49:158|33:72|33:72|64:46|61:19,1,200,2|2,3:2|2:2,0:0:0:0:
242,134,177055,5,8,2:2:0:0:
249,138,177120,21,8,2:2:0:0:
256,142,177185,5,8,2:2:0:0:
262,146,177250,22,0,P|207:226|165:314,1,194.999991073609,8|0,2:2|0:0,0:0:0:0:
117,384,177639,2,0,P|73:363|71:315,1,100,2|0,2:2|3:3,0:0:0:0:
76,201,177931,5,0,3:3:0:0:
76,201,178029,2,0,B|16:232|-20:268|-20:268|126:177|309:198,1,454.999979171754,2|0,3:2|0:0,0:0:0:0:
388,214,178808,2,0,P|415:201|443:192,1,59.9999981689454,8|0,2:2|0:0,0:0:0:0:
416,115,179003,22,0,P|388:127|360:136,1,59.9999981689454,0|2,3:3|2:2,0:0:0:0:
176,327,179587,6,0,B|176:359|133:386|133:386|216:376|209:303|209:303|158:299|141:252,1,279.999991455078,2|0,3:2|0:0,0:0:0:0:
222,149,180172,21,10,2:2:0:0:
226,157,180237,5,8,2:2:0:0:
227,166,180302,21,8,2:2:0:0:
226,175,180367,6,0,P|221:199|210:221,1,50,10|0,2:2|0:0,0:0:0:0:
92,321,180561,2,0,P|79:307|71:290,1,37.5000014305115,0|0,3:3|0:0,0:0:0:0:
121,128,180756,2,0,B|128:57|43:45|43:45|72:65|69:97,1,179.999994506836,8|0,2:2|0:0,0:0:0:0:
0,105,181048,1,0,3:3:0:0:
48,162,181146,21,4,3:2:0:0:
284,47,181341,1,0,3:3:0:0:
215,0,181535,5,2,3:2:0:0:
330,236,181730,1,0,3:3:0:0:
377,167,181925,21,10,3:2:0:0:
141,282,182120,1,0,3:3:0:0:
210,329,182314,5,2,3:2:0:0:
95,93,182509,1,0,3:3:0:0:
0,288,182704,22,0,L|63:274,1,64.9999970245363,6|0,3:2|0:0,0:0:0:0:
85,183,182899,2,0,L|21:196,1,64.9999970245363,0|0,3:3|0:0,0:0:0:0:
164,16,183094,6,0,L|227:29,1,64.9999970245363,2|0,3:2|0:0,0:0:0:0:
249,121,183289,2,0,L|185:107,1,64.9999970245363,0|0,3:3|0:0,0:0:0:0:
308,327,183483,22,0,L|371:313,1,64.9999970245363,12|0,3:2|0:0,0:0:0:0:
393,222,183678,2,0,L|329:235,1,64.9999970245363,0|0,3:3|0:0,0:0:0:0:
461,31,183873,6,0,L|485:36,1,25,2|0,3:2|0:0,0:0:0:0:
419,104,184068,2,0,L|443:109,1,25,0|0,3:3|0:0,0:0:0:0:
227,29,184263,21,6,3:2:0:0:
197,16,184360,1,0,3:3:0:0:
150,27,184457,1,0,3:3:0:0:
130,75,184555,1,0,3:3:0:0:
156,132,184652,1,6,3:2:0:0:
224,142,184750,1,0,3:3:0:0:
282,98,184847,1,0,3:3:0:0:
356,102,184944,1,0,3:3:0:0:
405,161,185042,1,14,3:2:0:0:
404,239,185139,1,0,3:3:0:0:
349,294,185237,1,0,3:3:0:0:
273,294,185334,1,0,3:3:0:0:
219,239,185431,5,6,3:2:0:0:
222,228,185529,1,0,3:3:0:0:
225,217,185626,1,0,3:3:0:0:
228,206,185724,1,0,3:3:0:0:
231,195,185821,22,0,L|235:218,1,25,6|0,3:2|0:0,0:0:0:0:
148,266,186016,2,0,L|152:289,1,25,0|0,3:3|0:0,0:0:0:0:
370,384,186211,5,0,3:3:0:0:
415,322,186341,21,0,3:3:0:0:
395,251,186470,5,0,3:3:0:0:
326,227,186600,21,0,3:2:0:0:
314,222,186665,5,0,3:2:0:0:
307,211,186730,21,0,3:2:0:0:
310,199,186795,6,0,P|315:187|323:178,3,25,0|2|2|2,3:3|3:3|3:3|3:3,0:0:0:0:
383,133,186990,21,6,3:2:0:0:
391,124,187087,1,2,2:2:0:0:
326,80,187185,5,2,2:2:0:0:
323,69,187282,1,2,2:2:0:0:
408,49,187379,6,0,B|451:62|494:89|494:89|466:98|466:98|379:59|282:68|282:68|278:102|243:128,1,375,4|0,3:2|0:0,0:0:0:0:
64,97,187769,5,10,3:2:0:0:
75,17,187867,1,2,2:2:0:0:
154,0,187964,1,2,2:2:0:0:
206,60,188061,2,0,P|170:72|137:89,1,75.0000028610231,2|0,2:2|3:3,0:0:0:0:
34,225,188256,21,2,2:2:0:0:
102,264,188354,1,2,2:2:0:0:
102,264,188451,2,0,P|132:254|161:241,1,62.5,2|8,2:2|3:2,0:0:0:0:
262,358,188646,1,2,2:2:0:0:
194,319,188744,1,2,2:2:0:0:
194,319,188841,2,0,P|164:329|135:342,2,62.5,2|0|0,2:2|3:3|0:0,0:0:0:0:
45,383,189133,5,2,2:2:0:0:
45,383,189230,2,0,L|55:334,1,50,2|8,2:2|3:2,0:0:0:0:
242,220,189425,22,0,L|236:244,1,25,2|2,2:2|2:2,0:0:0:0:
344,383,189620,2,0,L|325:294,1,89.9999972534181,2|0,2:2|3:3,0:0:0:0:
456,195,189815,1,2,2:2:0:0:
463,213,189912,5,2,2:2:0:0:
431,225,190009,1,2,2:2:0:0:
391,223,190107,1,10,3:2:0:0:
467,225,190204,1,2,2:2:0:0:
506,161,190302,1,2,2:2:0:0:
478,95,190399,1,2,2:2:0:0:
405,83,190496,22,0,P|367:98|338:116,1,75.0000028610231,0|0,3:3|0:0,0:0:0:0:
151,105,190691,1,2,2:2:0:0:
199,186,190789,2,0,P|228:162|241:128,1,75.0000028610231,0|8,0:0|3:2,0:0:0:0:
59,109,190983,2,0,P|64:145|87:174,1,75.0000028610231,2|2,2:2|2:2,0:0:0:0:
41,282,191178,2,0,P|75:295|112:290,1,75.0000028610231,2|0,2:2|3:3,0:0:0:0:
413,265,191373,5,2,2:2:0:0:
325,294,191470,1,2,2:2:0:0:
325,294,191568,2,0,P|334:260|340:220,1,75.0000028610231,2|8,2:2|3:2,0:0:0:0:
151,105,191763,1,2,2:2:0:0:
245,131,191860,1,2,2:2:0:0:
245,131,191958,2,0,P|236:97|230:57,2,75.0000028610231,2|0|2,2:2|3:3|2:2,0:0:0:0:
467,142,192250,21,2,2:2:0:0:
395,111,192347,2,0,P|366:115|343:131,1,50,2|8,2:2|3:2,0:0:0:0:
219,245,192542,6,0,P|174:239|137:214,1,89.9999972534181,2|0,2:2|0:0,0:0:0:0:
20,138,192737,1,2,0:3:0:0:
34,136,192834,2,0,P|48:124|60:104,1,37.5000014305115,2|0,3:2|0:0,0:0:0:0:
92,21,193029,21,2,2:2:0:0:
164,52,193126,1,2,2:2:0:0:
210,114,193224,1,10,3:2:0:0:
222,186,193321,1,2,2:2:0:0:
219,245,193418,1,2,2:2:0:0:
196,288,193516,1,2,2:2:0:0:
169,314,193613,6,0,P|152:295|146:270,1,50,0|0,3:3|0:0,0:0:0:0:
34,136,193808,22,0,L|29:159,1,25,2|0,2:2|0:0,0:0:0:0:
0,191,193905,2,0,P|46:179|92:171,1,94.9999974632264,2|8,2:2|3:2,0:0:0:0:
274,67,194100,2,0,P|228:72|209:113,1,94.9999974632264,2|2,2:2|2:2,0:0:0:0:
300,240,194295,2,0,P|318:256|328:278,2,50,2|0|2,2:2|3:3|2:2,0:0:0:0:
298,369,194587,1,2,2:2:0:0:
414,310,194685,2,0,P|441:286|435:243,1,75.0000028610231,2|8,2:2|3:2,0:0:0:0:
366,127,194879,1,2,2:2:0:0:
406,63,194977,1,2,2:2:0:0:
478,91,195074,2,0,P|431:99|385:110,2,94.9999974632264,2|0|2,2:2|3:3|2:2,0:0:0:0:
428,176,195367,5,2,2:2:0:0:
323,61,195464,2,0,P|300:41|272:32,1,59.9999981689454,2|8,2:2|3:2,0:0:0:0:
300,240,195659,2,0,P|309:232|316:221,1,25,2|2,2:2|2:2,0:0:0:0:
209,112,195854,2,0,P|164:119|124:138,1,89.9999972534181,2|0,2:2|3:3,0:0:0:0:
76,353,196048,1,2,2:2:0:0:
88,383,196146,21,2,2:2:0:0:
26,358,196243,1,2,2:2:0:0:
34,288,196341,1,10,3:2:0:0:
96,263,196438,1,2,2:2:0:0:
173,254,196535,1,2,2:2:0:0:
188,181,196633,1,2,2:2:0:0:
124,138,196730,6,0,P|143:178|152:222,1,89.9999972534181,0|2,3:3|2:2,0:0:0:0:
329,366,196925,1,2,2:2:0:0:
247,356,197022,2,0,P|262:321|287:294,1,75.0000028610231,2|8,2:2|3:2,0:0:0:0:
464,290,197217,2,0,P|426:293|390:286,1,75.0000028610231,2|2,2:2|2:2,0:0:0:0:
283,153,197412,2,0,P|272:117|259:81,1,75.0000028610231,2|0,2:2|3:3,0:0:0:0:
453,53,197607,21,2,2:2:0:0:
378,129,197704,1,2,2:2:0:0:
378,129,197802,2,0,P|367:93|354:57,1,75.0000028610231,2|8,2:2|3:2,0:0:0:0:
465,210,197996,5,2,2:2:0:0:
390,286,198093,1,2,2:2:0:0:
390,286,198191,1,2,2:2:0:0:
370,357,198289,22,0,P|402:314|455:325,1,112.500004291535,2|0,3:2|0:0,0:0:0:0:
512,373,198678,6,0,B|412:367|423:262|325:251,1,230.000004386902,6|0,3:2|0:0,0:0:0:0:
378,129,198970,22,0,B|278:134|289:240|191:250,1,230.000004386902,4|0,3:2|0:0,0:0:0:0:
130,352,199263,6,0,P|98:320|56:304,1,89.9999972534181,4|0,3:2|0:0,0:0:0:0:
22,137,199457,22,0,P|43:126|64:120,1,44.999998626709,2|0,2:2|0:0,0:0:0:0:
41,101,199555,2,0,P|59:113|76:128,1,44.999998626709,6|0,3:2|0:0,0:0:0:0:
111,85,199652,2,0,P|109:107|104:129,1,44.999998626709,2|0,2:2|0:0,0:0:0:0:
160,143,199750,2,0,P|139:153|118:159,1,44.999998626709,2|0,2:2|0:0,0:0:0:0:
64,216,199847,6,0,B|85:106|201:57|300:118|300:118|294:160|329:186,1,375,4|0,3:2|0:0,0:0:0:0:
418,139,200237,2,0,B|445:112|490:83|490:83|216:189,1,375,10|0,3:2|0:0,0:0:0:0:
338,266,200626,2,0,B|382:263|395:214|395:214|377:253|338:256,1,150.000005722046,2|0,3:2|0:0,0:0:0:0:
188,331,200918,1,2,2:2:0:0:
270,342,201016,2,0,P|311:350|351:364,1,85.0000016212464,8|0,3:2|0:0,0:0:0:0:
482,384,201211,2,0,L|470:335,1,50,2|0,2:2|0:0,0:0:0:0:
418,139,201405,22,0,P|454:180|508:191,1,112.500004291535,0|0,3:3|0:0,0:0:0:0:
512,201,201600,2,0,P|488:201|464:193,1,50
287,105,201795,2,0,P|314:100|341:93,1,50,10|2,3:2|2:2,0:0:0:0:
370,2,201990,2,0,P|299:16|221:33,2,150.000005722046,2|2|2,2:2|3:3|2:2,0:0:0:0:
380,9,202477,1,2,2:2:0:0:
313,88,202574,5,10,3:2:0:0:
253,103,202672,1,2,2:2:0:0:
206,78,202769,1,2,2:2:0:0:
191,38,202867,1,2,2:2:0:0:
196,9,202964,22,0,B|231:61|181:98|181:92|116:136|154:173,1,189.999994926453,2|0,3:2|0:0,0:0:0:0:
242,183,203256,1,2,2:2:0:0:
114,255,203354,2,0,P|81:237|63:204,1,75.0000028610231,8|0,3:2|0:0,0:0:0:0:
20,105,203548,2,0,P|44:109|67:120,1,50,2|0,2:2|0:0,0:0:0:0:
265,302,203743,2,0,B|322:280|316:214|316:214|301:250|258:261,1,170.000003242493,2|0,3:2|0:0,0:0:0:0:
275,255,204035,1,2,2:3:0:0:
275,255,204133,1,8,3:2:0:0:
422,337,204328,2,0,P|400:324|376:316,1,50,2|0,2:2|0:0,0:0:0:0:
242,183,204522,6,0,P|171:207|114:255,1,150.000005722046,2|0,3:2|0:0,0:0:0:0:
408,221,204912,21,10,3:2:0:0:
472,177,205009,1,2,2:2:0:0:
472,127,205107,1,2,2:2:0:0:
450,89,205204,1,2,2:2:0:0:
399,77,205302,1,2,3:2:0:0:
395,85,205399,1,2,2:3:0:0:
397,96,205496,1,2,2:3:0:0:
403,103,205594,5,2,2:2:0:0:
359,40,205691,1,10,3:2:0:0:
287,30,205789,1,2,2:2:0:0:
238,65,205886,1,2,2:2:0:0:
230,121,205983,1,2,2:2:0:0:
247,148,206081,22,0,P|282:136|313:115,1,75.0000028610231,2|0,3:2|0:0,0:0:0:0:
359,217,206276,2,0,P|323:228|292:249,1,75.0000028610231
109,384,206470,5,10,3:2:0:0:
70,316,206568,1,2,2:2:0:0:
82,267,206665,1,2,2:2:0:0:
127,245,206763,1,2,2:2:0:0:
166,258,206860,2,0,P|131:244|106:216,1,75.0000028610231,2|0,3:2|0:0,0:0:0:0:
147,32,207055,1,2,2:2:0:0:
194,97,207152,2,0,P|199:133|187:169,1,75.0000028610231,2|8,2:2|3:2,0:0:0:0:
13,232,207347,1,2,2:2:0:0:
45,158,207444,2,0,P|73:135|110:128,1,75.0000028610231,2|2,2:2|2:2,0:0:0:0:
281,37,207639,22,0,B|311:109|383:96|383:96|396:70|424:60,1,170.000003242493,2|0,3:2|0:0,0:0:0:0:
506,266,208029,5,10,3:2:0:0:
440,223,208126,1,2,2:2:0:0:
375,236,208224,1,2,2:2:0:0:
349,283,208321,1,2,2:2:0:0:
353,328,208418,1,2,3:2:0:0:
362,323,208516,1,2,2:3:0:0:
366,314,208613,1,2,2:2:0:0:
366,302,208711,21,2,2:2:0:0:
304,345,208808,1,10,3:2:0:0:
232,335,208905,1,2,2:2:0:0:
191,289,209003,1,2,2:2:0:0:
183,243,209100,1,2,2:2:0:0:
194,206,209198,6,0,P|236:202|269:233,1,85.0000016212464,2|0,3:2|0:0,0:0:0:0:
92,384,209392,1,2,2:2:0:0:
34,319,209490,2,0,P|75:309|117:301,2,85.0000016212464,0|8|0,0:0|3:2|0:0,0:0:0:0:
177,358,209782,2,0,P|193:339|199:315,1,50,2|0,2:2|0:0,0:0:0:0:
61,219,209977,2,0,P|36:182|42:138,1,89.9999972534181,2|0,3:2|0:0,0:0:0:0:
160,25,210172,1,2,2:2:0:0:
170,18,210269,1,2,2:2:0:0:
98,69,210367,2,0,P|61:60|24:53,1,75.0000028610231,8|0,3:2|0:0,0:0:0:0:
194,206,210561,2,0,L|230:198,1,37.5000014305115,2|0,2:2|0:0,0:0:0:0:
477,74,210756,22,0,B|444:4|353:20|353:20|383:43|383:72,1,200,2|2,3:2|2:2,0:0:0:0:
461,215,211048,2,0,P|474:182|491:152,1,69.9999978637696,2|8,2:2|3:2,0:0:0:0:
312,83,211243,1,0,0:0:0:0:
382,195,211341,2,0,P|395:162|412:132,1,69.9999978637696,2|0,2:2|0:0,0:0:0:0:
170,18,211535,2,0,P|186:48|201:86,1,69.9999978637696,0|0,3:3|0:0,0:0:0:0:
281,215,211730,2,0,P|290:191|304:167,1,50,2|0,2:2|0:0,0:0:0:0:
87,249,211925,5,10,3:2:0:0:
157,278,212022,1,2,2:3:0:0:
197,318,212120,1,2,2:3:0:0:
219,350,212217,1,2,2:3:0:0:
230,384,212315,1,6,2:2:0:0:
31,189,212509,5,2,2:3:0:0:
31,189,212607,1,2,2:3:0:0:
31,189,212704,2,0,P|47:179|68:169,3,25,2|2|2|2,2:3|2:3|2:3|2:3,0:0:0:0:
103,91,213094,2,0,P|114:94|126:99,3,25,6|2|2|2,2:2|2:3|2:3|2:3,0:0:0:0:
224,83,213483,2,0,P|228:94|232:106,3,25,2|2|2|2,2:3|2:3|2:3|2:3,0:0:0:0:
346,176,213873,21,6,2:2:0:0:
363,179,213970,1,2,2:3:0:0:
381,171,214068,1,2,2:3:0:0:
394,158,214165,1,2,2:3:0:0:
396,142,214263,5,6,2:2:0:0:
379,190,214360,1,2,2:3:0:0:
400,240,214457,1,2,2:3:0:0:
446,264,214555,1,2,2:3:0:0:
499,255,214652,21,6,2:2:0:0:
435,226,214750,1,2,2:3:0:0:
366,246,214847,1,2,2:3:0:0:
317,302,214944,1,2,2:3:0:0:
320,378,215042,6,0,B|392:337|390:236|308:214|308:214|271:255|290:296,1,300,14|0,3:2|0:0,0:0:0:0:
435,371,215431,6,0,L|464:377,1,30,2|0,3:2|0:0,0:0:0:0:
489,302,215821,6,0,B|479:302|468:275|468:275|491:209|491:209|473:173|428:167|428:167|289:205|289:205|343:210|366:246,1,419.999987182618,14|2,3:1|2:3,0:0:0:0:
362,327,216211,1,0,3:3:0:0:
288,292,216308,2,0,L|330:96,1,200,2|2,2:2|2:3,0:0:0:0:
466,10,216600,1,10,3:1:0:0:
512,76,216698,1,2,2:2:0:0:
449,124,216795,1,2,2:2:0:0:
400,65,216892,2,0,P|381:38|352:24,1,64.9999970245363,2|0,2:2|3:3,0:0:0:0:
93,25,217087,5,2,2:2:0:0:
38,78,217185,1,2,2:2:0:0:
20,86,217282,1,2,2:2:0:0:
52,25,217379,1,10,3:1:0:0:
128,19,217477,1,2,2:2:0:0:
175,78,217574,1,2,2:2:0:0:
154,146,217672,2,0,P|133:160|121:181,1,50,2|2,2:2|3:2,0:0:0:0:
66,310,217867,21,2,2:3:0:0:
68,322,217964,1,2,2:3:0:0:
71,334,218061,1,2,2:3:0:0:
5,375,218159,6,0,L|1:356,6,18.7500007152558,0|0|0|0|0|0|0,3:3|0:0|0:0|0:0|0:0|0:0|0:0,0:0:0:0:
98,325,218548,21,2,3:2:0:0:
104,317,218613,5,2,2:2:0:0:
114,313,218678,21,2,2:2:0:0:
125,314,218743,6,0,P|141:313|157:319,2,33.3333333333333,2|2|2,2:2|2:2|2:2,0:0:0:0:
200,384,218938,22,0,B|238:383|250:350|250:350|217:257|186:164|186:164|204:123|243:134,1,330.000010070801,12|0,3:2|0:0,0:0:0:0:
266,47,219328,5,2,3:2:0:0:
263,37,219392,21,2,2:2:0:0:
261,28,219457,5,2,2:2:0:0:
254,21,219522,22,0,P|243:8|228:0,2,33.3333333333333,2|2|2,2:2|2:2|2:2,0:0:0:0:
194,65,219717,6,0,B|154:69|107:65|107:65|371:136,1,359.999989013672,14|0,3:2|0:0,0:0:0:0:
463,53,220107,21,0,3:3:0:0:
454,68,220204,1,2,2:2:0:0:
454,38,220302,1,2,2:2:0:0:
480,53,220399,1,2,2:2:0:0:
509,124,220496,5,10,3:1:0:0:
433,134,220594,1,2,2:2:0:0:
377,85,220691,1,2,2:2:0:0:
381,10,220789,1,2,2:2:0:0:
402,6,220886,21,2,3:2:0:0:
404,33,220983,1,2,2:2:0:0:
384,62,221081,1,2,2:2:0:0:
341,75,221178,1,2,2:2:0:0:
283,62,221276,1,10,3:1:0:0:
196,54,221373,1,2,2:2:0:0:
140,125,221470,1,2,2:2:0:0:
168,209,221568,1,2,2:2:0:0:
257,221,221665,6,0,B|274:165|274:165|130:209|130:209|122:227|122:227|235:331,1,359.999989013672,2|2,3:2|2:3,0:0:0:0:
413,303,222055,2,0,B|444:345|444:345|314:299,1,179.999994506836,8|0,3:1|0:0,0:0:0:0:
325,313,222250,2,0,L|328:331,2,18.7500007152558,2|0|2,2:3|0:0|2:3,0:0:0:0:
341,201,222444,21,0,3:3:0:0:
338,212,222542,2,0,L|334:227,1,14.9999995422363,2|0,2:3|0:0,0:0:0:0:
218,315,222737,2,0,L|221:330,1,14.9999995422363,2|8,2:3|3:1,0:0:0:0:
476,249,222931,6,0,L|466:237,1,14.9999995422363,2|0,2:3|0:0,0:0:0:0:
422,314,223126,2,0,L|412:302,2,14.9999995422363,2|0|0,2:2|3:3|0:0,0:0:0:0:
414,185,223418,21,2,2:2:0:0:
424,156,223516,1,2,2:2:0:0:
341,201,223613,2,0,L|414:185,1,75.0000028610231,10|0,3:1|0:0,0:0:0:0:
341,282,223808,5,2,2:2:0:0:
218,252,223905,2,0,L|181:244,2,37.5000014305115,2|2|2,2:2|3:2|2:3,0:0:0:0:
247,371,224198,22,0,P|220:377|193:398,1,37.5000014305115,2|0,2:2|0:0,0:0:0:0:
211,381,224295,2,0,P|190:350|143:335,2,85.0000016212464,2|10|2,2:2|3:3|2:3,0:0:0:0:
48,341,224587,2,0,P|53:304|74:273,1,75.0000028610231,2|0,2:2|0:0,0:0:0:0:
161,66,224782,6,0,B|165:94|189:110|189:110|104:135|24:86|24:3|24:3|45:41|81:52,1,359.999989013672,0|2,3:3|2:3,0:0:0:0:
236,45,225172,2,0,P|254:21|282:12,1,59.9999981689454,10|2,3:3|2:3,0:0:0:0:
314,106,225367,1,0,0:0:0:0:
305,100,225464,1,2,2:3:0:0:
301,90,225561,1,0,3:3:0:0:
393,0,225756,2,0,P|414:12|434:27,1,50,2|2,2:2|2:2,0:0:0:0:
462,120,225951,21,10,3:1:0:0:
455,109,226016,5,2,2:2:0:0:
444,104,226081,21,2,2:2:0:0:
430,106,226146,5,2,2:2:0:0:
418,117,226211,21,2,2:2:0:0:
419,139,226276,5,2,2:2:0:0:
428,153,226341,22,0,B|364:10|189:47|189:47|242:61|250:120,1,375,6|0,3:2|0:0,0:0:0:0:
190,269,226730,2,0,B|176:315|133:328|133:328|239:326|289:266|284:174|284:174|255:191|224:179,1,375,2|0,3:2|0:0,0:0:0:0:
71,95,227120,2,0,B|13:84|-25:38|-25:38|74:146|121:262,1,375,6|0,3:2|0:0,0:0:0:0:
171,141,227509,6,0,L|174:122,6,18.7500007152558,2|0|0|0|0|0|0,2:2|0:0|0:0|0:0|0:0|0:0|0:0,0:0:0:0:
62,373,227899,22,0,B|-22:300|-22:300|240:369,1,375,6|0,3:2|0:0,0:0:0:0:
362,359,228289,2,0,B|327:353|327:353|301:301|301:301|200:270,1,187.5,10|0,3:1|0:0,0:0:0:0:
195,269,228483,2,0,L|174:264,2,18.7500007152558,2|2|2,2:3|2:3|2:3,0:0:0:0:
381,282,228678,1,2,3:2:0:0:
381,282,228776,2,0,B|461:202|461:202|467:166,1,150,2|0,2:2|0:0,0:0:0:0:
403,112,228970,2,0,L|391:165,1,55.0000016784668,2|10,2:2|3:3,0:0:0:0:
176,264,229165,1,2,2:2:0:0:
201,189,229263,1,2,2:3:0:0:
224,116,229360,2,0,L|297:100,1,75.0000028610231,2|2,2:2|3:2,0:0:0:0:
475,81,229555,5,2,2:2:0:0:
412,38,229652,1,2,2:2:0:0:
390,36,229750,1,2,2:2:0:0:
463,33,229847,1,10,3:1:0:0:
501,97,229944,1,2,2:2:0:0:
467,165,230042,1,2,2:2:0:0:
390,165,230139,2,0,P|372:147|349:140,1,50,2|2,2:2|3:2,0:0:0:0:
94,153,230334,21,2,2:2:0:0:
111,141,230431,1,2,2:2:0:0:
128,129,230529,1,2,2:2:0:0:
213,180,230626,5,2,3:2:0:0:
195,170,230724,1,2,2:2:0:0:
195,71,230820,21,2,2:2:0:0:
196,91,230918,1,2,2:2:0:0:
111,141,231016,6,0,B|76:114|22:137|22:137|121:62|207:115|207:115|200:147|216:188,1,359.999989013672,2|0,3:2|0:0,0:0:0:0:
185,296,231405,2,0,B|86:297|37:380|37:380|83:298|64:200,1,359.999989013672,12|0,3:2|0:0,0:0:0:0:
285,166,231795,21,2,3:2:0:0:
295,164,231860,5,2,2:2:0:0:
304,166,231925,21,2,2:2:0:0:
312,170,231990,6,0,P|326:183|337:200,2,39.9999987792969,2|2|2,2:2|2:2|2:2,0:0:0:0:
327,279,232185,22,0,B|255:220|310:117|389:143|392:145|394:148|465:155|496:59|432:23,1,359.999989013672,12|0,3:2|0:0,0:0:0:0:
257,34,232574,5,0,3:3:0:0:
248,49,232671,1,2,2:2:0:0:
274,34,232769,1,2,2:2:0:0:
248,19,232866,1,2,2:2:0:0:
172,24,232964,21,6,3:2:0:0:
183,98,233061,1,2,2:2:0:0:
251,136,233159,1,2,2:2:0:0:
327,123,233256,1,6,3:2:0:0:
335,111,233354,5,2,2:2:0:0:
305,109,233451,1,10,2:2:0:0:
275,126,233548,1,6,3:2:0:0:
254,178,233646,2,0,P|241:161|229:146,1,25,10|8,2:2|2:2,0:0:0:0:
199,240,233743,1,10,2:2:0:0:
111,233,233841,1,2,2:2:0:0:
71,163,233938,1,2,2:2:0:0:
95,85,234035,1,10,2:2:0:0:
176,63,234133,22,0,B|226:86|266:115|266:115|167:73|8:30,1,345.000006580353,6|0,3:2|0:0,0:0:0:0:
303,193,234522,2,0,B|347:190|372:150|365:114|339:89|339:89|355:142|319:175,1,225.000008583069,10|2,3:1|2:3,0:0:0:0:
260,267,234912,2,0,P|229:249|221:208,1,75.0000028610231,2|2,3:2|2:3,0:0:0:0:
176,63,235107,1,0,0:0:0:0:
266,115,235204,2,0,P|224:124|184:138,1,85.0000016212464,2|8,2:3|3:1,0:0:0:0:
16,227,235399,1,2,2:3:0:0:
32,143,235496,2,0,P|68:149|88:179,1,75.0000028610231,2|2,2:2|2:2,0:0:0:0:
209,362,235691,6,0,P|128:335|45:317,1,170.000003242493,0|2,3:3|2:2,0:0:0:0:
0,382,235983,1,2,2:2:0:0:
108,254,236081,2,0,P|149:263|194:277,1,85.0000016212464,10|0,3:1|0:0,0:0:0:0:
373,315,236276,21,2,2:2:0:0:
302,361,236373,2,0,P|294:319|284:277,2,85.0000016212464,2|2|2,2:2|3:3|2:3,0:0:0:0:
447,266,236665,6,0,P|434:249|415:239,1,42.5000008106232,2|0,2:2|0:0,0:0:0:0:
415,239,236763,2,0,P|453:254|493:243,1,85.0000016212464,2|10,2:2|3:3,0:0:0:0:
415,129,236957,1,2,2:3:0:0:
332,157,237055,2,0,P|295:170|242:194,1,85.0000016212464,2|0,2:2|0:0,0:0:0:0:
108,254,237250,22,0,B|66:260|37:305|37:305|58:196|166:184|166:184|176:190|176:190|177:235|214:255,1,359.999989013672,4|2,3:2|2:3,0:0:0:0:
302,361,237639,1,8,3:1:0:0:
344,358,237737,1,2,2:3:0:0:
376,323,237834,1,2,2:3:0:0:
370,274,237931,1,2,2:3:0:0:
331,247,238029,2,0,B|329:260|325:271|325:271|331:300|398:297,1,80,0|2,3:3|2:3,0:0:0:0:
475,205,238224,2,0,B|466:198|458:189|458:189|430:179|414:215,1,80,2|2,2:2|2:2,0:0:0:0:
224,248,238418,5,10,3:1:0:0:
217,239,238483,21,2,2:2:0:0:
213,228,238548,5,2,2:2:0:0:
214,212,238613,21,2,2:2:0:0:
223,199,238678,5,2,2:2:0:0:
241,192,238743,21,2,2:2:0:0:
257,194,238808,6,0,B|244:231|172:318|62:247|72:154|72:154|100:190|142:186,1,359.999989013672,6|0,3:2|0:0,0:0:0:0:
373,277,239198,2,0,B|335:320|256:306|223:238|254:198|258:201|261:203|284:144|250:78|172:72|132:110,1,389.999982147218,2|0,3:2|0:0,0:0:0:0:
371,200,239587,2,0,B|413:196|441:232|441:232|451:139|341:68|268:155|257:193,1,359.999989013672,6|0,3:2|0:0,0:0:0:0:
249,365,239977,22,0,L|253:388,7,18.7500007152558,2|0|2|0|2|0|2|0,2:3|0:0|2:3|0:0|2:3|0:0|2:3|0:0,0:0:0:0:
172,384,240367,22,0,L|162:339,1,44.999998626709,2|0,3:2|0:0,0:0:0:0:
65,326,240756,6,0,L|248:364,1,187.5,4|0,3:2|0:0,0:0:0:0:
325,369,240951,6,0,L|321:346,2,18.7500007152558,2|2|2,2:3|2:3|2:3,0:0:0:0:
404,281,241146,1,0,3:3:0:0:
404,281,241243,2,0,B|365:256|365:256|266:286,1,150.000005722046,2|0,2:2|0:0,0:0:0:0:
412,364,241535,2,0,B|450:362|450:362|472:332,1,75.0000028610231,10|0,3:3|0:0,0:0:0:0:
490,220,241730,2,0,L|482:256,1,37.5000014305115,2|0,2:3|0:0,0:0:0:0:
325,369,241925,22,0,L|321:346,1,18.7500007152558,2|2,3:3|2:3,0:0:0:0:
407,262,242120,2,0,L|403:285,1,18.7500007152558,2|0,2:3|0:0,0:0:0:0:
265,286,242315,2,0,L|296:139,1,150.000005722046,8|0,3:1|0:0,0:0:0:0:
53,75,242704,1,0,3:3:0:0:
53,75,242802,1,2,0:3:0:0:
53,75,242899,2,0,B|105:24|105:24|179:45,1,150.000005722046,2|8,2:2|3:1,0:0:0:0:
132,131,243191,1,2,2:2:0:0:
132,131,243289,2,0,L|128:112,2,18.7500007152558
66,232,243483,5,0,3:3:0:0:
62,213,243580,1,2,2:3:0:0:
58,195,243677,1,0,0:0:0:0:
54,176,243775,1,2,2:3:0:0:
50,158,243873,2,0,L|13:165,1,37.5000014305115,8|2,3:1|2:2,0:0:0:0:
158,248,244068,1,0,0:0:0:0:
158,248,244165,2,0,L|151:211,1,37.5000014305115,2|0,2:3|3:3,0:0:0:0:
0,307,244360,2,0,B|30:331|30:331|109:314,1,119.999996337891,0|2,0:0|2:3,0:0:0:0:
223,299,244652,2,0,L|207:372,1,75.0000028610231,10|0,3:3|0:0,0:0:0:0:
306,292,244847,2,0,L|299:255,1,37.5000014305115,2|0,2:3|0:0,0:0:0:0:
411,120,245042,21,0,3:3:0:0:
389,121,245139,1,2,2:2:0:0:
401,132,245237,1,2,2:2:0:0:
419,123,245334,1,2,2:2:0:0:
439,136,245431,5,10,3:1:0:0:
403,113,245529,1,2,2:2:0:0:
362,132,245626,1,2,2:2:0:0:
319,106,245724,1,2,2:2:0:0:
273,128,245821,21,2,3:2:0:0:
338,120,245918,1,2,2:2:0:0:
401,122,246016,1,2,2:2:0:0:
457,140,246113,1,2,2:2:0:0:
502,187,246211,5,10,3:1:0:0:
451,132,246308,1,2,2:2:0:0:
386,99,246405,1,2,2:2:0:0:
314,85,246503,1,2,2:2:0:0:
241,93,246600,22,0,B|292:100|332:63|313:4|313:4|309:59|266:75,1,225.000008583069,0|2,3:3|2:3,0:0:0:0:
239,8,246990,2,0,L|274:174,1,170.000003242493,10|0,3:1|0:0,0:0:0:0:
347,212,247282,1,2,2:3:0:0:
347,212,247379,2,0,L|339:248,1,37.5000014305115,0|0,3:3|0:0,0:0:0:0:
276,321,247574,1,2,2:3:0:0:
276,321,247671,2,0,L|283:357,2,37.5000014305115,2|8|0,2:3|3:1|0:0,0:0:0:0:
190,317,247964,5,2,2:3:0:0:
190,317,248061,1,2,2:3:0:0:
190,317,248159,2,0,L|197:353,3,37.5000014305115,0|2|2|2,3:3|2:3|2:3|2:3,0:0:0:0:
43,318,248548,2,0,B|39:270|80:219|158:239|158:239|118:252|108:296,1,225.000008583069,8|0,3:1|0:0,0:0:0:0:
117,357,248938,1,0,3:3:0:0:
0,218,249133,2,0,P|16:199|37:185,1,50,2|0,2:2|0:0,0:0:0:0:
164,132,249328,1,8,3:1:0:0:
164,132,249425,2,0,P|91:116|17:100,1,150.000005722046,2|0,2:2|0:0,0:0:0:0:
36,22,249717,21,0,3:3:0:0:
36,22,249815,2,0,P|108:37|182:53,1,150.000005722046,2|2,2:3|2:3,0:0:0:0:
280,46,250107,1,8,3:1:0:0:
280,46,250204,2,0,B|278:-1|223:-8|223:-8|257:13|259:40,1,150.000005722046,2|2,2:2|2:3,0:0:0:0:
298,123,250496,2,0,P|322:117|340:101,1,50,0|0,3:3|0:0,0:0:0:0:
395,27,250691,2,0,P|433:13|466:38,1,85.0000016212464,2|0,2:2|0:0,0:0:0:0:
491,139,250886,2,0,P|465:248|444:359,1,225.000008583069,8|0,3:1|0:0,0:0:0:0:
336,383,251276,5,0,3:3:0:0:
336,383,251373,2,0,L|372:375,2,37.5000014305115,2|2|2,2:3|2:3|2:3,0:0:0:0:
182,339,251665,2,0,L|377:297,1,200,8|2,3:1|3:3,0:0:0:0:
182,339,252250,1,2,2:2:0:0:
254,294,252347,2,0,P|270:275|278:251,2,50,2|8|0,2:2|3:1|0:0,0:0:0:0:
351,226,252639,2,0,P|343:202|326:184,1,50,2|0,2:2|0:0,0:0:0:0:
234,121,252834,22,0,B|225:82|259:62|289:73|289:73|251:87|246:115,1,150,4|0,3:2|0:0,0:0:0:0:
184,199,253224,2,0,P|116:214|92:150,1,150.000005722046,8|2,3:1|2:3,0:0:0:0:
37,99,253516,1,2,2:3:0:0:
37,99,253613,2,0,P|49:85|66:78,3,37.5000014305115,2|2|2|2,3:3|2:3|2:3|2:3,0:0:0:0:
105,6,254003,1,10,3:3:0:0:
234,121,254198,1,2,2:3:0:0:
229,112,254295,1,0,0:0:0:0:
197,98,254393,5,2,3:3:0:0:
224,103,254490,1,2,2:3:0:0:
252,109,254587,1,2,2:3:0:0:
279,115,254685,1,2,2:3:0:0:
307,121,254782,2,0,L|301:96,1,25,10|0,3:3|0:0,0:0:0:0:
379,79,254977,2,0,L|373:54,1,25,2|0,2:3|0:0,0:0:0:0:
479,18,255172,21,2,3:3:0:0:
474,45,255269,1,2,2:3:0:0:
468,73,255367,2,0,L|492:67,1,25,2|0,2:2|0:0,0:0:0:0:
429,159,255561,1,8,3:1:0:0:
429,159,255659,2,0,L|477:148,1,50,2|0,2:2|0:0,0:0:0:0:
301,96,255951,5,2,3:3:0:0:
306,123,256048,1,2,2:3:0:0:
312,151,256146,2,0,L|288:145,1,25,2|0,2:2|0:0,0:0:0:0:
351,237,256341,1,8,3:1:0:0:
351,237,256438,2,0,L|302:226,1,50,2|2,2:2|2:3,0:0:0:0:
427,271,256730,1,2,3:3:0:0:
427,271,256828,2,0,L|433:246,1,25,2|0,2:3|0:0,0:0:0:0:
499,313,257022,2,0,L|505:288,2,25,2|8|0,2:3|3:1|0:0,0:0:0:0:
401,361,257315,2,0,L|425:355,1,25,2|2,2:3|2:3,0:0:0:0:
277,323,257509,21,0,3:3:0:0:
252,328,257607,1,2,2:2:0:0:
266,315,257704,1,2,2:2:0:0:
285,334,257802,1,2,2:2:0:0:
310,325,257899,5,10,3:1:0:0:
282,306,257996,1,2,2:2:0:0:
244,321,258094,1,2,2:2:0:0:
212,294,258191,1,2,2:2:0:0:
171,313,258289,21,2,3:2:0:0:
208,284,258386,1,2,2:2:0:0:
258,273,258483,1,2,2:2:0:0:
310,279,258581,1,2,2:2:0:0:
354,311,258678,5,10,3:1:0:0:
286,297,258776,1,2,2:2:0:0:
245,237,258873,1,2,2:2:0:0:
250,161,258970,1,2,2:2:0:0:
297,100,259068,22,0,B|298:124|340:142|340:142|291:147|252:108|271:47,1,194.999991073609,2|0,3:3|0:0,0:0:0:0:
365,69,259457,2,0,P|267:87|161:112,1,194.999991073609,8|0,3:1|0:0,0:0:0:0:
95,136,259847,1,0,3:3:0:0:
95,136,259944,2,0,L|102:99,1,37.5000014305115,2|0,2:3|0:0,0:0:0:0:
47,0,260139,1,2,2:3:0:0:
47,0,260237,2,0,L|54:36,1,37.5000014305115,8|0,3:1|0:0,0:0:0:0:
99,221,260431,5,2,2:3:0:0:
99,221,260529,1,2,2:3:0:0:
99,221,260626,2,0,L|104:245,1,25,2|0,3:3|0:0,0:0:0:0:
13,215,260821,2,0,L|18:239,1,25,2|0,2:3|0:0,0:0:0:0:
201,246,261016,2,0,L|173:373,1,129.999994049073,8|0,3:1|0:0,0:0:0:0:
173,373,261308,1,2,2:3:0:0:
173,373,261405,1,2,3:3:0:0:
44,331,261600,22,0,P|73:319|100:336,1,64.9999970245363,2|2,2:2|2:3,0:0:0:0:
275,384,261795,1,10,3:3:0:0:
275,384,261892,2,0,B|320:394|329:319|388:335,1,129.999994049073,2|2,2:2|2:3,0:0:0:0:
470,326,262185,22,0,L|460:372,1,44.999998626709,0|0,3:3|0:0,0:0:0:0:
387,335,262574,22,0,L|414:207,1,129.999994049073,10|0,3:1|0:0,0:0:0:0:
414,207,262867,1,2,2:3:0:0:
414,207,262964,1,0,3:3:0:0:
292,246,263159,2,0,L|328:238,1,37.5000014305115,2|2,2:2|2:3,0:0:0:0:
458,141,263354,2,0,B|432:126|432:126|353:143,1,110.000003356934,8|2,3:1|2:3,0:0:0:0:
360,151,263646,5,2,2:3:0:0:
360,151,263743,2,0,L|365:126,1,25,0|0,3:3|0:0,0:0:0:0:
272,168,263938,2,0,L|277:143,1,25,2|0,2:3|0:0,0:0:0:0:
189,41,264133,2,0,L|306:65,1,119.999996337891,10|2,3:3|2:3,0:0:0:0:
314,72,264425,21,2,2:3:0:0:
314,72,264522,2,0,L|308:47,1,25,2|0,3:3|0:0,0:0:0:0:
189,169,264717,2,0,L|195:144,1,25,2|0,2:3|0:0,0:0:0:0:
355,311,264912,22,0,L|349:286,1,25,6|0,0:0|0:0,0:0:0:0:
