osu file format v14

[General]
AudioFilename: audio.mp3
AudioLeadIn: 0
PreviewTime: 81600
Countdown: 0
SampleSet: Soft
StackLeniency: 0.4
Mode: 0
LetterboxInBreaks: 0
WidescreenStoryboard: 1

[Editor]
Bookmarks: 199847
DistanceSpacing: 0.4
BeatDivisor: 12
GridSize: 32
TimelineZoom: 1.8

[Metadata]
Title:Fatalism
TitleUnicode:Fatalism
Artist:Endorfin.
ArtistUnicode:Endorfin.
Creator:gazimal
Version:Collab Insane
Source:
Tags:japanese electronic 藍月なくる aitsuki nakuru Horizon Claire sky_delta pnky Clammbon
BeatmapID:4380827
BeatmapSetID:2084016

[Difficulty]
HPDrainRate:5
CircleSize:4.5
OverallDifficulty:8.5
ApproachRate:9
SliderMultiplier:2
SliderTickRate:1

[Events]
//Background and Video events
0,0,"BG.jpg",0,0
//Break Periods
//Storyboard Layer 0 (Background)
//Storyboard Layer 1 (Fail)
//Storyboard Layer 2 (Pass)
//Storyboard Layer 3 (Foreground)
//Storyboard Layer 4 (Overlay)
//Storyboard Sound Samples

[TimingPoints]
367,389.61038961039,4,2,0,60,1,0
6600,-133.333333333333,4,2,1,50,0,0
6990,-133.333333333333,4,2,2,50,0,0
7379,-133.333333333333,4,2,3,50,0,0
7769,-133.333333333333,4,2,2,50,0,0
8159,-133.333333333333,4,2,1,50,0,0
8548,-133.333333333333,4,2,2,50,0,0
8938,-133.333333333333,4,2,1,50,0,0
9328,-133.333333333333,4,2,2,50,0,0
9717,-133.333333333333,4,2,4,50,0,0
10107,-133.333333333333,4,2,2,50,0,0
10496,-133.333333333333,4,2,3,50,0,0
10886,-133.333333333333,4,2,2,50,0,0
11276,-133.333333333333,4,2,4,50,0,0
12055,-100,4,2,4,50,0,0
12834,-133.333333333333,4,2,1,50,0,0
13224,-133.333333333333,4,2,2,50,0,0
14392,-133.333333333333,4,2,4,50,0,0
14782,-133.333333333333,4,2,2,50,0,0
15172,-133.333333333333,4,2,1,50,0,0
15561,-133.333333333333,4,2,2,50,0,0
15951,-133.333333333333,4,2,4,50,0,0
16341,-133.333333333333,4,2,2,50,0,0
16730,-133.333333333333,4,2,3,50,0,0
17120,-133.333333333333,4,2,2,50,0,0
17509,-133.333333333333,4,2,4,50,0,0
18094,-133.333333333333,4,2,1,50,0,0
18289,-133.333333333333,4,2,4,50,0,0
18386,-133.333333333333,4,2,1,50,0,0
19068,-100,4,2,1,60,0,0
19457,-100,4,2,2,60,0,0
20626,-83.3333333333333,4,2,2,60,0,0
21211,-100,4,2,2,60,0,0
21405,-83.3333333333333,4,2,2,60,0,0
22185,-100,4,2,2,60,0,0
22574,-133.333333333333,4,2,2,60,0,0
23743,-100,4,2,2,60,0,0
24328,-133.333333333333,4,2,2,60,0,0
24522,-100,4,2,2,60,0,0
25302,-100,4,2,2,65,0,0
28418,-133.333333333333,4,2,2,70,0,0
29198,-133.333333333333,4,2,3,70,0,0
29587,-133.333333333333,4,2,2,70,0,0
30951,-100,4,2,2,70,0,0
31146,-90.9090909090909,4,2,2,70,0,0
31535,-100,4,2,5,65,0,0
31633,-100,4,2,1,65,0,0
31925,-100,4,2,5,65,0,0
32022,-100,4,2,1,65,0,0
32315,-100,4,2,5,65,0,0
32412,-100,4,2,1,65,0,0
32704,-100,4,2,5,65,0,0
32802,-100,4,2,1,65,0,0
33191,-133.333333333333,4,2,1,65,0,0
33873,-83.3333333333333,4,2,5,65,0,0
33970,-83.3333333333333,4,2,1,65,0,0
34165,-83.3333333333333,4,2,5,65,0,0
34360,-83.3333333333333,4,2,1,65,0,0
34457,-83.3333333333333,4,2,5,65,0,0
34555,-83.3333333333333,4,2,1,65,0,0
34652,-133.333333333333,4,2,5,65,0,0
34847,-133.333333333333,4,2,1,65,0,0
35042,-133.333333333333,4,2,5,65,0,0
35139,-133.333333333333,4,2,1,65,0,0
35431,-133.333333333333,4,2,5,65,0,0
35626,-100,4,2,1,65,0,0
35821,-100,4,2,5,65,0,0
35918,-133.333333333333,4,2,1,65,0,0
36211,-83.3333333333333,4,2,1,65,0,0
36795,-83.3333333333333,4,2,5,65,0,0
36892,-83.3333333333333,4,2,1,65,0,0
36990,-83.3333333333333,4,2,5,65,0,0
37379,-133.333333333333,4,2,1,65,0,0
37769,-66.6666666666667,4,2,5,65,0,0
37867,-66.6666666666667,4,2,1,65,0,0
38354,-100,4,2,5,65,0,0
38451,-100,4,2,1,65,0,0
38646,-100,4,2,5,65,0,0
38938,-100,4,2,1,65,0,0
39133,-100,4,2,5,65,0,0
39425,-100,4,2,1,65,0,0
39620,-100,4,2,5,65,0,0
39717,-100,4,2,1,65,0,0
39912,-100,4,2,5,65,0,0
40009,-100,4,2,1,65,0,0
40107,-100,4,2,5,65,0,0
40302,-100,4,2,1,65,0,0
40399,-100,4,2,5,65,0,0
40496,-100,4,2,1,65,0,0
40691,-100,4,2,5,65,0,0
40886,-100,4,2,5,70,0,0
42444,-100,4,2,1,70,0,0
42834,-100,4,2,2,70,0,0
43613,-333.333333333333,4,2,2,70,0,0
44003,-58.8235294117647,4,2,2,70,0,0
44392,-76.9230769230769,4,2,1,65,0,0
44782,-100,4,2,1,65,0,0
45172,-200,4,2,1,65,0,0
45561,-100,4,2,1,65,0,0
46341,-133.333333333333,4,2,1,65,0,0
47509,-76.9230769230769,4,2,6,65,0,0
47899,-133.333333333333,4,2,6,65,0,0
47964,-133.333333333333,4,2,1,65,0,0
48289,-71.4285714285714,4,2,6,65,0,0
48776,-100,4,2,1,65,0,0
49457,-133.333333333333,4,2,1,65,0,0
50237,-58.8235294117647,4,2,1,65,0,0
50626,-100,4,2,1,65,0,0
50918,-333.333333333333,4,2,1,65,0,0
51503,-333.333333333333,4,2,2,65,0,0
51698,-333.333333333333,4,2,1,65,0,0
52185,-100,4,2,1,65,0,0
52769,-100,4,2,2,65,0,0
52964,-100,4,2,1,65,0,0
53159,-100,4,2,2,65,0,0
53354,-58.8235294117647,4,2,2,65,0,0
53548,-58.8235294117647,4,2,1,65,0,0
53743,-133.333333333333,4,2,1,65,0,0
54912,-71.4285714285714,4,2,1,70,0,0
56081,-166.666666666667,4,2,2,60,0,0
56470,-58.8235294117647,4,2,1,70,0,0
56860,-71.4285714285714,4,2,1,60,0,0
57250,-133.333333333333,4,2,1,60,0,0
57737,-100,4,2,1,60,0,0
58808,-200,4,2,1,60,0,0
59198,-200,4,2,7,60,0,0
59295,-200,4,2,2,60,0,0
59587,-100,4,2,1,60,0,0
59977,-71.4285714285714,4,2,6,60,0,0
60367,-100,4,2,6,60,0,0
60431,-100,4,2,1,60,0,0
60756,-66.6666666666667,4,2,4,60,0,0
61243,-100,4,2,1,60,0,0
61535,-71.4285714285714,4,2,1,60,0,0
62120,-100,4,2,1,60,0,0
62704,-58.8235294117647,4,2,1,70,0,0
63094,-100,4,2,1,60,0,0
63289,-333.333333333333,4,2,1,60,0,0
63970,-333.333333333333,4,2,2,60,0,0
64165,-333.333333333333,4,2,1,60,0,0
64555,-100,4,2,1,60,0,0
65821,-100,4,2,1,70,0,0
67574,-100,4,2,1,60,0,0
68159,-76.9230769230769,4,2,1,60,0,0
68938,-66.6666666666667,4,2,1,70,0,0
69328,-83.3333333333333,4,2,2,60,0,0
69522,-83.3333333333333,4,2,1,60,0,0
69717,-83.3333333333333,4,2,2,60,0,0
69815,-83.3333333333333,4,2,1,60,0,0
70009,-83.3333333333333,4,2,3,60,0,0
70204,-83.3333333333333,4,2,1,60,0,0
70302,-100,4,2,2,60,0,0
70399,-100,4,2,1,60,0,0
71276,-133.333333333333,4,2,1,60,0,0
71665,-66.6666666666667,4,2,1,60,0,0
72055,-133.333333333333,4,2,1,60,0,0
72444,-76.9230769230769,4,2,6,60,0,0
72834,-133.333333333333,4,2,6,60,0,0
72899,-133.333333333333,4,2,1,60,0,0
73224,-66.6666666666667,4,2,6,60,0,0
73613,-90.9090909090909,4,2,6,60,0,0
73711,-90.9090909090909,4,2,1,60,0,0
74003,-66.6666666666667,4,2,6,60,0,0
74100,-66.6666666666667,4,2,1,60,0,0
74587,-100,4,2,1,60,0,0
74879,-100,4,2,2,60,0,0
74928,-100,4,2,1,60,0,0
74977,-100,4,2,2,60,0,0
75026,-100,4,2,1,60,0,0
75074,-100,4,2,2,60,0,0
75172,-58.8235294117647,4,2,1,70,0,0
75561,-83.3333333333333,4,2,3,60,0,0
75756,-83.3333333333333,4,2,1,60,0,0
75951,-83.3333333333333,4,2,2,60,0,0
76048,-83.3333333333333,4,2,1,60,0,0
76243,-83.3333333333333,4,2,3,60,0,0
76438,-83.3333333333333,4,2,2,60,0,0
76535,-100,4,2,2,60,0,0
76633,-100,4,2,1,60,0,0
77704,-100,4,2,2,60,0,0
77899,-100,4,2,1,60,0,0
78094,-100,4,2,2,60,0,0
78289,-58.8235294117647,4,2,2,60,0,0
78483,-58.8235294117647,4,2,1,60,0,0
78678,-133.333333333333,4,2,1,60,0,0
79847,-66.6666666666667,4,2,1,60,0,0
80626,-76.9230769230769,4,2,1,60,0,0
81016,-100,4,2,3,60,0,0
81048,-133.333333333333,4,2,1,60,0,0
81405,-62.5,4,2,1,80,0,0
81795,-76.9230769230769,4,2,2,80,0,0
82574,-100,4,2,2,80,0,0
82964,-76.9230769230769,4,2,2,80,0,0
83159,-76.9230769230769,4,2,1,80,0,0
83548,-76.9230769230769,4,2,2,80,0,0
83646,-76.9230769230769,4,2,1,80,0,0
83938,-76.9230769230769,4,2,2,80,0,0
84035,-76.9230769230769,4,2,1,80,0,0
84133,-76.9230769230769,4,2,8,80,0,0
84230,-76.9230769230769,4,2,1,80,0,0
84328,-76.9230769230769,4,2,4,80,0,0
84425,-76.9230769230769,4,2,1,80,0,0
84522,-76.9230769230769,4,2,4,80,0,0
84815,-100,4,2,2,80,0,0
85302,-83.3333333333333,4,2,2,80,0,0
85496,-83.3333333333333,4,2,1,80,0,0
85886,-100,4,2,2,80,0,0
86081,-76.9230769230769,4,2,2,80,0,0
86470,-100,4,2,9,80,0,0
86568,-100,4,2,1,80,0,0
86665,-100,4,2,2,80,0,0
86763,-100,4,2,1,80,0,0
86860,-83.3333333333333,4,2,2,80,0,0
86957,-83.3333333333333,4,2,1,80,0,0
87152,-83.3333333333333,4,2,4,80,0,0
87250,-100,4,2,9,80,0,0
87347,-100,4,2,1,80,0,0
87444,-100,4,2,4,80,0,0
87542,-100,4,2,1,80,0,0
87639,-76.9230769230769,4,2,4,80,0,0
88029,-76.9230769230769,4,2,1,80,0,0
88224,-100,4,2,4,80,0,0
88321,-100,4,2,1,80,0,0
88418,-66.6666666666667,4,2,2,80,0,0
88613,-66.6666666666667,4,2,4,80,0,0
88808,-100,4,2,1,80,0,0
89003,-100,4,2,4,80,0,0
89198,-66.6666666666667,4,2,2,80,0,0
89587,-66.6666666666667,4,2,1,80,0,0
89782,-100,4,2,4,80,0,0
89879,-100,4,2,1,80,0,0
89977,-66.6666666666667,4,2,2,80,0,0
90074,-66.6666666666667,4,2,1,80,0,0
90172,-66.6666666666667,4,2,2,80,0,0
90269,-66.6666666666667,4,2,4,80,0,0
90367,-100,4,2,1,80,0,0
90561,-100,4,2,4,80,0,0
90659,-100,4,2,1,80,0,0
90951,-100,4,2,2,80,0,0
91146,-100,4,2,8,80,0,0
91243,-100,4,2,1,80,0,0
91341,-100,4,2,4,80,0,0
91438,-100,4,2,1,80,0,0
91535,-100,4,2,2,80,0,0
92315,-333.333333333333,4,2,2,80,0,0
92704,-58.8235294117647,4,2,2,80,0,0
93873,-66.6666666666667,4,2,2,80,0,0
95042,-100,4,2,2,80,0,0
95431,-66.6666666666667,4,2,2,80,0,0
95821,-66.6666666666667,4,2,9,80,0,0
95918,-66.6666666666667,4,2,1,80,0,0
96016,-66.6666666666667,4,2,4,80,0,0
96113,-66.6666666666667,4,2,1,80,0,0
96405,-66.6666666666667,4,2,2,80,0,0
96503,-66.6666666666667,4,2,1,80,0,0
96600,-66.6666666666667,4,2,10,80,0,0
96698,-66.6666666666667,4,2,1,80,0,0
96795,-66.6666666666667,4,2,4,80,0,0
96892,-66.6666666666667,4,2,1,80,0,0
96990,-66.6666666666667,4,2,4,80,0,0
97282,-66.6666666666667,4,2,2,80,0,0
97379,-100,4,2,2,80,0,0
97769,-83.3333333333333,4,2,2,80,0,0
98061,-83.3333333333333,4,2,1,80,0,0
98354,-100,4,2,2,80,0,0
98548,-83.3333333333333,4,2,2,80,0,0
98938,-100,4,2,1,80,0,0
99133,-100,4,2,2,80,0,0
99230,-100,4,2,1,80,0,0
99328,-76.9230769230769,4,2,2,80,0,0
99425,-76.9230769230769,4,2,1,80,0,0
99620,-76.9230769230769,4,2,4,80,0,0
99717,-100,4,2,1,80,0,0
99912,-100,4,2,4,80,0,0
100009,-100,4,2,1,80,0,0
100107,-66.6666666666667,4,2,1,80,0,0
100691,-100,4,2,2,80,0,0
100789,-100,4,2,1,80,0,0
100886,-66.6666666666667,4,2,2,80,0,0
101081,-66.6666666666667,4,2,1,80,0,0
101178,-66.6666666666667,4,2,2,80,0,0
101276,-100,4,2,2,80,0,0
101373,-100,4,2,1,80,0,0
101470,-100,4,2,2,80,0,0
101568,-100,4,2,1,80,0,0
101665,-66.6666666666667,4,2,2,80,0,0
102055,-66.6666666666667,4,2,1,80,0,0
102250,-100,4,2,2,80,0,0
102347,-100,4,2,1,80,0,0
102444,-66.6666666666667,4,2,2,80,0,0
102542,-66.6666666666667,4,2,1,80,0,0
102639,-66.6666666666667,4,2,2,80,0,0
102737,-66.6666666666667,4,2,4,80,0,0
102834,-66.6666666666667,4,2,1,80,0,0
103029,-100,4,2,2,80,0,0
103126,-100,4,2,1,80,0,0
103224,-66.6666666666667,4,2,1,80,0,0
103418,-66.6666666666667,4,2,2,80,0,0
105074,-83.3333333333333,4,2,2,80,0,0
105951,-83.3333333333333,4,2,11,80,0,0
106048,-83.3333333333333,4,2,1,80,0,0
106341,-83.3333333333333,4,2,5,60,0,0
106535,-83.3333333333333,4,2,1,45,0,0
106730,-250,4,2,3,45,0,0
106828,-250,4,2,1,45,0,0
107120,-250,4,2,11,50,0,0
107217,-250,4,2,1,50,0,0
107509,-250,4,2,3,55,0,0
107607,-250,4,2,1,55,0,0
107899,-250,4,2,11,60,0,0
107996,-250,4,2,1,60,0,0
108289,-250,4,2,11,65,0,0
108386,-250,4,2,1,65,0,0
108678,-250,4,2,11,70,0,0
108776,-250,4,2,1,70,0,0
109068,-250,4,2,11,75,0,0
109457,-250,4,2,11,55,0,0
109652,-250,4,2,1,55,0,0
109847,-100,4,2,1,55,0,0
110237,-200,4,2,1,55,0,0
110626,-100,4,2,1,55,0,0
111892,-200,4,2,1,55,0,0
112185,-100,4,2,1,55,0,0
113451,-200,4,2,1,55,0,0
113743,-100,4,2,1,55,0,0
115691,-250,4,2,1,55,0,0
116081,-76.9230769230769,4,2,1,55,0,0
116470,-200,4,2,1,55,0,0
116860,-100,4,2,1,55,0,0
118126,-200,4,2,1,55,0,0
118418,-100,4,2,1,55,0,0
118808,-250,4,2,1,55,0,0
119198,-76.9230769230769,4,2,1,55,0,0
119685,-200,4,2,1,55,0,0
119977,-100,4,2,1,55,0,0
121146,-200,4,2,1,55,0,0
121535,-333.333333333333,4,2,1,55,0,0
121925,-66.6666666666667,4,2,1,55,0,0
122315,-100,4,2,1,55,0,0
123873,-200,4,2,1,55,0,0
124457,-100,4,2,2,55,0,0
124652,-100,4,2,1,55,0,0
124750,-200,4,2,2,55,0,0
124847,-200,4,2,1,55,0,0
125237,-66.6666666666667,4,2,2,55,0,0
125334,-66.6666666666667,4,2,1,55,0,0
125529,-100,4,2,1,55,0,0
126990,-200,4,2,1,55,0,0
127185,-200,4,2,2,55,0,0
127282,-200,4,2,1,55,0,0
127574,-100,4,2,1,55,0,0
127867,-200,4,2,1,55,0,0
128548,-400,4,2,1,55,0,0
129133,-200,4,2,1,55,0,0
130107,-100,4,2,1,55,0,0
130691,-100,4,2,2,55,0,0
130789,-100,4,2,1,55,0,0
130983,-200,4,2,2,55,0,0
131032,-200,4,2,1,55,0,0
131470,-66.6666666666667,4,2,2,55,0,0
131568,-66.6666666666667,4,2,1,55,0,0
131763,-100,4,2,1,55,0,0
133224,-200,4,2,1,55,0,0
137509,-200,4,2,7,50,0,0
139068,-133.333333333333,4,2,1,50,0,0
149977,-200,4,2,2,50,0,0
150172,-200,4,2,1,50,0,0
152509,-200,4,2,2,50,0,0
152704,-200,4,2,1,50,0,0
153094,-200,4,2,2,50,0,0
153289,-200,4,2,1,50,0,0
154652,-200,4,2,2,50,0,0
154847,-200,4,2,1,50,0,0
156211,-200,4,2,2,50,0,0
156405,-200,4,2,1,50,0,0
157769,-200,4,2,2,50,0,0
157867,-200,4,2,1,50,0,0
161665,-200,4,2,1,55,0,0
162055,-200,4,2,1,60,0,0
162444,-100,4,2,1,60,0,0
162834,-100,4,2,2,50,0,0
164782,-200,4,2,1,50,0,0
165172,-200,4,2,3,50,0,0
165269,-200,4,2,1,50,0,0
165561,-100,4,2,2,50,0,0
166341,-133.333333333333,4,2,12,50,0,0
166438,-133.333333333333,4,2,1,50,0,0
166730,-133.333333333333,4,2,3,50,0,0
166828,-133.333333333333,4,2,1,50,0,0
167120,-100,4,2,2,50,0,0
168094,-100,4,2,1,50,0,0
168678,-100,4,2,2,50,0,0
169555,-100,4,2,1,50,0,0
169847,-100,4,2,2,50,0,0
170334,-100,4,2,1,50,0,0
170626,-100,4,2,2,50,0,0
170821,-100,4,2,1,50,0,0
171405,-200,4,2,2,50,0,0
171503,-200,4,2,1,50,0,0
171795,-100,4,2,2,50,0,0
171990,-100,4,2,1,50,0,0
172574,-200,4,2,3,50,0,0
172769,-200,4,2,1,50,0,0
172964,-200,4,2,2,50,0,0
173548,-200,4,2,1,50,0,0
174133,-200,4,2,4,55,0,0
174230,-200,4,2,2,55,0,0
174912,-100,4,2,2,60,0,0
176470,-83.3333333333333,4,2,2,60,0,0
177055,-100,4,2,2,60,0,0
177250,-83.3333333333333,4,2,2,60,0,0
178029,-100,4,2,2,60,0,0
179003,-133.333333333333,4,2,2,60,0,0
179587,-100,4,2,2,60,0,0
180172,-133.333333333333,4,2,2,60,0,0
180367,-100,4,2,2,60,0,0
181146,-100,4,2,2,65,0,0
185042,-133.333333333333,4,2,3,65,0,0
185431,-133.333333333333,4,2,2,65,0,0
187087,-133.333333333333,4,2,1,65,0,0
187379,-58.8235294117647,4,2,1,80,0,1
187867,-83.3333333333333,4,2,1,80,0,1
192542,-133.333333333333,4,2,1,80,0,1
192737,-83.3333333333333,4,2,1,80,0,1
193808,-83.3333333333333,4,2,2,80,0,1
194100,-83.3333333333333,4,2,1,80,0,1
194198,-83.3333333333333,4,2,4,80,0,1
194490,-83.3333333333333,4,2,1,80,0,1
194587,-83.3333333333333,4,2,4,80,0,1
194782,-83.3333333333333,4,2,1,80,0,1
194977,-83.3333333333333,4,2,4,80,0,1
195269,-83.3333333333333,4,2,1,80,0,1
195367,-83.3333333333333,4,2,4,80,0,1
195464,-83.3333333333333,4,2,1,80,0,1
195756,-83.3333333333333,4,2,4,80,0,1
196048,-83.3333333333333,4,2,1,80,0,1
198289,-133.333333333333,4,2,1,80,0,1
198678,-66.6666666666667,4,2,1,80,0,1
199847,-62.5,4,2,1,80,0,1
200237,-76.9230769230769,4,2,2,80,0,1
200918,-100,4,2,2,80,0,1
201405,-76.9230769230769,4,2,2,80,0,1
201795,-100,4,2,9,80,0,1
201892,-100,4,2,1,80,0,1
201990,-100,4,2,4,80,0,1
202087,-100,4,2,1,80,0,1
202379,-100,4,2,2,80,0,1
202477,-100,4,2,1,80,0,1
202574,-100,4,2,10,80,0,1
202672,-100,4,2,1,80,0,1
202769,-100,4,2,4,80,0,1
202867,-100,4,2,1,80,0,1
202964,-71.4285714285714,4,2,4,80,0,1
203256,-71.4285714285714,4,2,2,80,0,1
203354,-100,4,2,2,80,0,1
203743,-83.3333333333333,4,2,2,80,0,1
204035,-83.3333333333333,4,2,1,80,0,1
204328,-83.3333333333333,4,2,2,80,0,1
204522,-66.6666666666667,4,2,2,80,0,1
204912,-83.3333333333333,4,2,1,80,0,1
205107,-83.3333333333333,4,2,2,80,0,1
205204,-83.3333333333333,4,2,1,80,0,1
205302,-100,4,2,2,80,0,1
205399,-100,4,2,1,80,0,1
205594,-100,4,2,4,80,0,1
205691,-100,4,2,1,80,0,1
205886,-100,4,2,4,80,0,1
205983,-100,4,2,1,80,0,1
206081,-76.9230769230769,4,2,1,80,0,1
206665,-100,4,2,2,80,0,1
206763,-100,4,2,1,80,0,1
206860,-66.6666666666667,4,2,2,80,0,1
207055,-66.6666666666667,4,2,1,80,0,1
207152,-66.6666666666667,4,2,2,80,0,1
207250,-100,4,2,2,80,0,1
207347,-100,4,2,1,80,0,1
207444,-100,4,2,2,80,0,1
207542,-100,4,2,1,80,0,1
207639,-62.5,4,2,2,80,0,1
208029,-100,4,2,1,80,0,1
208224,-100,4,2,2,80,0,1
208321,-100,4,2,1,80,0,1
208418,-66.6666666666667,4,2,2,80,0,1
208516,-66.6666666666667,4,2,1,80,0,1
208613,-66.6666666666667,4,2,2,80,0,1
208711,-66.6666666666667,4,2,4,80,0,1
208808,-100,4,2,1,80,0,1
209003,-100,4,2,2,80,0,1
209100,-100,4,2,1,80,0,1
209198,-76.9230769230769,4,2,1,80,0,1
209392,-76.9230769230769,4,2,2,80,0,1
209587,-100,4,2,2,80,0,1
209977,-66.6666666666667,4,2,2,80,0,1
210367,-83.3333333333333,4,2,2,80,0,1
210756,-100,4,2,2,80,0,1
210951,-66.6666666666667,4,2,2,80,0,1
211925,-66.6666666666667,4,2,11,80,0,1
212022,-66.6666666666667,4,2,1,80,0,1
212315,-250,4,2,5,60,0,0
212509,-250,4,2,1,45,0,0
212704,-250,4,2,3,45,0,0
212802,-250,4,2,1,45,0,0
213094,-250,4,2,11,50,0,0
213191,-250,4,2,1,50,0,0
213483,-250,4,2,3,50,0,0
213581,-250,4,2,1,50,0,0
213873,-250,4,2,11,55,0,0
213970,-250,4,2,1,55,0,0
214263,-250,4,2,11,60,0,0
214360,-250,4,2,1,60,0,0
214652,-250,4,2,11,65,0,0
214750,-250,4,2,1,65,0,0
215042,-83.3333333333333,4,2,11,70,0,0
215431,-333.333333333333,4,2,2,100,0,0
215821,-76.9230769230769,4,2,1,70,0,0
216211,-100,4,2,1,65,0,0
216600,-76.9230769230769,4,2,1,65,0,0
216990,-100,4,2,1,65,0,0
218548,-83.3333333333333,4,2,1,65,0,0
218938,-66.6666666666667,4,2,6,65,0,0
219328,-133.333333333333,4,2,6,65,0,0
219392,-133.333333333333,4,2,1,65,0,0
219717,-66.6666666666667,4,2,6,65,0,0
220107,-100,4,2,6,65,0,0
220204,-100,4,2,1,65,0,0
221665,-66.6666666666667,4,2,1,65,0,0
222055,-83.3333333333333,4,2,1,65,0,0
222639,-100,4,2,1,65,0,0
222834,-83.3333333333333,4,2,1,65,0,0
222931,-83.3333333333333,4,2,2,65,0,0
223126,-83.3333333333333,4,2,1,65,0,0
223613,-100,4,2,1,65,0,0
224198,-100,4,2,2,65,0,0
224392,-100,4,2,1,65,0,0
224587,-100,4,2,2,65,0,0
224782,-76.9230769230769,4,2,2,65,0,0
224977,-76.9230769230769,4,2,1,65,0,0
225172,-83.3333333333333,4,2,1,65,0,0
225756,-100,4,2,1,65,0,0
225951,-133.333333333333,4,2,1,65,0,0
226341,-66.6666666666667,4,2,1,70,0,0
226730,-333.333333333333,4,2,1,70,0,0
227120,-66.6666666666667,4,2,1,70,0,0
227509,-100,4,2,2,70,0,0
227899,-66.6666666666667,4,2,1,70,0,0
228289,-83.3333333333333,4,2,2,65,0,0
228483,-83.3333333333333,4,2,1,65,0,0
228678,-83.3333333333333,4,2,2,65,0,0
228776,-83.3333333333333,4,2,1,65,0,0
228873,-100,4,2,1,65,0,0
228970,-100,4,2,4,65,0,0
229068,-100,4,2,1,65,0,0
229263,-100,4,2,3,65,0,0
229360,-100,4,2,1,65,0,0
229457,-83.3333333333333,4,2,2,65,0,0
229555,-83.3333333333333,4,2,1,65,0,0
230626,-166.666666666667,4,2,7,65,0,0
230724,-166.666666666667,4,2,2,65,0,0
231016,-76.9230769230769,4,2,1,65,0,0
231405,-66.6666666666667,4,2,6,65,0,0
231795,-133.333333333333,4,2,6,65,0,0
231860,-133.333333333333,4,2,1,65,0,0
232185,-71.4285714285714,4,2,4,65,0,0
232574,-100,4,2,4,65,0,0
232672,-100,4,2,1,65,0,0
232964,-66.6666666666667,4,2,1,65,0,0
233256,-100,4,2,1,65,0,0
234133,-66.6666666666667,4,2,1,70,0,0
234522,-83.3333333333333,4,2,3,65,0,0
234717,-83.3333333333333,4,2,1,65,0,0
234912,-83.3333333333333,4,2,2,65,0,0
235009,-83.3333333333333,4,2,1,65,0,0
235204,-83.3333333333333,4,2,3,65,0,0
235399,-83.3333333333333,4,2,2,65,0,0
235594,-83.3333333333333,4,2,1,65,0,0
235691,-76.9230769230769,4,2,1,65,0,0
236081,-100,4,2,1,65,0,0
236665,-100,4,2,2,65,0,0
236860,-100,4,2,1,65,0,0
237055,-100,4,2,2,65,0,0
237250,-66.6666666666667,4,2,2,65,0,0
237444,-66.6666666666667,4,2,1,65,0,0
237639,-83.3333333333333,4,2,1,65,0,0
238029,-100,4,2,1,65,0,0
238418,-133.333333333333,4,2,1,65,0,0
238808,-66.6666666666667,4,2,1,70,0,0
239587,-62.5,4,2,1,70,0,0
239977,-100,4,2,2,70,0,0
240009,-100,4,2,1,70,0,0
240367,-333.333333333333,4,2,2,100,0,0
240756,-66.6666666666667,4,2,2,70,0,0
240951,-66.6666666666667,4,2,1,70,0,0
241146,-83.3333333333333,4,2,1,60,0,0
241535,-100,4,2,1,60,0,0
241925,-100,4,2,1,60,0,0
243191,-76.9230769230769,4,2,1,60,0,0
243483,-90.9090909090909,4,2,1,60,0,0
244263,-125,4,2,1,60,0,0
244652,-76.9230769230769,4,2,1,60,0,0
245042,-100,4,2,1,60,0,0
246600,-83.3333333333333,4,2,1,60,0,0
248159,-100,4,2,1,60,0,0
249425,-83.3333333333333,4,2,1,60,0,0
249717,-100,4,2,1,60,0,0
250107,-90.9090909090909,4,2,1,60,0,0
250496,-100,4,2,1,60,0,0
252250,-100,4,2,2,60,0,0
252639,-125,4,2,2,60,0,0
252834,-90.9090909090909,4,2,2,60,0,0
253029,-90.9090909090909,4,2,1,60,0,0
253418,-111.111111111111,4,2,1,60,0,0
254392,-90.9090909090908,4,2,1,60,0,0
255172,-111.111111111111,4,2,1,60,0,0
256146,-76.9230769230769,4,2,1,60,0,0
256730,-111.111111111111,4,2,1,60,0,0
259068,-90.9090909090908,4,2,1,60,0,0
259457,-111.111111111111,4,2,1,60,0,0
260626,-133.333333333333,4,2,1,60,0,0
261016,-90.9090909090908,4,2,1,60,0,0
261405,-111.111111111111,4,2,1,60,0,0
262185,-90.9090909090908,4,2,1,60,0,0
262574,-111.111111111111,4,2,1,60,0,0
263743,-133.333333333333,4,2,1,60,0,0
264133,-90.9090909090908,4,2,1,60,0,0

[Colours]
Combo1 : 155,0,0
Combo2 : 192,192,192
Combo3 : 91,91,255

[HitObjects]
173,139,6600,6,0,B|202:52|129:9|52:38|52:38|120:47|133:92,1,300.000011444092,2|2,2:2|2:2,0:0:0:0:
54,116,8159,6,0,B|25:203|98:246|175:217|175:217|107:208|94:163,1,300.000011444092,2|2,2:2|2:3,0:0:0:0:
173,139,9717,22,0,B|240:80|316:166|310:174|354:248|435:210,1,300.000011444092,2|2,2:2|2:2,0:0:0:0:
464,92,11276,6,0,P|376:35|421:135,1,262.500010013581,2|0,2:2|0:0,0:0:0:0:
397,149,12055,2,0,P|351:44|467:118,1,350,2|0,2:2|0:0,0:0:0:0:
408,81,12834,22,0,B|393:14|300:-26|210:24|210:24|244:32|264:62,1,300.000011444092,2|2,2:2|2:2,0:0:0:0:
317,271,14392,6,0,B|382:291|463:230|465:128|465:128|441:153|405:155,1,300.000011444092,2|2,2:2|2:3,0:0:0:0:
201,91,15951,22,0,L|138:384,1,300.000011444092,2|2,2:2|2:2,0:0:0:0:
25,364,17509,6,0,B|33:333|3:294|3:294|36:333|65:330,1,150.000005722046,2|0,2:2|0:0,0:0:0:0:
241,379,18094,21,2,2:2:0:0:
241,379,18191,1,2,2:2:0:0:
241,379,18289,2,0,L|233:342,3,37.5000014305115,2|2|2|2,2:2|2:2|2:2|2:2,0:0:0:0:
323,285,18678,1,2,2:2:0:0:
353,290,18776,1,2,2:2:0:0:
375,319,18873,1,2,2:2:0:0:
370,353,18970,1,2,2:2:0:0:
339,377,19068,6,0,B|270:339|290:255|368:245|369:249|370:252|447:279|504:200|452:141,1,350,6|0,3:2|0:0,0:0:0:0:
385,116,19847,2,0,B|380:82|402:59|439:57|465:72|465:72|436:67|403:77|392:114,1,200,10|2,2:2|2:2,0:0:0:0:
453,142,20626,22,0,P|335:116|218:92,1,239.999992675781,2|2,3:2|2:2,0:0:0:0:
41,48,21211,6,0,L|47:80,2,33.3333333333333,8|8|8,2:2|2:2|2:2,0:0:0:0:
51,11,21405,22,0,L|100:245,1,239.999992675781,8|2,2:2|2:2,0:0:0:0:
33,365,21990,5,0,3:3:0:0:
33,365,22087,1,0,3:3:0:0:
33,365,22185,2,0,P|100:377|121:312,1,150,2|0,3:2|0:0,0:0:0:0:
100,245,22574,2,0,P|122:216|158:215,1,75.0000028610231,2|0,2:2|0:0,0:0:0:0:
282,352,22964,1,8,2:2:0:0:
207,370,23159,2,0,P|214:336|222:296,1,75.0000028610231,0|2,3:3|2:2,0:0:0:0:
459,292,23743,22,0,B|471:350|406:386|363:352|363:352|362:317|336:301,1,200,2|0,3:2|0:0,0:0:0:0:
471,193,24328,6,0,L|496:199,2,25.0000009536744,10|0|0,2:2|0:0|0:0,0:0:0:0:
503,218,24522,22,0,L|405:197,1,100,10|0,2:2|3:3,0:0:0:0:
293,112,24912,2,0,B|265:104|270:69|270:69|278:94|299:105,1,100,8|0,2:2|0:0,0:0:0:0:
340,49,25204,1,0,3:3:0:0:
340,49,25302,5,4,3:2:0:0:
375,117,25496,1,0,3:3:0:0:
325,175,25691,1,2,3:2:0:0:
252,169,25886,1,0,3:3:0:0:
331,188,26081,21,10,3:2:0:0:
243,180,26276,1,0,3:3:0:0:
214,106,26470,1,2,3:2:0:0:
262,45,26665,1,0,3:3:0:0:
419,120,26860,6,0,P|462:102|458:56,1,100,6|0,3:2|3:3,0:0:0:0:
339,109,27250,1,2,3:2:0:0:
379,45,27444,1,0,3:3:0:0:
331,188,27639,21,12,3:2:0:0:
389,245,27834,1,0,3:3:0:0:
468,224,28029,1,2,3:2:0:0:
367,323,28224,1,0,3:3:0:0:
251,246,28418,5,6,3:2:0:0:
210,225,28516,1,0,3:3:0:0:
161,233,28613,1,0,3:3:0:0:
136,275,28711,1,0,3:3:0:0:
141,323,28808,1,6,3:2:0:0:
116,348,28905,1,0,3:3:0:0:
86,354,29003,1,0,3:3:0:0:
71,349,29100,1,0,3:3:0:0:
62,339,29198,2,0,L|69:302,3,37.5000014305115,14|0|0|0,3:2|3:3|3:3|3:3,0:0:0:0:
0,255,29587,21,6,3:2:0:0:
7,218,29684,1,0,3:3:0:0:
15,181,29781,1,0,3:3:0:0:
23,144,29879,1,0,3:3:0:0:
31,108,29977,6,0,L|38:144,1,37.5000014305115,6|0,3:2|0:0,0:0:0:0:
105,67,30172,2,0,L|112:103,1,37.5000014305115,0|0,3:3|0:0,0:0:0:0:
154,185,30367,21,0,3:3:0:0:
177,189,30496,2,0,P|200:181|218:164,1,50.0000019073487,0|0,3:3|3:3,0:0:0:0:
217,70,30756,6,0,P|209:57|197:49,2,25.0000009536744,0|0|0,3:3|0:0|0:0,0:0:0:0:
296,120,30951,22,0,P|313:117|322:110,2,25,0|0|0,3:3|0:0|0:0,0:0:0:0:
242,116,31146,6,0,B|279:90|323:136|315:137|347:178|389:155,1,165.000005035401,6|0,3:2|0:0,0:0:0:0:
456,110,31535,22,0,L|466:61,3,50,10|2|2|2,3:2|2:3|2:3|2:3,0:0:0:0:
380,81,31925,1,10,3:2:0:0:
380,81,32022,1,2,2:3:0:0:
380,81,32120,1,2,2:3:0:0:
466,196,32315,1,10,3:2:0:0:
466,196,32412,2,0,L|445:293,1,100,2|0,2:3|0:0,0:0:0:0:
480,361,32704,1,10,3:2:0:0:
491,358,32802,1,2,2:3:0:0:
502,355,32899,1,2,2:3:0:0:
376,264,33094,5,8,3:2:0:0:
343,347,33289,1,2,2:3:0:0:
343,347,33386,2,0,L|380:340,1,37.5000014305115,2|8,2:3|3:2,0:0:0:0:
256,289,33581,2,0,L|293:282,2,37.5000014305115,2|2|2,2:3|2:3|2:3,0:0:0:0:
196,362,33873,22,0,P|172:310|116:313,1,119.999996337891,10|0,3:2|0:0,0:0:0:0:
34,358,34165,2,0,P|90:363|116:313,1,119.999996337891,10|2,3:2|2:3,0:0:0:0:
74,255,34457,2,0,P|56:228|54:196,1,59.9999981689454,10|2,3:2|2:3,0:0:0:0:
149,157,34652,6,0,P|161:143|167:125,3,37.5000014305115,10|0|2|0,3:2|0:0|2:3|0:0,0:0:0:0:
108,33,35042,1,10,3:2:0:0:
89,36,35139,1,2,2:3:0:0:
71,40,35236,1,2,2:3:0:0:
52,44,35334,1,2,2:3:0:0:
34,48,35431,2,0,L|41:11,1,37.5000014305115,10|0,3:2|0:0,0:0:0:0:
0,129,35626,2,0,L|109:105,1,100,2|10,2:3|3:2,0:0:0:0:
183,53,35918,1,2,2:3:0:0:
183,53,36016,2,0,L|219:60,1,37.5000014305115,2|2,2:3|2:3,0:0:0:0:
307,30,36211,22,0,P|331:82|387:79,1,119.999996337891,8|2,3:2|2:3,0:0:0:0:
469,34,36503,2,0,P|413:29|387:79,1,119.999996337891,8|0,3:2|0:0,0:0:0:0:
429,137,36795,2,0,P|447:164|449:196,1,59.9999981689454,10|2,3:2|2:3,0:0:0:0:
418,276,36990,1,10,3:2:0:0:
418,276,37087,1,10,2:2:0:0:
418,276,37185,1,6,2:2:0:0:
311,218,37379,2,0,B|320:190|303:163|303:163|319:190|360:197,1,112.500004291535,2|0,2:3|0:0,0:0:0:0:
346,194,37769,6,0,L|189:227,1,150.000005722046,6|0,3:2|0:0,0:0:0:0:
199,225,38061,1,8,2:2:0:0:
199,225,38159,1,2,3:3:0:0:
284,384,38354,2,0,L|294:335,1,50,10|2,2:2|2:3,0:0:0:0:
222,309,38548,1,0,3:3:0:0:
222,309,38646,2,0,L|211:357,2,50,10|0|8,2:2|0:0|2:2,0:0:0:0:
118,368,38938,1,2,3:3:0:0:
93,372,39035,1,2,2:3:0:0:
70,363,39132,1,10,2:2:0:0:
56,343,39230,1,10,2:2:0:0:
55,318,39328,22,0,P|70:299|93:288,3,50,4|2|2|10,3:2|2:3|2:3|2:2,0:0:0:0:
106,198,39717,2,0,P|130:201|150:215,3,50,2|2|10|2,3:3|2:3|2:2|2:3,0:0:0:0:
222,309,40107,5,6,3:2:0:0:
255,325,40204,1,10,2:2:0:0:
292,327,40301,1,2,2:3:0:0:
327,314,40399,1,10,2:2:0:0:
353,287,40496,1,2,3:3:0:0:
382,249,40594,1,2,2:3:0:0:
429,233,40691,1,10,2:2:0:0:
480,243,40789,1,10,2:2:0:0:
511,278,40886,22,0,L|500:326,1,50,6|0,3:2|0:0,0:0:0:0:
413,371,41081,2,0,L|423:322,1,50,0|0,3:3|0:0,0:0:0:0:
383,172,41276,2,0,P|405:160|429:157,1,50,4|0,3:2|0:0,0:0:0:0:
512,123,41470,2,0,P|490:109|475:90,1,50,4|0,3:2|0:0,0:0:0:0:
355,0,41665,5,4,3:2:0:0:
349,24,41762,1,0,0:0:0:0:
344,48,41859,1,0,3:3:0:0:
339,73,41957,1,0,0:0:0:0:
289,94,42055,1,4,3:2:0:0:
296,130,42152,1,0,0:0:0:0:
304,167,42249,1,0,3:3:0:0:
312,204,42347,1,0,0:0:0:0:
320,240,42444,22,0,L|325:215,22,25,2|0|0|0|0|0|0|0|2|0|0|0|0|0|0|0|2|0|0|0|0|0|0,3:2|0:0|0:0|0:0|0:0|0:0|0:0|0:0|2:2|0:0|0:0|0:0|0:0|0:0|0:0|0:0|2:2|0:0|0:0|0:0|0:0|0:0|0:0,0:0:0:0:
252,291,43613,6,0,L|261:337,1,44.999998626709,2|0,2:2|0:0,0:0:0:0:
266,354,44003,22,0,B|345:342|345:342|173:306,1,255.000004863739,4|0,3:2|0:0,0:0:0:0:
93,293,44392,2,0,B|100:241|143:239|143:239|112:254|110:273,1,129.999994049073,10|2,3:1|2:3,0:0:0:0:
37,352,44685,1,2,2:3:0:0:
37,352,44782,2,0,P|20:329|16:303,1,50,0|2,3:3|2:2,0:0:0:0:
173,306,44977,1,2,2:3:0:0:
36,235,45172,6,0,L|41:210,1,25,10|2,3:1|2:2,0:0:0:0:
113,171,45367,2,0,L|118:146,1,25,2|2,2:2|2:2,0:0:0:0:
70,50,45561,1,0,3:3:0:0:
39,121,45659,2,0,P|16:109|2:89,2,50,2|2|2,2:2|2:2|2:2,0:0:0:0:
145,75,45951,1,10,3:1:0:0:
161,56,46048,1,2,2:2:0:0:
188,47,46146,1,2,2:2:0:0:
216,49,46243,1,2,2:2:0:0:
237,67,46341,22,0,P|252:56|263:41,1,37.5000014305115,2|2,3:2|2:3,0:0:0:0:
336,37,46535,2,0,P|334:18|327:1,1,37.5000014305115,2|2,2:3|2:3,0:0:0:0:
309,112,46730,2,0,P|335:158|388:157,1,112.500004291535,0|0,3:3|0:0,0:0:0:0:
420,84,47120,6,0,L|425:59,2,25.0000009536744,2|2|2,3:2|2:2|2:2,0:0:0:0:
488,124,47315,22,0,L|493:99,2,25.0000009536744,2|2|2,2:2|2:2|2:2,0:0:0:0:
457,196,47509,6,0,B|428:246|446:296|501:301|501:301|471:284|469:251,1,194.999991073609,12|0,3:2|0:0,0:0:0:0:
375,281,47899,22,0,P|359:285|347:295,2,25.0000009536744,2|2|2,3:2|2:2|2:2,0:0:0:0:
284,268,48094,6,0,P|279:279|280:292,2,25.0000009536744,2|2|2,2:2|2:2|2:2,0:0:0:0:
338,215,48289,22,0,B|300:294|218:278|218:278|206:242|173:235,1,209.999993591309,14|0,3:2|0:0,0:0:0:0:
101,320,48678,5,0,3:3:0:0:
101,320,48776,2,0,P|126:316|146:301,2,50,2|2|2,2:2|2:2|2:2,0:0:0:0:
0,198,49068,21,10,3:1:0:0:
31,178,49165,1,2,2:2:0:0:
67,182,49262,1,2,2:2:0:0:
94,207,49360,1,2,2:2:0:0:
100,243,49457,2,0,P|85:231|74:215,1,37.5000014305115,2|2,3:2|2:2,0:0:0:0:
0,169,49652,2,0,P|2:150|10:133,1,37.5000014305115,2|2,2:2|2:2,0:0:0:0:
0,42,49847,5,10,3:1:0:0:
36,49,49944,1,2,2:2:0:0:
73,57,50041,1,2,2:2:0:0:
110,65,50139,1,2,2:2:0:0:
146,73,50237,22,0,B|201:22|201:22|72:78|72:78|102:125,1,255.000004863739,2|2,3:2|2:3,0:0:0:0:
109,180,50626,2,0,P|133:174|150:157,1,50,8|0,3:1|0:0,0:0:0:0:
234,114,50821,5,2,2:3:0:0:
234,114,50918,2,0,L|230:98,1,14.9999995422363,2|0,2:3|3:3,0:0:0:0:
305,96,51113,2,0,L|301:80,1,14.9999995422363,2|0,2:3|0:0,0:0:0:0:
385,36,51308,2,0,L|381:52,1,14.9999995422363,2|8,2:3|3:1,0:0:0:0:
456,54,51503,2,0,L|452:70,1,14.9999995422363,2|0,2:3|0:0,0:0:0:0:
432,142,51698,2,0,L|428:158,2,14.9999995422363,2|0|0,2:2|3:3|0:0,0:0:0:0:
344,167,51990,21,2,2:2:0:0:
344,167,52087,1,2,2:2:0:0:
344,167,52185,2,0,L|295:177,1,50,10|0,3:1|0:0,0:0:0:0:
310,253,52379,1,2,2:2:0:0:
310,253,52477,2,0,L|358:242,2,50,2|2|2,2:2|3:2|2:3,0:0:0:0:
401,306,52769,1,2,2:2:0:0:
401,306,52867,2,0,P|420:290|430:268,2,50,2|10|2,2:2|3:3|2:3,0:0:0:0:
265,320,53159,2,0,P|245:304|235:282,1,50,2|0,2:2|0:0,0:0:0:0:
158,214,53354,6,0,B|139:180|156:155|196:141|194:149|230:183|312:133|275:35|191:48|181:104,1,255.000004863739,0|2,3:3|2:3,0:0:0:0:
114,107,53743,2,0,P|97:99|86:83,3,37.5000014305115,10|2|0|2,3:3|2:3|0:0|2:3,0:0:0:0:
8,74,54133,2,0,P|11:55|21:39,1,37.5000014305115,0|2,3:3|2:3,0:0:0:0:
129,18,54328,21,2,2:2:0:0:
129,18,54425,1,2,2:2:0:0:
129,18,54522,2,0,L|153:23,2,25.0000009536744,10|2|2,3:1|2:2|2:2,0:0:0:0:
190,85,54717,6,0,L|214:79,2,25.0000009536744,2|2|2,2:2|2:2|2:2,0:0:0:0:
114,107,54912,22,0,B|83:127|93:171|119:188|148:185|146:178|170:172|216:193|212:241|188:248,1,209.999993591309,6|0,3:2|0:0,0:0:0:0:
170,320,55302,2,0,B|149:324|123:348|123:348|148:300|207:281|268:294,1,209.999993591309,2|0,3:2|0:0,0:0:0:0:
396,265,55691,2,0,B|431:189|317:160|307:242|307:242|325:259|326:285,1,209.999993591309,6|0,3:2|0:0,0:0:0:0:
311,345,56081,6,0,L|314:359,6,14.9999995422363,2|0|0|0|0|0|0,2:2|0:0|0:0|0:0|0:0|0:0|0:0,0:0:0:0:
392,375,56470,22,0,L|338:124,1,255.000004863739,6|0,3:2|0:0,0:0:0:0:
341,52,56860,2,0,B|358:-3|423:4|423:4|426:32|437:45,1,139.999995727539,10|2,3:1|2:3,0:0:0:0:
475,121,57152,1,2,2:3:0:0:
475,121,57250,1,0,3:3:0:0:
475,121,57347,2,0,L|438:113,1,37.5000014305115,2|0,2:2|0:0,0:0:0:0:
338,125,57542,2,0,L|301:117,1,37.5000014305115,2|10,2:2|3:3,0:0:0:0:
219,60,57737,2,0,P|232:39|254:26,2,50,2|2|2,2:2|2:3|2:2,0:0:0:0:
145,107,58029,5,0,3:3:0:0:
145,107,58126,2,0,P|133:85|132:60,2,50,2|2|2,2:2|2:2|2:2,0:0:0:0:
44,119,58418,2,0,P|16:109|-9:88,1,50,10|2,3:1|2:2,0:0:0:0:
20,11,58613,2,0,P|48:21|73:42,1,50,2|2,2:2|2:2,0:0:0:0:
218,143,58808,22,0,L|212:167,1,25,2|2,3:2|2:2,0:0:0:0:
129,187,59003,2,0,L|123:211,1,25,2|2,2:2|2:2,0:0:0:0:
34,293,59198,5,2,3:2:0:0:
37,311,59295,1,2,2:2:0:0:
41,329,59392,1,2,2:2:0:0:
45,348,59490,1,2,2:2:0:0:
49,366,59587,22,0,L|81:359,2,33.3333333333333,2|2|2,3:2|2:2|2:2,0:0:0:0:
144,304,59782,6,0,L|166:328,2,33.3333333333333,2|2|2,2:2|2:2|2:2,0:0:0:0:
77,274,59977,22,0,L|282:317,1,209.999993591309,12|0,3:2|0:0,0:0:0:0:
324,384,60367,6,0,L|348:362,2,33.3333333333333,2|2|2,3:2|2:2|2:2,0:0:0:0:
429,343,60562,22,0,L|422:311,2,33.3333333333333,2|2|2,2:2|2:2|2:2,0:0:0:0:
349,279,60756,6,0,B|326:197|413:182|455:196|455:196|425:211|413:248,1,225.000008583069,12|0,3:2|0:0,0:0:0:0:
344,192,61146,21,0,3:3:0:0:
344,192,61243,2,0,P|322:179|307:159,2,50,2|2|2,2:2|2:2|2:2,0:0:0:0:
374,120,61535,6,0,P|354:59|293:76,1,139.999995727539,6|2,3:2|2:2,0:0:0:0:
225,130,61828,2,0,B|171:124|181:72|181:72|192:109|227:122,1,139.999995727539,6|10,3:2|2:2,0:0:0:0:
308,160,62120,2,0,P|298:182|279:198,1,50,6|10,3:2|2:2,0:0:0:0:
174,298,62315,21,10,2:2:0:0:
142,277,62412,1,2,2:2:0:0:
107,263,62509,1,2,2:2:0:0:
71,256,62607,1,10,2:2:0:0:
33,255,62704,6,0,B|86:302|168:261|178:193|178:193|140:181|126:150,1,255.000004863739,6|0,3:2|0:0,0:0:0:0:
60,137,63094,2,0,P|68:113|86:97,1,50,8|0,3:1|0:0,0:0:0:0:
116,30,63289,21,2,2:3:0:0:
116,30,63386,2,0,L|101:26,1,14.9999995422363,2|0,2:3|3:3,0:0:0:0:
173,81,63581,2,0,L|162:92,1,14.9999995422363,2|0,2:3|0:0,0:0:0:0:
245,57,63776,2,0,L|249:71,1,14.9999995422363,2|8,2:3|3:1,0:0:0:0:
310,132,63970,2,0,L|313:117,1,14.9999995422363,2|0,2:3|0:0,0:0:0:0:
332,44,64165,2,0,L|335:29,2,14.9999995422363,2|0|0,2:2|3:3|0:0,0:0:0:0:
392,105,64457,1,2,2:2:0:0:
392,105,64555,1,2,2:2:0:0:
392,105,64652,2,0,P|416:100|437:86,1,50,10|0,3:1|0:0,0:0:0:0:
467,167,64847,1,2,2:2:0:0:
467,167,64944,2,0,P|442:171|421:185,2,50,2|2|2,2:2|3:3|2:3,0:0:0:0:
477,253,65237,5,2,2:2:0:0:
477,253,65334,1,2,2:2:0:0:
477,253,65431,22,0,L|470:285,2,33.3333333333333,10|2|2,3:1|2:2|2:2,0:0:0:0:
397,282,65626,6,0,L|390:314,2,33.3333333333333,2|2|2,2:2|2:2|2:2,0:0:0:0:
348,214,65821,22,0,B|312:181|256:201|239:248|249:249|232:308|177:317|143:289,1,250,6|0,3:2|0:0,0:0:0:0:
110,199,66405,2,0,B|69:206|38:139|103:92|172:105|192:167|177:227,1,250,4|0,3:2|0:0,0:0:0:0:
145,290,66990,6,0,L|186:94,1,200,4|0,3:2|0:0,0:0:0:0:
38,0,67574,2,0,P|57:65|124:51,1,150,8|0,3:2|0:0,0:0:0:0:
195,21,67964,2,0,P|219:26|239:40,1,50,0|0,3:3|0:0,0:0:0:0:
295,120,68159,2,0,L|422:92,1,129.999994049073,8|0,2:2|0:0,0:0:0:0:
497,84,68451,1,0,3:3:0:0:
497,84,68548,22,0,L|503:52,6,32.4999985122681
440,10,68938,6,0,L|393:230,1,225.000008583069,4|0,3:2|0:0,0:0:0:0:
392,321,69328,2,0,B|453:315|461:250|461:250|445:298|396:300,1,179.999994506836,10|2,3:1|2:3,0:0:0:0:
330,276,69717,2,0,L|212:300,1,119.999996337891,2|2,3:2|2:3,0:0:0:0:
179,370,70009,1,2,2:3:0:0:
179,370,70107,2,0,P|154:353|140:327,1,59.9999981689454,8|2,3:1|2:2,0:0:0:0:
66,313,70302,2,0,P|71:288|88:270,1,50,2|2,2:2|2:2,0:0:0:0:
165,205,70496,21,0,3:3:0:0:
165,205,70594,2,0,P|159:180|142:162,2,50,2|2|2,2:2|2:2|2:2,0:0:0:0:
212,299,70886,1,10,3:1:0:0:
221,270,70983,1,2,2:2:0:0:
238,246,71080,1,2,2:2:0:0:
262,227,71178,1,2,2:2:0:0:
289,214,71276,6,0,P|307:216|324:224,1,37.5000014305115,2|2,3:2|2:3,0:0:0:0:
395,193,71470,2,0,P|402:210|403:228,1,37.5000014305115,2|2,2:3|2:3,0:0:0:0:
413,322,71665,2,0,B|449:312|482:337|493:381|493:381|461:351|461:303|482:269,1,225.000008583069,0|0,3:3|0:0,0:0:0:0:
473,198,72055,22,0,L|478:173,2,25.0000009536744,2|2|2,3:2|2:2|2:2,0:0:0:0:
395,193,72250,6,0,L|400:168,2,25.0000009536744,2|2|2,2:2|2:2|2:2,0:0:0:0:
343,271,72444,22,0,B|329:293|295:304|271:284|261:254|270:256|257:205|230:195|202:199|196:213,1,194.999991073609,12|0,3:2|0:0,0:0:0:0:
147,265,72834,6,0,P|137:256|131:245,2,25.0000009536744,2|2|2,3:2|2:2|2:2,0:0:0:0:
58,231,73029,22,0,P|60:218|67:208,2,25.0000009536744,2|2|2,2:2|2:2|2:2,0:0:0:0:
131,170,73224,6,0,B|158:123|159:52|51:16|26:98|43:124|80:130,1,225.000008583069,14|0,3:2|0:0,0:0:0:0:
143,92,73613,21,0,3:3:0:0:
143,92,73711,2,0,P|168:82|186:61,2,55.0000016784668,2|2|2,2:2|2:2|2:2,0:0:0:0:
132,6,74003,6,0,L|278:37,1,150.000005722046,14|2,3:2|2:2,0:0:0:0:
376,42,74295,2,0,B|381:-14|316:-21|316:-21|350:-2|349:25,1,150.000005722046,6|2,3:2|2:2,0:0:0:0:
404,116,74587,2,0,P|431:104|444:77,1,50,6|2,3:2|2:2,0:0:0:0:
323,93,74782,21,10,2:2:0:0:
330,129,74879,1,2,2:3:0:0:
338,166,74976,1,2,2:3:0:0:
346,203,75074,1,2,3:3:0:0:
354,239,75172,6,0,B|309:211|301:136|385:100|435:156|435:156|427:186|440:214,1,255.000004863739,6|2,3:2|2:3,0:0:0:0:
451,296,75561,2,0,B|510:276|509:212|509:212|497:255|460:266,1,179.999994506836,10|2,3:1|2:3,0:0:0:0:
363,333,75951,2,0,P|308:345|286:294,1,119.999996337891,2|0,3:2|0:0,0:0:0:0:
261,226,76243,1,2,2:3:0:0:
261,226,76341,2,0,P|234:239|216:263,1,59.9999981689454,8|2,3:1|2:3,0:0:0:0:
164,349,76535,2,0,P|143:334|120:326,1,50,2|2,2:2|2:2,0:0:0:0:
27,287,76730,22,0,P|47:272|70:264,1,50,0|0,3:3|0:0,0:0:0:0:
151,206,76925,1,2,2:2:0:0:
151,206,77022,1,2,2:2:0:0:
151,206,77120,2,0,P|130:191|107:183,1,50,10|0,3:1|0:0,0:0:0:0:
155,113,77315,1,2,2:2:0:0:
155,113,77413,2,0,P|176:128|199:136,2,50,2|2|2,2:2|3:2|2:3,0:0:0:0:
0,53,77704,1,2,2:2:0:0:
0,53,77802,2,0,P|4:76|10:101,2,50,2|10|2,2:2|3:3|2:3,0:0:0:0:
84,80,78094,2,0,P|79:56|73:31,1,50,2|0,2:2|0:0,0:0:0:0:
208,27,78289,6,0,B|231:19|247:4|247:4|458:48,1,255.000004863739,0|2,3:3|2:3,0:0:0:0:
484,112,78678,2,0,P|500:103|512:89,3,37.5000014305115,10|2|0|2,3:3|2:3|0:0|2:3,0:0:0:0:
438,180,79068,2,0,P|453:189|472:193,1,37.5000014305115,0|2,3:3|2:3,0:0:0:0:
343,192,79263,21,2,2:2:0:0:
343,192,79360,1,2,2:2:0:0:
343,192,79457,6,0,P|326:200|314:214,2,25.0000009536744,10|2|2,3:1|2:2|2:2,0:0:0:0:
380,103,79652,22,0,P|380:84|374:66,2,25.0000009536744,2|2|2,2:2|2:2|2:2,0:0:0:0:
388,157,79847,6,0,B|340:83|257:113|257:113|245:155|205:160,1,225.000008583069,6|0,3:2|0:0,0:0:0:0:
156,63,80237,2,0,B|145:48|97:40|97:40|173:11|207:61|207:61|187:77|187:108,1,225.000008583069,2|0,3:2|0:0,0:0:0:0:
106,116,80626,2,0,L|146:306,1,194.999991073609,6|0,3:2|0:0,0:0:0:0:
149,380,81016,22,0,L|130:376,10,16.6666666666667,2|0|2|0|2|0|2|0|0|0|0,3:3|0:0|2:3|0:0|2:3|0:0|2:3|0:0|0:0|0:0|0:0,0:0:0:0:
215,337,81405,6,0,B|240:373|301:374|330:329|330:329|335:290|372:263|414:273,1,240,6|0,3:2|0:0,0:0:0:0:
476,283,81795,2,0,B|465:341|490:376|490:376|467:342|402:344,1,194.999991073609,10|0,3:2|0:0,0:0:0:0:
268,284,82185,2,0,P|281:225|295:156,1,129.999994049073,2|0,3:2|0:0,0:0:0:0:
373,151,82477,1,2,2:2:0:0:
373,151,82574,2,0,L|362:199,1,50,8|0,3:2|0:0,0:0:0:0:
209,218,82769,21,2,2:2:0:0:
209,218,82867,1,0,0:0:0:0:
209,218,82964,2,0,B|148:189|106:234|106:234|90:289|42:283,1,194.999991073609,2|0,3:2|0:0,0:0:0:0:
0,235,83354,1,10,3:2:0:0:
106,357,83548,2,0,B|144:345|152:302|152:302|133:334|101:346,1,129.999994049073,2|0,2:2|3:3,0:0:0:0:
56,183,83938,5,2,2:2:0:0:
19,150,84035,1,2,2:2:0:0:
26,101,84133,1,10,3:2:0:0:
62,74,84230,1,2,2:2:0:0:
100,77,84328,1,2,2:2:0:0:
117,91,84425,1,2,2:2:0:0:
124,107,84522,22,0,P|63:82|0:72,1,129.999994049073,2|0,3:2|0:0,0:0:0:0:
103,2,84815,1,2,2:2:0:0:
103,2,84912,2,0,P|127:7|150:16,1,50,8|0,3:2|0:0,0:0:0:0:
226,106,85107,1,2,2:2:0:0:
226,106,85204,1,0,0:0:0:0:
226,106,85302,2,0,P|284:108|324:67,2,119.999996337891,0|2|10,3:3|2:2|3:2,0:0:0:0:
362,3,85886,2,0,P|383:15|397:36,1,50,2|0,2:2|0:0,0:0:0:0:
417,131,86081,6,0,B|458:135|495:101|479:49|479:49|472:95|441:112,1,194.999991073609,2|0,3:2|0:0,0:0:0:0:
347,173,86470,2,0,P|359:194|379:208,1,50,10|2,3:2|2:2,0:0:0:0:
512,282,86665,1,2,2:2:0:0:
431,319,86860,2,0,L|455:201,1,119.999996337891,2|2,3:2|2:3,0:0:0:0:
462,209,87152,1,2,2:2:0:0:
462,209,87250,2,0,P|485:202|505:186,1,50,10|2,3:2|2:2,0:0:0:0:
333,99,87444,2,0,P|309:105|289:121,1,50,2|2,2:2|2:2,0:0:0:0:
201,222,87639,22,0,B|143:258|97:228|97:228|76:178|27:183,1,194.999991073609,2|0,3:2|0:0,0:0:0:0:
28,252,88029,1,10,3:2:0:0:
152,161,88224,2,0,P|135:140|106:125,1,50,2|2,2:2|2:2,0:0:0:0:
0,85,88418,2,0,P|70:65|109:3,1,150.000005722046,2|2,3:2|2:2,0:0:0:0:
117,9,88711,1,2,2:2:0:0:
117,9,88808,2,0,P|130:29|151:43,1,50,10|2,3:2|2:2,0:0:0:0:
289,120,89003,1,2,2:2:0:0:
237,0,89198,6,0,L|190:220,1,225.000008583069,2|0,3:2|0:0,0:0:0:0:
172,292,89587,1,10,3:2:0:0:
75,214,89782,2,0,P|98:220|117:236,1,50,2|2,2:2|2:2,0:0:0:0:
236,348,89977,2,0,B|292:381|332:326|332:326|330:303|340:288,1,150.000005722046,2|2,3:2|2:2,0:0:0:0:
348,293,90269,1,2,2:2:0:0:
348,293,90367,2,0,P|365:275|387:263,1,50,10|2,3:2|2:2,0:0:0:0:
461,357,90561,21,2,2:2:0:0:
461,357,90658,1,2,2:2:0:0:
461,357,90756,2,0,P|436:350|415:337,1,50,2|0,3:2|0:0,0:0:0:0:
328,207,90951,1,2,2:2:0:0:
483,135,91146,1,10,3:2:0:0:
483,135,91341,1,2,2:2:0:0:
462,253,91535,2,0,L|451:204,1,50,2|0,3:2|0:0,0:0:0:0:
390,123,91730,1,0,0:0:0:0:
390,123,91828,2,0,L|400:74,2,50,2|8|0,2:2|3:2|0:0,0:0:0:0:
499,60,92120,1,2,2:2:0:0:
305,104,92315,6,0,P|283:99|266:85,1,44.999998626709,2|2,3:2|2:2,0:0:0:0:
266,85,92704,22,0,B|271:153|198:165|198:165|178:143|144:145,1,170.000003242493,4|2,3:2|2:2,0:0:0:0:
87,184,92996,2,0,B|103:224|83:268|83:268|106:225|145:215,1,170.000003242493,4|0,3:2|0:0,0:0:0:0:
145,74,93289,2,0,B|102:67|74:28|74:28|99:69|88:108,1,170.000003242493,4|2,3:2|2:2,0:0:0:0:
211,179,93581,2,0,B|237:145|285:140|285:140|237:142|209:112,1,170.000003242493,4|0,3:2|0:0,0:0:0:0:
152,145,93873,6,0,B|125:173|127:228|187:231|189:228|192:227|250:226|271:272|243:300,1,225.000008583069,4|0,3:2|0:0,0:0:0:0:
162,363,94263,2,0,B|133:365|102:387|102:387|123:341|178:324|178:324|187:356|219:366,1,225.000008583069,10|0,3:2|0:0,0:0:0:0:
324,384,94652,2,0,L|355:237,1,150.000005722046,2|0,3:2|0:0,0:0:0:0:
422,345,94944,1,2,2:2:0:0:
422,345,95042,2,0,P|440:360|465:365,1,50,8|0,3:2|0:0,0:0:0:0:
512,239,95237,21,2,2:2:0:0:
512,239,95334,1,0,0:0:0:0:
512,239,95431,2,0,B|481:157|379:169|379:169|423:186|425:229,1,225.000008583069,0|0,3:3|0:0,0:0:0:0:
355,237,95821,1,10,3:2:0:0:
472,105,96016,2,0,B|518:84|508:29|508:29|499:69|471:86,1,150.000005722046,2|2,2:2|3:3,0:0:0:0:
331,104,96405,5,2,2:2:0:0:
317,58,96503,1,2,2:2:0:0:
336,17,96600,1,10,3:2:0:0:
372,2,96698,1,2,2:2:0:0:
404,5,96795,1,2,2:2:0:0:
422,15,96892,1,2,2:2:0:0:
431,24,96990,22,0,P|356:37|284:55,1,150.000005722046,2|0,3:2|0:0,0:0:0:0:
230,123,97282,1,2,2:2:0:0:
230,123,97379,2,0,P|205:122|184:110,1,50,8|0,3:2|0:0,0:0:0:0:
123,13,97574,1,2,2:2:0:0:
123,13,97672,1,0,0:0:0:0:
123,13,97769,2,0,L|98:130,2,119.999996337891,2|0|8,3:2|0:0|3:2,0:0:0:0:
22,156,98354,2,0,L|32:204,1,50,2|0,2:2|0:0,0:0:0:0:
25,333,98548,6,0,B|51:258|127:259|127:259|138:286|156:294,1,179.999994506836,2|0,3:2|0:0,0:0:0:0:
144,366,98938,2,0,P|120:361|101:346,1,50,10|2,3:2|2:2,0:0:0:0:
199,230,99133,1,2,2:2:0:0:
345,360,99328,2,0,L|217:332,1,129.999994049073,2|2,3:2|2:3,0:0:0:0:
225,339,99620,1,2,2:2:0:0:
225,339,99717,2,0,P|248:331|264:312,1,50,10|2,3:2|2:2,0:0:0:0:
347,209,99912,2,0,P|371:212|390:228,1,50,2|2,2:2|2:2,0:0:0:0:
445,378,100107,22,0,L|491:157,1,225.000008583069,2|0,3:2|0:0,0:0:0:0:
509,83,100496,1,10,3:2:0:0:
395,78,100691,2,0,P|411:96|434:106,1,50,2|2,2:2|2:2,0:0:0:0:
312,7,100886,2,0,P|240:4|203:65,1,150.000005722046,2|2,3:2|2:2,0:0:0:0:
210,71,101178,1,2,2:2:0:0:
210,71,101276,2,0,P|194:52|171:42,1,50,8|2,3:2|2:2,0:0:0:0:
21,60,101470,1,2,2:2:0:0:
202,188,101665,6,0,B|261:204|316:155|287:82|287:82|281:121|251:137,1,225.000008583069,2|0,3:2|0:0,0:0:0:0:
152,127,102055,1,10,3:2:0:0:
15,256,102250,2,0,L|4:207,1,50,2|2,2:2|2:2,0:0:0:0:
70,131,102444,2,0,L|101:277,1,150.000005722046,2|2,3:2|2:2,0:0:0:0:
101,277,102737,1,2,2:2:0:0:
101,277,102834,1,10,3:2:0:0:
0,368,103029,2,0,P|16:349|37:335,1,50,2|2,2:2|2:2,0:0:0:0:
196,267,103224,21,2,3:2:0:0:
311,381,103418,2,0,L|143:345,2,150.000005722046,2|8|2,2:2|3:2|2:2,0:0:0:0:
480,350,104003,2,0,P|444:359|417:385,1,75.0000028610231,2|0,3:2|0:0,0:0:0:0:
372,225,104198,1,2,2:2:0:0:
374,302,104295,2,0,P|410:292|437:267,2,75.0000028610231,2|8|0,2:2|3:2|0:0,0:0:0:0:
286,260,104587,1,2,2:2:0:0:
427,178,104782,6,0,B|490:179|503:225|503:225|478:194|439:192,1,150.000005722046,2|2,3:2|2:2,0:0:0:0:
351,152,105074,2,0,P|362:124|385:105,2,59.9999981689454,2|8|0,2:2|3:2|0:0,0:0:0:0:
286,260,105367,2,0,P|242:219|219:164,1,119.999996337891,2|0,2:2|3:3,0:0:0:0:
227,170,105659,1,0,0:0:0:0:
227,170,105756,2,0,P|220:198|199:219,1,59.9999981689454,2|0,2:2|0:0,0:0:0:0:
59,275,105951,21,10,3:2:0:0:
44,271,106048,1,2,2:3:0:0:
29,268,106145,1,2,2:3:0:0:
14,265,106243,1,2,2:3:0:0:
0,262,106340,1,6,2:2:0:0:
54,160,106730,6,0,L|58:179,3,20,2|2|2|2,2:3|2:3|2:3|2:3,0:0:0:0:
144,115,107120,2,0,L|129:128,3,20,6|2|2|2,2:2|2:3|2:3|2:3,0:0:0:0:
227,170,107509,2,0,L|207:163,3,20,2|2|2|2,2:3|2:3|2:3|2:3,0:0:0:0:
308,224,107899,21,6,2:2:0:0:
332,224,107996,1,2,2:3:0:0:
355,214,108093,1,2,2:3:0:0:
372,196,108191,1,2,2:3:0:0:
380,172,108289,2,0,P|374:159|366:150,3,20,6|2|2|2,2:2|2:3|2:3|2:3,0:0:0:0:
386,76,108678,5,6,2:2:0:0:
400,46,108775,1,2,2:3:0:0:
428,30,108872,1,2,2:3:0:0:
461,31,108970,1,2,2:3:0:0:
455,104,109068,21,14,3:2:0:0:
455,104,109457,6,0,L|396:91,1,60,4|2,3:2|2:3,0:0:0:0:
342,46,109847,22,0,L|169:82,1,150,8|0,3:1|0:0,0:0:0:0:
124,95,110237,1,2,3:3:0:0:
124,95,110334,2,0,L|119:71,2,25,2|0|2,2:3|0:0|2:3,0:0:0:0:
58,155,110626,2,0,L|37:57,1,100,8|2,3:1|2:3,0:0:0:0:
37,57,110918,1,2,2:3:0:0:
37,57,111016,5,0,3:3:0:0:
177,150,111211,1,2,2:3:0:0:
35,237,111405,2,0,L|208:273,1,150,10|0,3:3|0:0,0:0:0:0:
254,286,111795,1,0,3:3:0:0:
254,286,111892,2,0,L|259:262,2,25,2|0|2,2:3|0:0|2:3,0:0:0:0:
318,349,112185,2,0,L|339:251,1,100,8|2,3:1|2:3,0:0:0:0:
339,251,112477,1,0,0:0:0:0:
339,251,112575,21,0,3:3:0:0:
198,339,112769,1,2,2:3:0:0:
399,384,112964,2,0,L|430:237,1,150,8|0,3:1|0:0,0:0:0:0:
444,168,113354,1,0,3:3:0:0:
444,168,113451,2,0,L|419:162,2,25,2|0|2,2:3|0:0|2:3,0:0:0:0:
503,103,113743,2,0,L|405:82,1,100,8|2,3:1|2:3,0:0:0:0:
405,82,114035,1,2,2:3:0:0:
405,82,114133,5,0,3:3:0:0:
502,216,114328,1,2,2:3:0:0:
318,153,114522,2,0,L|338:250,1,100,8|2,3:1|2:3,0:0:0:0:
231,130,114912,1,0,3:3:0:0:
231,130,115009,2,0,B|236:100|270:91|270:91|248:107|246:128,1,100,2|2,2:3|2:3,0:0:0:0:
318,153,115302,1,8,3:1:0:0:
217,261,115496,21,2,2:3:0:0:
217,261,115594,1,2,2:3:0:0:
217,261,115691,2,0,B|196:252|193:238|193:238|197:249|217:257,1,60,0|2,3:3|2:3,0:0:0:0:
254,200,116081,6,0,B|274:226|257:263|219:271|216:269|212:267|160:260|142:302|168:332,1,194.999991073609,8|0,3:1|0:0,0:0:0:0:
106,367,116470,1,0,3:3:0:0:
106,367,116568,2,0,P|99:356|94:344,2,25,2|0|2,2:3|0:0|2:3,0:0:0:0:
11,324,116860,2,0,P|28:277|63:242,1,100,10|2,3:3|2:3,0:0:0:0:
63,242,117152,1,0,0:0:0:0:
63,242,117250,21,0,3:3:0:0:
168,332,117444,1,2,2:3:0:0:
286,244,117639,2,0,P|212:246|157:198,1,150,8|0,3:1|0:0,0:0:0:0:
88,178,118029,1,0,3:3:0:0:
88,178,118126,2,0,P|93:166|99:156,2,25,2|0|2,2:3|0:0|2:3,0:0:0:0:
57,74,118418,2,0,P|105:64|153:76,1,100,8|2,3:1|2:3,0:0:0:0:
193,10,118711,5,0,0:0:0:0:
193,10,118808,2,0,P|217:26|233:54,1,60,0|2,3:3|2:3,0:0:0:0:
216,129,119198,22,0,B|242:170|311:174|351:121|351:121|320:118|303:90,1,194.999991073609,8|0,3:1|0:0,0:0:0:0:
358,46,119587,1,0,3:3:0:0:
358,46,119685,2,0,L|363:21,2,25,2|0|2,2:3|0:0|2:3,0:0:0:0:
422,124,119977,2,0,L|442:26,1,100,8|2,3:1|2:3,0:0:0:0:
442,26,120269,1,2,2:3:0:0:
442,26,120367,5,0,3:3:0:0:
512,115,120561,1,0,0:0:0:0:
347,195,120756,1,8,2:1:0:0:
347,195,121146,22,0,L|341:170,1,25,2|0,2:3|0:0,0:0:0:0:
274,234,121341,2,0,L|268:209,1,25,2|0,2:3|0:0,0:0:0:0:
414,275,121535,6,0,L|404:321,1,44.999998626709,10|0,2:3|0:0,0:0:0:0:
400,353,121925,22,0,B|471:308|471:308|336:351,1,225.000008583069,6|0,3:2|0:0,0:0:0:0:
257,384,122315,2,0,L|277:286,1,100,8|2,3:1|2:3,0:0:0:0:
209,257,122607,1,2,2:3:0:0:
209,257,122704,2,0,L|198:305,3,50,2|2|2|2,3:3|2:3|2:3|2:3,0:0:0:0:
134,368,123094,2,0,P|87:361|77:315,1,100,10|2,3:3|2:3,0:0:0:0:
114,220,123483,5,2,3:3:0:0:
101,222,123580,1,2,2:3:0:0:
89,225,123677,1,2,2:3:0:0:
77,227,123775,1,2,2:3:0:0:
65,230,123873,2,0,L|70:205,1,25,10|0,3:3|0:0,0:0:0:0:
0,169,124068,2,0,L|5:144,1,25,2|0,2:3|0:0,0:0:0:0:
89,123,124263,1,2,3:3:0:0:
20,26,124457,2,0,P|65:12|98:47,1,100,2|10,2:3|3:3,0:0:0:0:
159,92,124750,22,0,P|183:88|200:70,1,50,2|2,2:3|2:3,0:0:0:0:
223,4,125042,1,2,3:3:0:0:
98,47,125237,6,0,L|244:78,1,150.000005722046,2|10,2:3|3:3,0:0:0:0:
304,130,125529,2,0,L|352:119,2,50,2|2|2,2:2|2:3|2:3,0:0:0:0:
316,50,125821,1,2,3:3:0:0:
232,159,126016,1,2,2:3:0:0:
440,107,126211,2,0,B|442:67|400:63|400:63|424:83|428:110,1,100,10|0,3:3|0:0,0:0:0:0:
460,189,126600,21,2,3:3:0:0:
447,187,126697,1,2,2:3:0:0:
435,184,126794,1,2,2:3:0:0:
423,182,126892,1,2,2:3:0:0:
411,179,126990,2,0,L|416:203,1,25,10|2,3:3|2:3,0:0:0:0:
347,243,127185,2,0,L|341:218,2,25,2|2|2,2:3|2:3|3:3,0:0:0:0:
415,384,127574,6,0,L|512:363,1,100,2|8,2:2|3:1,0:0:0:0:
512,289,127867,2,0,L|487:294,1,25,2|2,2:2|2:2,0:0:0:0:
410,309,128061,2,0,L|385:314,1,25,2|2,2:2|3:3,0:0:0:0:
330,377,128256,22,0,L|305:371,2,25,2|2|2,2:3|2:3|2:3,0:0:0:0:
230,355,128548,6,0,L|181:344,1,50,10|2,3:1|3:3,0:0:0:0:
101,313,129133,21,2,2:3:0:0:
101,313,129230,1,2,2:3:0:0:
101,313,129328,2,0,L|106:337,1,25,10|0,3:3|0:0,0:0:0:0:
36,380,129522,5,2,2:3:0:0:
36,380,129619,1,2,2:3:0:0:
36,380,129717,2,0,L|31:356,3,25,2|2|2|2,3:3|2:3|2:3|2:3,0:0:0:0:
0,288,130107,2,0,L|20:190,1,100,8|2,3:1|2:3,0:0:0:0:
20,190,130399,1,2,2:3:0:0:
20,190,130496,1,2,3:3:0:0:
124,249,130691,2,0,P|171:247|195:205,1,100,2|10,2:3|3:3,0:0:0:0:
205,127,130983,22,0,P|229:125|248:141,1,50,2|2,2:3|2:3,0:0:0:0:
272,213,131276,1,2,3:3:0:0:
139,161,131470,2,0,L|285:129,1,150.000005722046,2|10,2:3|3:3,0:0:0:0:
340,74,131763,2,0,L|388:84,2,50,2|2|2,2:2|2:3|2:3,0:0:0:0:
267,57,132055,1,2,3:3:0:0:
358,155,132250,1,2,2:2:0:0:
477,60,132444,1,8,3:1:0:0:
477,60,132542,2,0,B|476:23|431:27|431:27|453:41|454:65,1,100,2|2,2:3|2:3,0:0:0:0:
447,126,132834,5,2,3:3:0:0:
449,138,132931,1,2,2:3:0:0:
452,150,133028,1,2,2:3:0:0:
454,162,133126,1,2,2:3:0:0:
457,174,133224,2,0,L|462:149,1,25,10|2,2:3|2:3,0:0:0:0:
358,155,133418,2,0,L|352:179,1,25,2|2,2:3|2:3,0:0:0:0:
265,232,133613,2,0,L|246:215,1,25,2|2,2:3|2:3,0:0:0:0:
404,266,133808,2,0,L|427:258,1,25,2|2,2:3|2:3,0:0:0:0:
311,327,134003,21,10,2:3:0:0:
256,192,134100,12,2,137509,2:2:0:0:
429,232,139068,6,0,B|335:207|333:80|385:7|533:17|502:144|431:158,1,375.000014305115,2|2,2:2|2:2,0:0:0:0:
309,248,140431,21,2,2:2:0:0:
309,248,140529,1,2,2:2:0:0:
309,248,140626,2,0,B|274:195|196:202|164:268|167:268|171:270|170:329|80:386|13:342|13:342|59:358|101:327,1,450.000017166138,2|0,2:2|0:0,0:0:0:0:
47,211,141990,5,2,2:2:0:0:
47,211,142087,1,2,2:2:0:0:
47,211,142185,2,0,B|15:198|-25:159|-25:159|15:199|52:289,1,225.000008583069,2|0,2:2|0:0,0:0:0:0:
126,158,142964,2,0,B|195:137|206:68|153:33|153:33|160:71|130:104,1,225.000008583069,2|0,2:2|0:0,0:0:0:0:
6,25,143743,22,0,P|272:96|534:175,1,525.000020027161,2|0,2:2|0:0,0:0:0:0:
455,287,145302,6,0,B|438:376|317:414|230:295|314:171|415:214|415:214|377:205|350:239,1,450.000017166138,2|0,2:2|0:0,0:0:0:0:
162,260,146860,22,0,B|113:257|75:286|75:322|75:322|122:367|210:346|228:295|226:294|224:293|232:239|302:206|357:235,1,450.000017166138,2|0,2:2|0:0,0:0:0:0:
325,381,148224,5,2,2:2:0:0:
325,381,148321,1,2,2:2:0:0:
325,381,148418,2,0,P|338:311|356:234,1,150.000005722046,2|0,2:2|0:0,0:0:0:0:
500,172,149003,1,2,2:2:0:0:
500,172,149100,1,2,2:2:0:0:
500,172,149198,2,0,P|494:239|427:234,1,150.000005722046,2|0,2:2|0:0,0:0:0:0:
431,95,149782,21,2,2:2:0:0:
431,95,149879,1,2,2:2:0:0:
431,95,149977,2,0,P|458:88|479:84,1,50,2|2,2:3|2:3,0:0:0:0:
392,173,150367,1,2,2:3:0:0:
392,173,150561,1,2,2:3:0:0:
337,99,150756,2,0,P|340:75|347:50,2,50,2|2|2,2:3|2:3|2:3,0:0:0:0:
259,88,151536,5,2,2:3:0:0:
260,75,151633,1,2,2:3:0:0:
262,63,151730,1,2,2:3:0:0:
265,51,151828,1,2,2:3:0:0:
269,39,151925,2,0,P|241:45|220:49,1,50,2|2,2:3|2:3,0:0:0:0:
148,6,152315,1,2,2:3:0:0:
148,6,152509,1,2,2:3:0:0:
136,108,152704,2,0,L|141:83,3,25,2|2|2|2,2:3|2:3|2:3|2:3,0:0:0:0:
70,49,153094,22,0,L|56:111,1,50,2|2,2:3|2:3,0:0:0:0:
0,157,153483,1,2,2:3:0:0:
0,157,153678,1,2,2:3:0:0:
85,224,153873,2,0,P|79:199|74:175,2,50,2|2|2,2:3|2:3|2:3,0:0:0:0:
48,331,154457,5,2,2:2:0:0:
48,331,154555,1,2,2:2:0:0:
48,331,154652,2,0,P|23:325|0:320,2,50,2|2|2,2:3|2:3|2:3,0:0:0:0:
143,379,155237,1,2,2:3:0:0:
143,379,155335,1,0,0:0:0:0:
143,379,155432,2,0,P|168:373|191:368,2,50,2|2|2,2:2|2:3|2:3,0:0:0:0:
256,192,156211,21,2,2:3:0:0:
319,268,156405,1,2,2:3:0:0:
354,176,156600,1,2,2:3:0:0:
354,176,156795,1,2,2:3:0:0:
221,266,156990,2,0,P|199:254|186:233,2,50,2|2|2,2:3|2:3|2:3,0:0:0:0:
335,374,157769,5,2,2:3:0:0:
337,361,157866,1,2,2:3:0:0:
340,349,157963,1,2,2:3:0:0:
342,337,158061,1,2,2:3:0:0:
345,325,158159,2,0,L|296:335,1,50,2|2,2:3|2:3,0:0:0:0:
480,380,158548,2,0,L|431:369,1,50,2|2,2:3|2:3,0:0:0:0:
433,289,158938,21,2,2:3:0:0:
445,291,159036,1,2,2:3:0:0:
457,294,159133,1,2,2:3:0:0:
470,296,159230,1,2,2:3:0:0:
483,298,159328,6,0,L|472:249,1,50,2|2,2:3|2:3,0:0:0:0:
383,232,159717,2,0,L|372:183,1,50,2|2,2:3|2:3,0:0:0:0:
469,112,160107,2,0,L|458:161,2,50,2|2|2,2:3|2:3|2:3,0:0:0:0:
492,24,160691,21,2,2:2:0:0:
492,24,160789,1,2,2:2:0:0:
492,24,160886,1,2,2:2:0:0:
414,0,161081,1,2,2:3:0:0:
349,48,161276,1,2,2:3:0:0:
373,127,161470,1,2,2:2:0:0:
373,127,161568,1,2,2:2:0:0:
373,127,161665,2,0,P|366:137|357:146,3,25,2|2|2|2,2:2|2:2|2:2|2:2,0:0:0:0:
284,186,162055,5,2,2:2:0:0:
259,184,162152,1,2,2:2:0:0:
232,169,162250,1,2,2:2:0:0:
219,138,162347,1,2,2:2:0:0:
225,101,162444,22,0,B|273:143|246:241|151:239|147:235|143:232|46:210|-18:297|35:356,1,400,4|2,3:2|2:2,0:0:0:0:
156,384,164003,6,0,B|205:331|197:233|94:211|35:277|35:277|88:282|103:328,1,350,2|0,2:2|0:0,0:0:0:0:
33,354,164782,2,0,P|24:363|13:369,3,25,2|2|2|2,2:3|2:3|2:3|2:3,0:0:0:0:
98,315,165172,2,0,P|105:325|108:337,3,25,2|2|2|2,2:3|2:3|2:3|2:3,0:0:0:0:
35,277,165561,22,0,B|-25:242|-27:165|22:98|110:102|136:163|114:216|63:212,1,300,2|0,2:2|0:0,0:0:0:0:
0,84,166341,2,0,P|16:74|33:68,3,37.5000014305115,2|2|2|2,2:2|2:3|2:3|2:3,0:0:0:0:
89,0,166730,2,0,P|142:16|187:49,1,112.500004291535,2|2,2:3|2:3,0:0:0:0:
234,113,167120,6,0,B|262:197|370:192|403:101|403:101|361:93|346:52,1,300,2|0,2:2|0:0,0:0:0:0:
349,59,167802,1,0,0:0:0:0:
349,59,167899,1,2,2:2:0:0:
494,18,168094,2,0,P|480:69|473:115,1,100,2|0,2:2|0:0,0:0:0:0:
473,115,168386,1,2,2:2:0:0:
473,115,168483,1,2,2:2:0:0:
385,159,168678,22,0,B|407:207|375:252|375:252|409:209|465:216,2,200,2|2|2,2:2|2:2|2:2,0:0:0:0:
473,115,169847,1,2,2:2:0:0:
473,115,170237,5,2,2:2:0:0:
460,112,170334,1,2,2:3:0:0:
448,109,170431,1,2,2:3:0:0:
436,107,170529,1,2,2:3:0:0:
424,104,170626,2,0,B|386:95|394:59|394:59|399:80|426:93,1,100,2|2,2:2|2:3,0:0:0:0:
314,111,171016,21,2,2:3:0:0:
289,116,171113,1,2,2:3:0:0:
265,121,171210,1,2,2:3:0:0:
240,126,171308,1,0,0:0:0:0:
216,131,171405,2,0,L|221:106,3,25,2|2|2|2,2:2|2:3|2:3|2:3,0:0:0:0:
160,9,171795,6,0,L|118:204,1,200,2|2,2:2|2:3,0:0:0:0:
58,93,172379,1,2,2:3:0:0:
216,131,172574,2,0,L|240:136,2,25,2|0|2,2:2|0:0|2:3,0:0:0:0:
34,208,172964,2,0,L|44:256,1,50,2|0,2:2|0:0,0:0:0:0:
196,205,173354,21,2,2:2:0:0:
102,333,173548,1,2,2:2:0:0:
90,339,173646,1,2,2:2:0:0:
82,349,173743,1,0,0:0:0:0:
82,329,173841,1,2,2:2:0:0:
102,309,173938,1,2,2:2:0:0:
136,306,174035,1,2,2:2:0:0:
166,328,174133,2,0,P|174:338|190:345,3,25,2|2|2|2,2:2|2:2|2:2|2:2,0:0:0:0:
275,370,174522,5,2,2:2:0:0:
308,369,174620,1,2,2:2:0:0:
343,349,174717,1,2,2:2:0:0:
357,305,174815,1,2,2:2:0:0:
331,262,174912,22,0,B|277:265|256:324|256:324|272:224|375:221|375:221|386:267|435:270,1,350,4|0,3:2|0:0,0:0:0:0:
496,239,175691,2,0,B|487:196|522:145|522:145|491:197|428:201,1,200,10|2,2:2|2:2,0:0:0:0:
258,286,176470,6,0,P|237:216|328:266,1,239.999992675781,2|2,3:2|2:2,0:0:0:0:
272,384,177055,22,0,L|225:374,2,33.3333333333333,8|8|8,2:2|2:2|2:2,0:0:0:0:
309,369,177250,6,0,L|42:312,1,239.999992675781,8|2,2:2|2:2,0:0:0:0:
18,227,177834,21,0,3:3:0:0:
18,227,177931,1,0,3:3:0:0:
18,227,178029,2,0,P|33:161|98:179,1,150,2|0,3:2|0:0,0:0:0:0:
140,241,178418,2,0,P|186:250|211:210,1,100,2|0,2:2|0:0,0:0:0:0:
149,41,178808,1,8,2:2:0:0:
221,130,179003,2,0,P|183:120|147:114,1,75.0000028610231,0|2,3:3|2:2,0:0:0:0:
384,68,179587,6,0,B|370:22|297:-6|261:63|261:63|285:76|294:100,1,200,2|0,3:2|0:0,0:0:0:0:
450,160,180172,22,0,L|456:128,2,25.0000009536744,10|8|8,2:2|2:2|2:2,0:0:0:0:
466,190,180367,6,0,L|486:92,1,100,10|0,2:2|3:3,0:0:0:0:
302,175,180756,2,0,B|316:216|354:202|354:202|330:195|319:174,1,100,8|0,2:2|0:0,0:0:0:0:
374,127,181048,1,0,3:3:0:0:
374,127,181146,21,4,3:2:0:0:
289,89,181341,1,0,3:3:0:0:
221,141,181535,1,2,3:2:0:0:
231,222,181730,1,0,3:3:0:0:
203,144,181925,5,10,3:2:0:0:
222,235,182120,1,0,3:3:0:0:
311,251,182315,1,2,3:2:0:0:
378,192,182509,1,0,3:3:0:0:
416,49,182704,22,0,P|458:29|488:64,1,100,6|0,3:2|3:3,0:0:0:0:
434,124,183094,1,2,3:2:0:0:
342,19,183289,1,0,3:3:0:0:
203,144,183483,5,12,3:2:0:0:
96,63,183678,1,0,3:3:0:0:
175,73,183873,1,2,3:2:0:0:
228,14,184068,1,0,3:3:0:0:
83,155,184263,21,6,3:2:0:0:
89,206,184360,1,0,3:3:0:0:
138,231,184457,1,0,3:3:0:0:
186,226,184555,1,0,3:3:0:0:
217,242,184652,1,6,3:2:0:0:
226,263,184750,1,0,3:3:0:0:
224,282,184847,1,0,3:3:0:0:
216,294,184944,1,0,3:3:0:0:
206,298,185042,2,0,P|188:291|174:279,3,37.5000014305115,14|0|0|0,3:2|3:3|3:3|3:3,0:0:0:0:
285,368,185431,5,6,3:2:0:0:
307,338,185528,1,0,3:3:0:0:
339,319,185625,1,0,3:3:0:0:
376,314,185723,1,0,3:3:0:0:
412,323,185821,22,0,L|419:359,1,37.5000014305115,6|0,3:2|0:0,0:0:0:0:
489,270,186016,2,0,L|496:306,1,37.5000014305115,0|0,3:3|0:0,0:0:0:0:
402,234,186211,5,0,3:3:0:0:
401,213,186341,2,0,P|415:193|438:183,1,50.0000019073487,0|0,3:3|3:3,0:0:0:0:
493,128,186600,22,0,P|483:119|472:113,2,25.0000009536744,0|0|0,3:3|0:0|0:0,0:0:0:0:
442,46,186795,6,0,P|430:49|419:56,2,25.0000009536744,0|0|0,3:3|3:3|3:3,0:0:0:0:
346,39,186990,22,0,P|342:57|345:75,1,37.5000014305115,6|2,3:2|2:2,0:0:0:0:
266,82,187185,2,0,P|268:63|265:45,1,37.5000014305115,2|2,2:2|2:2,0:0:0:0:
145,74,187379,22,0,P|276:100|395:127,1,255.000004863739,4|0,3:2|0:0,0:0:0:0:
113,175,187769,1,10,3:2:0:0:
113,175,187867,2,0,P|83:180|54:187,1,59.9999981689454,2|2,2:2|2:2,0:0:0:0:
7,115,188061,2,0,P|36:108|65:102,1,59.9999981689454,2|0,2:2|3:3,0:0:0:0:
274,89,188256,5,2,2:2:0:0:
274,89,188354,1,2,2:2:0:0:
274,89,188451,2,0,P|268:121|261:147,1,59.9999981689454,2|8,2:2|3:2,0:0:0:0:
341,165,188646,1,2,2:2:0:0:
341,165,188744,1,2,2:2:0:0:
341,165,188841,2,0,P|346:132|353:106,2,59.9999981689454,2|0|0,2:2|3:3|0:0,0:0:0:0:
283,221,189133,21,2,2:2:0:0:
361,244,189230,2,0,P|389:236|410:212,1,59.9999981689454,2|8,2:2|3:2,0:0:0:0:
485,255,189425,2,0,P|478:283|487:311,1,59.9999981689454,2|2,2:2|2:2,0:0:0:0:
412,356,189620,2,0,P|392:335|363:330,1,59.9999981689454,2|0,2:2|3:3,0:0:0:0:
251,367,189815,1,2,2:2:0:0:
229,369,189912,5,2,2:2:0:0:
197,334,190009,1,2,2:2:0:0:
207,287,190107,1,10,3:2:0:0:
257,269,190204,1,2,2:2:0:0:
282,283,190302,1,2,2:2:0:0:
290,299,190399,1,2,2:2:0:0:
290,312,190496,22,0,P|260:304|231:299,1,59.9999981689454,0|0,3:3|0:0,0:0:0:0:
80,291,190691,1,2,2:2:0:0:
91,290,190789,2,0,P|115:272|127:245,1,59.9999981689454,0|8,0:0|3:2,0:0:0:0:
15,136,190983,2,0,P|29:162|61:178,1,59.9999981689454,2|2,2:2|2:2,0:0:0:0:
124,110,191178,2,0,P|109:83|78:68,1,59.9999981689454,2|0,2:2|3:3,0:0:0:0:
212,182,191373,5,2,2:2:0:0:
212,182,191470,1,2,2:2:0:0:
212,182,191568,2,0,P|230:158|257:147,1,59.9999981689454,2|8,2:2|3:2,0:0:0:0:
267,65,191763,1,2,2:2:0:0:
267,65,191860,1,2,2:2:0:0:
267,65,191958,2,0,P|296:69|319:87,2,59.9999981689454,2|0|2,2:2|3:3|2:2,0:0:0:0:
339,163,192250,21,2,2:2:0:0:
416,128,192347,2,0,P|443:117|459:92,1,59.9999981689454,2|8,2:2|3:2,0:0:0:0:
376,18,192542,2,0,P|381:36|391:51,1,37.5000014305115,2|0,2:2|0:0,0:0:0:0:
468,205,192737,1,2,2:2:0:0:
468,205,192834,2,0,P|484:180|512:169,1,59.9999981689454,0|2,3:3|2:2,0:0:0:0:
452,326,193029,5,2,2:2:0:0:
397,318,193126,1,2,2:2:0:0:
369,272,193224,1,10,3:2:0:0:
328,244,193321,1,2,2:2:0:0:
288,241,193418,1,2,2:2:0:0:
257,260,193516,1,2,2:2:0:0:
249,282,193613,22,0,P|271:261|283:234,1,59.9999981689454,0|0,3:3|0:0,0:0:0:0:
231,92,193808,5,2,2:2:0:0:
184,150,193905,2,0,P|191:179|197:209,2,59.9999981689454,2|8|2,2:2|3:2|2:2,0:0:0:0:
78,286,194198,1,2,2:2:0:0:
125,228,194295,2,0,P|118:199|112:169,1,59.9999981689454,2|0,2:2|3:3,0:0:0:0:
58,83,194490,21,2,2:2:0:0:
58,83,194587,1,2,2:2:0:0:
58,83,194685,2,0,P|28:75|0:70,1,59.9999981689454,2|8,2:2|3:2,0:0:0:0:
165,26,194879,1,2,2:2:0:0:
165,26,194976,1,2,2:2:0:0:
165,26,195074,2,0,P|135:18|106:13,2,59.9999981689454,2|0|2,2:2|3:3|2:2,0:0:0:0:
309,78,195367,5,2,2:2:0:0:
243,33,195464,2,0,L|231:92,1,59.9999981689454,2|8,2:2|3:2,0:0:0:0:
282,234,195659,2,0,P|303:214|332:207,1,59.9999981689454,2|2,2:2|2:2,0:0:0:0:
407,124,195854,2,0,P|435:133|455:154,1,59.9999981689454,2|0,2:2|3:3,0:0:0:0:
490,339,196048,1,2,2:2:0:0:
474,343,196146,21,2,2:2:0:0:
428,325,196243,1,2,2:2:0:0:
417,272,196341,1,10,3:2:0:0:
441,232,196438,1,2,2:2:0:0:
479,223,196535,1,2,2:2:0:0:
500,229,196633,1,2,2:2:0:0:
512,241,196730,6,0,P|483:249|455:261,1,59.9999981689454,0|2,3:3|2:2,0:0:0:0:
327,367,196925,1,2,2:2:0:0:
323,359,197022,2,0,P|328:330|335:300,1,59.9999981689454,2|8,2:2|3:2,0:0:0:0:
207,238,197217,2,0,P|220:264|246:278,1,59.9999981689454,2|2,2:2|2:2,0:0:0:0:
314,210,197412,2,0,P|300:183|274:169,1,59.9999981689454,2|0,2:2|3:3,0:0:0:0:
138,140,197607,21,2,2:2:0:0:
138,140,197704,1,2,2:2:0:0:
138,140,197802,2,0,P|131:109|125:81,1,59.9999981689454,2|8,2:2|3:2,0:0:0:0:
36,67,197996,1,2,2:2:0:0:
36,67,198094,2,0,P|43:98|49:126,1,59.9999981689454,2|2,2:2|2:2,0:0:0:0:
42,288,198289,6,0,B|18:298|-7:273|-2:247|-2:247|13:274|38:273,1,112.500004291535,2|0,3:2|0:0,0:0:0:0:
60,206,198678,22,0,P|136:219|206:237,1,150.000005722046,6|0,3:2|0:0,0:0:0:0:
321,311,198970,6,0,P|293:238|274:168,1,150.000005722046,4|0,3:2|0:0,0:0:0:0:
282,33,199263,22,0,P|232:92|181:144,1,150.000005722046,4|2,3:2|2:2,0:0:0:0:
60,206,199555,6,0,P|136:219|206:237,1,150.000005722046,6|2,3:2|2:2,0:0:0:0:
345,320,199847,22,0,B|385:331|385:331|343:271|343:271|270:274|238:353,1,240,4|0,3:2|0:0,0:0:0:0:
175,377,200237,2,0,P|117:360|121:300,1,129.999994049073,10|0,3:2|0:0,0:0:0:0:
49,256,200529,1,0,0:0:0:0:
49,256,200626,2,0,B|82:252|113:267|113:267|137:235|173:228,1,129.999994049073,2|0,3:2|0:0,0:0:0:0:
255,176,200918,1,2,2:2:0:0:
255,176,201016,2,0,L|269:111,1,50,8|0,3:2|0:0,0:0:0:0:
111,23,201211,5,2,2:2:0:0:
111,23,201308,1,0,0:0:0:0:
111,23,201405,2,0,B|103:67|139:102|191:90|191:90|213:49|251:48,1,194.999991073609,0|0,3:3|0:0,0:0:0:0:
322,67,201795,1,10,3:2:0:0:
512,140,201990,1,2,2:2:0:0:
512,140,202087,1,2,2:2:0:0:
512,140,202185,2,0,L|444:128,1,50,2|2,3:3|2:3,0:0:0:0:
371,164,202379,21,2,2:2:0:0:
345,205,202477,1,2,2:2:0:0:
370,249,202574,1,10,3:2:0:0:
407,263,202672,1,2,2:2:0:0:
425,285,202769,1,2,2:2:0:0:
428,304,202867,1,2,2:2:0:0:
422,315,202964,6,0,B|430:297|446:286|446:286|390:285|372:345,1,139.999995727539,2|0,3:2|0:0,0:0:0:0:
305,384,203256,1,2,2:2:0:0:
305,384,203354,2,0,P|295:360|292:336,1,50,8|0,3:2|0:0,0:0:0:0:
217,201,203548,2,0,P|213:225|203:248,1,50,2|0,2:2|0:0,0:0:0:0:
151,310,203743,2,0,P|94:304|72:251,1,119.999996337891,2|0,3:2|0:0,0:0:0:0:
119,127,204035,1,2,2:3:0:0:
119,127,204133,2,0,B|165:86|165:86|141:154|133:220,1,179.999994506836,8|0,3:2|0:0,0:0:0:0:
25,184,204522,22,0,P|126:135|237:119,1,225.000008583069,2|0,3:2|0:0,0:0:0:0:
322,18,204912,2,0,B|298:27|296:56|296:56|331:89|322:134,1,119.999996337891,10|2,3:2|2:2,0:0:0:0:
281,201,205204,1,2,2:2:0:0:
293,217,205302,2,0,P|322:214|349:201,1,50,2|2,3:2|2:3,0:0:0:0:
406,80,205496,2,0,P|435:83|462:96,1,50,2|2,2:3|2:2,0:0:0:0:
438,262,205691,5,10,3:2:0:0:
435,246,205788,1,2,2:2:0:0:
432,230,205886,1,2,2:2:0:0:
429,214,205983,1,2,2:2:0:0:
426,198,206081,22,0,B|466:224|465:285|415:310|415:310|383:333|388:361,1,194.999991073609,2|0,3:2|0:0,0:0:0:0:
463,378,206470,1,10,3:2:0:0:
323,293,206665,2,0,P|313:316|308:340,1,50,2|2,2:2|2:2,0:0:0:0:
220,379,206860,2,0,P|230:304|259:235,1,150.000005722046,2|2,3:2|2:2,0:0:0:0:
266,243,207152,1,2,2:2:0:0:
266,243,207250,2,0,L|213:256,1,50,8|2,3:2|2:2,0:0:0:0:
124,108,207444,1,2,2:2:0:0:
52,213,207639,6,0,L|285:155,1,240,2|0,3:2|0:0,0:0:0:0:
359,138,208029,1,10,3:2:0:0:
259,61,208224,2,0,P|282:69|304:81,1,50,2|2,2:2|2:2,0:0:0:0:
423,182,208418,2,0,B|440:138|487:142|487:142|446:155|430:181,1,150.000005722046,2|2,3:2|2:2,0:0:0:0:
453,251,208711,1,2,2:2:0:0:
453,251,208808,2,0,P|474:263|498:271,1,50,10|2,3:2|2:2,0:0:0:0:
407,381,209003,21,2,2:2:0:0:
407,381,209100,1,2,2:2:0:0:
407,381,209198,2,0,P|396:317|369:257,1,129.999994049073,2|2,3:2|2:2,0:0:0:0:
306,218,209490,1,0,0:0:0:0:
306,218,209587,2,0,P|320:198|342:186,1,50,8|0,3:2|0:0,0:0:0:0:
453,251,209782,1,2,2:2:0:0:
300,343,209977,2,0,B|261:287|202:297|202:297|189:317|168:326,1,150.000005722046,2|2,3:2|2:2,0:0:0:0:
76,225,210269,1,2,2:2:0:0:
76,225,210367,2,0,P|104:234|128:252,1,59.9999981689454,8|0,3:2|0:0,0:0:0:0:
81,377,210561,5,2,2:2:0:0:
81,377,210659,1,0,0:0:0:0:
81,377,210756,2,0,L|92:323,1,50,2|0,3:2|0:0,0:0:0:0:
205,208,210951,1,2,2:2:0:0:
205,208,211048,1,2,2:2:0:0:
205,208,211146,2,0,L|179:50,1,150.000005722046,8|2,3:2|2:2,0:0:0:0:
187,68,211438,1,0,0:0:0:0:
187,68,211535,2,0,B|180:88|157:100|157:100|213:112|246:56|246:56|294:45|326:85,1,225.000008583069,0|0,3:3|0:0,0:0:0:0:
445,149,211925,21,10,3:2:0:0:
430,145,212022,1,2,2:3:0:0:
415,142,212119,1,2,2:3:0:0:
400,139,212217,1,2,2:3:0:0:
386,136,212314,1,6,2:2:0:0:
273,229,212704,22,0,L|294:217,3,20,2|2|2|2,2:3|2:3|2:3|2:3,0:0:0:0:
190,269,213094,2,0,L|191:244,3,20,6|2|2|2,2:2|2:3|2:3|2:3,0:0:0:0:
176,360,213483,2,0,L|157:345,3,20,2|2|2|2,2:3|2:3|2:3|2:3,0:0:0:0:
110,260,213873,21,6,2:2:0:0:
80,257,213970,1,2,2:3:0:0:
52,267,214067,1,2,2:3:0:0:
33,290,214165,1,2,2:3:0:0:
26,319,214263,2,0,L|38:342,3,20,6|2|2|2,2:2|2:3|2:3|2:3,0:0:0:0:
110,260,214652,5,6,2:2:0:0:
116,220,214749,1,2,2:3:0:0:
97,184,214847,1,2,2:3:0:0:
60,165,214944,1,2,2:3:0:0:
20,235,215042,22,0,B|6:213|6:213|46:92|46:92|31:69,1,179.999994506836,14|0,3:2|0:0,0:0:0:0:
86,13,215431,22,0,L|139:0,1,44.999998626709,2|0,3:2|0:0,0:0:0:0:
253,52,215821,6,0,L|121:84,1,129.999994049073,10|2,3:1|2:3,0:0:0:0:
60,165,216113,1,2,2:3:0:0:
60,165,216211,1,0,3:3:0:0:
60,165,216308,2,0,L|7:152,2,50,2|2|2,2:2|2:3|2:3,0:0:0:0:
179,284,216600,2,0,P|146:228|154:165,1,129.999994049073,10|2,3:1|2:2,0:0:0:0:
337,66,216990,6,0,L|348:17,1,50,0|2,3:3|2:2,0:0:0:0:
247,80,217185,2,0,P|252:104|265:125,1,50,2|2,2:2|2:2,0:0:0:0:
430,165,217379,2,0,P|425:141|412:120,1,50,10|2,3:1|2:2,0:0:0:0:
340,179,217574,2,0,L|329:228,1,50,2|2,2:2|2:2,0:0:0:0:
426,332,217769,21,2,3:2:0:0:
465,298,217867,1,2,2:3:0:0:
417,281,217964,1,2,2:3:0:0:
377,314,218061,1,2,2:3:0:0:
386,364,218159,2,0,L|416:375,6,25,0|0|0|0|0|0|0,3:3|0:0|0:0|0:0|0:0|0:0|0:0,0:0:0:0:
465,298,218548,6,0,L|289:338,1,179.999994506836,2|0,3:2|0:0,0:0:0:0:
162,384,218938,2,0,B|137:357|149:259|242:270|242:270|207:294|210:336,1,225.000008583069,12|0,3:2|0:0,0:0:0:0:
318,251,219328,22,0,P|321:237|329:212,2,25.0000009536744,2|2|2,3:2|2:2|2:2,0:0:0:0:
254,175,219522,6,0,P|267:169|292:162,2,25.0000009536744,2|2|2,2:2|2:2|2:2,0:0:0:0:
161,189,219717,22,0,B|116:128|38:135|38:135|71:100|118:117,1,225.000008583069,14|0,3:2|0:0,0:0:0:0:
97,235,220107,1,0,3:3:0:0:
97,235,220204,2,0,P|80:218|57:211,2,50,2|2|2,2:2|2:2|2:2,0:0:0:0:
21,299,220496,5,10,3:1:0:0:
55,285,220594,1,2,2:2:0:0:
94,283,220690,1,2,2:2:0:0:
129,269,220788,1,2,2:2:0:0:
167,267,220886,2,0,L|154:318,1,50,2|2,3:2|2:2,0:0:0:0:
268,384,221081,21,2,2:2:0:0:
289,374,221178,1,2,2:2:0:0:
304,349,221276,1,10,3:1:0:0:
326,310,221373,1,2,2:2:0:0:
372,288,221470,1,2,2:2:0:0:
427,312,221568,1,2,2:2:0:0:
449,380,221665,6,0,P|347:334|238:311,1,225.000008583069,2|2,3:2|2:3,0:0:0:0:
167,267,222055,2,0,P|172:211|234:188,1,119.999996337891,8|2,3:1|2:3,0:0:0:0:
305,163,222347,2,0,B|309:129|325:96|325:96|302:125|279:135,1,119.999996337891,2|2,2:3|2:3,0:0:0:0:
212,106,222639,2,0,P|189:97|159:92,1,50,0|2,0:0|2:3,0:0:0:0:
317,14,222834,2,0,P|373:29|404:79,1,119.999996337891,8|0,3:1|0:0,0:0:0:0:
455,151,223126,1,2,2:2:0:0:
455,151,223224,22,0,P|412:106|442:160,1,179.999994506836,0|2,3:3|2:2,0:0:0:0:
512,206,223613,1,10,3:1:0:0:
342,275,223808,2,0,P|368:262|401:254,1,50,2|2,2:2|2:2,0:0:0:0:
467,271,224003,1,2,3:2:0:0:
467,271,224100,2,0,P|480:297|488:330,2,50,2|2|2,2:3|2:2|2:2,0:0:0:0:
338,357,224392,2,0,P|314:349|291:338,1,50,10|2,3:3|2:3,0:0:0:0:
162,243,224587,5,2,2:2:0:0:
162,243,224685,1,0,0:0:0:0:
162,243,224782,2,0,B|194:202|194:202|247:243|247:243|195:381,1,259.999988098145,0|10,3:3|3:3,0:0:0:0:
26,268,225367,1,0,0:0:0:0:
26,268,225464,2,0,B|101:297|101:297|84:276|82:253,1,119.999996337891,2|2,2:3|2:3,0:0:0:0:
46,192,225756,2,0,B|0:174,1,50,2|2,2:2|2:2,0:0:0:0:
192,104,225951,22,0,L|220:92,2,25.0000009536744,10|2|2,3:1|2:2|2:2,0:0:0:0:
152,35,226146,6,0,L|155:5,2,25.0000009536744,2|2|2,2:2|2:2|2:2,0:0:0:0:
70,63,226341,22,0,B|102:79|102:79|298:40,1,225.000008583069,6|0,3:2|0:0,0:0:0:0:
375,130,226730,6,0,L|365:184,1,44.999998626709,2|0,3:2|0:0,0:0:0:0:
486,154,227120,22,0,B|454:170|454:170|258:131,1,225.000008583069,6|0,3:2|0:0,0:0:0:0:
180,173,227509,6,0,L|184:197,6,25,2|0|0|0|0|0|0,2:2|0:0|0:0|0:0|0:0|0:0|0:0,0:0:0:0:
107,273,227899,22,0,L|71:52,1,225.000008583069,6|0,3:2|0:0,0:0:0:0:
70,52,228289,2,0,P|34:97|46:153,1,119.999996337891,10|2,3:1|2:3,0:0:0:0:
46,153,228581,1,2,2:3:0:0:
46,153,228678,1,2,3:2:0:0:
185,243,228873,2,0,L|193:292,1,50,0|2,0:0|2:2,0:0:0:0:
75,356,229068,1,10,3:3:0:0:
65,367,229165,1,2,2:2:0:0:
55,378,229263,2,0,L|106:352,1,50,2|2,2:3|2:2,0:0:0:0:
185,243,229457,5,2,3:2:0:0:
231,231,229554,1,2,2:2:0:0:
278,237,229651,1,2,2:2:0:0:
320,261,229749,1,2,2:2:0:0:
351,297,229847,1,10,3:1:0:0:
378,328,229944,1,2,2:2:0:0:
413,349,230042,1,2,2:2:0:0:
453,354,230139,1,2,2:2:0:0:
494,346,230237,1,2,3:2:0:0:
512,315,230334,1,2,2:2:0:0:
509,289,230431,1,2,2:2:0:0:
495,277,230529,1,2,2:2:0:0:
484,277,230626,22,0,L|476:234,3,29.9999990844727,2|2|2|2,3:2|2:2|2:2|2:2,0:0:0:0:
365,145,231016,6,0,B|358:171|334:192|334:192|479:158,1,194.999991073609,2|0,3:2|0:0,0:0:0:0:
432,74,231405,2,0,B|417:67|420:28|445:11|474:16|474:16|433:-2|392:37|398:73|431:101,1,225.000008583069,12|0,3:2|0:0,0:0:0:0:
288,126,231795,22,0,L|245:113,2,25.0000009536744,2|2|2,3:2|2:2|2:2,0:0:0:0:
192,92,231990,6,0,L|149:105,2,25.0000009536744,2|2|2,2:2|2:2|2:2,0:0:0:0:
100,139,232185,22,0,B|137:115|198:134|197:211|137:230|137:230|116:214|90:214,1,209.999993591309,12|0,3:2|0:0,0:0:0:0:
242,234,232574,5,0,3:3:0:0:
253,237,232671,1,2,2:2:0:0:
265,240,232768,1,2,2:2:0:0:
275,247,232866,1,2,2:2:0:0:
233,308,232964,22,0,B|211:344|211:344|355:311,1,150.000005722046,6|2,3:2|2:2,0:0:0:0:
436,378,233256,2,0,P|407:367|374:340,1,50,6|2,3:2|2:2,0:0:0:0:
329,169,233451,1,10,2:2:0:0:
329,169,233548,2,0,P|340:198|367:231,1,50,6|10,3:2|2:2,0:0:0:0:
433,287,233743,1,10,2:2:0:0:
455,245,233840,1,2,2:2:0:0:
446,200,233937,1,2,2:2:0:0:
468,158,234035,1,10,2:2:0:0:
460,113,234133,6,0,B|472:80|512:65|512:65|419:95|419:95|382:107|360:81,1,225.000008583069,6|0,3:2|0:0,0:0:0:0:
244,41,234522,2,0,B|283:48|327:14|327:14|271:50|289:118,1,179.999994506836,10|2,3:1|2:3,0:0:0:0:
329,169,234912,2,0,P|238:117|142:133,1,179.999994506836,2|2,3:2|2:3,0:0:0:0:
88,154,235302,2,0,P|65:124|67:85,1,59.9999981689454,8|2,3:1|2:3,0:0:0:0:
152,0,235496,2,0,P|129:30|131:69,1,59.9999981689454,2|2,2:2|2:2,0:0:0:0:
153,205,235691,22,0,P|214:187|245:132,1,129.999994049073,0|2,3:3|2:2,0:0:0:0:
251,140,235983,1,2,2:2:0:0:
251,140,236081,2,0,P|257:164|268:186,1,50,10|0,3:1|0:0,0:0:0:0:
425,117,236276,2,0,P|401:123|379:134,1,50,2|2,2:2|2:2,0:0:0:0:
315,282,236471,5,2,3:3:0:0:
360,256,236568,1,2,2:3:0:0:
405,282,236666,1,2,2:2:0:0:
405,333,236763,1,2,2:2:0:0:
360,307,236860,21,10,3:3:0:0:
405,282,236957,1,2,2:3:0:0:
450,307,237055,1,2,2:2:0:0:
450,359,237152,1,0,0:0:0:0:
404,384,237250,6,0,P|302:330|187:331,1,225.000008583069,4|2,3:2|2:3,0:0:0:0:
131,380,237639,1,8,3:1:0:0:
112,339,237736,1,2,2:3:0:0:
118,295,237833,1,2,2:3:0:0:
147,261,237931,1,2,2:3:0:0:
189,247,238029,2,0,P|195:222|198:197,1,50,0|2,3:3|2:3,0:0:0:0:
19,144,238224,2,0,P|23:114|33:82,1,50,2|2,2:2|2:2,0:0:0:0:
142,2,238418,22,0,L|149:27,2,25.0000009536744,10|2|2,3:1|2:2|2:2,0:0:0:0:
111,99,238613,6,0,L|134:111,2,25.0000009536744,2|2|2,2:2|2:2|2:2,0:0:0:0:
179,201,238808,22,0,L|439:147,1,225.000008583069,6|0,3:2|0:0,0:0:0:0:
492,63,239198,2,0,B|490:40|507:13|507:13|434:71|434:71|478:93|484:133,1,225.000008583069,2|0,3:2|0:0,0:0:0:0:
462,253,239587,2,0,B|453:313|396:320|396:320|387:281|409:246|409:246|445:241|466:212,1,240,6|0,3:2|0:0,0:0:0:0:
399,155,239977,6,0,L|366:148,6,25,2|0|2|0|2|0|2,2:3|0:0|2:3|0:0|2:3|0:0|2:3,0:0:0:0:
310,74,240367,6,0,L|258:91,1,44.999998626709,2|0,3:2|0:0,0:0:0:0:
293,196,240756,6,0,L|72:150,1,225.000008583069,4|2,3:2|2:3,0:0:0:0:
15,101,241146,1,0,3:3:0:0:
15,101,241243,2,0,B|14:76|1:39|1:39|21:67|56:87,1,119.999996337891,2|0,2:2|0:0,0:0:0:0:
104,179,241535,2,0,L|55:168,3,50,10|0|2|0,3:3|0:0|2:3|0:0,0:0:0:0:
0,226,241925,5,2,3:3:0:0:
0,226,242120,1,2,2:3:0:0:
114,338,242315,2,0,P|135:271|158:241,1,100,8|0,3:1|0:0,0:0:0:0:
152,247,242607,1,0,0:0:0:0:
152,247,242704,1,0,3:3:0:0:
291,369,242899,1,2,2:2:0:0:
291,369,242996,2,0,P|296:344|310:323,1,50,0|8,0:0|3:1,0:0:0:0:
370,270,243191,2,0,P|386:207|322:217,1,129.999994049073,2|0,2:2|0:0,0:0:0:0:
266,162,243483,21,0,3:3:0:0:
263,155,243581,1,2,2:3:0:0:
260,148,243678,1,0,0:0:0:0:
258,141,243776,1,2,2:3:0:0:
217,124,243873,6,0,B|303:97|303:97|334:116|334:116|373:105,1,165.000005035401,8|2,3:1|2:3,0:0:0:0:
424,43,244263,2,0,P|441:4|411:34,1,120,0|2,3:3|2:3,0:0:0:0:
383,121,244652,22,0,B|338:133|338:133|302:111|302:111|201:143,1,194.999991073609,10|0,3:3|0:0,0:0:0:0:
109,166,245042,5,0,3:3:0:0:
109,166,245139,2,0,L|123:114,2,50,2|2|2,2:2|2:2|2:2,0:0:0:0:
29,195,245431,21,10,3:1:0:0:
18,217,245529,1,2,2:2:0:0:
25,245,245626,1,2,2:2:0:0:
50,263,245724,1,2,2:2:0:0:
95,261,245821,1,2,3:2:0:0:
140,277,245918,1,2,2:2:0:0:
158,322,246016,1,2,2:2:0:0:
132,369,246113,1,2,2:2:0:0:
81,380,246211,2,0,P|85:341|98:322,3,50,10|2|2|2,3:1|2:2|2:2|2:2,0:0:0:0:
209,245,246600,6,0,P|298:254|380:288,1,179.999994506836,0|2,3:3|2:3,0:0:0:0:
505,332,246990,2,0,B|467:316|433:361|433:361|484:305|448:252,1,179.999994506836,10|2,3:1|2:3,0:0:0:0:
404,209,247379,1,0,3:3:0:0:
505,80,247574,1,2,2:3:0:0:
505,80,247672,1,2,2:3:0:0:
505,80,247769,2,0,B|476:56|476:56|390:80,1,119.999996337891,8|2,3:1|2:3,0:0:0:0:
349,145,248061,1,2,2:3:0:0:
349,145,248159,22,0,L|238:123,2,100,0|2|8,3:3|2:3|3:1,0:0:0:0:
177,213,248743,2,0,B|225:199,1,50,2|0,2:3|0:0,0:0:0:0:
62,135,248938,1,0,3:3:0:0:
154,94,249133,2,0,L|136:158,2,50,2|0|8,2:2|0:0|3:1,0:0:0:0:
79,212,249425,2,0,L|107:337,1,119.999996337891,2|0,2:2|0:0,0:0:0:0:
10,384,249717,6,0,L|29:323,3,50,0|2|2|2,3:3|2:3|2:3|2:3,0:0:0:0:
115,310,250107,2,0,B|175:297|175:297|199:315|199:315|216:310,1,110.000003356934,8|0,3:1|0:0,0:0:0:0:
271,370,250399,1,2,2:3:0:0:
271,370,250496,1,0,3:3:0:0:
377,256,250691,2,0,L|323:242,1,50,2|0,2:2|0:0,0:0:0:0:
281,177,250886,1,8,3:1:0:0:
281,177,251081,1,2,2:3:0:0:
242,65,251276,21,0,3:3:0:0:
242,65,251665,5,8,3:1:0:0:
242,65,252055,21,2,3:3:0:0:
173,122,252250,5,2,2:2:0:0:
173,122,252347,2,0,L|54:152,1,100,2|0,2:2|0:0,0:0:0:0:
76,146,252639,2,0,L|86:98,1,40,2|0,2:2|0:0,0:0:0:0:
41,238,252834,22,0,L|254:184,1,220.000006713867,4|8,3:2|3:1,0:0:0:0:
330,88,253418,2,0,L|318:131,1,44.999998626709,2|2,2:3|2:3,0:0:0:0:
310,244,253613,2,0,B|343:194|391:198|391:198|408:219|438:232,1,134.999995880127,2|2,3:3|2:3,0:0:0:0:
464,157,254003,2,0,P|502:118|486:64,1,89.9999972534181,10|2,3:3|2:3,0:0:0:0:
507,268,254392,5,2,3:3:0:0:
507,268,254490,1,2,2:3:0:0:
507,268,254587,1,2,2:3:0:0:
507,268,254685,1,2,2:3:0:0:
507,268,254782,2,0,P|509:312|411:341,1,165.000005035401,10|0,3:3|0:0,0:0:0:0:
346,379,255172,1,2,3:3:0:0:
269,306,255367,2,0,L|280:369,2,44.999998626709,2|0|8,2:2|0:0|3:1,0:0:0:0:
257,226,255659,2,0,L|345:241,1,89.9999972534181,2|0,2:2|0:0,0:0:0:0:
345,241,255951,21,2,3:3:0:0:
258,364,256146,2,0,L|247:300,1,64.9999970245363,2|0,2:2|0:0,0:0:0:0:
187,184,256341,1,8,3:1:0:0:
184,196,256438,1,2,2:2:0:0:
182,209,256535,1,2,2:3:0:0:
180,222,256633,1,2,2:3:0:0:
178,235,256730,2,0,P|104:266|82:326,1,134.999995880127,2|2,3:3|2:3,0:0:0:0:
82,312,257120,2,0,P|74:268|47:232,1,89.9999972534181,8|2,3:1|2:3,0:0:0:0:
81,76,257509,5,0,3:3:0:0:
81,76,257607,2,0,L|96:26,2,44.999998626709,2|2|2,2:2|2:2|2:2,0:0:0:0:
17,116,257899,21,10,3:1:0:0:
31,112,257996,1,2,2:2:0:0:
46,109,258093,1,2,2:2:0:0:
60,106,258191,1,2,2:2:0:0:
88,126,258289,5,2,3:2:0:0:
105,121,258386,1,2,2:2:0:0:
124,117,258483,1,2,2:2:0:0:
141,113,258581,1,2,2:2:0:0:
174,140,258678,21,10,3:1:0:0:
199,132,258775,1,2,2:2:0:0:
224,124,258873,1,2,2:2:0:0:
249,116,258970,1,2,2:2:0:0:
288,139,259068,6,0,B|305:172|305:172|267:255|267:255|286:290,1,165.000005035401,2|0,3:3|0:0,0:0:0:0:
338,347,259457,2,0,B|351:378|351:378|393:333|393:333|351:247,1,179.999994506836,8|0,3:1|3:3,0:0:0:0:
434,174,260042,2,0,L|421:224,2,44.999998626709,0|2|8,0:0|2:3|3:1,0:0:0:0:
504,138,260431,1,2,2:3:0:0:
459,51,260626,22,0,L|385:67,1,75.0000028610231,2|2,3:3|2:3,0:0:0:0:
323,24,261016,2,0,L|215:0,1,110.000003356934,8|0,3:1|0:0,0:0:0:0:
44,76,261405,1,2,3:3:0:0:
131,107,261600,2,0,L|143:55,2,44.999998626709,2|2|10,2:2|2:3|3:3,0:0:0:0:
63,160,261892,2,0,L|82:271,1,89.9999972534181,2|2,2:2|2:3,0:0:0:0:
133,311,262185,6,0,P|155:252|75:253,1,165.000005035401,0|0,3:3|0:0,0:0:0:0:
92,377,262574,1,10,3:1:0:0:
92,377,262672,2,0,P|147:340|214:339,1,134.999995880127,0|0,0:0|3:3,0:0:0:0:
301,260,263159,2,0,P|286:281|278:311,2,44.999998626709,2|2|8,2:2|2:3|3:1,0:0:0:0:
374,232,263548,1,2,2:3:0:0:
449,358,263743,22,0,L|427:269,1,75.0000028610231,0|2,3:3|2:3,0:0:0:0:
366,223,264133,2,0,L|392:116,1,110.000003356934,10|2,3:3|2:3,0:0:0:0:
464,22,264522,5,2,3:3:0:0:
464,22,264912,1,2,2:3:0:0:
464,22,265302,1,0,0:0:0:0:
