osu file format v14

[General]
AudioFilename: audio.mp3
AudioLeadIn: 0
PreviewTime: 111736
Countdown: 0
SampleSet: Soft
StackLeniency: 0.3
Mode: 0
LetterboxInBreaks: 0
WidescreenStoryboard: 1

[Editor]
Bookmarks: 684,10736,15762,35867,43406,48275,58484,68536,79845,89898,94924,99950,107489,112043,112358,122567,132619,143928,153981,158850,169059,178954,199216,209112
DistanceSpacing: 0.3
BeatDivisor: 4
GridSize: 4
TimelineZoom: 2

[Metadata]
Title:Sincuvate
TitleUnicode:Sincuvate
Artist:Endorfin. & Feryquitous
ArtistUnicode:Endorfin. & Feryquitous
Creator:Sagon
Version:Lince's Insane
Source:
Tags:Sincuvate 藍月なくる Aitsuki Nakuru sky_delta Electronic Japanese drum and bass C90 comiket diverse system EDCD-0002 dnb coco LeeGod Lince Cosmico Kibbleru cococolaco Kalibe Irohas Chekito mugiwarasekai loli catgirl
BeatmapID:4391169
BeatmapSetID:1382661

[Difficulty]
HPDrainRate:5
CircleSize:4
OverallDifficulty:7
ApproachRate:9
SliderMultiplier:1.82
SliderTickRate:1

[Events]
//Background and Video events
0,0,"77971472_p0.jpg",0,0
//Break Periods
2,95124,99350
2,199416,203642
//Storyboard Layer 0 (Background)
//Storyboard Layer 1 (Fail)
//Storyboard Layer 2 (Pass)
//Storyboard Layer 3 (Foreground)
//Storyboard Layer 4 (Overlay)
//Storyboard Sound Samples

[TimingPoints]
684,314.13612565445,4,2,1,45,1,0
684,-142.857142857143,4,2,1,45,0,0
5867,-142.857142857143,4,2,1,70,0,0
6024,-142.857142857143,4,2,1,50,0,0
9636,-125,4,2,1,50,0,0
10736,-166.666666666667,4,2,1,50,0,0
12621,-133.333333333334,4,2,1,50,0,0
15291,-133.333333333334,4,2,1,70,0,0
15762,-90.9090909090909,4,2,1,70,0,0
16311,-90.9090909090909,4,2,1,5,0,0
16390,-90.9090909090909,4,2,1,70,0,0
16547,-90.9090909090909,4,2,1,70,0,0
17176,-90.9090909090909,4,2,2,70,0,0
17490,-90.9090909090909,4,2,1,70,0,0
17725,-90.9090909090909,4,2,1,70,0,0
17804,-90.9090909090909,4,2,1,70,0,0
18118,-90.9090909090909,4,2,1,70,0,0
18275,-90.9090909090909,4,2,1,70,0,0
18825,-90.9090909090909,4,2,1,70,0,0
19060,-90.9090909090909,4,2,1,70,0,0
20631,-90.9090909090909,4,2,1,5,0,0
20710,-90.9090909090909,4,2,1,70,0,0
21966,-90.9090909090909,4,2,1,5,0,0
22045,-90.9090909090909,4,2,2,70,0,0
22673,-90.9090909090909,4,2,1,70,0,0
23144,-90.9090909090909,4,2,1,5,0,0
23301,-90.9090909090909,4,2,1,70,0,0
25343,-90.9090909090909,4,2,1,70,0,0
25500,-90.9090909090909,4,2,1,70,0,0
26678,-90.9090909090909,4,2,1,70,0,0
26757,-90.9090909090909,4,2,1,70,0,0
26914,-90.9090909090909,4,2,1,5,0,0
27071,-90.9090909090909,4,2,1,70,0,0
27228,-90.9090909090909,4,2,2,70,0,0
27542,-90.9090909090909,4,2,1,70,0,0
28170,-90.9090909090909,4,2,1,70,0,0
28249,-90.9090909090909,4,2,1,70,0,0
30762,-90.9090909090909,4,2,1,70,0,0
30841,-90.9090909090909,4,2,1,70,0,0
32254,-90.9090909090909,4,2,2,70,0,0
32568,-90.9090909090909,4,2,1,70,0,0
32804,-90.9090909090909,4,2,1,70,0,0
32882,-90.9090909090909,4,2,1,70,0,0
33197,-90.9090909090909,4,2,1,5,0,0
33354,-90.9090909090909,4,2,1,70,0,0
33668,-90.9090909090909,4,2,2,70,0,0
34139,-90.9090909090909,4,2,1,70,0,0
34453,-90.9090909090909,4,2,1,70,0,0
34532,-90.9090909090909,4,2,1,70,0,0
35238,-90.9090909090909,4,2,1,70,0,0
35316,-90.9090909090909,4,2,1,70,0,0
35395,-90.9090909090909,4,2,1,70,0,0
35553,-90.9090909090909,4,2,1,70,0,0
35867,314.13612565445,6,2,1,70,1,0
35867,-125,4,2,1,70,0,0
36338,-125,4,2,1,5,0,0
36495,-125,4,2,1,70,0,0
38380,-125,4,2,1,70,0,0
40421,-125,4,2,1,5,0,0
40579,-125,4,2,1,70,0,0
41678,-125,4,2,1,5,0,0
41835,-125,4,2,1,70,0,0
42463,-200,4,2,1,70,0,0
43248,-200,4,2,1,75,0,0
43406,314.13612565445,4,2,1,75,1,0
44505,-100,4,2,1,5,0,0
44662,-100,4,2,1,75,0,0
45290,-100,4,2,1,70,0,0
45447,-100,4,2,1,75,0,0
45761,-100,4,2,1,5,0,0
45919,-100,4,2,1,75,0,0
46547,-100,4,2,1,70,0,0
46704,-76.9230769230769,4,2,1,75,0,0
47332,-76.9230769230769,4,2,2,75,0,0
47803,-166.666666666667,4,2,1,70,0,0
48196,-166.666666666667,4,2,1,70,0,0
48275,-90.9090909090909,4,2,1,80,0,0
52594,-90.9090909090909,4,2,1,70,0,0
52673,-90.9090909090909,4,2,1,80,0,0
57384,-90.9090909090909,4,2,2,80,0,0
57856,-90.9090909090909,4,2,1,80,0,0
58484,-80,4,2,1,80,0,0
59034,-80,4,2,1,70,0,0
59269,-80,4,2,1,80,0,0
59583,-80,4,2,1,5,0,0
59741,-80,4,2,1,80,0,0
62411,-80,4,2,2,80,0,0
62882,-80,4,2,1,80,0,0
63196,-100,4,2,1,80,0,0
63510,-80,4,2,1,80,0,0
63902,-80,4,2,1,70,0,0
64295,-80,4,2,1,80,0,0
64610,-80,4,2,1,5,0,0
64767,-80,4,2,1,80,0,0
65238,-80,4,2,1,5,0,0
65395,-80,4,2,1,80,0,0
65944,-80,4,2,1,80,0,0
67280,-80,4,2,2,80,0,0
67908,-68.9655172413793,4,2,1,80,0,0
68536,-76.9230769230769,4,2,1,75,0,0
71521,-71.4285714285714,4,2,1,75,0,0
71835,-71.4285714285714,4,2,2,75,0,0
72149,-71.4285714285714,4,2,1,70,0,0
72306,-76.9230769230769,4,2,2,75,0,0
72777,-76.9230769230769,4,2,1,75,0,0
72934,-100,4,2,1,70,0,0
73012,-76.9230769230769,4,2,1,75,0,0
74191,-76.9230769230769,4,2,1,70,0,0
74348,-76.9230769230769,4,2,1,75,0,0
75290,-76.9230769230769,4,2,1,70,0,0
75525,-76.9230769230769,4,2,1,5,0,0
75604,-71.4285714285714,4,2,1,75,0,0
76861,-71.4285714285714,4,2,2,75,0,0
77175,-71.4285714285714,4,2,1,70,0,0
77332,-76.9230769230769,4,2,1,75,0,0
77489,-76.9230769230769,4,2,2,75,0,0
77960,-76.9230769230769,4,2,1,75,0,0
79374,-142.857142857143,4,2,1,70,0,0
79845,-83.3333333333333,4,2,1,70,0,0
81102,-83.3333333333333,4,2,1,70,0,0
81259,-83.3333333333333,4,2,1,70,0,0
81416,-83.3333333333333,4,2,2,70,0,0
81573,-83.3333333333333,4,2,2,70,0,0
81730,-83.3333333333333,4,2,1,70,0,0
81887,-83.3333333333333,4,2,1,70,0,0
82201,-83.3333333333333,4,2,2,70,0,0
82358,-83.3333333333333,4,2,1,70,0,0
83615,-83.3333333333333,4,2,1,70,0,0
83772,-83.3333333333333,4,2,1,70,0,0
83929,-83.3333333333333,4,2,1,70,0,0
84086,-83.3333333333333,4,2,1,70,0,0
86128,-83.3333333333333,4,2,1,70,0,0
86285,-83.3333333333333,4,2,1,70,0,0
86442,-83.3333333333333,4,2,1,70,0,0
86599,-83.3333333333333,4,2,1,70,0,0
88641,-83.3333333333333,4,2,1,70,0,0
88798,-83.3333333333333,4,2,1,70,0,0
89898,-90.9090909090909,4,2,1,70,0,0
90447,-90.9090909090909,4,2,1,5,0,0
90526,-90.9090909090909,4,2,1,70,0,0
90683,-90.9090909090909,4,2,1,70,0,0
91311,-90.9090909090909,4,2,2,70,0,0
91625,-90.9090909090909,4,2,1,70,0,0
91860,-90.9090909090909,4,2,1,70,0,0
91939,-90.9090909090909,4,2,1,70,0,0
92254,-90.9090909090909,4,2,1,5,0,0
92411,-90.9090909090909,4,2,1,70,0,0
93510,-90.9090909090909,4,2,1,5,0,0
93667,-90.9090909090909,4,2,1,70,0,0
94767,-90.9090909090909,4,2,1,5,0,0
94845,-90.9090909090909,4,2,1,70,0,0
99950,314.13612565445,6,2,1,70,1,0
99950,-125,4,2,1,70,0,0
100421,-125,4,2,1,5,0,0
100578,-125,4,2,1,70,0,0
101991,-125,4,2,1,5,0,0
102148,-125,4,2,1,70,0,0
102463,-125,4,2,1,70,0,0
104504,-125,4,2,1,5,0,0
104662,-125,4,2,1,70,0,0
105761,-125,4,2,1,5,0,0
105918,-125,4,2,1,70,0,0
106546,-200,4,2,1,70,0,0
107331,-200,4,2,1,75,0,0
107489,314.13612565445,4,2,1,75,1,0
108588,-100,4,2,1,5,0,0
108745,-100,4,2,1,75,0,0
109373,-100,4,2,1,70,0,0
109530,-100,4,2,1,75,0,0
110630,-100,4,2,1,70,0,0
110787,-76.9230769230769,4,2,1,75,0,0
111258,-76.9230769230769,4,2,2,75,0,0
111886,-100,4,2,1,75,0,0
112358,-90.9090909090909,4,2,1,80,0,0
120525,-90.9090909090909,4,2,1,5,0,0
120682,-90.9090909090909,4,2,1,80,0,0
121467,-90.9090909090909,4,2,2,80,0,0
121939,-90.9090909090909,4,2,1,80,0,0
122567,-83.3333333333333,4,2,1,80,0,0
123117,-83.3333333333333,4,2,1,70,0,0
123352,-83.3333333333333,4,2,1,80,0,0
123666,-83.3333333333333,4,2,1,70,0,0
123824,-83.3333333333333,4,2,1,80,0,0
126494,-83.3333333333333,4,2,2,80,0,0
126965,-83.3333333333333,4,2,1,80,0,0
127279,-100,4,2,1,80,0,0
127593,-83.3333333333333,4,2,1,80,0,0
127985,-83.3333333333333,4,2,1,70,0,0
127988,-83.3333333333333,4,2,1,70,0,0
128378,-83.3333333333333,4,2,1,80,0,0
128693,-83.3333333333333,4,2,1,70,0,0
128850,-83.3333333333333,4,2,1,80,0,0
129321,-83.3333333333333,4,2,1,70,0,0
129478,-83.3333333333333,4,2,1,80,0,0
129949,-83.3333333333333,4,2,1,70,0,0
130028,-83.3333333333333,4,2,1,80,0,0
131677,-83.3333333333333,4,2,2,80,0,0
131991,-66.6666666666667,4,2,1,80,0,0
132776,-66.6666666666667,4,2,1,70,0,0
133248,-133.333333333333,4,2,10,70,0,0
133326,-133.333333333333,4,2,11,70,0,0
133405,-133.333333333333,4,2,10,70,0,0
133483,-133.333333333333,4,2,12,70,0,0
133562,-133.333333333333,4,2,13,70,0,0
133640,-133.333333333333,4,2,14,70,0,0
133719,-133.333333333333,4,2,15,70,0,0
133797,-133.333333333333,4,2,16,70,0,0
133876,-83.3333333333333,4,2,2,70,0,0
134033,-83.3333333333333,4,2,1,70,0,0
135054,-83.3333333333333,4,2,1,70,0,0
135132,-142.857142857143,4,2,1,70,0,0
135211,-142.857142857143,4,2,1,70,0,0
135290,-142.857142857143,4,2,1,70,0,0
135368,-142.857142857143,4,2,1,70,0,0
135447,-83.3333333333333,4,2,1,70,0,0
135604,-83.3333333333333,4,2,1,70,0,0
135839,-83.3333333333333,4,2,1,5,0,0
135918,-83.3333333333333,4,2,1,70,0,0
137646,-83.3333333333333,4,2,2,70,0,0
138274,-83.3333333333333,4,2,1,70,0,0
138431,-100,4,2,1,70,0,0
138588,-100,4,2,1,70,0,0
138745,-100,4,2,1,70,0,0
138902,-83.3333333333333,4,2,1,70,0,0
139845,-76.9230769230769,4,2,1,70,0,0
140002,-76.9230769230769,4,2,1,70,0,0
140080,-76.9230769230769,4,2,1,70,0,0
140159,-142.857142857143,4,2,1,70,0,0
140238,-142.857142857143,4,2,1,70,0,0
140317,-142.857142857143,4,2,1,70,0,0
140395,-142.857142857143,4,2,1,70,0,0
140473,-83.3333333333333,4,2,1,70,0,0
141101,-76.9230769230769,4,2,1,70,0,0
141415,-83.3333333333333,4,2,1,70,0,0
141886,-71.4285714285714,4,2,1,70,0,0
142201,-76.9230769230769,4,2,1,70,0,0
142436,-76.9230769230769,4,2,1,70,0,0
142515,-76.9230769230769,4,2,1,70,0,0
142986,-76.9230769230769,4,2,2,70,0,0
143300,-83.3333333333333,4,2,1,70,0,0
143693,-83.3333333333333,4,2,1,70,0,0
143771,-83.3333333333333,4,2,1,70,0,0
143849,-83.3333333333333,4,2,1,70,0,0
143928,-83.3333333333333,4,2,1,75,0,0
144399,-83.3333333333333,4,2,1,75,0,0
146284,-83.3333333333333,4,2,1,70,0,0
146363,-83.3333333333333,4,2,1,75,0,0
147855,-83.3333333333333,4,2,2,75,0,0
148326,-76.9230769230769,4,2,1,75,0,0
148404,-76.9230769230769,4,2,1,70,0,0
148483,-76.9230769230769,4,2,1,75,0,0
149269,-71.4285714285714,4,2,1,75,0,0
149347,-71.4285714285714,4,2,1,70,0,0
149426,-83.3333333333333,4,2,1,75,0,0
151310,-83.3333333333333,4,2,1,70,0,0
151389,-83.3333333333333,4,2,1,75,0,0
151468,-90.9090909090909,4,2,1,75,0,0
152410,-71.4285714285714,4,2,1,75,0,0
152724,-83.3333333333333,4,2,1,75,0,0
154059,-83.3333333333333,4,2,1,70,0,0
158379,-100,4,2,1,70,0,0
158850,-86.9565217391304,4,2,1,80,0,0
159007,-86.9565217391304,4,2,1,5,0,0
159164,-86.9565217391304,4,2,1,80,0,0
167959,-86.9565217391304,4,2,2,80,0,0
168431,-86.9565217391304,4,2,1,80,0,0
169609,-86.9565217391304,4,2,1,70,0,0
169844,-86.9565217391304,4,2,1,80,0,0
170159,-86.9565217391304,4,2,1,70,0,0
170315,-86.9565217391304,4,2,1,80,0,0
172986,-86.9565217391304,4,2,2,80,0,0
173457,-86.9565217391304,4,2,1,80,0,0
173771,-100,4,2,1,80,0,0
174085,-83.3333333333333,4,2,1,80,0,0
174556,-83.3333333333333,4,2,1,70,0,0
174870,-83.3333333333333,4,2,1,80,0,0
175185,-83.3333333333333,4,2,1,70,0,0
175342,-83.3333333333333,4,2,1,80,0,0
175813,-83.3333333333333,4,2,1,70,0,0
175970,-83.3333333333333,4,2,1,80,0,0
176441,-83.3333333333333,4,2,1,70,0,0
176520,-83.3333333333333,4,2,1,80,0,0
178169,-83.3333333333333,4,2,2,80,0,0
178483,-83.3333333333333,4,2,1,80,0,0
178640,-66.6666666666667,4,2,1,80,0,0
178954,-86.9565217391304,4,2,1,70,0,0
179740,-100,4,2,1,70,0,0
180368,-100,4,2,1,5,0,0
180525,-100,4,2,1,70,0,0
182410,-100,4,2,1,70,0,0
182724,-100,4,2,1,70,0,0
182881,-100,4,2,1,5,0,0
183038,-100,4,2,1,70,0,0
183431,-100,4,2,1,70,0,0
183509,-100,4,2,2,70,0,0
183823,-100,4,2,1,70,0,0
184294,-100,4,2,1,70,0,0
184451,-100,4,2,1,70,0,0
186808,-100,4,2,1,70,0,0
186965,-100,4,2,1,70,0,0
187436,-100,4,2,1,70,0,0
187593,-100,4,2,1,70,0,0
188064,-100,4,2,2,70,0,0
188535,-100,4,2,1,70,0,0
189006,-100,4,2,1,70,0,0
189164,-100,4,2,1,70,0,0
190420,-100,4,2,1,5,0,0
190577,-100,4,2,1,70,0,0
193404,-100,4,2,2,70,0,0
193876,-100,4,2,1,70,0,0
194111,-133.333333333333,4,2,1,5,0,0
194190,-100,4,2,1,70,0,0
194347,-100,4,2,1,70,0,0
194504,-100,4,2,1,70,0,0
197959,-100,4,2,1,5,0,0
198117,-100,4,2,1,70,0,0
198431,-100,4,2,2,70,0,0
198745,-100,4,2,1,70,0,0
198823,-100,4,2,2,70,0,0
199216,-111.111111111111,4,2,2,70,0,0
204242,-111.111111111111,4,2,1,50,0,0
204399,-111.111111111111,4,2,1,70,0,0
208954,-111.111111111111,4,2,1,5,0,0
209112,-111.111111111111,4,2,1,50,0,0

[Colours]
Combo1 : 251,226,57
Combo2 : 7,150,218
Combo3 : 255,128,192
Combo4 : 29,68,203
Combo5 : 162,105,224
Combo6 : 255,151,47

[HitObjects]
158,80,684,5,0,0:0:0:0:
84,63,841,2,0,L|146:77,1,63.6999980560303
227,123,1155,2,0,L|289:108,2,63.6999980560303
179,190,1626,1,0,0:0:0:0:
179,190,1783,1,0,0:0:0:0:
129,256,1940,6,0,P|160:290|184:291,1,63.6999980560303
237,346,2254,1,0,0:0:0:0:
237,346,2411,2,0,P|281:336|294:315,1,63.6999980560303
359,276,2725,2,0,L|368:188,2,63.6999980560303
417,335,3197,5,0,0:0:0:0:
475,374,3354,2,0,P|445:367|423:345,1,63.6999980560303
359,276,3668,1,0,0:0:0:0:
359,276,3825,2,0,L|368:188,1,63.6999980560303
432,164,4139,1,0,0:0:0:0:
432,164,4296,1,0,0:0:0:0:
396,89,4453,6,0,P|361:86|334:113,1,63.6999980560303
257,115,4767,1,0,0:0:0:0:
257,115,4924,2,0,P|236:143|246:180,1,63.6999980560303
224,252,5238,1,0,0:0:0:0:
224,252,5396,2,0,L|157:241,1,63.6999980560303,0|2,0:0|0:0,0:0:0:0:
86,260,5631,1,2,0:0:0:0:
86,260,5710,37,2,0:0:0:0:
23,313,5867,1,0,0:0:0:0:
99,343,6024,1,0,0:0:0:0:
23,313,6181,5,0,0:0:0:0:
86,260,6338,2,0,L|79:184,1,63.6999980560303
71,114,6652,1,0,0:0:0:0:
4,163,6809,1,0,0:0:0:0:
139,66,6966,6,0,L|214:70,1,63.6999980560303
80,196,7280,1,0,0:0:0:0:
80,196,7437,2,0,L|155:192,1,63.6999980560303
217,231,7752,1,0,0:0:0:0:
373,178,7909,1,0,0:0:0:0:
295,204,8066,1,0,0:0:0:0:
451,152,8223,5,0,0:0:0:0:
373,178,8380,2,0,P|368:129|382:104,1,63.6999980560303
451,152,8694,1,0,0:0:0:0:
295,204,8851,2,0,P|308:234|335:255,1,63.6999980560303
493,342,9165,1,0,0:0:0:0:
447,273,9322,1,0,0:0:0:0:
447,273,9479,37,0,0:0:0:0:
380,322,9636,2,0,P|311:333|230:364,1,145.6
240,358,10108,1,0,0:0:0:0:
167,310,10265,2,0,L|178:155,1,145.6
282,81,10736,6,0,P|315:79|345:97,2,54.5999983337403
177,164,11207,2,0,P|197:137|230:126,2,54.5999983337403
71,268,11678,1,0,0:0:0:0:
2,233,11835,1,0,0:0:0:0:
2,233,11992,5,0,0:0:0:0:
71,189,12149,2,0,P|122:171|176:163,1,109.199996667481
246,199,12621,2,0,P|286:214|316:241,1,68.250002603531
176,163,12935,1,0,0:0:0:0:
257,110,13092,6,0,P|304:92|407:95,1,136.500005207062
455,159,13563,2,0,P|494:180|513:204,1,68.250002603531
509,197,13877,1,0,0:0:0:0:
389,90,14034,1,0,0:0:0:0:
448,38,14191,2,0,P|490:16|523:14,1,68.250002603531
246,199,15291,37,2,0:0:0:0:
215,184,15369,1,2,0:0:0:0:
180,185,15448,1,2,0:0:0:0:
148,197,15526,1,2,0:0:0:0:
119,215,15605,1,2,0:0:0:0:
85,220,15683,1,2,0:0:0:0:
49,211,15762,5,2,1:0:0:0:
88,138,15919,1,0,1:0:0:0:
197,273,16076,2,0,P|269:289|330:230,1,150.150004582214,8|0,1:0|0:0,0:0:0:0:
333,227,16390,1,0,1:0:0:0:
298,329,16547,1,0,1:0:0:0:
298,329,16626,1,0,1:0:0:0:
298,329,16704,2,0,P|334:368|385:364,1,100.10000305481,8|0,1:0|0:0,0:0:0:0:
461,309,17019,6,0,L|470:244,1,50.0500015274048,0|0,1:0|0:0,0:0:0:0:
484,180,17176,1,8,1:0:0:0:
484,180,17254,1,8,1:0:0:0:
484,180,17333,2,0,P|448:141|397:145,1,100.10000305481,8|0,1:0|1:0,0:0:0:0:
314,46,17647,2,0,L|320:95,1,50.0500015274048,0|0,1:0|0:0,0:0:0:0:
324,111,17804,1,0,1:0:0:0:
268,220,17961,2,0,P|208:227|169:180,1,100.10000305481,8|0,1:0|0:0,0:0:0:0:
125,86,18275,5,0,1:0:0:0:
57,43,18432,1,0,1:0:0:0:
57,43,18511,1,0,1:0:0:0:
57,43,18589,2,0,B|51:91|51:91|46:97|46:97|41:144,1,100.10000305481,8|0,1:0|1:0,0:0:0:0:
0,212,18825,1,2,0:0:0:0:
0,212,18903,2,0,B|6:260|6:260|11:266|11:266|16:313,1,100.10000305481,0|0,1:0|1:0,0:0:0:0:
74,371,19218,2,0,P|140:370|160:330,1,100.10000305481,8|0,1:0|0:0,0:0:0:0:
227,191,19532,37,0,1:0:0:0:
227,191,19689,1,0,1:0:0:0:
127,240,19846,1,8,1:0:0:0:
201,272,20003,2,0,B|280:301|280:301|296:325|296:325|388:357,1,200.200006109619,0|0,1:0|1:0,0:0:0:0:
300,278,20474,2,0,P|342:246|390:259,1,100.10000305481,8|0,1:0|0:0,0:0:0:0:
385,255,20710,1,2,0:0:0:0:
385,255,20788,5,2,1:0:0:0:
465,215,20945,2,0,P|476:169|498:119,1,100.10000305481,2|10,1:0|1:0,2:0:0:0:
378,353,21259,2,0,P|357:262|302:162,1,200.200006109619,0|0,1:0|1:0,0:0:0:0:
233,114,21731,2,0,L|75:140,1,150.150004582214,8|0,1:0|0:0,0:0:0:0:
55,143,22045,5,8,1:0:0:0:
84,61,22202,1,0,1:0:0:0:
2,213,22359,2,0,P|26:260|89:266,1,100.10000305481,8|8,1:0|1:0,0:0:0:0:
68,271,22594,1,2,0:0:0:0:
68,271,22673,1,2,1:0:0:0:
140,325,22830,1,0,1:0:0:0:
189,234,22987,2,0,P|231:202|281:206,1,100.10000305481,8|0,1:0|0:0,0:0:0:0:
356,255,23301,5,0,1:0:0:0:
356,255,23458,1,0,1:0:0:0:
429,123,23615,1,8,1:0:0:0:
240,67,23773,2,0,B|335:88|335:88|350:104|350:104|427:122,1,200.200006109619,0|0,1:0|1:0,0:0:0:0:
485,26,24244,2,0,P|433:8|394:39,1,100.10000305481,8|0,1:0|0:0,0:0:0:0:
290,159,24558,37,0,1:0:0:0:
356,220,24715,1,0,1:0:0:0:
356,220,24793,1,0,1:0:0:0:
356,220,24872,2,0,L|462:207,1,100.10000305481,8|0,1:0|1:0,0:0:0:0:
315,292,25186,1,0,1:0:0:0:
236,247,25343,1,0,1:0:0:0:
168,333,25500,2,0,P|105:338|75:293,1,100.10000305481,8|0,1:0|1:0,0:0:0:0:
38,163,25814,5,2,1:0:0:0:
38,163,25971,1,2,1:0:0:0:
11,249,26129,1,10,1:0:0:0:
94,216,26286,2,0,B|168:190|168:190|189:169|189:169|281:141,1,200.200006109619,0|0,1:0|1:0,0:0:0:0:
325,76,26678,1,2,0:0:0:0:
325,76,26757,2,0,P|377:84|399:128,1,100.10000305481,8|0,1:0|0:0,0:0:0:0:
467,179,27071,5,0,1:0:0:0:
460,208,27149,1,0,1:0:0:0:
453,237,27228,1,8,1:0:0:0:
446,266,27307,1,8,1:0:0:0:
439,295,27385,1,8,1:0:0:0:
285,350,27542,5,0,1:0:0:0:
363,325,27699,2,0,L|329:206,1,100.10000305481,0|0,1:0|1:0,0:0:0:0:
312,151,28013,1,8,1:0:0:0:
285,350,28170,1,0,1:0:0:0:
285,350,28249,1,0,1:0:0:0:
285,350,28327,38,0,P|246:318|194:318,1,100.10000305481,0|0,1:0|1:0,0:0:0:0:
120,231,28642,1,8,1:0:0:0:
15,366,28799,2,0,P|102:326|120:231,1,200.200006109619,0|0,1:0|1:0,0:0:0:0:
77,148,29270,2,0,P|29:175|34:218,1,100.10000305481,8|0,1:0|0:0,0:0:0:0:
198,316,29584,5,0,1:0:0:0:
198,316,29741,1,0,1:0:0:0:
257,248,29898,1,8,1:0:0:0:
198,316,30055,2,0,P|292:351|410:360,1,200.200006109619,0|0,1:0|1:0,0:0:0:0:
508,294,30526,2,0,P|493:235|454:222,1,100.10000305481,8|0,1:0|0:0,0:0:0:0:
382,238,30762,1,2,0:0:0:0:
382,238,30841,5,2,1:0:0:0:
297,207,30998,1,2,1:0:0:0:
212,176,31155,1,10,1:0:0:0:
297,207,31312,2,0,P|235:265|130:223,1,200.200006109619,0|0,1:0|1:0,0:0:0:0:
46,215,31783,1,8,1:0:0:0:
46,215,31940,2,0,P|21:159|102:62,1,200.200006109619,0|8,1:0|1:0,0:0:0:0:
174,14,32411,6,0,P|242:26|294:50,1,100.10000305481,8|0,1:0|1:0,0:0:0:0:
351,76,32725,1,0,1:0:0:0:
355,73,32804,1,0,1:0:0:0:
359,70,32882,1,0,1:0:0:0:
254,186,33040,2,0,P|322:174|374:150,1,100.10000305481,8|0,1:0|0:0,0:0:0:0:
494,58,33354,37,0,1:0:0:0:
494,58,33511,1,0,1:0:0:0:
422,8,33668,1,8,1:0:0:0:
435,126,33825,2,0,B|446:213|446:213|460:228|460:228|472:324,1,200.200006109619,8|0,1:0|1:0,0:0:0:0:
387,287,34296,1,8,1:0:0:0:
327,354,34453,1,0,1:0:0:0:
327,354,34532,1,0,1:0:0:0:
327,354,34610,6,0,P|263:346|245:309,1,100.10000305481,0|0,1:0|2:0,2:0:0:0:
218,298,34846,2,0,L|230:183,1,100.10000305481,0|0,1:0|2:0,2:0:0:0:
233,164,35081,1,10,1:0:0:0:
323,87,35238,6,0,L|381:76,2,50.0500015274048,2|0|2,0:0|1:0|0:0,0:0:0:0:
233,164,35553,2,0,L|72:140,1,150.150004582214,2|0,1:0|0:0,0:0:0:0:
52,136,35867,5,2,1:0:0:0:
52,136,36181,2,0,L|39:44,1,72.8,0|0,1:0|0:0,0:0:0:0:
134,177,36495,2,0,L|123:249,1,72.8,10|0,1:0|1:0,0:0:0:0:
108,326,36809,1,2,1:0:0:0:
108,326,37123,37,0,1:0:0:0:
29,314,37280,1,8,1:0:0:0:
187,338,37437,1,0,2:0:0:0:
187,338,37751,6,0,P|241:288|310:292,1,145.6,2|0,1:0|1:0,0:0:0:0:
373,340,38223,1,0,0:0:0:0:
309,291,38380,2,0,P|296:252|305:212,1,72.8,10|0,1:0|0:0,0:0:0:0:
355,162,38694,5,2,1:0:0:0:
355,162,38851,1,0,0:0:0:0:
429,190,39008,5,2,1:0:0:0:
281,134,39165,1,10,1:0:0:0:
281,134,39322,2,0,P|255:100|206:96,1,72.8,2|2,1:0|0:0,0:0:0:0:
184,30,39636,37,2,1:0:0:0:
108,56,39793,1,0,0:0:0:0:
184,30,39950,1,2,1:0:0:0:
32,82,40264,6,0,L|55:164,1,72.8,8|0,1:0|0:0,0:0:0:0:
76,228,40579,1,2,1:0:0:0:
0,254,40736,1,0,1:0:0:0:
152,202,40893,1,0,1:0:0:0:
76,228,41050,5,8,1:0:0:0:
76,228,41207,2,0,P|94:260|126:278,1,72.8,2|0,1:0|1:0,0:0:0:0:
180,334,41521,2,0,L|272:320,1,72.8,2|0,1:0|0:0,0:0:0:0:
330,309,41835,1,0,1:0:0:0:
330,309,42149,6,0,L|422:295,1,72.8,8|10,1:0|1:0,0:0:0:0:
481,287,42463,2,0,B|503:220|450:185|432:205|377:157|402:92,1,227.5,0|2,1:0|0:0,0:0:0:0:
477,28,43406,37,2,1:0:0:0:
477,28,43563,1,0,1:0:0:0:
401,94,43720,1,8,1:0:0:0:
226,57,43877,2,0,B|312:69|312:69|329:84|329:84|401:94,1,182,0|2,1:0|1:0,0:0:0:0:
277,145,44348,2,0,P|240:192|250:237,1,91,8|0,1:0|0:0,0:0:0:0:
318,292,44662,5,0,1:0:0:0:
318,292,44819,1,0,1:0:0:0:
421,273,44976,2,0,L|319:290,1,91,8|0,1:0|1:0,0:0:0:0:
199,360,45290,1,0,1:0:0:0:
199,360,45447,1,2,1:0:0:0:
302,379,45604,2,0,L|200:362,1,91,8|0,1:0|0:0,0:0:0:0:
98,274,45919,5,2,1:0:0:0:
98,274,46076,1,0,1:0:0:0:
73,350,46233,2,0,P|15:292|44:206,1,182,8|0,1:0|0:0,0:0:0:0:
56,110,46704,2,0,P|120:102|160:138,1,118.299994584656,2|8,1:0|1:0,0:0:0:0:
203,210,47018,1,0,1:0:0:0:
203,210,47175,5,0,1:0:0:0:
270,162,47332,2,0,L|284:104,2,59.149997292328,8|8|8,1:0|1:0|1:0,0:0:0:0:
135,257,47646,37,8,1:0:0:0:
192,316,47803,2,0,P|243:329|293:302,1,109.199996667481,2|0,0:0|0:0,0:0:0:0:
361,353,48196,1,2,0:0:0:0:
371,363,48275,6,0,B|380:272|380:272|371:260|371:260|380:164,1,200.200006109619,4|0,1:0|1:0,0:0:0:0:
300,129,48746,2,0,B|276:168|276:168|294:219,1,100.10000305481,8|0,1:0|0:0,0:0:0:0:
461,241,49060,1,0,1:0:0:0:
461,241,49217,2,0,B|483:201|483:201|462:151,1,100.10000305481,8|0,1:0|0:0,0:0:0:0:
323,56,49531,6,0,B|268:36|228:76|246:92|208:140|148:120,1,200.200006109619,0|0,1:0|1:0,0:0:0:0:
101,5,50002,2,0,P|148:1|170:44,1,100.10000305481,8|0,1:0|0:0,0:0:0:0:
81,180,50316,1,0,1:0:0:0:
81,180,50474,2,0,P|34:184|13:142,1,100.10000305481,8|0,1:0|1:0,0:0:0:0:
149,120,50788,6,0,B|225:134|225:134|229:129|229:129|342:151,1,200.200006109619,0|0,1:0|1:0,0:0:0:0:
414,262,51259,2,0,B|447:222|447:222|433:174,1,100.10000305481,8|2,1:0|0:0,0:0:0:0:
343,151,51573,1,2,1:0:0:0:
343,151,51730,2,0,B|310:191|310:191|324:239,1,100.10000305481,8|0,1:0|0:0,0:0:0:0:
354,321,52044,38,0,L|209:371,1,150.150004582214,0|0,1:0|0:0,0:0:0:0:
188,379,52358,2,0,L|166:315,1,50.0500015274048,0|0,1:0|0:0,0:0:0:0:
145,262,52515,1,8,1:0:0:0:
143,257,52594,1,2,0:0:0:0:
141,252,52673,1,2,0:0:0:0:
43,166,52830,5,0,1:0:0:0:
95,105,52987,2,0,P|154:107|174:147,1,100.10000305481,10|0,1:0|0:0,0:0:0:0:
225,264,53301,6,0,P|241:195|312:73,1,200.200006109619,2|0,1:0|1:0,0:0:0:0:
364,30,53772,2,0,P|396:80|409:128,1,100.10000305481,8|0,1:0|0:0,0:0:0:0:
407,118,54086,1,0,1:0:0:0:
481,169,54243,2,0,P|449:219|436:267,1,100.10000305481,8|0,1:0|1:0,0:0:0:0:
373,321,54557,6,0,P|294:352|215:273,1,200.200006109619,2|0,1:0|1:0,0:0:0:0:
154,215,55029,2,0,P|114:250|129:296,1,100.10000305481,8|2,1:0|0:0,0:0:0:0:
240,199,55343,1,2,1:0:0:0:
240,199,55500,2,0,L|222:90,1,100.10000305481,10|2,1:0|1:0,0:0:0:0:
301,32,55814,38,0,L|334:229,1,200.200006109619,2|0,1:0|1:0,0:0:0:0:
455,333,56285,2,0,P|391:333|371:303,1,100.10000305481,8|2,1:0|0:0,0:0:0:0:
488,260,56599,1,0,1:0:0:0:
416,204,56756,2,0,P|352:204|331:237,1,100.10000305481,8|0,1:0|0:0,0:0:0:0:
267,365,57070,6,0,B|253:281|253:281|246:276|246:276|228:169,1,200.200006109619,2|8,1:0|1:0,0:0:0:0:
213,99,57463,1,8,1:0:0:0:
213,99,57542,1,8,1:0:0:0:
137,125,57699,1,8,1:0:0:0:
289,73,57856,2,0,L|407:37,1,100.10000305481,2|10,1:0|1:0,0:0:0:0:
137,125,58170,2,0,L|41:154,1,100.10000305481,2|2,1:0|0:0,0:0:0:0:
57,64,58484,5,2,1:0:0:0:
57,64,58641,1,2,1:0:0:0:
137,125,58798,2,0,P|153:174|115:222,1,113.75,10|0,1:0|1:0,0:0:0:0:
101,225,59034,1,2,0:0:0:0:
84,220,59112,1,2,1:0:0:0:
185,287,59269,1,0,1:0:0:0:
185,287,59426,2,0,L|300:270,1,113.75,8|0,1:0|0:0,0:0:0:0:
228,198,59741,5,0,1:0:0:0:
228,198,59898,1,0,1:0:0:0:
374,341,60055,1,8,1:0:0:0:
149,375,60212,2,0,L|374:341,1,227.5,0|0,1:0|1:0,0:0:0:0:
228,198,60683,2,0,P|263:148|316:153,1,113.75,8|0,1:0|1:0,0:0:0:0:
442,272,60997,37,0,1:0:0:0:
442,272,61154,1,0,1:0:0:0:
383,217,61311,2,0,B|362:146|420:115|441:129|498:106|488:36,1,227.5,8|0,1:0|1:0,0:0:0:0:
417,2,61782,1,0,1:0:0:0:
417,2,61861,1,0,1:0:0:0:
417,2,61940,2,0,P|363:19|352:74,1,113.75,8|0,1:0|0:0,0:0:0:0:
475,199,62254,5,0,1:0:0:0:
475,199,62411,1,8,1:0:0:0:
383,217,62568,2,0,B|305:229|305:229|300:234|300:234|198:251,1,170.625,8|0,1:0|0:0,0:0:0:0:
216,247,62882,2,0,L|230:327,1,56.875,2|0,1:0|0:0,0:0:0:0:
241,379,63039,1,2,1:0:0:0:
201,169,63196,6,0,L|177:32,1,136.5,8|0,1:0|0:0,0:0:0:0:
175,21,63510,5,0,1:0:0:0:
110,120,63667,1,0,1:0:0:0:
99,122,63746,1,0,1:0:0:0:
88,125,63824,2,0,L|9:138,1,56.875,8|0,1:0|0:0,0:0:0:0:
201,169,63981,2,0,B|265:197|314:136|302:113|337:80|406:102,1,227.5,0|0,1:0|1:0,0:0:0:0:
477,131,64453,2,0,P|444:188|394:175,1,113.75,8|0,1:0|0:0,0:0:0:0:
288,87,64767,37,0,1:0:0:0:
288,87,64924,1,0,1:0:0:0:
404,182,65081,2,0,P|346:202|297:241,1,113.75,8|0,1:0|0:0,0:0:0:0:
255,296,65395,5,0,1:0:0:0:
107,218,65552,1,0,1:0:0:0:
195,194,65709,1,8,1:0:0:0:
65,289,65866,1,0,1:0:0:0:
71,302,65945,1,0,1:0:0:0:
76,315,66023,5,0,1:0:0:0:
195,194,66180,1,0,1:0:0:0:
195,194,66337,1,8,1:0:0:0:
285,74,66495,2,0,B|174:98|174:98|161:113|161:113|70:132,1,227.5,0|0,1:0|1:0,0:0:0:0:
195,194,66966,2,0,P|260:197|286:153,1,113.75,8|0,1:0|0:0,0:0:0:0:
115,42,67280,5,0,1:0:0:0:
87,47,67358,1,0,1:0:0:0:
59,53,67437,1,0,1:0:0:0:
70,132,67594,1,8,1:0:0:0:
98,126,67673,1,8,1:0:0:0:
126,121,67751,1,8,1:0:0:0:
195,194,67908,1,8,1:0:0:0:
173,279,68065,38,0,L|90:297,1,65.9750020133973,0|8,1:0|1:0,0:0:0:0:
30,314,68222,1,0,0:0:0:0:
30,314,68379,1,8,1:0:0:0:
195,194,68536,5,2,1:0:0:0:
195,194,68693,1,0,1:0:0:0:
149,368,68851,1,8,1:0:0:0:
173,279,69008,2,0,P|234:321|352:231,1,236.599989169312,2|0,1:0|1:0,0:0:0:0:
420,180,69479,2,0,P|472:157|512:207,1,118.299994584656,8|2,1:0|0:0,0:0:0:0:
351,238,69793,5,0,1:0:0:0:
406,95,69950,1,0,1:0:0:0:
400,84,70029,1,0,1:0:0:0:
392,75,70107,2,0,P|334:56|287:91,1,118.299994584656,8|0,1:0|0:0,0:0:0:0:
197,178,70421,5,2,0:0:0:0:
195,189,70500,1,2,0:0:0:0:
193,200,70578,1,2,1:0:0:0:
111,235,70735,1,8,1:0:0:0:
48,138,70892,1,0,1:0:0:0:
48,138,70971,1,2,1:0:0:0:
48,138,71049,38,0,L|59:67,1,59.149997292328,2|0,1:0|0:0,0:0:0:0:
142,36,71207,2,0,L|124:153,1,118.299994584656,2|10,1:0|1:0,0:0:0:0:
111,235,71521,6,0,P|192:301|193:200,1,254.799992224121,2|8,1:0|1:0,0:0:0:0:
101,242,71992,2,0,P|130:307|185:313,1,127.399996112061,10|0,1:0|0:0,0:0:0:0:
246,363,72306,5,0,1:0:0:0:
269,357,72385,1,0,1:0:0:0:
291,351,72463,1,8,1:0:0:0:
314,346,72542,1,8,1:0:0:0:
336,341,72620,1,8,1:0:0:0:
409,378,72777,5,0,1:0:0:0:
246,277,72934,2,0,L|345:254,1,91,0|0,1:0|1:0,0:0:0:0:
476,251,73248,37,8,1:0:0:0:
403,295,73405,1,0,1:0:0:0:
504,174,73563,5,2,1:0:0:0:
403,295,73720,1,0,1:0:0:0:
407,305,73798,1,0,1:0:0:0:
411,316,73877,1,8,1:0:0:0:
369,188,74034,5,2,1:0:0:0:
369,188,74112,1,2,0:0:0:0:
369,188,74191,2,0,P|331:145|274:149,1,118.299994584656,0|0,1:0|1:0,0:0:0:0:
222,248,74505,2,0,P|157:235|105:216,1,118.299994584656,8|0,1:0|0:0,0:0:0:0:
35,177,74819,5,0,1:0:0:0:
35,177,74976,1,0,1:0:0:0:
156,128,75133,1,8,1:0:0:0:
17,76,75290,2,0,P|95:48|149:112,1,177.449991876984,0|0,1:0|0:0,0:0:0:0:
156,128,75604,38,0,B|215:125|215:125|221:120|221:120|294:117,1,127.399996112061,2|0,1:0|0:0,0:0:0:0:
307,189,75840,2,0,B|247:192|247:192|241:197|241:197|182:200,1,127.399996112061,2|0,1:0|0:0,0:0:0:0:
178,213,76076,5,2,1:0:0:0:
178,213,76233,1,0,1:0:0:0:
363,126,76390,1,8,1:0:0:0:
409,205,76547,2,0,P|464:213|499:150,1,127.399996112061,2|0,1:0|0:0,0:0:0:0:
363,126,76861,1,8,1:0:0:0:
363,126,76940,1,8,1:0:0:0:
363,126,77018,2,0,P|342:74|270:75,1,127.399996112061,10|0,1:0|0:0,0:0:0:0:
202,29,77332,5,0,1:0:0:0:
196,58,77411,1,0,1:0:0:0:
190,86,77489,1,8,1:0:0:0:
184,115,77568,1,8,1:0:0:0:
178,143,77646,1,8,1:0:0:0:
236,201,77803,5,8,1:0:0:0:
104,103,77960,2,0,L|120:32,1,59.149997292328,0|0,1:0|0:0,0:0:0:0:
120,33,78118,1,0,1:0:0:0:
44,162,78275,1,8,1:0:0:0:
0,91,78432,1,0,1:0:0:0:
88,233,79374,37,2,0:0:0:0:
119,230,79453,1,2,0:0:0:0:
150,227,79531,1,2,0:0:0:0:
181,224,79610,1,2,0:0:0:0:
212,221,79688,1,2,0:0:0:0:
243,218,79767,1,2,0:0:0:0:
274,215,79845,6,0,B|352:208|352:208|347:157|347:157|344:154|344:154|335:67,1,218.399993334961,6|0,1:0|0:0,0:0:0:0:
264,115,80316,1,0,1:0:0:0:
412,23,80474,2,0,B|418:20|418:20|518:45,2,109.199996667481,8|0|0,1:0|0:0|1:0,0:0:0:0:
264,114,80945,6,0,B|164:139|164:139|158:136,1,109.199996667481,0|0,1:0|0:0,0:0:0:0:
158,136,81259,2,0,B|152:133|152:133|52:158,1,109.199996667481,0|2,1:0|0:0,0:0:0:0:
52,157,81573,1,0,1:0:0:0:
76,73,81730,5,8,1:0:0:0:
29,242,81887,1,0,0:0:0:0:
29,242,82201,1,2,1:0:0:0:
94,299,82358,38,0,B|167:284|167:284|171:277|171:277|237:266|237:266|252:302|292:312,1,218.399993334961,2|0,1:0|1:0,0:0:0:0:
310,233,82830,1,0,1:0:0:0:
379,272,82987,2,0,P|339:308|286:310,2,109.199996667481,8|0|0,1:0|1:0|1:0,0:0:0:0:
460,241,83458,6,0,B|457:137|457:137|448:126,1,109.199996667481,0|0,1:0|0:0,0:0:0:0:
453,133,83772,2,0,B|449:129|449:129|446:25,1,109.199996667481,0|0,1:0|0:0,0:0:0:0:
446,25,84086,1,2,1:0:0:0:
303,125,84243,5,10,1:0:0:0:
375,75,84400,1,2,0:0:0:0:
375,75,84557,1,2,0:0:0:0:
231,175,84714,1,2,0:0:0:0:
231,175,84793,1,2,0:0:0:0:
231,175,84871,6,0,B|146:159|146:159|124:120|124:120|28:101,1,218.399993334961,0|0,1:0|1:0,0:0:0:0:
90,31,85343,1,0,1:0:0:0:
83,217,85500,2,0,B|25:222|25:222|-9:165,1,109.199996667481,8|0,1:0|0:0,1:0:0:0:
90,31,85814,1,0,1:0:0:0:
90,31,85971,38,0,B|185:21|185:21|199:37,1,109.199996667481,0|0,1:0|0:0,0:0:0:0:
194,31,86285,2,0,B|203:41|203:41|298:31,1,109.199996667481,0|0,1:0|0:0,0:0:0:0:
298,31,86599,1,0,1:0:0:0:
412,163,86756,1,10,1:0:0:0:
355,97,86913,6,0,P|405:58|450:69,1,109.199996667481,2|2,0:0|1:0,0:0:0:0:
327,180,87227,1,2,1:0:0:0:
327,180,87385,2,0,B|268:155|225:204|246:229|210:274|140:247,1,218.399993334961,0|2,1:0|1:0,0:0:0:0:
281,298,87856,1,2,1:0:0:0:
281,298,88013,2,0,P|336:294|364:240,2,109.199996667481,8|2|2,1:0|0:0|1:0,0:0:0:0:
172,171,88484,6,0,L|165:50,1,109.199996667481,2|0,1:0|0:0,0:0:0:0:
81,82,88798,2,0,L|86:191,1,109.199996667481,0|0,1:0|1:0,0:0:0:0:
86,191,89112,1,2,1:0:0:0:
1,212,89269,5,10,1:0:0:0:
172,171,89426,1,2,1:0:0:0:
1,212,89584,1,2,1:0:0:0:
6,238,89662,1,2,0:0:0:0:
12,264,89741,1,2,0:0:0:0:
18,290,89819,1,2,0:0:0:0:
23,316,89898,37,2,1:0:0:0:
76,375,90055,1,2,1:0:0:0:
166,288,90212,2,0,P|217:264|296:323,1,150.150004582214,10|0,1:0|0:0,0:0:0:0:
299,338,90526,1,0,1:0:0:0:
251,237,90683,1,0,1:0:0:0:
251,237,90762,1,0,1:0:0:0:
251,237,90840,2,0,P|289:205|342:209,1,100.10000305481,8|0,1:0|1:0,0:0:0:0:
469,282,91154,6,0,L|478:217,1,50.0500015274048,0|0,1:0|0:0,0:0:0:0:
492,153,91311,1,8,1:0:0:0:
492,153,91390,1,8,1:0:0:0:
492,153,91468,2,0,P|456:114|405:118,1,100.10000305481,8|0,1:0|1:0,0:0:0:0:
327,122,91782,2,0,L|333:73,1,50.0500015274048,0|0,1:0|0:0,0:0:0:0:
336,56,91940,1,0,1:0:0:0:
251,237,92097,2,0,P|203:246|141:271,1,100.10000305481,8|0,1:0|0:0,0:0:0:0:
92,320,92411,5,0,1:0:0:0:
24,269,92568,1,0,1:0:0:0:
24,269,92646,1,0,1:0:0:0:
24,269,92725,2,0,B|22:217|22:217|17:215|17:215|15:159,1,100.10000305481,8|2,1:0|0:0,0:0:0:0:
99,173,92960,1,2,0:0:0:0:
99,173,93039,2,0,B|100:121|100:121|106:119|106:119|108:63,1,100.10000305481,2|0,1:0|1:0,0:0:0:0:
46,11,93353,2,0,P|4:44|25:100,1,100.10000305481,8|0,1:0|0:0,0:0:0:0:
99,173,93667,5,0,1:0:0:0:
99,173,93824,1,0,1:0:0:0:
24,269,93981,1,8,1:0:0:0:
92,320,94138,2,0,B|174:305|174:305|194:284|194:284|290:268,1,200.200006109619,0|0,1:0|1:0,0:0:0:0:
234,358,94610,2,0,L|350:341,1,100.10000305481,8|0,1:0|0:0,0:0:0:0:
333,343,94845,1,0,0:0:0:0:
333,343,94924,37,4,1:0:0:0:
425,184,99950,5,2,1:0:0:0:
425,184,100264,2,0,L|438:92,1,72.8,0|0,1:0|0:0,0:0:0:0:
342,224,100578,2,0,L|353:296,1,72.8,10|0,1:0|1:0,0:0:0:0:
363,367,100892,1,2,1:0:0:0:
363,367,101206,5,0,1:0:0:0:
342,224,101363,1,8,1:0:0:0:
353,296,101520,5,0,1:0:0:0:
424,286,101677,1,0,1:0:0:0:
282,306,101834,38,0,L|191:318,1,72.8,2|0,1:0|0:0,0:0:0:0:
137,326,102148,1,0,1:0:0:0:
164,254,102306,1,0,1:0:0:0:
164,254,102463,2,0,L|152:163,1,72.8,10|0,1:0|1:0,0:0:0:0:
143,104,102777,5,2,1:0:0:0:
143,104,102934,1,0,0:0:0:0:
64,119,103091,5,2,1:0:0:0:
222,89,103248,1,10,1:0:0:0:
222,89,103405,2,0,P|266:106|285:140,1,72.8,2|2,1:0|0:0,0:0:0:0:
330,188,103719,5,2,1:0:0:0:
361,114,103876,1,0,0:0:0:0:
330,188,104033,1,0,1:0:0:0:
330,188,104347,38,0,L|338:272,1,72.8,10|0,1:0|0:0,0:0:0:0:
342,340,104662,1,2,1:0:0:0:
263,322,104819,1,0,1:0:0:0:
421,358,104976,5,0,1:0:0:0:
263,322,105133,1,8,1:0:0:0:
263,322,105290,2,0,L|181:344,1,72.8,2|0,1:0|1:0,0:0:0:0:
129,291,105604,2,0,P|89:282|64:252,1,72.8,2|0,1:0|0:0,0:0:0:0:
55,180,105918,1,0,1:0:0:0:
55,180,106232,6,0,L|125:198,1,72.8,8|2,1:0|0:0,0:0:0:0:
199,150,106546,6,0,B|265:129|302:180|281:209|317:257|384:237,1,227.5,2|2,1:0|0:0,0:0:0:0:
365,155,107489,37,0,1:0:0:0:
365,155,107646,1,0,1:0:0:0:
443,327,107803,1,8,1:0:0:0:
468,168,107960,2,0,B|486:296|486:296|442:326,1,182,0|2,1:0|1:0,0:0:0:0:
364,372,108431,2,0,P|314:369|283:335,1,91,8|0,1:0|0:0,0:0:0:0:
220,279,108745,5,0,1:0:0:0:
220,279,108902,1,0,1:0:0:0:
232,178,109059,2,0,P|218:227|206:296,1,91,8|0,1:0|1:0,0:0:0:0:
122,94,109373,1,0,1:0:0:0:
122,94,109530,1,2,1:0:0:0:
134,195,109687,2,0,P|120:146|108:77,1,91,8|0,1:0|0:0,0:0:0:0:
182,34,110002,5,2,1:0:0:0:
182,34,110159,1,0,1:0:0:0:
232,178,110316,2,0,P|304:209|364:134,1,182,8|0,1:0|0:0,0:0:0:0:
434,62,110787,2,0,P|385:81|370:161,1,118.299994584656,2|8,1:0|1:0,0:0:0:0:
437,248,111101,1,2,0:0:0:0:
437,248,111258,5,8,1:0:0:0:
337,327,111415,2,0,L|262:316,2,59.149997292328,8|8|8,1:0|1:0|1:0,0:0:0:0:
337,327,111886,38,0,L|350:266,1,45.5,2|0,0:0|0:0,0:0:0:0:
437,248,112043,2,0,L|424:187,1,45.5,2|0,0:0|0:0,0:0:0:0:
363,139,112201,1,2,0:0:0:0:
363,139,112279,1,2,0:0:0:0:
363,139,112358,6,0,B|285:117|285:117|271:93|271:93|171:64,1,200.200006109619,6|0,1:0|1:0,0:0:0:0:
110,99,112829,2,0,P|58:121|39:164,1,100.10000305481,8|2,1:0|0:0,0:0:0:0:
218,214,113143,1,2,1:0:0:0:
218,214,113300,2,0,P|199:267|218:310,1,100.10000305481,8|0,1:0|0:0,0:0:0:0:
388,340,113614,6,0,B|400:291|400:291|406:287|406:287|415:248|415:248|412:242|412:242|438:134,1,200.200006109619,0|0,1:0|1:0,0:0:0:0:
457,67,114085,2,0,P|468:33|470:71,1,100.10000305481,8|0,1:0|0:0,0:0:0:0:
348,155,114399,1,0,1:0:0:0:
348,155,114557,2,0,P|337:121|335:159,1,100.10000305481,8|0,1:0|1:0,0:0:0:0:
244,38,114871,6,0,B|188:28|157:78|177:96|126:135|76:114,1,200.200006109619,0|0,1:0|1:0,0:0:0:0:
17,29,115342,2,0,P|61:11|99:41,1,100.10000305481,8|2,1:0|0:0,0:0:0:0:
237,114,115656,1,2,1:0:0:0:
237,114,115813,2,0,P|274:143|267:190,1,100.10000305481,8|0,1:0|0:0,0:0:0:0:
217,271,116127,38,0,B|155:262|155:262|151:257|151:257|65:242,1,150.150004582214,0|0,1:0|0:0,0:0:0:0:
46,238,116441,2,0,L|35:300,1,50.0500015274048,0|0,1:0|0:0,0:0:0:0:
25,361,116598,1,8,1:0:0:0:
23,367,116677,1,2,0:0:0:0:
22,372,116756,1,2,1:0:0:0:
131,212,116913,5,0,1:0:0:0:
131,212,117070,2,0,P|183:229|217:197,1,100.10000305481,8|0,1:0|0:0,0:0:0:0:
291,67,117384,6,0,P|298:153|340:262,1,200.200006109619,0|0,1:0|1:0,0:0:0:0:
412,315,117855,2,0,P|461:306|505:274,1,100.10000305481,8|0,1:0|0:0,0:0:0:0:
501,277,118169,1,0,1:0:0:0:
475,187,118326,2,0,P|434:158|385:149,1,100.10000305481,8|0,1:0|1:0,0:0:0:0:
215,292,118640,6,0,P|238:338|279:255,1,200.200006109619,0|0,1:0|1:0,0:0:0:0:
212,209,119112,2,0,P|163:211|146:270,1,100.10000305481,8|2,1:0|0:0,0:0:0:0:
287,175,119426,1,2,1:0:0:0:
287,175,119583,2,0,P|304:115|323:76,1,100.10000305481,8|0,1:0|1:0,0:0:0:0:
212,209,119897,38,0,P|143:237|68:152,1,200.200006109619,0|0,1:0|1:0,0:0:0:0:
148,18,120368,2,0,P|154:73|116:104,1,100.10000305481,8|0,1:0|0:0,0:0:0:0:
45,83,120682,1,0,1:0:0:0:
45,83,120839,2,0,P|38:27|76:-3,1,100.10000305481,8|0,1:0|0:0,0:0:0:0:
67,154,121153,6,0,P|120:231|212:209,1,200.200006109619,0|8,1:0|1:0,0:0:0:0:
267,146,121546,1,8,1:0:0:0:
267,146,121625,1,8,1:0:0:0:
339,188,121782,1,8,1:0:0:0:
195,104,121939,2,0,L|106:57,1,100.10000305481,0|8,1:0|1:0,0:0:0:0:
339,188,122253,2,0,L|447:245,1,100.10000305481,2|2,1:0|0:0,0:0:0:0:
422,138,122567,5,2,1:0:0:0:
422,138,122724,1,2,1:0:0:0:
351,285,122881,2,0,P|307:325|260:313,1,109.199996667481,10|0,1:0|1:0,0:0:0:0:
250,304,123117,1,2,0:0:0:0:
239,291,123195,1,2,1:0:0:0:
137,240,123352,1,0,1:0:0:0:
137,240,123509,2,0,L|145:131,1,109.199996667481,8|0,1:0|0:0,0:0:0:0:
223,197,123824,5,0,1:0:0:0:
223,197,123981,1,0,1:0:0:0:
68,67,124138,1,8,1:0:0:0:
51,285,124295,2,0,L|69:63,1,218.399993334961,0|0,1:0|1:0,0:0:0:0:
223,197,124766,2,0,P|286:209|315:170,1,109.199996667481,8|0,1:0|1:0,0:0:0:0:
360,106,125080,37,2,1:0:0:0:
360,106,125237,1,0,1:0:0:0:
359,105,125394,2,0,B|262:81|262:81|253:71|253:71|152:44,1,218.399993334961,10|0,1:0|1:0,0:0:0:0:
366,19,125865,1,0,1:0:0:0:
366,19,125944,1,2,0:0:0:0:
366,19,126023,2,0,P|323:1|280:54,1,109.199996667481,8|0,1:0|0:0,0:0:0:0:
312,179,126337,5,0,1:0:0:0:
312,179,126494,1,8,1:0:0:0:
231,197,126651,2,0,B|151:214|151:214|143:221|143:221|65:240,1,163.799995001221,8|0,1:0|0:0,0:0:0:0:
73,237,126965,2,0,L|86:304,1,54.5999983337403,2|0,1:0|0:0,0:0:0:0:
100,367,127122,1,2,1:0:0:0:
57,158,127279,6,0,L|30:18,1,136.5,8|0,1:0|2:0,0:0:0:0:
29,8,127593,5,0,1:0:0:0:
134,102,127750,1,0,1:0:0:0:
145,104,127829,1,0,1:0:0:0:
156,107,127907,2,0,L|235:120,1,54.5999983337403,8|0,1:0|0:0,0:0:0:0:
281,64,128064,2,0,P|334:30|389:149,1,218.399993334961,0|0,1:0|1:0,0:0:0:0:
271,231,128536,2,0,P|220:246|161:272,1,109.199996667481,8|0,1:0|0:0,0:0:0:0:
285,326,128850,37,0,1:0:0:0:
285,326,129007,1,0,1:0:0:0:
344,193,129164,2,0,P|299:150|242:157,1,109.199996667481,8|0,1:0|0:0,0:0:0:0:
168,268,129478,5,0,1:0:0:0:
89,301,129635,1,0,1:0:0:0:
28,204,129792,1,8,1:0:0:0:
126,112,129949,1,0,1:0:0:0:
131,127,130028,1,0,1:0:0:0:
137,143,130106,5,0,1:0:0:0:
239,298,130263,1,0,1:0:0:0:
168,268,130420,1,8,1:0:0:0:
168,268,130578,2,0,B|102:289|102:289|92:309|92:309|23:334,1,163.799995001221,0|0,1:0|0:0,0:0:0:0:
10,339,130892,1,0,1:0:0:0:
49,233,131049,2,0,B|55:187|55:187|54:180|54:180|65:112,1,109.199996667481,8|0,1:0|0:0,0:0:0:0:
181,83,131363,5,0,1:0:0:0:
208,74,131441,1,0,1:0:0:0:
235,66,131520,1,0,1:0:0:0:
262,141,131677,1,8,1:0:0:0:
235,149,131756,1,8,1:0:0:0:
208,157,131834,1,8,1:0:0:0:
181,254,131991,1,8,1:0:0:0:
303,308,132148,38,0,L|384:284,2,68.250002603531,0|8|0,0:0|1:0|0:0,0:0:0:0:
257,374,132462,1,8,1:0:0:0:
181,254,132619,5,4,1:0:0:0:
154,338,132776,1,2,0:0:0:0:
154,338,133248,6,0,L|161:378,3,34.1250013017655,2|2|2|2,0:0|0:0|0:0|0:0,0:0:0:0:
180,253,133562,2,0,L|186:220,3,34.1250013017655,2|2|2|2,0:0|0:0|0:0|0:0,0:0:0:0:
94,274,133876,5,6,1:0:0:0:
94,274,134033,1,2,1:0:0:0:
273,230,134190,1,10,1:0:0:0:
73,160,134347,2,0,B|168:182|168:182|184:207|184:207|272:229,1,218.399993334961,2|0,1:0|1:0,0:0:0:0:
241,135,134818,2,0,P|285:93|335:110,1,109.199996667481,8|0,1:0|1:0,0:0:0:0:
392,153,135054,1,0,0:0:0:0:
392,153,135132,38,0,L|385:198,1,31.8499990280152,2|0,1:0|0:0,0:0:0:0:
469,169,135290,2,0,L|462:214,1,31.8499990280152,2|0,1:0|0:0,0:0:0:0:
327,103,135447,1,10,1:0:0:0:
497,271,135604,2,0,P|468:333|381:331,1,163.799995001221,2|0,1:0|0:0,0:0:0:0:
370,321,135918,1,2,1:0:0:0:
266,368,136075,2,0,P|226:328|236:276,1,109.199996667481,10|2,1:0|1:0,0:0:0:0:
327,103,136389,6,0,L|399:93,1,54.5999983337403,2|0,1:0|0:0,0:0:0:0:
393,171,136546,2,0,L|339:179,1,54.5999983337403,2|0,1:0|0:0,0:0:0:0:
263,189,136703,5,10,1:0:0:0:
129,98,136860,1,0,1:0:0:0:
263,189,137017,2,0,P|201:168|170:200,1,109.199996667481,2|2,1:0|1:0,0:0:0:0:
134,261,137253,1,0,0:0:0:0:
134,261,137331,2,0,B|128:315|128:315|124:320|124:320|119:378,1,109.199996667481,8|0,1:0|0:0,0:0:0:0:
263,189,137646,5,10,1:0:0:0:
258,156,137724,1,8,1:0:0:0:
253,123,137803,1,10,1:0:0:0:
248,90,137881,1,0,1:0:0:0:
243,57,137960,1,10,1:0:0:0:
345,109,138117,37,10,1:0:0:0:
172,193,138274,1,2,1:0:0:0:
354,315,138431,2,0,P|397:292|411:250,2,91,2|8|0,1:0|1:0|1:0,0:0:0:0:
276,359,138902,5,2,1:0:0:0:
276,359,139059,1,2,1:0:0:0:
133,295,139216,1,10,1:0:0:0:
339,243,139373,2,0,B|254:255|254:255|228:281|228:281|126:297,1,218.399993334961,2|2,0:0|1:0,0:0:0:0:
70,248,139845,2,0,P|21:216|37:160,1,118.299994584656,8|0,1:0|0:0,0:0:0:0:
95,112,140080,1,2,0:0:0:0:
95,112,140159,6,0,L|141:116,1,31.8499990280152,2|0,1:0|0:0,0:0:0:0:
205,123,140316,2,0,L|251:127,1,31.8499990280152,2|0,1:0|0:0,0:0:0:0:
20,0,140473,2,0,B|-12:47|-12:47|23:89,1,109.199996667481,10|2,1:0|0:0,0:0:0:0:
95,112,140787,1,0,1:0:0:0:
249,48,140944,5,2,1:0:0:0:
70,248,141101,2,0,P|129:266|170:228,1,118.299994584656,10|2,1:0|0:0,0:0:0:0:
249,48,141415,38,0,L|268:269,1,218.399993334961,2|10,1:0|1:0,0:0:0:0:
369,134,141886,2,0,L|178:150,1,191.099994168091,2|0,1:0|0:0,0:0:0:0:
163,153,142201,1,2,1:0:0:0:
343,217,142358,2,0,L|401:211,2,59.149997292328,8|0|0,1:0|0:0|0:0,0:0:0:0:
107,304,142672,5,0,1:0:0:0:
109,333,142750,1,0,1:0:0:0:
112,362,142829,1,0,1:0:0:0:
196,355,142986,1,8,1:0:0:0:
193,326,143064,1,8,1:0:0:0:
191,297,143143,1,8,1:0:0:0:
111,139,143300,6,0,L|25:210,1,109.199996667481,8|0,1:0|0:0,0:0:0:0:
16,152,143536,2,0,L|118:189,1,109.199996667481,8|0,1:0|0:0,0:0:0:0:
80,223,143771,2,0,L|68:168,1,54.5999983337403,8|0,1:0|0:0,0:0:0:0:
53,78,143928,5,2,1:0:0:0:
53,78,144085,1,0,1:0:0:0:
192,149,144242,1,8,1:0:0:0:
192,149,144399,2,0,B|350:112|350:112|293:152,1,218.399993334961,6|0,1:0|1:0,0:0:0:0:
381,194,144871,2,0,P|426:233|409:283,1,109.199996667481,8|0,1:0|0:0,0:0:0:0:
477,333,145185,37,0,1:0:0:0:
477,333,145342,1,0,1:0:0:0:
309,294,145499,1,8,1:0:0:0:
477,333,145656,2,0,P|405:372|310:295,1,218.399993334961,0|0,1:0|1:0,0:0:0:0:
240,244,146127,2,0,B|233:240|233:240|222:130,1,109.199996667481,8|0,1:0|0:0,0:0:0:0:
216,63,146363,1,2,0:0:0:0:
216,63,146441,6,0,L|283:57,1,54.5999983337403,2|0,1:0|0:0,0:0:0:0:
222,139,146598,2,0,L|289:133,1,54.5999983337403,0|0,1:0|0:0,0:0:0:0:
345,90,146756,1,8,1:0:0:0:
146,5,146913,2,0,P|42:31|51:135,1,218.399993334961,2|0,1:0|1:0,0:0:0:0:
98,182,147305,1,2,0:0:0:0:
98,182,147384,2,0,B|118:220|118:220|187:210,1,109.199996667481,8|0,1:0|0:0,0:0:0:0:
346,306,147698,5,0,1:0:0:0:
315,317,147776,1,0,1:0:0:0:
283,311,147855,1,8,1:0:0:0:
259,291,147934,1,8,1:0:0:0:
245,262,148012,1,8,1:0:0:0:
341,135,148169,1,8,1:0:0:0:
183,210,148326,2,0,L|119:219,1,59.149997292328,0|0,1:0|0:0,0:0:0:0:
110,220,148483,1,2,1:0:0:0:
245,262,148640,5,10,1:0:0:0:
245,262,148797,1,2,0:0:0:0:
53,300,148954,37,2,1:0:0:0:
95,372,149112,1,0,1:0:0:0:
95,372,149190,1,0,1:0:0:0:
95,372,149269,2,0,L|165:383,1,63.6999980560303,8|0,1:0|0:0,0:0:0:0:
202,311,149426,6,0,L|427:281,1,218.399993334961,2|0,1:0|1:0,0:0:0:0:
333,370,149897,2,0,L|317:253,1,109.199996667481,10|0,1:0|1:0,0:0:0:0:
433,80,150211,5,0,1:0:0:0:
433,80,150368,1,0,1:0:0:0:
369,127,150525,1,8,1:0:0:0:
369,127,150682,2,0,B|290:115|290:115|261:75|261:75|159:62,1,218.399993334961,0|0,1:0|1:0,0:0:0:0:
256,130,151153,2,0,P|227:179|179:179,1,109.199996667481,8|0,1:0|0:0,0:0:0:0:
171,170,151389,1,2,0:0:0:0:
171,170,151468,5,2,1:0:0:0:
19,137,151625,1,0,1:0:0:0:
19,137,151782,1,8,1:0:0:0:
50,210,151939,2,0,B|105:191|146:249|105:266|140:314|201:304,1,200.200006109619,0|0,1:0|1:0,0:0:0:0:
309,377,152410,2,0,B|287:359|294:316|294:316|273:359|247:367,1,127.399996112061,10|0,1:0|0:0,0:0:0:0:
113,306,152724,37,2,1:0:0:0:
113,306,152881,1,2,1:0:0:0:
264,229,153038,2,0,B|318:240|318:240|319:243|319:243|380:255,1,109.199996667481,10|2,1:0|2:0,2:0:0:0:
171,171,153352,6,0,L|154:93,2,72.7999977783204,8|0|8,1:0|1:0|1:0,0:0:0:0:
247,153,153667,6,0,L|230:75,2,72.7999977783204,0|0|8,1:0|1:0|1:0,0:0:0:0:
264,229,153981,5,6,1:0:0:0:
256,192,154059,12,2,158379,0:0:0:0:
94,277,158850,38,0,B|114:309|114:309|201:297,1,104.65000199604,4|0,1:0|0:0,0:0:0:0:
322,258,159164,1,0,1:0:0:0:
322,258,159321,2,0,B|302:226|302:226|215:238,1,104.65000199604,8|0,1:0|0:0,0:0:0:0:
49,143,159635,1,0,1:0:0:0:
49,143,159792,2,0,B|17:163|17:163|29:250,1,104.65000199604,8|0,1:0|0:0,0:0:0:0:
94,277,160106,6,0,B|144:245|144:245|121:91,1,209.300003992081,0|0,1:0|1:0,0:0:0:0:
175,27,160578,2,0,P|228:46|231:89,1,104.65000199604,8|0,1:0|0:0,0:0:0:0:
359,165,160892,1,0,1:0:0:0:
359,165,161049,2,0,P|344:219|302:226,1,104.65000199604,0|0,1:0|1:0,0:0:0:0:
191,367,161363,6,0,P|140:316|11:275,1,209.300003992081,0|0,1:0|1:0,0:0:0:0:
11,275,161834,2,0,P|73:270|118:251,1,104.65000199604,8|0,1:0|0:0,0:0:0:0:
191,367,162148,1,0,1:0:0:0:
191,367,162305,2,0,P|242:332|272:293,1,104.65000199604,8|0,1:0|0:0,0:0:0:0:
375,224,162619,6,0,B|380:179|380:179|388:172|388:172|401:64,1,156.975002994061,0|0,1:0|0:0,0:0:0:0:
392,57,162934,2,0,L|328:46,1,52.3250009980202,0|0,1:0|0:0,0:0:0:0:
263,34,163091,1,8,1:0:0:0:
257,33,163169,1,2,0:0:0:0:
251,32,163248,1,2,1:0:0:0:
463,208,163405,37,0,1:0:0:0:
375,224,163562,2,0,L|264:242,1,104.65000199604,8|0,1:0|0:0,0:0:0:0:
201,339,163876,6,0,P|254:355|266:238,1,209.300003992081,0|0,1:0|1:0,0:0:0:0:
197,152,164347,2,0,L|190:257,1,104.65000199604,8|0,1:0|0:0,0:0:0:0:
110,246,164661,1,0,1:0:0:0:
110,246,164818,2,0,L|117:141,1,104.65000199604,8|0,1:0|1:0,0:0:0:0:
21,58,165132,6,0,B|102:46|102:46|116:29|116:29|225:14,1,209.300003992081,0|0,1:0|1:0,0:0:0:0:
282,70,165604,2,0,B|358:83|358:83|378:114,1,104.65000199604,8|2,1:0|0:0,0:0:0:0:
422,39,165918,1,2,1:0:0:0:
422,39,166075,2,0,B|498:26|498:26|518:-5,1,104.65000199604,10|2,1:0|1:0,0:0:0:0:
312,151,166389,6,0,B|286:200|330:253|352:239|390:283|367:341,1,209.300003992081,0|0,1:0|1:0,0:0:0:0:
291,362,166860,2,0,P|253:320|261:269,1,104.65000199604,8|0,1:0|0:0,0:0:0:0:
394,139,167174,1,0,1:0:0:0:
394,139,167331,2,0,P|429:180|424:232,1,104.65000199604,8|0,1:0|0:0,0:0:0:0:
257,275,167646,38,0,B|189:262|189:262|161:275|161:275|137:252|137:252|43:235,1,209.300003992081,0|8,1:0|1:0,0:0:0:0:
55,235,168038,1,8,1:0:0:0:
55,235,168117,1,8,1:0:0:0:
179,185,168274,5,8,1:0:0:0:
161,274,168431,2,0,L|140:378,1,104.65000199604,0|8,1:0|1:0,0:0:0:0:
197,102,168745,2,0,L|218:-2,1,104.65000199604,2|2,1:0|0:0,0:0:0:0:
179,185,169059,5,2,1:0:0:0:
179,185,169216,1,2,1:0:0:0:
240,263,169373,2,0,P|299:285|332:260,1,104.65000199604,10|0,1:0|1:0,0:0:0:0:
338,250,169609,1,2,0:0:0:0:
345,236,169687,1,2,1:0:0:0:
423,129,169845,1,0,1:0:0:0:
319,110,170002,2,0,L|432:130,1,104.65000199604,8|0,1:0|0:0,0:0:0:0:
466,218,170316,5,0,1:0:0:0:
466,218,170473,1,0,1:0:0:0:
382,43,170630,1,8,1:0:0:0:
259,181,170787,2,0,L|465:217,1,209.300003992081,0|0,1:0|1:0,0:0:0:0:
402,287,171258,2,0,L|298:268,1,104.65000199604,8|0,1:0|1:0,0:0:0:0:
194,237,171572,37,0,1:0:0:0:
194,237,171729,1,0,1:0:0:0:
111,355,171886,2,0,P|179:354|193:236,1,209.300003992081,8|0,1:0|1:0,0:0:0:0:
41,185,172358,1,0,1:0:0:0:
36,194,172436,1,0,1:0:0:0:
33,203,172515,2,0,P|65:243|120:238,1,104.65000199604,8|0,1:0|0:0,0:0:0:0:
187,108,172829,5,0,1:0:0:0:
187,108,172986,1,8,1:0:0:0:
239,165,173143,2,0,L|223:323,1,156.975002994061,8|0,1:0|0:0,0:0:0:0:
221,336,173457,2,0,L|277:344,1,52.3250009980202,0|0,1:0|0:0,0:0:0:0:
350,357,173614,1,0,1:0:0:0:
141,324,173771,2,0,L|0:301,1,136.5,8|0,1:0|0:0,0:0:0:0:
0,292,174085,5,0,1:0:0:0:
122,154,174242,1,0,1:0:0:0:
122,154,174321,1,0,1:0:0:0:
122,154,174399,1,8,1:0:0:0:
6,216,174557,2,0,L|226:249,1,218.399993334961,0|2,1:0|1:0,0:0:0:0:
299,348,175028,2,0,P|356:339|370:286,1,109.199996667481,8|0,1:0|0:0,0:0:0:0:
317,155,175342,5,0,1:0:0:0:
317,155,175499,1,0,1:0:0:0:
453,286,175656,2,0,P|444:229|391:215,1,109.199996667481,8|0,1:0|0:0,0:0:0:0:
256,234,175970,37,0,1:0:0:0:
371,295,176127,1,0,1:0:0:0:
453,145,176284,1,8,1:0:0:0:
306,137,176441,5,0,1:0:0:0:
312,146,176520,1,0,1:0:0:0:
317,155,176598,1,0,1:0:0:0:
387,211,176756,1,0,1:0:0:0:
387,211,176913,1,8,1:0:0:0:
214,150,177070,2,0,B|144:161|144:161|128:181|128:181|50:195,1,163.799995001221,0|0,1:0|0:0,0:0:0:0:
46,196,177384,1,0,1:0:0:0:
148,329,177541,2,0,P|201:314|207:258,1,109.199996667481,8|0,1:0|0:0,0:0:0:0:
81,107,177855,5,0,1:0:0:0:
53,113,177934,1,0,1:0:0:0:
26,120,178012,1,0,1:0:0:0:
46,196,178169,2,0,L|109:181,2,54.5999983337403,8|8|8,1:0|1:0|1:0,1:0:0:0:
91,277,178483,1,8,1:0:0:0:
150,341,178640,6,0,L|232:324,1,68.250002603531,0|8,0:0|1:0,0:0:0:0:
227,318,178797,1,0,1:0:0:0:
338,356,178954,6,0,P|331:193|227:318,1,418.600007984162,4|0,1:0|1:0,0:0:0:0:
304,277,179740,1,8,1:0:0:0:
157,198,179897,1,0,1:0:0:0:
157,198,180211,6,0,L|148:103,1,91,0|0,1:0|0:0,0:0:0:0:
78,207,180525,2,0,L|69:112,1,91,0|0,1:0|0:0,0:0:0:0:
141,30,180839,5,0,1:0:0:0:
62,39,180996,1,8,1:0:0:0:
220,21,181153,1,0,0:0:0:0:
283,77,181310,53,0,1:0:0:0:
283,77,181468,1,0,1:0:0:0:
346,133,181625,6,0,L|445:124,1,91,0|0,1:0|0:0,0:0:0:0:
450,122,181860,1,2,0:0:0:0:
463,120,181939,1,2,1:0:0:0:
263,162,182096,1,0,1:0:0:0:
224,234,182253,2,0,L|233:333,1,91,8|0,1:0|0:0,0:0:0:0:
232,324,182724,6,0,L|331:315,1,91,0|0,1:0|0:0,0:0:0:0:
223,233,183038,2,0,L|133:242,1,91,0|0,1:0|0:0,0:0:0:0:
51,248,183352,1,2,1:0:0:0:
46,248,183431,1,2,0:0:0:0:
41,249,183509,1,8,1:0:0:0:
133,242,183667,53,8,1:0:0:0:
126,150,183824,1,0,1:0:0:0:
119,58,183981,1,0,1:0:0:0:
119,58,184138,6,0,L|28:66,2,91,0|0|0,1:0|0:0|0:0,0:0:0:0:
199,95,184609,2,0,P|235:30|339:50,1,182,0|0,1:0|0:0,0:0:0:0:
392,98,185080,1,2,1:0:0:0:
392,98,185237,6,0,L|377:288,1,182,0|0,1:0|1:0,0:0:0:0:
432,339,185708,2,0,P|487:349|510:319,1,91,0|0,1:0|1:0,0:0:0:0:
377,279,186023,2,0,P|331:249|293:263,1,91,8|0,1:0|0:0,0:0:0:0:
235,308,186337,1,0,1:0:0:0:
235,308,186494,1,0,1:0:0:0:
179,241,186651,54,0,L|186:146,2,91,0|0|0,1:0|0:0|0:0,0:0:0:0:
235,308,187122,1,0,1:0:0:0:
133,371,187279,2,0,P|92:362|73:319,1,91,8|0,1:0|0:0,0:0:0:0:
26,227,187593,1,0,1:0:0:0:
26,227,187750,6,0,L|33:132,1,91,0|0,1:0|0:0,0:0:0:0:
102,233,188064,2,0,L|109:138,1,91,8|8,1:0|1:0,0:0:0:0:
161,76,188379,1,8,1:0:0:0:
161,76,188536,2,0,P|202:53|253:63,1,91,10|2,1:0|1:0,0:0:0:0:
312,11,188850,2,0,P|357:17|395:60,1,91,2|0,1:0|0:0,0:0:0:0:
451,115,189164,6,0,B|476:165|437:207|423:198|394:235|419:284,1,182,0|0,1:0|0:0,0:0:0:0:
368,345,189635,1,0,1:0:0:0:
417,281,189792,2,0,P|388:244|342:242,1,91,8|0,1:0|0:0,0:0:0:0:
277,194,190106,1,2,1:0:0:0:
277,194,190263,54,0,L|179:211,1,91,0|0,1:0|0:0,0:0:0:0:
258,119,190578,2,0,L|160:136,1,91,0|0,1:0|0:0,0:0:0:0:
88,151,190892,5,0,1:0:0:0:
74,70,191049,1,8,1:0:0:0:
105,231,191206,1,0,1:0:0:0:
105,231,191363,2,0,P|83:284|46:311,1,91,0|0,1:0|0:0,0:0:0:0:
174,282,191677,6,0,P|206:340|326:339,1,182,0|0,1:0|0:0,0:0:0:0:
383,307,192148,1,0,1:0:0:0:
383,307,192305,1,8,1:0:0:0:
463,306,192462,2,0,P|423:288|383:307,1,91,0|2,1:0|1:0,0:0:0:0:
312,348,192776,54,0,P|302:260|281:164,1,182,0|0,1:0|1:0,0:0:0:0:
252,92,193248,1,0,1:0:0:0:
335,112,193405,1,10,1:0:0:0:
335,112,193483,1,10,1:0:0:0:
335,112,193562,2,0,P|381:79|385:43,1,91,10|8,1:0|1:0,0:0:0:0:
201,157,193876,2,0,P|153:178|97:246,1,136.5,2|0,1:0|0:0,0:0:0:0:
106,254,194190,5,0,1:0:0:0:
33,145,194347,2,0,B|-3:180|-3:180|29:213,1,91,0|0,1:0|1:0,0:0:0:0:
153,324,194661,1,0,1:0:0:0:
64,346,194818,2,0,L|161:321,1,91,8|0,1:0|0:0,0:0:0:0:
242,315,195132,1,0,1:0:0:0:
242,315,195290,6,0,P|310:328|425:363,1,182,0|0,1:0|1:0,0:0:0:0:
337,255,195761,1,0,1:0:0:0:
406,210,195918,1,0,1:0:0:0:
406,210,196075,2,0,P|465:195|508:193,2,91,8|0|0,1:0|0:0|1:0,0:0:0:0:
337,255,196546,53,0,1:0:0:0:
292,186,196703,2,0,L|304:87,1,91,0|0,1:0|0:0,0:0:0:0:
310,83,196939,1,2,0:0:0:0:
317,71,197017,1,2,0:0:0:0:
221,122,197174,1,0,1:0:0:0:
393,100,197331,2,0,L|492:112,2,91,8|0|2,1:0|0:0|0:0,0:0:0:0:
221,122,197803,6,0,L|210:212,1,91,0|0,1:0|0:0,0:0:0:0:
144,111,198117,2,0,L|133:201,1,91,0|0,1:0|0:0,0:0:0:0:
70,255,198431,2,0,L|20:273,2,45.5,8|8|8,1:0|1:0|1:0,0:0:0:0:
162,312,198745,2,0,L|212:330,2,45.5,0|8|0,0:0|1:0|0:0,0:0:0:0:
70,255,199059,5,8,1:0:0:0:
210,212,199216,1,4,1:0:0:0:
256,192,204242,5,0,1:0:0:0:
256,192,204399,12,2,208954,0:0:0:0:
256,192,209112,5,2,0:0:0:0:
