osu file format v14

[General]
AudioFilename: audio.mp3
AudioLeadIn: 0
PreviewTime: 111736
Countdown: 0
SampleSet: Soft
StackLeniency: 0.4
Mode: 0
LetterboxInBreaks: 0
WidescreenStoryboard: 1

[Editor]
Bookmarks: 112358,158850,178954
DistanceSpacing: 0.9
BeatDivisor: 8
GridSize: 32
TimelineZoom: 2.5

[Metadata]
Title:Sincuvate
TitleUnicode:Sincuvate
Artist:Endorfin. & Feryquitous
ArtistUnicode:Endorfin. & Feryquitous
Creator:Sagon
Version:Kibblaco's Expert
Source:
Tags:Sincuvate 藍月なくる Aitsuki Nakuru sky_delta Electronic Japanese drum and bass C90 comiket diverse system EDCD-0002 dnb coco LeeGod Lince Cosmico Kibbleru cococolaco Kalibe Irohas Chekito mugiwarasekai loli catgirl
BeatmapID:2862479
BeatmapSetID:1382661

[Difficulty]
HPDrainRate:5
CircleSize:4
OverallDifficulty:8.7
ApproachRate:9.4
SliderMultiplier:1.94
SliderTickRate:1

[Events]
//Background and Video events
0,0,"77971472_p0.jpg",0,0
//Break Periods
2,199730,203388
2,204442,207786
//Storyboard Layer 0 (Background)
//Storyboard Layer 1 (Fail)
//Storyboard Layer 2 (Pass)
//Storyboard Layer 3 (Foreground)
//Storyboard Layer 4 (Overlay)
//Storyboard Sound Samples

[TimingPoints]
684,314.13612565445,4,2,1,40,1,0
13249,-100,6,2,1,50,0,0
15134,-100,6,2,1,5,0,0
15291,-111.111111111111,4,2,1,70,0,0
16547,-111.111111111111,4,2,1,70,0,0
16939,-111.111111111111,4,2,1,5,0,0
17019,-111.111111111111,4,2,1,70,0,0
17176,-111.111111111111,4,2,2,70,0,0
17490,-111.111111111111,4,2,1,70,0,0
17804,-111.111111111111,4,2,1,70,0,0
18275,-111.111111111111,4,2,1,70,0,0
19060,-111.111111111111,4,2,1,70,0,0
19453,-111.111111111111,4,2,1,5,0,0
19532,-111.111111111111,4,2,1,70,0,0
20317,-111.111111111111,4,2,1,70,0,0
20710,-111.111111111111,4,2,1,70,0,0
21494,-111.111111111111,4,2,1,5,0,0
21574,-111.111111111111,4,2,1,70,0,0
22045,-111.111111111111,4,2,2,70,0,0
22673,-111.111111111111,4,2,1,70,0,0
23301,-111.111111111111,4,2,1,70,0,0
24244,-111.111111111111,4,2,1,70,0,0
25500,-111.111111111111,4,2,1,70,0,0
25814,-111.111111111111,4,2,1,70,0,0
26600,-111.111111111111,4,2,1,70,0,0
26757,-111.111111111111,4,2,1,70,0,0
26992,-111.111111111111,4,2,1,5,0,0
27071,-111.111111111111,4,2,1,70,0,0
27228,-111.111111111111,4,2,2,70,0,0
27542,-111.111111111111,4,2,1,70,0,0
27856,-111.111111111111,4,2,1,70,0,0
28327,-111.111111111111,4,2,1,70,0,0
29113,-111.111111111111,4,2,1,70,0,0
29505,-111.111111111111,4,2,1,5,0,0
29584,-111.111111111111,4,2,1,70,0,0
30369,-111.111111111111,4,2,1,70,0,0
30841,-111.111111111111,4,2,1,70,0,0
31547,-111.111111111111,4,2,1,5,0,0
31626,-111.111111111111,4,2,1,70,0,0
31783,-111.111111111111,4,2,1,70,0,0
32254,-111.111111111111,4,2,2,70,0,0
32568,-111.111111111111,4,2,1,70,0,0
33354,-111.111111111111,4,2,1,70,0,0
33668,-111.111111111111,4,2,2,70,0,0
34296,-111.111111111111,4,2,1,70,0,0
34532,-111.111111111111,4,2,1,70,0,0
35317,-111.111111111111,4,2,1,70,0,0
35867,314.13612565445,6,2,1,70,1,0
35867,-133.333333333333,4,2,1,70,0,0
37752,-133.333333333333,4,2,1,70,0,0
38380,-133.333333333333,4,2,1,70,0,0
40579,-133.333333333333,4,2,1,70,0,0
41835,-133.333333333333,4,2,1,70,0,0
42149,-133.333333333333,4,2,1,70,0,0
42464,-133.333333333333,4,2,1,70,0,0
42777,-133.333333333333,4,2,1,75,0,0
42881,-133.333333333333,4,2,1,75,0,0
43091,-133.333333333333,4,2,1,75,0,0
43406,314.13612565445,4,2,1,75,1,0
43406,-111.111111111111,4,2,1,75,0,0
44662,-111.111111111111,4,2,1,75,0,0
45368,-111.111111111111,4,2,1,5,0,0
45447,-111.111111111111,4,2,1,75,0,0
45919,-111.111111111111,4,2,1,75,0,0
46704,-111.111111111111,4,2,1,75,0,0
47332,-111.111111111111,4,2,2,75,0,0
48275,-100,6,2,1,80,0,1
48510,-100,6,2,1,5,0,1
48589,-100,6,2,1,80,0,1
49060,-100,6,2,1,80,0,1
49846,-100,6,2,1,80,0,1
50238,-100,6,2,1,5,0,1
50316,-100,6,2,1,80,0,1
50631,-100,6,2,1,80,0,1
51024,-100,6,2,1,80,0,1
51416,-100,6,2,1,80,0,1
52280,-100,6,2,1,80,0,1
53144,-100,6,2,1,80,0,1
53615,-100,6,2,1,80,0,1
54793,-100,6,2,1,5,0,1
54872,-100,6,2,1,80,0,1
56286,-100,6,2,1,80,0,1
56600,-100,6,2,1,80,0,1
57071,-100,6,2,1,80,0,1
57385,-100,6,2,2,80,0,1
57856,-71.4285714285714,6,2,1,80,0,0
58484,-100,6,2,1,80,0,1
59270,-100,6,2,1,80,0,1
59662,-100,6,2,1,80,0,1
60055,-76.9230769230769,6,2,1,80,0,1
60290,-76.9230769230769,6,2,1,5,0,1
60369,-100,6,2,1,80,0,1
60683,-100,6,2,1,80,0,1
60918,-100,6,2,1,5,0,1
60998,-100,6,2,1,80,0,1
61312,-100,6,2,1,80,0,1
62411,-100,6,2,2,80,0,1
62882,-100,6,2,1,80,0,1
63118,-100,6,2,1,80,0,1
63197,-100,6,2,1,80,0,1
63825,-100,6,2,1,80,0,1
64060,-100,6,2,1,80,0,1
64296,-100,6,2,1,80,0,1
64767,-100,6,2,1,80,0,1
65081,-100,6,2,1,80,0,1
65396,-100,6,2,1,80,0,1
65710,-100,6,2,1,80,0,1
65945,-100,6,2,1,80,0,1
66338,-100,6,2,1,80,0,1
66731,-100,6,2,1,80,0,1
67280,-100,6,2,2,80,0,1
67437,-76.9230769230769,6,2,2,80,0,1
67909,-76.9230769230769,6,2,1,80,0,1
68066,-76.9230769230769,6,2,1,80,0,1
68536,-111.111111111111,6,2,1,75,0,0
70578,-111.111111111111,6,2,1,75,0,0
71835,-111.111111111111,6,2,2,75,0,0
72777,-111.111111111111,6,2,1,75,0,0
73091,-111.111111111111,6,2,1,75,0,0
75997,-111.111111111111,6,2,1,75,0,0
76861,-111.111111111111,6,2,2,75,0,0
77332,-111.111111111111,6,2,1,75,0,0
77489,-111.111111111111,6,2,2,75,0,0
77960,-111.111111111111,6,2,1,75,0,0
79217,-111.111111111111,6,2,1,5,0,0
79374,-111.111111111111,6,2,1,70,0,0
79845,-166.666666666667,6,2,1,70,0,0
80474,-166.666666666667,6,2,1,70,0,0
81573,-166.666666666667,6,2,1,70,0,0
82044,-166.666666666667,6,2,1,70,0,0
82987,-166.666666666667,6,2,1,70,0,0
83772,-166.666666666667,6,2,1,70,0,0
84086,-166.666666666667,6,2,1,70,0,0
84478,-166.666666666667,6,2,1,5,0,0
84557,-166.666666666667,6,2,1,70,0,0
85500,-166.666666666667,6,2,1,70,0,0
86599,-166.666666666667,6,2,1,70,0,0
86913,-125,6,2,1,70,0,0
88955,-125,6,2,1,70,0,0
89426,-125,6,2,1,70,0,0
89584,-125,6,2,1,70,0,0
89898,-111.111111111111,6,2,1,70,0,0
90683,-111.111111111111,6,2,1,70,0,0
91075,-111.111111111111,6,2,1,5,0,0
91154,-111.111111111111,6,2,1,70,0,0
91311,-111.111111111111,6,2,2,70,0,0
91625,-111.111111111111,6,2,1,70,0,0
91940,-111.111111111111,6,2,1,70,0,0
92411,-111.111111111111,6,2,1,70,0,0
93588,-111.111111111111,6,2,1,5,0,0
93667,-111.111111111111,6,2,1,70,0,0
94845,-111.111111111111,6,2,1,70,0,0
94924,-100,6,2,1,70,0,0
95081,-100,6,2,1,5,0,0
95709,-100,6,2,1,70,0,0
96415,-100,6,2,2,70,0,0
99950,314.13612565445,6,2,1,70,1,0
99950,-133.333333333333,4,2,1,70,0,0
101834,-133.333333333333,4,2,1,70,0,0
102148,-133.333333333333,4,2,1,70,0,0
103091,-133.333333333333,4,2,1,70,0,0
104661,-133.333333333333,4,2,1,70,0,0
105918,-133.333333333333,4,2,1,70,0,0
106232,-133.333333333333,4,2,1,70,0,0
106546,-133.333333333333,4,2,1,70,0,0
106860,-133.333333333333,4,2,1,75,0,0
106964,-133.333333333333,4,2,1,75,0,0
107175,-111.111111111111,4,2,1,75,0,0
107489,314.13612565445,4,2,1,75,1,0
107489,-111.111111111111,4,2,1,75,0,0
108745,-111.111111111111,4,2,1,75,0,0
109451,-111.111111111111,4,2,1,5,0,0
109530,-111.111111111111,4,2,1,75,0,0
110002,-111.111111111111,4,2,1,75,0,0
110787,-111.111111111111,4,2,1,75,0,0
111258,-111.111111111111,4,2,2,75,0,0
111494,-71.4285714285714,4,2,2,75,0,0
111886,-142.857142857143,4,2,1,75,0,0
112043,-111.111111111111,4,2,1,75,0,0
112201,-90.9090909090909,4,2,1,75,0,0
112358,-100,4,2,1,80,0,1
112593,-100,4,2,1,5,0,1
112672,-100,4,2,1,80,0,1
113849,-100,4,2,1,5,0,1
113928,-100,4,2,1,80,0,1
114242,-100,4,2,1,80,0,1
114399,-100,4,2,1,80,0,1
114714,-100,4,2,1,80,0,1
114871,-100,4,2,1,5,0,1
114949,-100,4,2,1,80,0,1
115185,-100,4,2,1,80,0,1
116284,-100,4,2,1,5,0,1
116363,-100,4,2,1,80,0,1
116913,-100,4,2,1,80,0,1
117698,-100,4,2,1,80,0,1
118875,-100,4,2,1,5,0,1
118954,-100,4,2,1,80,0,1
119268,-100,4,2,1,80,0,1
120368,-100,4,2,1,80,0,1
121153,-100,4,2,1,80,0,1
121388,-100,4,2,1,5,0,1
121468,-100,4,2,2,80,0,1
121939,-100,6,2,1,80,0,0
122567,-100,6,2,1,80,0,1
122802,-100,6,2,1,5,0,1
122881,-100,6,2,1,80,0,1
123509,-100,6,2,1,80,0,1
123745,-100,6,2,1,80,0,1
124138,-66.6666666666667,6,2,1,80,0,1
124373,-66.6666666666667,6,2,1,5,0,1
124452,-100,6,2,1,80,0,1
124609,-100,6,2,1,5,0,1
124766,-100,6,2,1,80,0,1
125629,-100,6,2,1,5,0,1
125708,-100,6,2,1,80,0,1
126180,-100,6,2,1,80,0,1
126337,-100,6,2,1,80,0,1
126572,-100,6,2,2,80,0,1
126965,-100,6,2,1,80,0,1
127436,-100,6,2,1,5,0,1
127593,-100,6,2,1,80,0,1
128064,-100,6,2,1,5,0,1
128143,-100,6,2,1,80,0,1
128536,-100,6,2,1,80,0,1
128771,-100,6,2,1,80,0,1
129321,-100,6,2,1,5,0,1
129399,-100,6,2,1,80,0,1
129635,-100,6,2,1,80,0,1
130027,-100,6,2,1,80,0,1
130655,-100,6,2,1,5,0,1
130735,-100,6,2,1,80,0,1
130813,-100,6,2,1,80,0,1
131520,-76.9230769230769,6,2,1,80,0,1
131677,-76.9230769230769,6,2,2,80,0,1
131991,-76.9230769230769,6,2,1,80,0,1
132463,-76.9230769230769,6,2,1,80,0,1
132619,-111.111111111111,6,2,1,80,0,0
133248,-111.111111111111,6,2,10,70,0,0
133326,-111.111111111111,6,2,11,70,0,0
133405,-111.111111111111,6,2,10,70,0,0
133483,-111.111111111111,6,2,12,70,0,0
133562,-111.111111111111,6,2,13,70,0,0
133640,-111.111111111111,6,2,14,70,0,0
133719,-111.111111111111,6,2,15,70,0,0
133797,-111.111111111111,6,2,16,70,0,0
133876,-111.111111111111,6,2,2,70,0,0
134033,-111.111111111111,6,2,1,70,0,0
134582,-111.111111111111,6,2,1,5,0,0
134661,-111.111111111111,6,2,1,70,0,0
135132,-111.111111111111,6,2,1,70,0,0
135682,-111.111111111111,6,2,1,70,0,0
136075,-111.111111111111,6,2,1,70,0,0
136389,-111.111111111111,6,2,1,70,0,0
137017,-111.111111111111,6,2,1,70,0,0
137646,-111.111111111111,6,2,2,70,0,0
138274,-111.111111111111,6,2,1,70,0,0
138745,-111.111111111111,6,2,1,70,0,0
140081,-111.111111111111,6,2,1,70,0,0
142200,-111.111111111111,6,2,1,70,0,0
142986,-111.111111111111,6,2,2,70,0,0
143300,-111.111111111111,6,2,1,70,0,0
143536,-83.3333333333333,6,2,1,70,0,0
143928,-83.3333333333333,6,2,1,75,0,0
144242,-111.111111111111,6,2,1,75,0,0
144871,-111.111111111111,6,2,1,75,0,0
145813,-111.111111111111,6,2,1,75,0,0
146362,-111.111111111111,6,2,1,75,0,0
147384,-111.111111111111,6,2,1,75,0,0
147855,-111.111111111111,6,2,2,75,0,0
148326,-111.111111111111,6,2,1,75,0,0
149583,-111.111111111111,6,2,1,75,0,0
150132,-111.111111111111,6,2,1,5,0,0
150211,-111.111111111111,6,2,1,75,0,0
151389,-111.111111111111,6,2,1,75,0,0
152096,-111.111111111111,6,2,1,75,0,0
152645,-111.111111111111,6,2,1,5,0,0
152724,-111.111111111111,6,2,1,75,0,0
155237,-111.111111111111,6,2,1,60,0,0
158693,-111.111111111111,6,2,1,70,0,0
158850,-100,4,2,1,80,0,1
159085,-100,4,2,1,5,0,1
159164,-100,4,2,1,80,0,1
159635,-100,4,2,1,80,0,1
160106,-100,4,2,1,80,0,1
160420,-100,4,2,1,80,0,1
160812,-100,4,2,1,5,0,1
160892,-100,4,2,1,80,0,1
161363,-100,4,2,1,80,0,1
161520,-100,4,2,1,5,0,1
161598,-100,4,2,1,80,0,1
161991,-100,4,2,1,80,0,1
162462,-100,4,2,1,5,0,1
162541,-100,4,2,1,80,0,1
162855,-100,4,2,1,80,0,1
163562,-100,4,2,1,80,0,1
163719,-100,4,2,1,80,0,1
164190,-100,4,2,1,80,0,1
165367,-100,4,2,1,5,0,1
165447,-100,4,2,1,80,0,1
166703,-100,4,2,1,80,0,1
167174,-100,4,2,1,80,0,1
167488,-100,4,2,1,5,0,1
167567,-100,4,2,1,80,0,1
167645,-100,4,2,1,80,0,1
167959,-100,4,2,2,80,0,1
168431,-71.4285714285714,6,2,1,80,0,0
169059,-100,6,2,1,80,0,1
169844,-100,6,2,1,80,0,1
170630,-76.9230769230769,6,2,1,80,0,1
170865,-76.9230769230769,6,2,1,5,0,1
170944,-100,6,2,1,80,0,1
171493,-100,6,2,1,5,0,1
171572,-100,6,2,1,80,0,1
172358,-100,6,2,1,80,0,1
172986,-100,6,2,2,80,0,1
173457,-100,6,2,1,80,0,1
173692,-100,6,2,1,80,0,1
173771,-100,6,2,1,80,0,1
174635,-100,6,2,1,80,0,1
175342,-100,6,2,1,80,0,1
175970,-100,6,2,1,80,0,1
176520,-100,6,2,1,80,0,1
177384,-100,6,2,1,80,0,1
177855,-100,6,2,1,80,0,1
178012,-76.9230769230769,6,2,1,80,0,1
178169,-76.9230769230769,6,2,2,80,0,1
178483,-76.9230769230769,6,2,1,80,0,1
178954,-111.111111111111,6,2,1,70,0,1
179268,-111.111111111111,6,2,1,5,0,1
179583,-111.111111111111,6,2,1,70,0,1
180525,-111.111111111111,6,2,1,70,0,1
182567,-111.111111111111,6,2,1,70,0,1
183352,-111.111111111111,6,2,1,70,0,1
183509,-111.111111111111,6,2,2,70,0,1
183824,-111.111111111111,6,2,1,70,0,1
184138,-111.111111111111,6,2,1,70,0,1
184609,-111.111111111111,6,2,1,70,0,1
187122,-111.111111111111,6,2,1,70,0,1
187593,-111.111111111111,6,2,1,70,0,1
188064,-111.111111111111,6,2,2,70,0,1
188536,-111.111111111111,6,2,1,70,0,1
188850,-111.111111111111,6,2,1,70,0,1
189164,-111.111111111111,6,2,1,70,0,1
189635,-111.111111111111,6,2,1,70,0,1
190499,-111.111111111111,6,2,1,70,0,1
191991,-111.111111111111,6,2,1,70,0,1
193011,-111.111111111111,6,2,1,5,0,1
193091,-111.111111111111,6,2,1,70,0,1
193405,-111.111111111111,6,2,2,70,0,1
193876,-111.111111111111,6,2,1,70,0,1
194661,-111.111111111111,6,2,1,70,0,1
195525,-111.111111111111,6,2,1,5,0,1
195604,-111.111111111111,6,2,1,70,0,1
196546,-111.111111111111,6,2,1,70,0,1
197174,-111.111111111111,6,2,1,70,0,1
198038,-111.111111111111,6,2,1,70,0,1
198431,-111.111111111111,6,2,2,70,0,1
198824,-111.111111111111,6,2,2,70,0,1
199059,-111.111111111111,6,2,2,70,0,1
199216,-200,6,2,2,70,0,0
199295,-200,6,2,1,50,0,0
199530,-200,6,2,1,5,0,0
203928,-100,6,2,1,50,0,0
209111,-100,6,2,1,50,0,0

[Colours]
Combo1 : 251,226,57
Combo2 : 7,150,218
Combo3 : 255,128,192
Combo4 : 29,68,203
Combo5 : 162,105,224
Combo6 : 255,151,47

[HitObjects]
256,192,13249,12,0,15134,0:0:0:0:
278,123,15291,5,2,0:0:0:0:
252,122,15369,1,2,0:0:0:0:
227,132,15448,1,2,0:0:0:0:
209,150,15526,1,2,0:0:0:0:
190,168,15605,1,2,0:0:0:0:
166,177,15683,1,2,0:0:0:0:
139,176,15762,1,2,1:0:0:0:
277,208,15919,5,0,1:0:0:0:
186,272,16076,1,8,1:0:0:0:
144,86,16233,2,0,P|139:42|130:0,1,87.2999973358155,0|0,1:0|0:0,0:0:0:0:
22,219,16547,1,0,1:0:0:0:
22,219,16626,1,0,0:0:0:0:
22,219,16704,2,0,P|73:181|171:187,1,130.949996003723,8|0,1:0|0:0,0:0:0:0:
205,236,17019,6,0,L|248:241,1,43.6499986679078,0|0,1:0|0:0,0:0:0:0:
418,273,17176,1,8,1:0:0:0:
428,253,17254,1,8,1:0:0:0:
429,231,17333,1,8,1:0:0:0:
303,87,17490,6,0,L|311:129,1,43.6499986679078,0|0,1:0|0:0,0:0:0:0:
312,362,17647,2,0,L|320:319,1,43.6499986679078,0|0,1:0|0:0,0:0:0:0:
334,224,17804,1,0,1:0:0:0:
205,236,17961,2,0,L|109:249,1,87.2999973358155,8|0,1:0|0:0,0:0:0:0:
12,29,18275,37,0,1:0:0:0:
77,110,18432,1,0,1:0:0:0:
149,42,18589,2,0,P|205:47|244:73,1,87.2999973358155,8|0,1:0|0:0,0:0:0:0:
205,236,18903,2,0,L|187:340,1,87.2999973358155,0|0,1:0|1:0,0:0:0:0:
323,159,19218,2,0,L|174:140,1,130.949996003723,8|0,1:0|0:0,0:0:0:0:
171,140,19532,5,0,1:0:0:0:
190,322,19689,1,0,1:0:0:0:
291,263,19846,1,8,1:0:0:0:
85,241,20003,2,0,P|128:237|171:228,1,87.2999973358155,0|0,1:0|0:0,0:0:0:0:
286,116,20317,1,0,1:0:0:0:
391,240,20474,2,0,L|407:345,1,87.2999973358155,8|0,1:0|0:0,0:0:0:0:
410,347,20710,1,0,0:0:0:0:
415,367,20788,6,0,L|345:358,1,43.6499986679078,2|0,1:0|2:0,2:0:0:0:
291,263,20945,1,2,1:0:0:0:
191,384,21102,1,10,1:0:0:0:
33,260,21259,2,0,P|97:252|158:276,1,130.949996003723,0|0,1:0|0:0,0:0:0:0:
171,293,21574,1,0,1:0:0:0:
371,361,21731,2,0,P|394:311|399:251,1,87.2999973358155,8|0,1:0|0:0,0:0:0:0:
234,9,22045,6,0,L|244:65,1,43.6499986679078,0|0,1:0|0:0,0:0:0:0:
291,263,22202,2,0,L|283:220,1,43.6499986679078,0|0,1:0|0:0,0:0:0:0:
287,137,22359,1,8,1:0:0:0:
266,135,22437,1,8,1:0:0:0:
246,141,22516,1,8,1:0:0:0:
377,190,22673,1,0,1:0:0:0:
186,220,22830,2,0,L|87:207,1,87.2999973358155,2|0,1:0|1:0,0:0:0:0:
40,128,23144,1,0,0:0:0:0:
186,220,23301,38,0,L|201:322,1,87.2999973358155,2|0,1:0|1:0,0:0:0:0:
426,341,23615,1,8,1:0:0:0:
337,367,23773,2,0,B|347:298|347:298|378:265|378:265|388:197,1,174.599994671631,2|0,1:0|1:0,0:0:0:0:
291,133,24244,2,0,P|285:185|304:233,1,87.2999973358155,10|0,1:0|0:0,0:0:0:0:
426,341,24558,5,0,1:0:0:0:
251,297,24715,2,0,L|150:318,1,87.2999973358155,0|0,1:0|1:0,0:0:0:0:
380,170,25029,1,0,1:0:0:0:
136,223,25186,2,0,L|35:202,1,87.2999973358155,0|0,1:0|1:0,0:0:0:0:
251,23,25500,2,0,L|245:81,1,43.6499986679078,8|0,1:0|0:0,0:0:0:0:
233,204,25657,2,0,L|237:160,1,43.6499986679078,0|0,1:0|0:0,0:0:0:0:
156,69,25814,5,2,1:0:0:0:
327,167,25971,1,2,1:0:0:0:
136,223,26129,1,10,1:0:0:0:
344,76,26286,2,0,P|398:77|442:109,1,87.2999973358155,0|0,1:0|0:0,0:0:0:0:
452,235,26600,1,2,1:0:0:0:
452,235,26678,1,2,0:0:0:0:
451,235,26757,2,0,P|385:245|330:312,1,130.949996003723,10|0,1:0|0:0,0:0:0:0:
238,300,27071,6,0,L|225:236,1,43.6499986679078,0|0,1:0|0:0,0:0:0:0:
191,114,27228,1,8,1:0:0:0:
196,135,27307,1,8,1:0:0:0:
201,156,27385,1,8,1:0:0:0:
119,265,27542,38,0,L|129:207,1,43.6499986679078,0|0,1:0|0:0,0:0:0:0:
303,95,27699,2,0,L|295:138,1,43.6499986679078,0|0,1:0|0:0,0:0:0:0:
208,179,27856,1,0,1:0:0:0:
330,260,28013,2,0,L|424:280,1,87.2999973358155,8|0,1:0|0:0,0:0:0:0:
263,377,28327,5,0,1:0:0:0:
186,328,28485,1,0,1:0:0:0:
100,373,28642,2,0,P|79:329|81:268,1,87.2999973358155,8|0,1:0|1:0,0:0:0:0:
184,97,28956,2,0,P|205:141|203:202,1,87.2999973358155,2|0,1:0|1:0,0:0:0:0:
275,284,29270,2,0,P|359:281|413:219,1,130.949996003723,8|0,1:0|0:0,0:0:0:0:
406,233,29584,5,0,1:0:0:0:
301,89,29741,1,0,1:0:0:0:
395,131,29898,1,8,1:0:0:0:
294,190,30055,2,0,L|173:174,1,87.2999973358155,0|0,1:0|0:0,0:0:0:0:
129,104,30369,1,0,1:0:0:0:
0,266,30526,2,0,B|46:274|46:274|88:256,1,87.2999973358155,8|0,1:0|0:0,0:0:0:0:
103,249,30762,1,2,0:0:0:0:
123,241,30841,6,0,L|136:323,1,43.6499986679078,2|0,1:0|0:0,0:0:0:0:
71,366,30998,1,2,1:0:0:0:
35,174,31155,1,10,1:0:0:0:
224,266,31312,2,0,L|366:285,1,130.949996003723,0|0,1:0|0:0,0:0:0:0:
376,280,31626,2,0,L|386:338,2,43.6499986679078,0|0|8,1:0|0:0|1:0,0:0:0:0:
348,90,31940,1,0,1:0:0:0:
471,116,32097,38,0,L|406:131,1,43.6499986679078,0|0,1:0|0:0,0:0:0:0:
273,141,32254,1,8,1:0:0:0:
260,122,32333,1,8,1:0:0:0:
257,100,32411,1,8,1:0:0:0:
431,27,32568,1,0,1:0:0:0:
362,196,32725,2,0,P|356:239|353:282,1,87.2999973358155,0|0,1:0|1:0,0:0:0:0:
150,131,33040,2,0,P|155:87|158:44,1,87.2999973358155,8|0,1:0|0:0,0:0:0:0:
348,90,33354,5,0,1:0:0:0:
192,218,33511,1,0,1:0:0:0:
271,155,33668,1,8,1:0:0:0:
452,315,33825,2,0,B|352:305|400:259|292:254,1,174.599994671631,8|0,1:0|1:0,0:0:0:0:
53,98,34296,2,0,P|104:68|157:71,1,87.2999973358155,8|0,1:0|0:0,0:0:0:0:
152,70,34532,1,2,0:0:0:0:
171,79,34610,6,0,L|182:165,1,87.2999973358155,0|0,1:0|2:0,2:0:0:0:
182,275,34846,2,0,L|170:188,1,87.2999973358155,0|0,1:0|2:0,2:0:0:0:
87,233,35081,6,0,L|46:246,3,29.0999991119385,8|0|0|0,1:0|0:0|0:0|0:0,0:0:0:0:
294,108,35317,2,0,B|247:102|247:102|224:83|224:83|170:78,1,130.949996003723,0|0,1:0|1:0,0:0:0:0:
360,309,35867,38,0,P|409:282|505:268,2,145.500005550385,2|0|10,1:0|1:0|1:0,0:0:0:0:
360,309,36652,2,0,P|345:264|338:222,1,72.7500027751924,0|2,1:0|1:0,0:0:0:0:
115,33,37123,1,0,1:0:0:0:
63,103,37280,1,8,1:0:0:0:
112,175,37437,2,0,P|104:210|92:244,1,72.7500027751924,0|0,1:0|0:0,2:0:0:0:
179,382,37751,6,0,P|176:327|191:227,1,145.500005550385,2|0,1:0|1:0,0:0:0:0:
188,237,38223,2,0,P|218:252|271:264,1,72.7500027751924,2|10,0:0|1:0,0:0:0:0:
398,126,38694,2,0,P|328:136|254:173,1,145.500005550385,2|0,1:0|1:0,0:0:0:0:
261,168,39165,2,0,L|272:80,1,72.7500027751924,10|0,1:0|1:0,0:0:0:0:
55,44,39636,6,0,L|83:202,2,145.500005550385,2|2|8,1:0|1:0|1:0,0:0:0:0:
12,209,40421,2,0,P|44:193|80:187,1,72.7500027751924,0|2,1:0|1:0,0:0:0:0:
161,235,40736,1,0,1:0:0:0:
116,318,40893,2,0,P|83:334|48:340,1,72.7500027751924,0|8,1:0|1:0,0:0:0:0:
161,235,41207,6,0,P|226:238|300:304,1,145.500005550385,2|2,1:0|1:0,0:0:0:0:
288,284,41678,2,0,P|297:232|307:200,1,72.7500027751924,2|0,0:0|1:0,0:0:0:0:
161,46,41992,2,0,P|152:98|142:130,1,72.7500027751924,2|8,0:0|1:0,0:0:0:0:
212,192,42306,2,0,L|218:170,4,18.1875006937981,2|0|0|0|0,0:0|0:0|0:0|0:0|1:0,0:0:0:0:
512,334,42777,38,0,L|450:310,1,48.5000018501283,2|2,0:0|0:0,0:0:0:0:
401,193,42987,2,0,L|408:240,1,48.5000018501283,2|2,0:0|0:0,0:0:0:0:
375,328,43170,2,0,L|338:360,2,36.3750013875962,2|2|0,0:0|0:0|0:0,0:0:0:0:
462,115,43406,6,0,P|418:108|378:91,1,87.2999973358155,2|0,1:0|1:0,0:0:0:0:
315,256,43720,1,8,1:0:0:0:
140,215,43877,2,0,P|179:183|303:165,1,174.599994671631,0|2,0:0|1:0,0:0:0:0:
233,373,44348,1,10,1:0:0:0:
233,373,44426,1,2,0:0:0:0:
233,373,44505,6,0,P|229:325|229:279,1,87.2999973358155,2|0,0:0|1:0,0:0:0:0:
252,188,44819,1,0,1:0:0:0:
133,259,44976,1,8,1:0:0:0:
137,10,45133,2,0,P|147:57|152:153,1,130.949996003723,0|0,1:0|0:0,0:0:0:0:
147,160,45447,1,2,1:0:0:0:
435,326,45604,2,0,P|395:305|342:303,1,87.2999973358155,8|0,1:0|0:0,0:0:0:0:
333,310,45840,1,0,0:0:0:0:
314,322,45919,5,2,1:0:0:0:
321,144,46076,1,0,1:0:0:0:
98,251,46233,2,0,B|145:232|165:196|165:196|199:229|244:232,1,174.599994671631,8|0,1:0|1:0,0:0:0:0:
321,144,46704,1,2,1:0:0:0:
314,322,46861,1,8,1:0:0:0:
479,248,47018,38,0,L|391:237,1,87.2999973358155,0|0,0:0|1:0,0:0:0:0:
237,38,47332,1,8,1:0:0:0:
235,55,47411,1,8,1:0:0:0:
233,72,47489,2,0,L|224:135,1,43.6499986679078,8|0,1:0|0:0,0:0:0:0:
8,178,47646,1,8,1:0:0:0:
8,178,48275,6,0,B|64:189|64:189|90:213|90:213|170:230,1,145.5,4|0,1:0|0:0,0:0:0:0:
225,253,48589,2,0,L|234:179,1,48.5,0|0,1:0|0:0,0:0:0:0:
245,117,48746,1,8,1:0:0:0:
25,274,48903,1,2,0:0:0:0:
31,292,48981,1,2,0:0:0:0:
37,309,49060,1,2,1:0:0:0:
146,132,49217,2,0,L|135:35,1,97,8|0,1:0|0:0,0:0:0:0:
326,243,49531,6,0,P|354:251|405:261,2,48.5,0|0|0,1:0|0:0|0:0,0:0:0:0:
198,293,49845,1,0,1:0:0:0:
6,170,50002,2,0,P|54:125|154:133,1,145.5,8|0,1:0|0:0,0:0:0:0:
146,132,50316,2,0,L|154:192,1,48.5,0|0,1:0|0:0,0:0:0:0:
151,305,50474,2,0,L|202:291,1,48.5,8|0,1:0|0:0,0:0:0:0:
321,325,50631,1,0,1:0:0:0:
271,64,50788,6,0,L|254:173,1,97,0|0,1:0|0:0,0:0:0:0:
252,179,51023,1,2,0:0:0:0:
248,197,51102,1,2,1:0:0:0:
151,98,51259,2,0,L|131:21,2,48.5,8|0|2,1:0|0:0|0:0,0:0:0:0:
198,293,51573,1,2,1:0:0:0:
446,172,51730,2,0,B|397:183|397:183|354:163,1,97,8|0,1:0|0:0,0:0:0:0:
359,182,51966,1,2,0:0:0:0:
364,200,52044,38,0,L|379:312,1,97,2|0,1:0|0:0,0:0:0:0:
460,264,52358,2,0,L|507:272,1,48.5,0|0,1:0|0:0,0:0:0:0:
452,75,52515,2,0,B|379:87|379:87|345:126|345:126|278:138,1,194,8|0,1:0|1:0,0:0:0:0:
446,172,52987,2,0,L|483:180,4,24.25,10|0|0|0|0,1:0|0:0|0:0|0:0|0:0,0:0:0:0:
199,183,53301,6,0,B|180:137|180:137|197:69,1,97,2|0,1:0|0:0,0:0:0:0:
355,228,53615,2,0,L|343:337,1,97,0|8,1:0|1:0,0:0:0:0:
236,366,53929,2,0,L|227:299,1,48.5,0|2,1:0|0:0,0:0:0:0:
120,310,54086,2,0,L|129:243,1,48.5,0|0,1:0|0:0,0:0:0:0:
208,205,54243,1,8,1:0:0:0:
116,338,54400,1,0,1:0:0:0:
106,18,54557,6,0,P|78:78|107:162,1,145.5,2|0,1:0|0:0,0:0:0:0:
113,164,54871,1,0,1:0:0:0:
229,317,55029,2,0,P|281:294|348:294,1,97,8|2,1:0|0:0,0:0:0:0:
339,296,55264,1,2,0:0:0:0:
355,306,55343,2,0,L|368:194,1,97,2|10,1:0|1:0,0:0:0:0:
473,134,55657,1,2,1:0:0:0:
272,178,55814,1,2,1:0:0:0:
386,6,55971,6,0,L|374:102,1,97,0|0,1:0|1:0,0:0:0:0:
277,67,56285,1,8,1:0:0:0:
457,232,56442,2,0,L|479:295,2,48.5,2|2|2,0:0|0:0|1:0,0:0:0:0:
272,178,56756,2,0,P|226:193|161:202,1,97,8|0,1:0|0:0,0:0:0:0:
69,211,56992,1,0,0:0:0:0:
85,200,57070,38,0,B|201:216|144:262|251:288,1,194,2|8,1:0|1:0,0:0:0:0:
270,285,57463,1,8,1:0:0:0:
289,281,57542,2,0,L|282:202,1,48.5,8|0,1:0|0:0,0:0:0:0:
452,185,57699,2,0,L|456:233,1,48.5,8|0,1:0|0:0,0:0:0:0:
374,268,57856,6,0,L|363:180,1,67.8999979278565,2|0,1:0|0:0,0:0:0:0:
235,114,58013,2,0,L|316:148,1,67.8999979278565,10|0,1:0|0:0,0:0:0:0:
441,71,58170,2,0,L|370:124,2,67.8999979278565,2|2|2,1:0|0:0|0:0,0:0:0:0:
156,62,58484,6,0,B|138:109|138:109|157:176,1,97,2|2,1:0|1:0,0:0:0:0:
240,22,58798,1,10,1:0:0:0:
242,215,58955,1,2,1:0:0:0:
242,215,59034,1,2,0:0:0:0:
242,215,59112,1,2,0:0:0:0:
408,136,59269,2,0,L|289:123,1,97,0|8,1:0|1:0,0:0:0:0:
78,93,59584,1,2,0:0:0:0:
78,93,59662,1,2,0:0:0:0:
78,93,59741,6,0,L|148:102,1,48.5,2|0,1:0|0:0,0:0:0:0:
242,215,59898,2,0,L|193:208,1,48.5,0|0,1:0|0:0,0:0:0:0:
46,179,60055,2,0,B|78:172|115:169|115:169|150:127|150:127|188:123|230:116,1,189.149991341401,10|0,1:0|0:0,0:0:0:0:
193,208,60369,2,0,B|177:252|177:252|191:300,1,97,0|0,1:0|1:0,0:0:0:0:
499,309,60683,2,0,P|442:265|371:265,1,145.5,8|0,1:0|0:0,0:0:0:0:
356,278,60997,38,0,P|363:230|365:181,1,97,0|0,1:0|1:0,2:0:0:0:
92,151,61311,2,0,B|208:154|136:206|267:217,1,194,8|0,1:0|1:0,0:0:0:0:
90,289,61782,2,0,L|106:244,1,48.5,0|0,1:0|0:0,0:0:0:0:
245,118,61940,1,8,1:0:0:0:
195,288,62097,6,0,L|211:384,1,97,0|0,1:0|1:0,0:0:0:0:
245,118,62411,1,8,1:0:0:0:
242,99,62489,1,8,1:0:0:0:
239,80,62568,1,8,1:0:0:0:
266,229,62725,2,0,P|225:203|177:197,1,97,10|2,1:0|1:0,0:0:0:0:
366,319,63039,2,0,L|410:313,4,24.25,2|0|0|0|8,1:0|0:0|0:0|0:0|1:0,0:0:0:0:
330,16,63510,6,0,P|347:75|346:140,1,97,0|0,1:0|1:0,0:0:0:0:
291,186,63824,1,8,1:0:0:0:
143,136,63981,1,2,0:0:0:0:
163,109,64060,1,2,0:0:0:0:
192,91,64138,1,2,1:0:0:0:
225,84,64217,1,2,0:0:0:0:
258,90,64296,1,2,1:0:0:0:
386,203,64453,2,0,L|437:215,2,48.5,8|0|0,1:0|0:0|0:0,0:0:0:0:
252,271,64767,6,0,P|247:318|234:377,1,97,0|0,1:0|1:0,0:0:0:0:
355,295,65081,1,8,1:0:0:0:
188,179,65238,1,0,0:0:0:0:
297,179,65395,2,0,P|301:131|315:73,1,97,0|0,1:0|1:0,0:0:0:0:
395,35,65709,1,8,1:0:0:0:
188,179,65866,1,2,0:0:0:0:
188,179,65945,1,2,0:0:0:0:
188,179,66023,38,0,L|64:167,1,97,2|0,1:0|1:0,0:0:0:0:
243,259,66337,1,8,1:0:0:0:
439,181,66495,1,0,1:0:0:0:
400,267,66652,5,2,0:0:0:0:
400,267,66730,1,2,0:0:0:0:
400,267,66809,1,2,1:0:0:0:
348,186,66966,1,8,1:0:0:0:
391,107,67123,2,0,L|398:52,2,48.5,0|0|0,0:0|0:0|1:0,0:0:0:0:
163,322,67437,6,0,B|148:242|148:242|173:201,1,126.0999942276,0|0,1:0|1:0,0:0:0:0:
116,32,67673,2,0,B|131:112|131:112|106:153,1,126.0999942276,8|0,1:0|0:0,0:0:0:0:
63,229,67908,6,0,L|-9:240,1,63.0499971138002,8|0,1:0|0:0,0:0:0:0:
11,122,68065,1,2,0:0:0:0:
1,141,68144,2,0,B|72:154|72:154|101:190|101:190|170:203,1,189.149991341401,10|8,1:0|1:0,0:0:0:0:
275,160,68536,38,0,P|287:199|298:260,1,87.2999973358155,2|0,1:0|1:0,0:0:0:0:
448,312,68851,1,8,1:0:0:0:
358,364,69008,2,0,P|365:302|406:187,1,174.599994671631,2|0,1:0|1:0,0:0:0:0:
108,34,70578,6,0,L|126:135,1,87.2999973358155,2|8,1:0|1:0,0:0:0:0:
141,241,70892,1,0,0:0:0:0:
59,190,71049,2,0,B|120:145|120:145|234:181,1,174.599994671631,2|10,1:0|1:0,0:0:0:0:
306,221,71521,2,0,L|321:135,1,87.2999973358155,2|0,1:0|0:0,0:0:0:0:
446,41,71835,1,8,1:0:0:0:
352,36,71992,2,0,B|406:61|406:61|420:199,1,174.599994671631,10|0,1:0|1:0,0:0:0:0:
198,357,72777,6,0,P|175:305|175:250,1,87.2999973358155,0|0,1:0|0:0,0:0:0:0:
261,287,73091,1,0,1:0:0:0:
150,166,73248,2,0,P|108:208|93:348,1,174.599994671631,8|2,1:0|1:0,0:0:0:0:
84,317,73720,2,0,L|-5:335,1,87.2999973358155,0|8,1:0|1:0,0:0:0:0:
150,166,74034,1,2,1:0:0:0:
390,78,75604,6,0,B|402:117|402:117|389:161,1,87.2999973358155,2|0,1:0|0:0,0:0:0:0:
304,177,75840,2,0,L|306:134,2,43.6499986679078,2|0|0,1:0|0:0|0:0,0:0:0:0:
218,165,76076,2,0,B|206:126|206:126|218:81,1,87.2999973358155,2|0,1:0|1:0,0:0:0:0:
303,40,76390,1,8,1:0:0:0:
133,158,76547,2,0,L|328:130,1,174.599994671631,2|8,1:0|1:0,0:0:0:0:
421,310,77018,2,0,L|464:322,2,43.6499986679078,8|2|2,1:0|0:0|0:0,0:0:0:0:
324,265,77332,1,0,1:0:0:0:
229,367,77489,1,8,1:0:0:0:
227,349,77568,1,8,1:0:0:0:
225,331,77646,2,0,L|215:243,2,87.2999973358155,8|8|0,1:0|1:0|1:0,0:0:0:0:
256,192,78039,12,0,79217,0:0:0:0:
400,195,79374,37,2,0:0:0:0:
383,185,79453,1,2,0:0:0:0:
364,181,79531,1,2,0:0:0:0:
337,159,79610,5,2,0:0:0:0:
357,145,79688,1,2,0:0:0:0:
381,139,79767,1,2,0:0:0:0:
417,144,79845,6,0,P|375:93|269:94,1,174.599994671631,6|0,1:0|0:0,0:0:0:0:
136,139,80474,1,8,1:0:0:0:
136,139,80788,1,0,1:0:0:0:
153,227,80945,6,0,L|171:364,1,116.399996447754,0|0,1:0|1:0,0:0:0:0:
249,311,81416,2,0,P|252:282|258:253,1,58.199998223877,2|0,0:0|1:0,0:0:0:0:
71,269,81730,2,0,P|67:297|61:326,2,58.199998223877,10|0|0,1:0|0:0|0:0,0:0:0:0:
0,146,82201,1,2,0:0:0:0:
0,146,82280,1,2,0:0:0:0:
0,146,82358,38,0,B|100:138|62:189|167:181,1,174.599994671631,2|0,1:0|0:0,0:0:0:0:
253,209,82987,2,0,P|270:170|273:90,1,116.399996447754,8|0,1:0|1:0,0:0:0:0:
234,26,83458,1,0,1:0:0:0:
160,63,83615,6,0,L|94:75,1,58.199998223877,2|0,0:0|1:0,0:0:0:0:
57,170,83929,2,0,L|114:180,1,58.199998223877,2|2,0:0|1:0,0:0:0:0:
83,289,84243,2,0,L|168:271,1,87.2999973358155,10|0,1:0|0:0,0:0:0:0:
197,290,84557,1,2,0:0:0:0:
199,275,84636,1,2,0:0:0:0:
201,260,84714,1,2,0:0:0:0:
203,245,84793,1,2,0:0:0:0:
205,230,84871,6,0,B|212:173|212:173|244:142|244:142|254:56,1,174.599994671631,2|0,1:0|1:0,0:0:0:0:
160,91,85500,1,8,1:0:0:0:
160,91,85814,1,0,1:0:0:0:
297,220,85971,2,0,L|422:200,1,116.399996447754,0|0,1:0|1:0,0:0:0:0:
297,220,86442,2,0,L|306:295,2,58.199998223877,2|2|10,0:0|1:0|1:0,0:0:0:0:
160,91,86913,6,0,P|148:152|152:187,1,77.6,2|2,0:0|1:0,0:0:0:0:
205,341,87227,1,2,1:0:0:0:
35,321,87385,2,0,P|69:275|174:267,1,155.2,0|2,1:0|1:0,0:0:0:0:
205,341,87856,2,0,P|243:353|305:366,2,77.6,2|8|0,1:0|1:0|0:0,0:0:0:0:
196,178,88327,1,2,1:0:0:0:
253,255,88484,38,0,B|335:252|308:209|396:204,1,155.2,2|0,1:0|1:0,0:0:0:0:
385,297,88955,2,0,L|403:381,1,77.6,0|2,1:0|1:0,0:0:0:0:
324,129,89269,2,0,L|275:136,1,38.8,10|0,1:0|0:0,0:0:0:0:
196,178,89426,2,0,L|190:139,1,38.8,2|0,0:0|0:0,0:0:0:0:
125,74,89584,1,2,0:0:0:0:
110,78,89662,1,2,0:0:0:0:
95,82,89741,2,0,L|85:146,1,38.8,2|2,0:0|0:0,0:0:0:0:
68,211,89898,5,2,1:0:0:0:
219,51,90055,1,2,1:0:0:0:
18,14,90212,1,10,1:0:0:0:
196,178,90369,2,0,L|308:196,1,87.2999973358155,0|0,1:0|0:0,0:0:0:0:
384,283,90683,1,2,1:0:0:0:
384,283,90762,1,2,0:0:0:0:
384,283,90840,2,0,B|335:292|335:292|313:315|313:315|264:323,1,130.949996003723,10|0,1:0|0:0,0:0:0:0:
178,325,91154,6,0,L|171:270,1,43.6499986679078,0|0,1:0|0:0,0:0:0:0:
196,178,91311,1,8,1:0:0:0:
176,188,91390,1,8,1:0:0:0:
154,191,91468,1,8,1:0:0:0:
97,87,91625,6,0,L|139:97,1,43.6499986679078,0|0,1:0|0:0,0:0:0:0:
289,68,91782,2,0,L|278:110,1,43.6499986679078,0|0,1:0|0:0,0:0:0:0:
267,234,91940,1,0,1:0:0:0:
382,147,92097,2,0,L|493:130,1,87.2999973358155,8|0,1:0|0:0,0:0:0:0:
479,370,92411,37,0,1:0:0:0:
388,301,92568,1,0,1:0:0:0:
318,361,92725,2,0,P|270:356|232:328,1,87.2999973358155,8|2,1:0|0:0,0:0:0:0:
341,192,93039,2,0,L|324:81,1,87.2999973358155,2|0,1:0|1:0,0:0:0:0:
42,237,93353,2,0,P|95:200|189:210,1,130.949996003723,8|0,1:0|0:0,0:0:0:0:
176,211,93667,5,0,1:0:0:0:
68,119,93824,1,0,1:0:0:0:
119,285,93981,1,8,1:0:0:0:
341,192,94138,2,0,P|291:167|259:161,1,87.2999973358155,0|0,1:0|1:0,0:0:0:0:
119,285,94453,2,0,P|122:340|134:371,1,87.2999973358155,0|8,1:0|1:0,0:0:0:0:
472,303,94767,1,2,0:0:0:0:
467,290,94845,1,2,0:0:0:0:
463,278,94924,6,0,B|395:269|395:269|368:291,1,97,6|0,1:0|0:0,0:0:0:0:
372,286,95709,1,2,0:0:0:0:
347,288,95788,1,2,0:0:0:0:
323,290,95866,1,2,0:0:0:0:
323,290,96180,6,0,B|267:278|267:278|248:254|248:254|174:239,1,145.5,2|0,1:0|0:0,0:0:0:0:
191,242,96495,1,8,1:0:0:0:
103,228,96652,1,2,0:0:0:0:
103,228,97437,38,0,B|71:163|52:64|143:86|103:156,1,194,2|8,0:0|1:0,0:0:0:0:
103,228,97908,1,8,1:0:0:0:
103,228,98222,2,0,B|111:272|111:272|93:328,1,97,2|2,0:0|0:0,0:0:0:0:
95,321,98693,6,0,B|141:304|141:304|171:328|171:328|209:316|209:316|292:331,1,194,0|2,1:0|0:0,0:0:0:0:
361,346,99165,2,0,P|431:376|389:242,1,291,2|2,0:0|0:0,0:0:0:0:
334,237,99950,6,0,P|317:185|314:82,2,145.500005550385,2|0|10,1:0|1:0|1:0,0:0:0:0:
334,237,100735,2,0,P|297:227|254:223,1,72.7500027751924,0|2,1:0|1:0,0:0:0:0:
0,67,101206,1,0,0:0:0:0:
46,140,101363,1,8,1:0:0:0:
114,85,101520,2,0,P|150:75|194:71,1,72.7500027751924,0|0,1:0|1:0,0:0:0:0:
275,152,101834,6,0,P|265:186|261:223,1,72.7500027751924,2|0,1:0|0:0,0:0:0:0:
401,89,102148,2,0,P|354:129|252:151,1,145.500005550385,0|10,1:0|1:0,0:0:0:0:
16,281,102777,2,0,P|68:285|111:301,1,72.7500027751924,2|0,1:0|0:0,0:0:0:0:
179,356,103091,2,0,L|174:265,1,72.7500027751924,2|10,1:0|1:0,0:0:0:0:
168,196,103405,1,2,1:0:0:0:
168,196,103719,38,0,L|318:168,2,145.500005550385,2|0|10,1:0|1:0|1:0,0:0:0:0:
181,109,104504,2,0,P|223:99|266:102,1,72.7500027751924,0|2,1:0|1:0,0:0:0:0:
320,176,104819,1,0,1:0:0:0:
272,261,104976,2,0,P|230:271|187:268,1,72.7500027751924,0|8,1:0|1:0,0:0:0:0:
36,279,105290,6,0,P|68:225|167:201,1,145.500005550385,2|2,1:0|1:0,0:0:0:0:
69,34,105761,2,0,B|61:67|61:67|70:104,1,72.7500027751924,2|0,0:0|1:0,0:0:0:0:
242,34,106075,2,0,B|251:71|251:71|243:104,1,72.7500027751924,2|8,0:0|1:0,0:0:0:0:
155,146,106389,2,0,L|151:180,4,18.1875006937981,2|0|0|0|2,0:0|0:0|0:0|0:0|1:0,0:0:0:0:
324,269,106860,6,0,L|315:214,2,48.5000018501283,2|2|2,0:0|0:0|0:0,0:0:0:0:
426,332,107175,2,0,L|439:264,1,43.6499986679078,0|2,0:0|0:0,0:0:0:0:
455,204,107332,1,2,0:0:0:0:
501,374,107489,6,0,L|425:330,1,87.2999973358155,0|0,1:0|1:0,0:0:0:0:
366,128,107803,1,8,1:0:0:0:
179,247,107960,2,0,B|280:215|280:215|335:282,1,174.599994671631,0|2,1:0|1:0,0:0:0:0:
447,195,108431,1,10,1:0:0:0:
447,195,108509,1,2,0:0:0:0:
447,195,108588,38,0,P|467:144|468:85,1,87.2999973358155,2|0,0:0|1:0,0:0:0:0:
442,23,108902,1,0,1:0:0:0:
273,188,109059,1,8,1:0:0:0:
312,12,109216,2,0,P|349:61|365:135,1,130.949996003723,0|0,1:0|0:0,0:0:0:0:
363,145,109530,1,2,1:0:0:0:
135,306,109687,2,0,P|133:260|148:217,1,87.2999973358155,8|0,1:0|0:0,0:0:0:0:
159,204,109923,1,2,0:0:0:0:
177,192,110002,5,2,1:0:0:0:
239,356,110159,1,2,1:0:0:0:
124,116,110316,2,0,B|185:130|185:130|212:172|212:172|272:187,1,174.599994671631,8|0,1:0|0:0,0:0:0:0:
351,108,110787,1,2,1:0:0:0:
338,274,110944,1,8,1:0:0:0:
508,201,111101,6,0,L|405:191,2,87.2999973358155,2|0|0,0:0|1:0|1:0,0:0:0:0:
471,350,111494,2,0,B|452:324|452:324|468:288,1,67.8999979278565,0|8,0:0|1:0,0:0:0:0:
123,24,111886,6,0,L|127:57,1,33.9499989639283,2|0,0:0|0:0,0:0:0:0:
61,109,112043,38,0,L|56:154,1,43.6499986679078,2|0,0:0|0:0,0:0:0:0:
149,204,112201,6,0,L|157:272,1,53.3500016281128,2|2,0:0|0:0,0:0:0:0:
28,367,112358,6,0,B|-4:292|-4:292|26:218,1,145.5,6|0,1:0|0:0,0:0:0:0:
20,232,112672,2,0,L|81:237,1,48.5,0|0,1:0|0:0,0:0:0:0:
230,168,112829,1,8,1:0:0:0:
103,318,112986,1,2,0:0:0:0:
103,318,113064,1,2,0:0:0:0:
103,318,113143,1,2,1:0:0:0:
248,348,113300,2,0,B|262:298|262:298|245:250,1,97,8|0,1:0|0:0,0:0:0:0:
141,112,113614,6,0,L|156:271,1,145.5,0|0,1:0|0:0,0:0:0:0:
164,266,113928,1,0,1:0:0:0:
334,131,114085,2,0,L|390:105,2,48.5,10|2|2,1:0|0:0|0:0,0:0:0:0:
316,140,114321,1,2,0:0:0:0:
316,140,114399,2,0,B|306:168|306:168|315:205,1,48.5,2|0,1:0|0:0,0:0:0:0:
366,329,114557,2,0,L|425:308,1,48.5,8|0,1:0|0:0,0:0:0:0:
501,233,114714,2,0,L|400:217,1,97,0|0,1:0|0:0,0:0:0:0:
400,213,114949,1,2,0:0:0:0:
395,209,115028,37,2,0:0:0:0:
316,140,115185,1,2,1:0:0:0:
416,11,115342,2,0,L|404:123,1,97,8|2,1:0|0:0,0:0:0:0:
211,191,115656,2,0,L|155:201,1,48.5,2|0,1:0|0:0,0:0:0:0:
93,236,115813,1,8,1:0:0:0:
233,196,115970,2,0,L|227:138,1,48.5,0|2,0:0|0:0,0:0:0:0:
82,22,116127,6,0,B|61:69|61:69|90:126,1,97,0|0,1:0|0:0,0:0:0:0:
97,124,116363,1,2,0:0:0:0:
97,124,116441,2,0,L|156:115,1,48.5,2|0,1:0|0:0,0:0:0:0:
291,286,116598,2,0,P|241:293|195:302,1,97,8|0,1:0|1:0,0:0:0:0:
409,233,116913,6,0,L|464:245,2,48.5,2|2|2,1:0|0:0|1:0,0:0:0:0:
233,196,117227,1,2,0:0:0:0:
390,245,117384,2,0,P|394:185|386:130,1,97,0|0,1:0|0:0,0:0:0:0:
170,23,117698,2,0,P|166:83|174:137,1,97,0|8,1:0|1:0,0:0:0:0:
318,96,118012,6,0,L|262:83,1,48.5,0|2,0:0|0:0,0:0:0:0:
280,187,118169,2,0,L|221:197,1,48.5,0|0,1:0|0:0,0:0:0:0:
171,272,118326,1,8,1:0:0:0:
299,198,118483,1,0,1:0:0:0:
11,156,118640,54,0,B|69:160|69:160|98:188|98:188|151:195,1,145.5,0|0,1:0|0:0,0:0:0:0:
144,194,118954,1,0,1:0:0:0:
260,279,119112,2,0,L|272:338,1,48.5,8|0,1:0|0:0,0:0:0:0:
184,353,119269,1,2,0:0:0:0:
182,362,119347,1,2,0:0:0:0:
180,371,119426,1,2,1:0:0:0:
233,157,119583,1,8,1:0:0:0:
75,287,119740,2,0,L|177:270,1,97,0|0,1:0|0:0,0:0:0:0:
426,182,120054,6,0,L|330:197,1,97,2|0,1:0|0:0,0:0:0:0:
269,326,120368,1,10,1:0:0:0:
86,101,120525,2,0,P|94:141|104:202,1,97,2|0,0:0|1:0,0:0:0:0:
329,49,120839,5,8,1:0:0:0:
200,156,120996,1,0,0:0:0:0:
200,156,121075,1,0,0:0:0:0:
200,156,121153,2,0,P|267:153|345:227,1,145.5,0|0,1:0|0:0,0:0:0:0:
350,210,121468,38,0,B|325:223|325:223|290:225,1,48.5,8|8,1:0|1:0,0:0:0:0:
147,81,121625,1,8,1:0:0:0:
147,81,121703,1,0,0:0:0:0:
147,81,121782,2,0,B|172:67|172:67|207:66,1,48.5,8|0,1:0|0:0,0:0:0:0:
263,20,121939,1,0,1:0:0:0:
217,244,122096,1,8,1:0:0:0:
379,126,122253,2,0,P|308:116|275:107,1,97,2|2,1:0|0:0,0:0:0:0:
67,203,122567,6,0,P|123:167|215:157,1,145.5,2|0,1:0|0:0,0:0:0:0:
199,155,122881,2,0,P|194:207|196:261,1,97,10|0,1:0|0:0,0:0:0:0:
386,384,123195,2,0,P|391:332|389:278,1,97,2|0,1:0|0:0,0:0:0:0:
298,115,123509,1,8,1:0:0:0:
287,326,123667,5,2,0:0:0:0:
287,326,123745,1,2,0:0:0:0:
287,326,123824,2,0,L|278:278,1,48.5,2|0,1:0|0:0,0:0:0:0:
310,104,123981,2,0,L|318:151,1,48.5,2|0,1:0|0:0,0:0:0:0:
301,306,124138,6,0,B|315:162|315:162|360:229,1,218.250008325577,8|0,1:0|0:0,0:0:0:0:
437,248,124452,2,0,B|391:261|391:261|342:241,1,97,2|0,1:0|0:0,0:0:0:0:
209,99,124766,1,8,1:0:0:0:
125,196,124923,1,0,1:0:0:0:
209,99,125080,38,0,L|152:84,1,48.5,0|0,1:0|0:0,0:0:0:0:
47,29,125237,2,0,L|63:93,1,48.5,0|0,1:0|0:0,0:0:0:0:
144,211,125394,6,0,B|152:151|152:151|136:117|136:117|145:66,1,145.5,8|0,1:0|0:0,0:0:0:0:
58,170,125708,2,0,L|0:192,1,48.5,2|0,1:0|0:0,0:0:0:0:
241,107,125865,2,0,L|286:89,1,48.5,2|0,1:0|0:0,0:0:0:0:
58,76,126023,2,0,L|0:54,1,48.5,10|0,1:0|0:0,0:0:0:0:
250,204,126180,5,2,0:0:0:0:
250,204,126258,1,2,0:0:0:0:
250,204,126337,2,0,B|305:219|305:219|328:248|328:248|377:261,1,145.5,2|8,1:0|1:0,0:0:0:0:
398,273,126651,2,0,L|390:214,1,48.5,8|0,1:0|0:0,0:0:0:0:
381,136,126808,1,10,1:0:0:0:
252,295,126965,1,2,1:0:0:0:
248,309,127043,1,0,0:0:0:0:
245,320,127122,1,2,1:0:0:0:
485,221,127279,2,0,B|437:235|437:235|386:223,1,97,8|0,1:0|0:0,0:0:0:0:
289,25,127593,6,0,L|315:77,1,48.5,0|0,1:0|0:0,0:0:0:0:
250,204,127750,2,0,L|271:160,1,48.5,0|0,1:0|0:0,0:0:0:0:
381,136,127907,2,0,L|481:118,1,97,8|0,1:0|0:0,0:0:0:0:
219,88,128143,1,2,0:0:0:0:
205,82,128221,2,0,L|109:99,1,97,2|0,1:0|1:0,0:0:0:0:
27,54,128536,1,8,1:0:0:0:
235,218,128693,38,0,L|185:209,1,48.5,0|0,1:0|0:0,0:0:0:0:
108,193,128850,1,0,1:0:0:0:
250,204,129007,1,0,1:0:0:0:
27,141,129164,2,0,B|10:186|10:186|27:231,1,97,8|0,1:0|0:0,0:0:0:0:
43,244,129399,1,2,0:0:0:0:
43,244,129478,6,0,L|114:256,1,48.5,2|0,1:0|0:0,0:0:0:0:
205,114,129635,2,0,L|276:102,1,48.5,0|0,1:0|0:0,0:0:0:0:
298,289,129792,2,0,L|369:301,1,48.5,8|0,1:0|0:0,0:0:0:0:
408,79,129949,2,0,L|479:67,1,48.5
250,204,130106,5,2,1:0:0:0:
472,170,130263,1,0,1:0:0:0:
250,204,130420,2,0,B|341:182|309:224|399:210,1,145.5,8|0,1:0|0:0,0:0:0:0:
411,221,130735,2,0,P|421:244|428:284,1,48.5,2|0,1:0|0:0,0:0:0:0:
413,352,130892,1,0,1:0:0:0:
252,105,131049,5,8,1:0:0:0:
186,271,131206,2,0,P|196:326|215:369,1,97,0|0,0:0|1:0,0:0:0:0:
212,363,131441,1,0,1:0:0:0:
212,363,131520,1,0,1:0:0:0:
94,239,131677,38,0,L|30:218,2,63.0499971138002,8|8|8,1:0|1:0|1:0,0:0:0:0:
286,289,131991,1,8,1:0:0:0:
118,331,132148,1,2,0:0:0:0:
108,343,132227,1,8,1:0:0:0:
253,196,132384,1,2,0:0:0:0:
263,184,132462,1,8,1:0:0:0:
186,271,132619,6,0,P|153:179|106:101,1,174.599994671631,6|2,0:0|0:0,0:0:0:0:
114,112,133091,1,2,0:0:0:0:
356,233,133248,1,2,0:0:0:0:
387,242,133326,1,2,0:0:0:0:
420,237,133405,1,2,0:0:0:0:
449,220,133483,1,2,0:0:0:0:
469,193,133562,2,0,L|457:130,1,43.6499986679078,2|2,0:0|0:0,0:0:0:0:
365,81,133719,2,0,L|373:123,1,43.6499986679078,2|2,0:0|0:0,0:0:0:0:
363,151,133876,5,4,1:0:0:0:
459,47,134033,1,0,1:0:0:0:
273,2,134190,1,8,1:0:0:0:
447,64,134347,2,0,B|401:71|401:71|374:91|374:91|312:104,1,130.949996003723,0|0,1:0|0:0,0:0:0:0:
273,171,134661,2,0,L|203:156,1,43.6499986679078,0|0,1:0|0:0,0:0:0:0:
41,130,134818,2,0,P|89:121|126:111,1,87.2999973358155,8|0,1:0|1:0,0:0:0:0:
186,46,135054,1,2,0:0:0:0:
186,46,135132,5,2,1:0:0:0:
116,205,135290,1,2,1:0:0:0:
159,31,135447,37,10,1:0:0:0:
139,220,135604,2,0,L|149:271,2,43.6499986679078,0|0|0,0:0|0:0|1:0,0:0:0:0:
9,107,135918,6,0,L|65:115,1,43.6499986679078,2|0,1:0|0:0,0:0:0:0:
314,215,136075,2,0,P|248:222|207:231,1,87.2999973358155,10|0,1:0|1:0,0:0:0:0:
155,270,136310,1,2,0:0:0:0:
155,270,136389,1,2,1:0:0:0:
185,145,136546,1,2,1:0:0:0:
225,26,136703,1,10,1:0:0:0:
276,197,136860,5,0,0:0:0:0:
276,197,136939,1,0,0:0:0:0:
276,197,137017,1,2,1:0:0:0:
136,64,137174,2,0,L|86:70,1,43.6499986679078,2|0,1:0|0:0,0:0:0:0:
283,106,137331,2,0,B|326:117|326:117|374:99,1,87.2999973358155,8|0,1:0|0:0,0:0:0:0:
370,95,137567,1,0,0:0:0:0:
375,89,137646,6,0,P|390:127|404:176,1,87.2999973358155,10|10,1:0|1:0,0:0:0:0:
261,364,137960,2,0,P|245:325|232:277,1,87.2999973358155,10|10,1:0|1:0,0:0:0:0:
276,197,138274,1,0,1:0:0:0:
115,334,138431,2,0,L|169:322,1,43.6499986679078,2|0,1:0|0:0,0:0:0:0:
404,303,138588,2,0,P|361:296|320:274,1,87.2999973358155,10|0,1:0|1:0,0:0:0:0:
222,111,138902,37,2,1:0:0:0:
121,233,139059,1,2,1:0:0:0:
322,275,139216,1,10,1:0:0:0:
121,233,139373,2,0,L|73:226,2,43.6499986679078,2|2|2,0:0|0:0|1:0,0:0:0:0:
259,363,139687,1,2,1:0:0:0:
137,148,139845,2,0,P|126:93|118:56,1,87.2999973358155,8|0,1:0|0:0,0:0:0:0:
230,106,140080,1,0,0:0:0:0:
234,127,140159,6,0,L|325:113,1,87.2999973358155,2|2,1:0|1:0,0:0:0:0:
206,213,140473,2,0,L|276:280,1,87.2999973358155,10|2,1:0|0:0,0:0:0:0:
121,233,140787,2,0,L|110:320,1,87.2999973358155,2|0,1:0|1:0,0:0:0:0:
0,59,141101,2,0,B|-16:104|-16:104|3:148,1,87.2999973358155,10|2,1:0|0:0,0:0:0:0:
85,158,141337,1,0,0:0:0:0:
85,158,141415,1,2,1:0:0:0:
205,105,141572,1,2,1:0:0:0:
324,52,141729,1,10,1:0:0:0:
269,273,141886,5,2,1:0:0:0:
269,273,141965,1,2,0:0:0:0:
269,273,142043,2,0,B|251:246|244:227|244:227|246:202|256:176,1,87.2999973358155,2|2,0:0|1:0,0:0:0:0:
451,62,142358,2,0,B|469:89|476:108|476:108|474:133|464:159,1,87.2999973358155,8|2,1:0|0:0,0:0:0:0:
348,202,142672,6,0,L|402:206,1,43.6499986679078,0|0,1:0|1:0,0:0:0:0:
476,240,142829,1,0,1:0:0:0:
336,215,142986,37,8,1:0:0:0:
346,138,143064,1,8,1:0:0:0:
359,59,143143,1,8,1:0:0:0:
387,293,143300,5,8,1:0:0:0:
151,243,143457,1,0,0:0:0:0:
151,243,143536,2,0,L|328:226,1,174.599994671631,8|8,1:0|1:0,0:0:0:0:
86,178,143928,5,2,1:0:0:0:
218,280,144085,1,0,1:0:0:0:
81,357,144242,1,8,1:0:0:0:
222,299,144399,2,0,B|187:294|164:281|164:281|138:292|138:292|117:274|117:274|89:275|55:269,1,174.599994671631,6|0,1:0|1:0,0:0:0:0:
291,376,144871,2,0,P|312:333|314:285,1,87.2999973358155,8|0,1:0|0:0,0:0:0:0:
214,118,145185,5,0,1:0:0:0:
151,243,145342,1,0,1:0:0:0:
315,294,145499,1,8,1:0:0:0:
151,243,145656,1,2,0:0:0:0:
151,243,145735,1,2,0:0:0:0:
151,243,145813,37,2,1:0:0:0:
53,163,145970,1,0,1:0:0:0:
18,330,146127,1,8,1:0:0:0:
151,243,146284,2,0,L|214:229,1,43.6499986679078,0|0,1:0|0:0,0:0:0:0:
264,181,146441,5,2,1:0:0:0:
315,294,146598,1,0,1:0:0:0:
396,229,146756,1,8,1:0:0:0:
453,288,146913,6,0,P|386:283|311:359,1,174.599994671631,2|0,1:0|1:0,0:0:0:0:
91,169,147384,2,0,P|143:159|184:147,1,87.2999973358155,8|0,1:0|0:0,0:0:0:0:
315,294,147698,2,0,P|263:304|222:316,1,87.2999973358155,0|8,1:0|1:0,0:0:0:0:
166,246,147934,1,8,1:0:0:0:
166,246,148012,1,8,1:0:0:0:
256,107,148169,1,8,1:0:0:0:
173,62,148326,2,0,P|128:55|85:40,1,87.2999973358155,0|2,1:0|1:0,0:0:0:0:
176,149,148640,2,0,P|134:162|91:169,1,87.2999973358155,10|2,1:0|0:0,0:0:0:0:
256,107,148954,5,2,1:0:0:0:
336,159,149112,1,0,1:0:0:0:
475,57,149269,1,8,1:0:0:0:
429,205,149426,1,2,0:0:0:0:
429,205,149504,1,2,0:0:0:0:
429,205,149583,2,0,L|417:106,1,87.2999973358155,2|0,1:0|1:0,0:0:0:0:
255,195,149897,2,0,L|238:328,1,130.949996003723,10|0,1:0|0:0,0:0:0:0:
251,340,150211,37,0,1:0:0:0:
135,313,150368,1,0,1:0:0:0:
251,340,150525,2,0,B|292:328|292:328|337:339,1,87.2999973358155,8|0,1:0|0:0,0:0:0:0:
155,217,150839,2,0,B|114:229|114:229|69:218,1,87.2999973358155,2|0,1:0|1:0,0:0:0:0:
349,146,151153,1,10,1:0:0:0:
381,153,151232,1,2,0:0:0:0:
409,170,151310,1,2,0:0:0:0:
432,194,151389,1,2,0:0:0:0:
440,226,151468,1,2,1:0:0:0:
255,195,151625,6,0,P|250:140|242:96,1,87.2999973358155,0|8,1:0|1:0,0:0:0:0:
49,26,151939,1,2,0:0:0:0:
49,26,152017,1,2,0:0:0:0:
49,26,152096,2,0,P|54:81|62:125,1,87.2999973358155,2|0,1:0|1:0,0:0:0:0:
166,182,152410,6,0,B|128:116|180:121|138:41,1,130.949996003723,10|0,1:0|0:0,0:0:0:0:
146,56,152724,1,0,1:0:0:0:
30,195,152881,1,0,1:0:0:0:
244,108,153038,2,0,P|289:112|335:113,1,87.2999973358155,8|0,1:0|2:0,2:0:0:0:
406,285,153352,5,8,1:0:0:0:
336,330,153457,1,0,1:0:0:0:
331,243,153562,1,8,1:0:0:0:
378,297,153667,37,0,1:0:0:0:
337,299,153771,1,0,1:0:0:0:
356,260,153876,1,8,1:0:0:0:
358,285,153981,5,6,1:0:0:0:
256,192,154020,12,0,155237,0:0:0:0:
256,192,155276,12,0,158693,0:0:0:0:
113,362,158850,6,0,P|174:300|261:297,1,145.5,4|0,1:0|0:0,0:0:0:0:
313,322,159164,2,0,P|321:299|325:275,1,48.5,0|0,1:0|0:0,0:0:0:0:
296,192,159321,1,8,1:0:0:0:
461,321,159478,1,2,0:0:0:0:
442,317,159557,1,2,0:0:0:0:
422,313,159635,1,2,1:0:0:0:
101,211,159792,2,0,L|196:196,1,97,8|0,1:0|1:0,0:0:0:0:
409,79,160106,6,0,L|426:7,2,48.5,2|2|2,1:0|0:0|0:0,0:0:0:0:
459,206,160420,1,0,1:0:0:0:
332,305,160578,2,0,B|326:250|326:250|301:219|301:219|294:169,1,145.5,8|0,1:0|0:0,0:0:0:0:
316,88,160892,2,0,L|249:82,1,48.5,0|0,1:0|0:0,0:0:0:0:
159,58,161049,2,0,B|139:103|139:103|150:150,1,97,0|0,1:0|0:0,0:0:0:0:
82,279,161363,38,0,L|190:265,1,97,0|0,1:0|0:0,0:0:0:0:
197,263,161598,1,2,0:0:0:0:
217,259,161677,1,2,1:0:0:0:
435,297,161834,2,0,L|466:360,2,48.5,8|0|0,1:0|0:0|0:0,0:0:0:0:
322,78,162148,1,0,1:0:0:0:
316,304,162305,2,0,B|336:259|336:259|325:212,1,97,8|0,1:0|0:0,0:0:0:0:
318,194,162541,1,2,0:0:0:0:
311,175,162619,6,0,L|323:72,1,97,2|0,1:0|0:0,0:0:0:0:
408,156,162934,2,0,L|477:173,1,48.5,0|0,1:0|0:0,0:0:0:0:
217,259,163091,1,10,1:0:0:0:
197,257,163169,1,2,0:0:0:0:
181,269,163248,2,0,L|79:288,1,97,2|0,1:0|0:0,0:0:0:0:
320,337,163562,2,0,L|365:346,4,24.25,8|0|0|0|0,1:0|0:0|0:0|0:0|0:0,0:0:0:0:
109,192,163876,6,0,P|97:147|97:87,1,97,2|0,1:0|0:0,0:0:0:0:
281,21,164190,2,0,P|293:66|293:126,1,97,2|8,1:0|1:0,0:0:0:0:
349,213,164504,2,0,L|411:227,1,48.5,0|2,1:0|0:0,0:0:0:0:
401,111,164661,2,0,L|463:97,1,48.5,0|0,1:0|0:0,0:0:0:0:
512,173,164818,1,8,1:0:0:0:
329,229,164975,1,0,1:0:0:0:
452,365,165132,6,0,B|418:324|418:324|428:218,1,145.5,0|0,1:0|0:0,0:0:0:0:
430,212,165447,1,0,1:0:0:0:
206,25,165604,2,0,B|227:73|227:73|218:116,1,97,8|2,1:0|0:0,0:0:0:0:
214,135,165839,1,2,0:0:0:0:
210,154,165918,1,2,1:0:0:0:
90,230,166075,1,10,1:0:0:0:
108,131,166232,1,2,1:0:0:0:
188,251,166389,1,0,1:0:0:0:
95,113,166546,38,0,L|-2:98,1,97,2|0,1:0|1:0,0:0:0:0:
196,269,166860,1,10,1:0:0:0:
278,67,167017,2,0,L|291:1,2,48.5,2|2|2,0:0|0:0|1:0,0:0:0:0:
366,250,167331,2,0,P|410:268|458:277,1,97,8|0,1:0|0:0,0:0:0:0:
476,270,167567,1,2,0:0:0:0:
491,258,167646,6,0,B|426:242|426:242|367:293|385:374,1,194,2|8,1:0|1:0,0:0:0:0:
269,363,168038,1,8,1:0:0:0:
268,362,168117,2,0,L|260:307,1,48.5,8|0,1:0|0:0,0:0:0:0:
366,250,168274,2,0,L|358:195,1,48.5,8|0,1:0|0:0,0:0:0:0:
137,134,168431,6,0,P|160:158|194:179,1,67.8999979278565,0|0,1:0|0:0,0:0:0:0:
354,102,168588,2,0,P|320:109|286:128,1,67.8999979278565,8|0,1:0|0:0,0:0:0:0:
261,314,168745,2,0,P|271:281|271:242,2,67.8999979278565,2|2|2,1:0|0:0|0:0,0:0:0:0:
112,360,168981,1,2,0:0:0:0:
112,360,169059,6,0,L|98:256,1,97,2|2,1:0|1:0,0:0:0:0:
137,134,169373,1,10,1:0:0:0:
0,280,169530,1,2,1:0:0:0:
0,280,169609,1,2,0:0:0:0:
0,280,169687,1,2,0:0:0:0:
28,81,169845,2,0,B|17:127|17:127|37:172,1,97,0|8,1:0|1:0,0:0:0:0:
207,271,170159,1,2,0:0:0:0:
207,271,170237,1,2,0:0:0:0:
207,271,170316,38,0,L|212:213,1,48.5,2|0,1:0|0:0,0:0:0:0:
295,63,170473,2,0,L|290:121,1,48.5,2|0,1:0|0:0,0:0:0:0:
136,133,170630,2,0,B|201:147|201:147|232:186|232:186|302:203,1,189.149991341401,8|0,1:0|0:0,0:0:0:0:
383,256,170944,2,0,B|401:213|401:213|391:163,1,97,0|0,1:0|1:0,0:0:0:0:
164,11,171258,2,0,B|122:41|122:41|141:159,1,145.5,8|0,1:0|0:0,0:0:0:0:
54,172,171572,6,0,L|37:113,1,48.5,0|0,1:0|0:0,0:0:0:0:
223,174,171729,1,0,1:0:0:0:
63,279,171886,2,0,B|112:261|138:221|138:221|170:263|237:274,1,194,8|0,1:0|1:0,0:0:0:0:
321,351,172358,1,2,1:0:0:0:
321,351,172436,1,2,0:0:0:0:
321,351,172515,1,10,1:0:0:0:
430,211,172672,6,0,L|307:228,1,97,2|0,1:0|1:0,0:0:0:0:
140,337,172986,1,8,1:0:0:0:
140,337,173064,1,8,1:0:0:0:
140,337,173143,2,0,P|123:283|140:219,1,97,8|8,1:0|1:0,0:0:0:0:
223,156,173457,1,0,1:0:0:0:
321,351,173614,2,0,L|359:360,4,24.25,2|0|0|0|8,1:0|0:0|0:0|0:0|1:0,0:0:0:0:
430,211,174085,6,0,P|385:199|328:187,1,97,0|0,1:0|1:0,0:0:0:0:
301,62,174399,1,8,1:0:0:0:
104,183,174557,1,2,0:0:0:0:
135,195,174635,1,2,0:0:0:0:
169,194,174714,1,2,0:0:0:0:
200,180,174792,1,2,0:0:0:0:
223,156,174871,1,2,1:0:0:0:
197,47,175028,2,0,L|183:-8,2,48.5,8|0|0,1:0|0:0|0:0,0:0:0:0:
338,163,175342,38,0,B|353:117|353:117|341:63,1,97,0|0,1:0|1:0,0:0:0:0:
223,156,175656,1,8,1:0:0:0:
386,271,175813,1,0,0:0:0:0:
267,260,175970,2,0,B|252:306|252:306|264:360,1,97,0|0,1:0|1:0,0:0:0:0:
437,188,176284,1,8,1:0:0:0:
223,156,176441,1,2,0:0:0:0:
223,156,176520,1,2,0:0:0:0:
223,156,176598,6,0,L|209:45,1,97,2|0,1:0|1:0,0:0:0:0:
227,254,176913,1,8,1:0:0:0:
429,95,177070,1,0,1:0:0:0:
437,188,177227,5,0,1:0:0:0:
343,121,177384,1,0,1:0:0:0:
439,71,177541,1,8,1:0:0:0:
364,249,177698,2,0,L|359:314,2,48.5,0|0|0,0:0|0:0|1:0,0:0:0:0:
56,117,178012,5,2,1:0:0:0:
56,117,178091,1,2,0:0:0:0:
56,117,178169,1,10,1:0:0:0:
56,117,178248,1,10,1:0:0:0:
56,117,178326,2,0,L|130:109,1,63.0499971138002,10|0,1:0|0:0,0:0:0:0:
153,245,178483,38,0,B|115:212|115:212|31:222,1,126.0999942276,8|0,1:0|0:0,0:0:0:0:
189,44,178719,2,0,B|208:121|208:121|179:174,1,126.0999942276,8|0,1:0|0:0,0:0:0:0:
263,354,178954,54,0,B|244:237|244:237|289:159,1,174.599994671631,4|0,1:0|0:0,0:0:0:0:
272,188,179583,1,0,1:0:0:0:
349,253,179740,2,0,L|448:260,1,87.2999973358155,8|0,1:0|0:0,0:0:0:0:
442,267,179975,1,2,0:0:0:0:
447,274,180054,1,2,0:0:0:0:
204,123,180211,6,0,P|164:141|120:154,1,87.2999973358155,0|0,1:0|0:0,0:0:0:0:
338,123,180525,2,0,P|342:79|353:34,1,87.2999973358155,0|0,1:0|0:0,0:0:0:0:
272,188,180839,1,0,1:0:0:0:
284,278,180996,2,0,P|319:303|352:335,1,87.2999973358155,8|0,1:0|0:0,0:0:0:0:
204,123,181310,2,0,P|164:141|120:154,1,87.2999973358155,0|0,1:0|1:0,0:0:0:0:
22,286,181625,6,0,P|79:283|154:364,1,174.599994671631,0|2,1:0|0:0,0:0:0:0:
153,363,182096,1,0,1:0:0:0:
207,209,182253,2,0,P|209:161|201:114,1,87.2999973358155,8|0,1:0|0:0,0:0:0:0:
128,56,182567,1,0,1:0:0:0:
191,231,182724,54,0,B|299:200|266:266|373:240,1,174.599994671631,0|0,1:0|1:0,0:0:0:0:
238,315,183195,1,2,0:0:0:0:
235,324,183274,1,2,0:0:0:0:
232,334,183352,1,2,1:0:0:0:
299,148,183509,2,0,L|285:95,2,43.6499986679078,8|8|8,1:0|1:0|1:0,0:0:0:0:
390,325,183824,1,0,1:0:0:0:
500,213,183981,5,2,0:0:0:0:
500,213,184059,1,2,0:0:0:0:
500,213,184138,2,0,P|466:141|357:132,1,174.599994671631,2|0,1:0|1:0,0:0:0:0:
155,229,184609,2,0,P|198:218|245:212,1,87.2999973358155,2|8,0:0|1:0,0:0:0:0:
310,12,184923,2,0,P|266:22|220:29,1,87.2999973358155,2|2,0:0|0:0,0:0:0:0:
117,142,185237,6,0,B|216:151|189:95|296:104,1,174.599994671631,0|0,1:0|1:0,0:0:0:0:
133,47,185708,2,0,P|76:40|38:27,1,87.2999973358155,2|0,0:0|1:0,0:0:0:0:
240,212,186023,2,0,P|252:251|258:300,1,87.2999973358155,10|0,1:0|0:0,0:0:0:0:
38,207,186337,2,0,P|26:168|20:119,1,87.2999973358155,2|0,1:0|0:0,0:0:0:0:
36,363,186651,54,0,P|59:313|179:279,1,174.599994671631,0|0,1:0|1:0,0:0:0:0:
324,354,187122,1,0,1:0:0:0:
237,200,187279,2,0,P|185:190|143:173,2,87.2999973358155,8|0|0,1:0|0:0|0:0,0:0:0:0:
404,311,187750,6,0,B|410:265|404:219,1,87.2999973358155,0|0,1:0|0:0,0:0:0:0:
400,219,187986,1,2,0:0:0:0:
394,215,188064,1,10,1:0:0:0:
311,241,188221,2,0,L|225:268,1,87.2999973358155,8|8,1:0|1:0,0:0:0:0:
330,150,188457,1,0,0:0:0:0:
330,150,188536,2,0,L|263:89,1,87.2999973358155,10|2,1:0|1:0,0:0:0:0:
425,133,188771,1,0,0:0:0:0:
425,133,188850,2,0,L|444:45,1,87.2999973358155,2|0,1:0|0:0,0:0:0:0:
214,177,189164,6,0,B|149:185|149:185|112:211|112:211|48:221,1,174.599994671631,0|0,1:0|0:0,0:0:0:0:
165,93,189635,2,0,P|155:51|159:6,1,87.2999973358155,0|8,1:0|1:0,0:0:0:0:
296,236,189949,2,0,L|319:282,2,43.6499986679078,0|2|2,0:0|0:0|0:0,0:0:0:0:
450,144,190263,2,0,P|405:136|361:124,1,87.2999973358155,0|0,1:0|0:0,0:0:0:0:
361,119,190499,1,0,0:0:0:0:
359,112,190578,1,0,1:0:0:0:
215,284,190735,2,0,P|170:292|126:304,1,87.2999973358155,0|0,0:0|1:0,0:0:0:0:
390,219,191049,53,8,1:0:0:0:
288,352,191206,1,0,0:0:0:0:
207,181,191363,1,0,1:0:0:0:
155,286,191520,1,0,1:0:0:0:
86,235,191677,6,0,P|40:241|-4:248,1,87.2999973358155,2|0,1:0|0:0,0:0:0:0:
260,271,191991,2,0,P|303:264|348:261,1,87.2999973358155,2|0,0:0|1:0,0:0:0:0:
127,148,192305,6,0,B|117:125|112:106|112:106|115:80|125:60,1,87.2999973358155,8|0,1:0|0:0,0:0:0:0:
260,271,192619,1,2,1:0:0:0:
356,110,192776,2,0,P|304:81|229:87,1,130.949996003723,0|0,1:0|0:0,0:0:0:0:
219,99,193091,1,0,1:0:0:0:
352,314,193248,2,0,P|354:258|350:225,1,87.2999973358155,0|8,0:0|1:0,0:0:0:0:
273,183,193483,1,8,1:0:0:0:
273,183,193562,2,0,B|230:197|230:197|181:186,1,87.2999973358155,10|10,1:0|1:0,0:0:0:0:
414,49,193876,2,0,B|457:35|457:35|506:46,1,87.2999973358155,2|2,0:0|0:0,0:0:0:0:
476,306,194190,54,0,B|463:255|445:219|445:219|448:171|459:128,1,174.599994671631,2|0,1:0|0:0,0:0:0:0:
292,52,194661,1,0,1:0:0:0:
354,126,194818,2,0,P|351:176|347:220,1,87.2999973358155,8|0,1:0|0:0,0:0:0:0:
197,313,195132,1,0,1:0:0:0:
295,336,195290,6,0,P|278:281|232:210,1,130.949996003723,0|0,1:0|0:0,0:0:0:0:
225,204,195604,2,0,P|181:196|139:186,1,87.2999973358155,0|0,1:0|0:0,0:0:0:0:
347,213,195918,1,0,1:0:0:0:
197,313,196075,2,0,P|153:320|111:330,2,87.2999973358155,8|0|0,1:0|0:0|1:0,0:0:0:0:
236,228,196468,1,2,0:0:0:0:
239,218,196546,6,0,P|231:171|120:132,1,174.599994671631
88,340,197017,2,0,L|76:396,2,43.6499986679078,2|0|0,0:0|0:0|1:0,0:0:0:0:
33,105,197331,53,8,1:0:0:0:
146,246,197488,1,0,1:0:0:0:
264,145,197646,1,2,1:0:0:0:
348,222,197803,6,0,P|399:227|437:230,1,87.2999973358155,0|0,1:0|0:0,0:0:0:0:
434,229,198038,1,2,0:0:0:0:
434,229,198117,1,2,1:0:0:0:
254,278,198274,2,0,L|267:326,2,43.6499986679078,2|2|2,0:0|0:0|1:0,0:0:0:0:
189,79,198588,2,0,P|145:75|102:71,1,87.2999973358155,8|0,1:0|0:0,0:0:0:0:
88,67,198824,1,10,1:0:0:0:
88,67,198902,2,0,L|99:122,1,43.6499986679078,2|0,0:0|0:0,0:0:0:0:
68,236,199059,2,0,L|113:214,1,43.6499986679078,8|0,1:0|0:0,0:0:0:0:
267,169,199216,6,0,P|219:164|163:160,1,97,4|0,1:0|0:0,0:0:0:0:
346,88,203928,21,2,0:0:0:0:
346,88,204007,1,2,0:0:0:0:
346,88,204085,2,0,B|345:109|345:109|351:121|351:121|351:149,1,48.5,2|0,0:0|0:0,0:0:0:0:
381,301,204242,1,0,1:0:0:0:
256,192,208326,12,0,209112,0:0:0:0:
