osu file format v14

[General]
AudioFilename: audio.mp3
AudioLeadIn: 0
PreviewTime: 93983
Countdown: 1
SampleSet: None
StackLeniency: 0.7
Mode: 3
LetterboxInBreaks: 0
SpecialStyle: 0
WidescreenStoryboard: 1

[Editor]
Bookmarks: 157468
DistanceSpacing: 1
BeatDivisor: 4
GridSize: 8
TimelineZoom: 1

[Metadata]
Title:Love Is Beautiful Pain
TitleUnicode:Love Is Beautiful Pain
Artist:Endless Tears
ArtistUnicode:Endless Tears
Creator:tuandi
Version:Hyper 4k (full)
Source:Endless Tears
Tags:Osu,Mania,Step,Opening,Romance,Amime,Song,Project,4k,Live,Action
BeatmapID:996802
BeatmapSetID:465600

[Difficulty]
HPDrainRate:5
CircleSize:4
OverallDifficulty:6
ApproachRate:5
SliderMultiplier:1.4
SliderTickRate:1

[Events]
//Background and Video events
0,0,"bg0.jpg",0,0
//Break Periods
//Storyboard Layer 0 (Background)
//Storyboard Layer 1 (Fail)
//Storyboard Layer 2 (Pass)
//Storyboard Layer 3 (Foreground)
//Storyboard Sound Samples

[TimingPoints]
650,606.060606060606,4,1,0,30,1,0
30953,606.060606060606,4,1,0,30,1,0
30953,-100,4,1,0,30,0,1
50346,-100,4,1,0,30,0,0
55195,-100,4,1,0,30,0,0
74589,-100,4,1,0,30,0,0
93983,-100,4,1,0,30,0,1
112165,-100,4,1,0,30,0,0
113377,-100,4,1,0,30,0,1
132771,-100,4,1,0,30,0,0
176407,-100,4,1,0,30,0,0
197013,606.060606060606,4,1,0,30,1,0
197013,-100,4,1,0,30,0,1
215194,-100,4,1,0,30,0,0
216406,-100,4,1,0,30,0,1
235800,-100,4,1,0,30,0,0
236406,-100,4,1,0,30,0,0

[HitObjects]
64,192,650,5,2,2:1:0:0:
192,192,650,1,2,2:1:0:0:
448,192,650,1,2,2:1:0:0:
448,192,801,1,2,2:1:0:0:
320,192,953,1,2,2:1:0:0:
192,192,1104,1,2,2:1:0:0:
64,192,1256,1,2,2:1:0:0:
320,192,1256,1,2,2:1:0:0:
320,192,1559,1,2,2:1:0:0:
192,192,1710,1,2,2:1:0:0:
448,192,1862,1,2,2:1:0:0:
320,192,1862,1,2,2:1:0:0:
64,192,1862,1,2,2:1:0:0:
320,192,2316,1,2,2:1:0:0:
192,192,2619,1,2,2:1:0:0:
64,192,2771,1,2,2:1:0:0:
192,192,3074,1,2,2:1:0:0:
320,192,3074,1,2,2:1:0:0:
448,192,3074,1,2,2:1:0:0:
192,192,3225,1,2,2:1:0:0:
320,192,3377,1,2,2:1:0:0:
448,192,3528,1,2,2:1:0:0:
320,192,3680,1,2,2:1:0:0:
64,192,3680,1,2,2:1:0:0:
448,192,3680,1,2,2:1:0:0:
448,192,3983,1,2,2:1:0:0:
320,192,4134,1,2,2:1:0:0:
192,192,4286,1,2,2:1:0:0:
320,192,4437,1,2,2:1:0:0:
192,192,4589,1,2,2:1:0:0:
448,192,4589,1,2,2:1:0:0:
64,192,4589,1,2,2:1:0:0:
64,192,4892,1,2,2:1:0:0:
192,192,5043,1,2,2:1:0:0:
320,192,5195,1,2,2:1:0:0:
448,192,5346,1,2,2:1:0:0:
192,192,5498,1,2,1:1:0:0:
448,192,5498,1,2,1:1:0:0:
64,192,5498,1,2,1:1:0:0:
64,192,5650,1,2,1:1:0:0:
192,192,5801,1,2,1:1:0:0:
320,192,5953,1,2,1:1:0:0:
448,192,6104,1,2,1:1:0:0:
192,192,6104,1,2,1:1:0:0:
64,192,6104,1,2,1:1:0:0:
192,192,6407,1,2,1:1:0:0:
320,192,6559,1,2,1:1:0:0:
64,192,6710,1,2,1:1:0:0:
192,192,6710,1,2,1:1:0:0:
448,192,6710,1,2,1:1:0:0:
320,192,7165,1,2,1:1:0:0:
192,192,7468,1,2,1:1:0:0:
448,192,7619,1,2,1:1:0:0:
320,192,7922,1,2,2:1:0:0:
192,192,8074,1,2,2:1:0:0:
64,192,8225,1,2,2:1:0:0:
192,192,8377,1,2,2:1:0:0:
320,192,8528,1,2,2:1:0:0:
448,192,8528,1,2,2:1:0:0:
64,192,8528,1,2,2:1:0:0:
192,192,8680,1,2,2:1:0:0:
64,192,8831,1,2,2:1:0:0:
192,192,9134,128,2,10346:1:1:0:0:
320,192,9134,128,2,9740:1:1:0:0:
448,192,9740,128,2,10346:1:1:0:0:
64,192,10346,1,2,1:1:0:0:
320,192,10346,1,2,1:1:0:0:
192,192,10498,1,2,1:1:0:0:
320,192,10650,1,2,1:1:0:0:
192,192,10801,1,2,1:1:0:0:
64,192,10801,1,2,1:1:0:0:
192,192,11104,1,2,1:1:0:0:
320,192,11256,1,2,1:1:0:0:
448,192,11559,1,2,1:1:0:0:
192,192,11559,1,2,1:1:0:0:
192,192,11710,1,2,1:1:0:0:
320,192,11862,1,2,1:1:0:0:
192,192,12013,1,2,1:1:0:0:
64,192,12013,1,2,1:1:0:0:
192,192,12468,1,2,1:1:0:0:
320,192,12619,1,2,1:1:0:0:
192,192,12771,1,2,1:1:0:0:
448,192,12771,1,2,1:1:0:0:
320,192,12922,1,2,1:1:0:0:
64,192,13074,1,2,1:1:0:0:
320,192,13225,1,2,1:1:0:0:
192,192,13528,1,2,1:1:0:0:
448,192,13831,1,2,1:1:0:0:
192,192,13983,1,2,1:1:0:0:
64,192,14589,1,2,1:1:0:0:
192,192,14740,1,2,1:1:0:0:
320,192,14892,1,2,1:1:0:0:
192,192,15043,1,2,1:1:0:0:
192,192,15195,1,2,2:1:0:0:
64,192,15195,1,2,2:1:0:0:
320,192,15346,1,2,2:1:0:0:
192,192,15498,1,2,2:1:0:0:
320,192,15649,1,2,2:1:0:0:
448,192,15649,1,2,2:1:0:0:
192,192,16104,1,2,2:1:0:0:
192,192,16407,1,2,2:1:0:0:
64,192,16407,1,2,2:1:0:0:
320,192,16559,1,2,2:1:0:0:
448,192,16710,1,2,2:1:0:0:
320,192,16862,1,2,2:1:0:0:
192,192,16862,1,2,2:1:0:0:
320,192,17165,1,2,2:1:0:0:
192,192,17316,1,2,2:1:0:0:
320,192,17468,1,2,2:1:0:0:
192,192,17619,1,2,2:1:0:0:
448,192,17619,1,2,2:1:0:0:
64,192,18074,1,2,2:1:0:0:
448,192,18074,1,2,2:1:0:0:
448,192,18377,1,2,2:1:0:0:
320,192,18528,1,2,2:1:0:0:
192,192,18680,1,2,2:1:0:0:
192,192,18831,1,2,2:1:0:0:
64,192,18831,1,2,2:1:0:0:
448,192,18831,1,2,2:1:0:0:
64,192,19437,1,2,2:1:0:0:
192,192,19589,1,2,2:1:0:0:
320,192,19740,1,2,2:1:0:0:
192,192,19892,1,2,2:1:0:0:
64,192,20043,1,2,3:1:0:0:
320,192,20043,1,2,3:1:0:0:
448,192,20043,1,2,3:1:0:0:
192,192,20346,1,2,3:1:0:0:
64,192,20498,1,2,3:1:0:0:
192,192,20953,1,2,3:1:0:0:
320,192,21104,1,2,3:1:0:0:
192,192,21256,1,2,3:1:0:0:
448,192,21256,1,2,3:1:0:0:
64,192,21256,1,2,3:1:0:0:
448,192,21559,1,2,3:1:0:0:
320,192,21710,1,2,3:1:0:0:
64,192,22013,1,2,3:1:0:0:
192,192,22165,1,2,3:1:0:0:
320,192,22316,1,2,3:1:0:0:
192,192,22468,1,2,3:1:0:0:
448,192,22468,1,2,3:1:0:0:
64,192,22468,1,2,3:1:0:0:
320,192,22771,1,2,3:1:0:0:
192,192,22922,1,2,3:1:0:0:
64,192,23225,128,2,23680:3:1:0:0:
192,192,23377,1,2,3:1:0:0:
192,192,23680,1,6,3:1:0:0:
192,192,23983,1,2,1:1:0:0:
320,192,23983,1,2,1:1:0:0:
448,192,24286,128,2,24892:2:1:0:0:
320,192,24589,1,2,2:1:0:0:
320,192,24892,1,6,2:1:0:0:
192,192,25195,1,2,1:1:0:0:
320,192,25346,1,2,1:1:0:0:
64,192,25498,128,2,26104:2:1:0:0:
448,192,25498,1,2,2:1:0:0:
320,192,25801,1,2,2:1:0:0:
192,192,26104,1,6,2:1:0:0:
64,192,26407,1,2,1:1:0:0:
192,192,26559,1,2,1:1:0:0:
320,192,26710,1,2,1:1:0:0:
192,192,26862,1,2,1:1:0:0:
448,192,27013,1,2,1:1:0:0:
320,192,27165,1,2,1:1:0:0:
192,192,27316,1,2,1:1:0:0:
64,192,27316,1,2,1:1:0:0:
448,192,27316,1,2,1:1:0:0:
320,192,27771,1,2,2:1:0:0:
192,192,28225,1,2,2:1:0:0:
448,192,28528,128,2,29740:2:1:0:0:
64,192,28831,1,2,2:1:0:0:
320,192,28831,1,2,2:1:0:0:
192,192,29134,1,2,2:1:0:0:
192,192,29437,1,2,2:1:0:0:
320,192,29740,1,6,1:1:0:0:
64,192,29740,1,6,1:1:0:0:
192,192,29740,1,6,1:1:0:0:
64,192,30953,1,2,0:1:0:0:
320,192,30953,1,2,0:1:0:0:
192,192,31256,1,2,0:1:0:0:
320,192,31407,1,2,0:1:0:0:
448,192,31559,1,2,0:1:0:0:
192,192,31559,1,2,0:1:0:0:
320,192,31710,1,2,0:1:0:0:
448,192,31862,1,2,0:1:0:0:
192,192,31862,1,2,0:1:0:0:
320,192,32013,1,2,0:1:0:0:
448,192,32165,1,2,0:1:0:0:
192,192,32165,1,2,0:1:0:0:
64,192,32165,1,2,0:1:0:0:
320,192,32468,1,2,0:1:0:0:
192,192,32619,1,2,0:1:0:0:
64,192,32771,1,2,0:1:0:0:
320,192,32771,1,2,0:1:0:0:
192,192,32922,1,2,0:1:0:0:
64,192,33074,1,2,0:1:0:0:
320,192,33074,1,2,0:1:0:0:
192,192,33225,1,2,0:1:0:0:
64,192,33377,1,2,0:1:0:0:
320,192,33377,1,2,0:1:0:0:
448,192,33377,1,2,0:1:0:0:
192,192,33680,1,2,0:1:0:0:
320,192,33831,1,2,0:1:0:0:
192,192,33983,1,2,0:1:0:0:
448,192,33983,1,2,0:1:0:0:
320,192,34134,1,2,0:1:0:0:
448,192,34286,1,2,0:1:0:0:
320,192,34437,1,2,0:1:0:0:
448,192,34589,1,2,0:1:0:0:
64,192,34589,1,2,0:1:0:0:
192,192,34589,1,2,0:1:0:0:
192,192,34892,1,2,0:1:0:0:
64,192,35043,1,2,0:1:0:0:
192,192,35195,1,2,0:1:0:0:
448,192,35195,1,2,0:1:0:0:
320,192,35346,1,2,0:1:0:0:
448,192,35498,1,2,0:1:0:0:
320,192,35649,1,2,0:1:0:0:
448,192,35801,1,2,2:1:0:0:
192,192,35801,1,2,2:1:0:0:
192,192,36104,128,2,36710:2:1:0:0:
320,192,36256,1,2,2:1:0:0:
64,192,36407,1,2,2:1:0:0:
320,192,36559,1,2,2:1:0:0:
64,192,36710,1,2,2:1:0:0:
448,192,37013,1,2,1:1:0:0:
320,192,37316,128,2,37922:2:1:0:0:
192,192,37468,1,2,2:1:0:0:
448,192,37619,1,2,2:1:0:0:
192,192,37771,1,2,2:1:0:0:
448,192,37922,1,2,2:1:0:0:
320,192,38225,1,2,1:1:0:0:
64,192,38680,1,2,2:1:0:0:
192,192,38680,128,2,39437:2:1:0:0:
448,192,38983,1,2,2:1:0:0:
320,192,39134,1,2,2:1:0:0:
64,192,39286,1,2,2:1:0:0:
448,192,39437,1,6,2:1:0:0:
64,192,39740,1,2,0:1:0:0:
64,192,40043,128,2,40649:0:1:0:0:
448,192,40195,1,2,0:1:0:0:
320,192,40346,1,2,0:1:0:0:
192,192,40649,1,2,0:1:0:0:
448,192,40649,1,2,0:1:0:0:
64,192,40953,1,2,0:1:0:0:
192,192,41256,128,2,41862:0:1:0:0:
64,192,41407,1,2,0:1:0:0:
448,192,41559,1,2,0:1:0:0:
320,192,41862,1,2,0:1:0:0:
64,192,41862,1,2,0:1:0:0:
192,192,42165,1,2,0:1:0:0:
320,192,42468,128,2,43074:0:1:0:0:
64,192,42619,1,2,0:1:0:0:
192,192,42771,1,2,0:1:0:0:
448,192,43074,1,2,2:1:0:0:
64,192,43074,1,2,2:1:0:0:
320,192,43377,1,2,2:1:0:0:
448,192,43680,128,2,44286:2:1:0:0:
64,192,43831,1,2,2:1:0:0:
192,192,43983,1,2,2:1:0:0:
320,192,44286,1,2,2:1:0:0:
64,192,44286,1,2,2:1:0:0:
448,192,44589,1,2,0:1:0:0:
64,192,44892,1,6,0:1:0:0:
448,192,44892,1,6,0:1:0:0:
192,192,45043,1,2,0:1:0:0:
320,192,45195,1,2,0:1:0:0:
448,192,45346,1,2,0:1:0:0:
320,192,45498,1,2,0:1:0:0:
64,192,45498,1,2,0:1:0:0:
448,192,45498,1,2,0:1:0:0:
320,192,45953,1,2,2:1:0:0:
448,192,46104,1,2,2:1:0:0:
64,192,46256,1,2,2:1:0:0:
192,192,46407,1,2,2:1:0:0:
192,192,46710,1,2,2:1:0:0:
448,192,46710,1,2,2:1:0:0:
64,192,46710,1,2,2:1:0:0:
192,192,47165,1,2,1:1:0:0:
64,192,47316,1,2,1:1:0:0:
448,192,47468,1,2,1:1:0:0:
320,192,47619,1,2,1:1:0:0:
320,192,47922,1,6,1:1:0:0:
448,192,47922,1,6,1:1:0:0:
64,192,47922,1,2,1:1:0:0:
192,192,48225,128,2,48831:2:1:0:0:
320,192,48377,1,2,2:1:0:0:
64,192,48680,1,2,2:1:0:0:
320,192,48831,1,2,2:1:0:0:
64,192,48831,1,2,2:1:0:0:
448,192,49134,1,2,1:1:0:0:
320,192,49134,128,2,50346:1:1:0:0:
192,192,49286,1,2,1:1:0:0:
64,192,49437,1,2,1:1:0:0:
192,192,49589,1,2,1:1:0:0:
448,192,49740,1,2,1:1:0:0:
192,192,49892,1,2,1:1:0:0:
64,192,50043,1,2,1:1:0:0:
192,192,50195,1,2,1:1:0:0:
448,192,50346,1,6,1:1:0:0:
192,192,50346,1,2,1:1:0:0:
64,192,55195,1,2,0:1:0:0:
320,192,55195,1,2,0:1:0:0:
448,192,55498,128,2,56407:0:1:0:0:
320,192,55649,1,2,0:1:0:0:
192,192,55953,1,2,0:1:0:0:
64,192,56104,1,2,0:1:0:0:
192,192,56256,1,2,0:1:0:0:
320,192,56407,1,2,0:1:0:0:
64,192,56407,1,2,0:1:0:0:
320,192,56710,1,2,0:1:0:0:
192,192,56710,1,2,0:1:0:0:
64,192,57013,1,2,0:1:0:0:
192,192,57165,1,2,0:1:0:0:
320,192,57316,1,2,0:1:0:0:
192,192,57619,1,2,0:1:0:0:
448,192,57619,1,2,0:1:0:0:
64,192,57922,128,2,58831:0:1:0:0:
192,192,58074,1,2,0:1:0:0:
320,192,58377,1,2,0:1:0:0:
448,192,58528,1,2,0:1:0:0:
320,192,58680,1,2,0:1:0:0:
192,192,58831,1,2,0:1:0:0:
448,192,58831,1,2,0:1:0:0:
192,192,59134,1,2,0:1:0:0:
320,192,59134,1,2,0:1:0:0:
448,192,59437,1,2,0:1:0:0:
320,192,59589,1,2,0:1:0:0:
192,192,59740,1,2,0:1:0:0:
64,192,60043,1,2,0:1:0:0:
320,192,60043,1,2,0:1:0:0:
192,192,60195,1,2,0:1:0:0:
448,192,60346,128,2,61256:0:1:0:0:
320,192,60498,1,2,0:1:0:0:
192,192,60801,1,2,0:1:0:0:
64,192,60953,1,2,0:1:0:0:
192,192,61104,1,2,0:1:0:0:
320,192,61256,1,2,0:1:0:0:
64,192,61256,1,2,0:1:0:0:
192,192,61559,1,2,0:1:0:0:
320,192,61559,1,2,0:1:0:0:
64,192,61862,1,2,0:1:0:0:
192,192,62013,1,2,0:1:0:0:
320,192,62165,1,2,0:1:0:0:
320,192,62316,1,2,0:1:0:0:
192,192,62468,1,2,0:1:0:0:
448,192,62468,1,2,0:1:0:0:
320,192,62619,1,2,0:1:0:0:
64,192,62922,1,2,0:1:0:0:
192,192,63074,1,2,0:1:0:0:
320,192,63225,1,2,0:1:0:0:
448,192,63377,1,2,0:1:0:0:
320,192,63528,1,2,0:1:0:0:
192,192,63680,1,2,0:1:0:0:
64,192,63831,1,2,0:1:0:0:
192,192,63983,1,2,0:1:0:0:
320,192,64134,1,2,0:1:0:0:
192,192,64286,128,2,64892:0:1:0:0:
320,192,64286,1,2,0:1:0:0:
448,192,64437,1,2,0:1:0:0:
64,192,64589,1,2,0:1:0:0:
448,192,64740,1,2,0:1:0:0:
320,192,64892,1,2,0:1:0:0:
64,192,64892,1,2,0:1:0:0:
320,192,65195,1,2,0:1:0:0:
448,192,65346,1,2,0:1:0:0:
192,192,65649,1,2,0:1:0:0:
320,192,65801,1,2,0:1:0:0:
448,192,65953,1,2,0:1:0:0:
192,192,65953,1,2,0:1:0:0:
192,192,66256,1,2,0:1:0:0:
320,192,66407,1,2,0:1:0:0:
192,192,66559,1,2,0:1:0:0:
64,192,66710,1,2,0:1:0:0:
320,192,66710,1,2,0:1:0:0:
320,192,67013,1,2,0:1:0:0:
320,192,67165,1,2,0:1:0:0:
192,192,67316,1,2,0:1:0:0:
448,192,67316,1,2,0:1:0:0:
64,192,67619,1,2,0:1:0:0:
320,192,67619,1,2,0:1:0:0:
192,192,67771,1,2,0:1:0:0:
448,192,67771,1,2,0:1:0:0:
64,192,67922,128,2,68528:0:1:0:0:
448,192,68225,1,2,0:1:0:0:
192,192,68528,1,6,0:1:0:0:
448,192,68528,1,2,0:1:0:0:
64,192,69437,1,2,0:1:0:0:
192,192,69589,1,2,0:1:0:0:
320,192,69740,1,2,0:1:0:0:
64,192,69740,1,2,0:1:0:0:
64,192,70043,1,2,0:1:0:0:
320,192,70043,1,2,0:1:0:0:
192,192,70195,1,2,0:1:0:0:
448,192,70195,1,2,0:1:0:0:
64,192,70346,128,2,70953:0:1:0:0:
320,192,70649,1,2,0:1:0:0:
192,192,70953,1,2,0:1:0:0:
448,192,70953,1,2,0:1:0:0:
448,192,71256,1,2,0:1:0:0:
320,192,71407,1,2,0:1:0:0:
192,192,71559,1,2,0:1:0:0:
64,192,71710,1,2,0:1:0:0:
320,192,71710,1,2,0:1:0:0:
192,192,71862,1,2,0:1:0:0:
320,192,72013,1,2,0:1:0:0:
192,192,72165,1,2,0:1:0:0:
448,192,72165,1,2,0:1:0:0:
320,192,72619,1,2,0:1:0:0:
192,192,72771,1,2,0:1:0:0:
320,192,72922,1,2,0:1:0:0:
192,192,73074,1,2,0:1:0:0:
448,192,73377,128,2,74589:0:1:0:0:
64,192,73377,1,10,0:1:0:0:
192,192,73528,1,10,0:1:0:0:
320,192,73680,1,10,0:1:0:0:
192,192,73831,1,10,0:1:0:0:
64,192,73983,1,10,0:1:0:0:
192,192,74134,1,10,0:1:0:0:
320,192,74286,1,10,0:1:0:0:
192,192,74437,1,10,0:1:0:0:
64,192,74589,1,6,0:1:0:0:
320,192,74589,1,2,0:1:0:0:
192,192,74589,1,2,0:1:0:0:
320,192,74892,1,2,0:1:0:0:
192,192,75043,1,2,0:1:0:0:
64,192,75195,1,2,0:1:0:0:
320,192,75195,1,2,0:1:0:0:
192,192,75498,1,2,0:1:0:0:
320,192,75498,1,2,0:1:0:0:
64,192,75801,1,2,0:1:0:0:
448,192,75801,1,2,0:1:0:0:
192,192,76104,1,2,0:1:0:0:
448,192,76104,1,2,0:1:0:0:
320,192,76256,1,2,0:1:0:0:
64,192,76256,1,2,0:1:0:0:
448,192,76407,1,2,0:1:0:0:
192,192,76407,1,2,0:1:0:0:
192,192,76710,1,2,0:1:0:0:
320,192,76862,1,2,0:1:0:0:
192,192,77013,1,2,0:1:0:0:
448,192,77013,1,2,0:1:0:0:
192,192,77316,1,2,0:1:0:0:
320,192,77316,1,2,0:1:0:0:
64,192,77619,1,2,0:1:0:0:
448,192,77619,1,2,0:1:0:0:
64,192,77922,1,2,0:1:0:0:
320,192,77922,1,2,0:1:0:0:
192,192,78074,1,2,0:1:0:0:
448,192,78074,1,2,0:1:0:0:
64,192,78225,1,2,0:1:0:0:
320,192,78225,1,2,0:1:0:0:
192,192,78528,1,2,0:1:0:0:
320,192,78528,1,2,0:1:0:0:
64,192,78831,1,2,0:1:0:0:
448,192,78831,1,2,0:1:0:0:
320,192,79134,1,2,0:1:0:0:
192,192,79286,1,2,0:1:0:0:
320,192,79437,1,2,0:1:0:0:
448,192,79437,1,2,0:1:0:0:
64,192,79740,128,2,80649:0:1:0:0:
192,192,80043,1,2,0:1:0:0:
320,192,80346,1,2,0:1:0:0:
192,192,80649,1,2,0:1:0:0:
448,192,80649,1,2,0:1:0:0:
320,192,80953,1,2,0:1:0:0:
192,192,81104,1,2,0:1:0:0:
64,192,81256,1,2,0:1:0:0:
320,192,81256,1,2,0:1:0:0:
192,192,81559,1,2,0:1:0:0:
320,192,81559,1,2,0:1:0:0:
64,192,81862,1,2,0:1:0:0:
448,192,81862,1,2,0:1:0:0:
192,192,82165,1,2,0:1:0:0:
448,192,82165,1,2,0:1:0:0:
320,192,82316,1,2,0:1:0:0:
64,192,82316,1,2,0:1:0:0:
448,192,82468,1,2,0:1:0:0:
192,192,82468,1,2,0:1:0:0:
64,192,82771,1,2,0:1:0:0:
320,192,82771,1,2,0:1:0:0:
192,192,82922,1,2,0:1:0:0:
448,192,82922,1,2,0:1:0:0:
64,192,83074,1,2,0:1:0:0:
320,192,83074,1,2,0:1:0:0:
192,192,83377,1,2,0:1:0:0:
320,192,83528,1,2,0:1:0:0:
192,192,83680,1,2,0:1:0:0:
448,192,83680,1,2,0:1:0:0:
64,192,83983,1,2,0:1:0:0:
320,192,83983,1,2,0:1:0:0:
192,192,84134,1,2,0:1:0:0:
448,192,84134,1,2,0:1:0:0:
64,192,84286,1,2,0:1:0:0:
320,192,84286,1,2,0:1:0:0:
192,192,84589,1,2,0:1:0:0:
320,192,84589,1,2,0:1:0:0:
64,192,84892,1,2,0:1:0:0:
448,192,84892,1,2,0:1:0:0:
320,192,85195,1,2,0:1:0:0:
192,192,85346,1,2,0:1:0:0:
320,192,85498,1,2,0:1:0:0:
448,192,85498,1,2,0:1:0:0:
192,192,85953,1,2,0:1:0:0:
320,192,86104,1,2,0:1:0:0:
320,192,86407,1,2,0:1:0:0:
192,192,86710,1,2,0:1:0:0:
448,192,86710,1,2,0:1:0:0:
64,192,86710,1,2,0:1:0:0:
192,192,87013,1,2,0:1:0:0:
448,192,87013,1,2,0:1:0:0:
320,192,87165,1,2,0:1:0:0:
64,192,87165,1,2,0:1:0:0:
448,192,87316,1,2,0:1:0:0:
192,192,87316,1,2,0:1:0:0:
64,192,87619,1,2,0:1:0:0:
320,192,87619,1,2,0:1:0:0:
192,192,87771,1,2,0:1:0:0:
448,192,87771,1,2,0:1:0:0:
64,192,87922,1,2,0:1:0:0:
320,192,87922,1,2,0:1:0:0:
192,192,88225,1,2,0:1:0:0:
320,192,88377,1,2,0:1:0:0:
192,192,88528,1,2,0:1:0:0:
448,192,88528,1,2,0:1:0:0:
64,192,88831,1,2,0:1:0:0:
320,192,88831,1,2,0:1:0:0:
192,192,88983,1,2,0:1:0:0:
448,192,88983,1,2,0:1:0:0:
64,192,89134,1,2,0:1:0:0:
320,192,89134,1,2,0:1:0:0:
320,192,89437,1,2,0:1:0:0:
192,192,89589,1,2,0:1:0:0:
64,192,89740,1,2,0:1:0:0:
320,192,89740,1,2,0:1:0:0:
192,192,90043,1,2,0:1:0:0:
320,192,90043,1,2,0:1:0:0:
64,192,90346,1,2,0:1:0:0:
448,192,90346,1,2,0:1:0:0:
192,192,90649,1,2,0:1:0:0:
448,192,90649,1,2,0:1:0:0:
320,192,90801,1,2,0:1:0:0:
64,192,90801,1,2,0:1:0:0:
448,192,90953,1,2,0:1:0:0:
192,192,90953,1,2,0:1:0:0:
192,192,91256,1,2,0:1:0:0:
320,192,91407,1,2,0:1:0:0:
192,192,91559,1,2,0:1:0:0:
448,192,91559,1,2,0:1:0:0:
320,192,91862,1,2,0:1:0:0:
192,192,92013,1,2,0:1:0:0:
320,192,92165,1,2,0:1:0:0:
64,192,92165,1,2,0:1:0:0:
320,192,92468,1,2,0:1:0:0:
192,192,92468,1,2,0:1:0:0:
448,192,92771,1,2,0:1:0:0:
64,192,92771,1,2,0:1:0:0:
448,192,93074,5,2,0:1:0:0:
192,192,93074,1,2,0:1:0:0:
64,192,93225,1,2,0:1:0:0:
320,192,93225,1,2,0:1:0:0:
192,192,93377,1,2,0:1:0:0:
448,192,93377,1,2,0:1:0:0:
64,192,93983,1,2,0:1:0:0:
320,192,93983,1,2,0:1:0:0:
192,192,94286,1,2,0:1:0:0:
320,192,94437,1,2,0:1:0:0:
448,192,94589,1,2,0:1:0:0:
192,192,94589,1,2,0:1:0:0:
320,192,94740,1,2,0:1:0:0:
448,192,94892,1,2,0:1:0:0:
192,192,94892,1,2,0:1:0:0:
320,192,95043,1,2,0:1:0:0:
448,192,95195,1,2,0:1:0:0:
192,192,95195,1,2,0:1:0:0:
64,192,95195,1,2,0:1:0:0:
320,192,95498,1,2,0:1:0:0:
192,192,95649,1,2,0:1:0:0:
64,192,95801,1,2,0:1:0:0:
320,192,95801,1,2,0:1:0:0:
192,192,95953,1,2,0:1:0:0:
64,192,96104,1,2,0:1:0:0:
320,192,96104,1,2,0:1:0:0:
192,192,96256,1,2,0:1:0:0:
64,192,96407,1,2,0:1:0:0:
320,192,96407,1,2,0:1:0:0:
448,192,96407,1,2,0:1:0:0:
192,192,96710,1,2,0:1:0:0:
320,192,96862,1,2,0:1:0:0:
192,192,97013,1,2,0:1:0:0:
448,192,97013,1,2,0:1:0:0:
320,192,97165,1,2,0:1:0:0:
448,192,97316,1,2,0:1:0:0:
320,192,97468,1,2,0:1:0:0:
448,192,97619,1,2,0:1:0:0:
64,192,97619,1,2,0:1:0:0:
192,192,97619,1,2,0:1:0:0:
192,192,97922,1,2,0:1:0:0:
64,192,98074,1,2,0:1:0:0:
192,192,98225,1,2,0:1:0:0:
448,192,98225,1,2,0:1:0:0:
320,192,98377,1,2,0:1:0:0:
448,192,98528,1,2,0:1:0:0:
320,192,98680,1,2,0:1:0:0:
448,192,98831,1,2,0:1:0:0:
192,192,98831,1,2,0:1:0:0:
192,192,99134,128,2,99740:0:1:0:0:
320,192,99286,1,2,0:1:0:0:
64,192,99437,1,2,0:1:0:0:
320,192,99437,1,2,0:1:0:0:
64,192,99589,1,2,0:1:0:0:
320,192,99740,1,2,0:1:0:0:
64,192,99740,1,2,0:1:0:0:
448,192,100043,1,2,0:1:0:0:
320,192,100346,128,2,100952:0:1:0:0:
192,192,100498,1,2,0:1:0:0:
448,192,100649,1,2,0:1:0:0:
192,192,100649,1,2,0:1:0:0:
448,192,100801,1,2,0:1:0:0:
192,192,100952,1,2,0:1:0:0:
448,192,100952,1,2,0:1:0:0:
320,192,101256,1,2,0:1:0:0:
64,192,101710,1,2,0:1:0:0:
192,192,101710,128,2,102468:0:1:0:0:
448,192,102013,1,2,0:1:0:0:
320,192,102165,1,2,0:1:0:0:
320,192,102316,1,2,0:1:0:0:
448,192,102468,1,6,0:1:0:0:
64,192,102468,1,2,0:1:0:0:
64,192,102771,1,2,0:1:0:0:
64,192,103074,128,2,103680:0:1:0:0:
448,192,103225,1,2,0:1:0:0:
320,192,103377,1,2,0:1:0:0:
192,192,103680,1,2,0:1:0:0:
448,192,103680,1,2,0:1:0:0:
64,192,103983,1,2,0:1:0:0:
192,192,104286,128,2,104892:0:1:0:0:
64,192,104437,1,2,0:1:0:0:
448,192,104589,1,2,0:1:0:0:
320,192,104892,1,2,0:1:0:0:
64,192,104892,1,2,0:1:0:0:
192,192,105195,1,2,0:1:0:0:
320,192,105498,128,2,106104:0:1:0:0:
64,192,105649,1,2,0:1:0:0:
192,192,105801,1,2,0:1:0:0:
448,192,106104,1,2,0:1:0:0:
64,192,106104,1,2,0:1:0:0:
320,192,106407,1,2,0:1:0:0:
448,192,106710,128,2,107316:0:1:0:0:
64,192,106862,1,2,0:1:0:0:
192,192,107013,1,2,0:1:0:0:
320,192,107316,1,2,0:1:0:0:
64,192,107316,1,2,0:1:0:0:
448,192,107619,1,2,0:1:0:0:
64,192,107922,1,6,0:1:0:0:
448,192,107922,1,6,0:1:0:0:
192,192,108074,1,2,0:1:0:0:
320,192,108225,1,2,0:1:0:0:
448,192,108377,1,2,0:1:0:0:
320,192,108528,1,2,0:1:0:0:
64,192,108528,1,2,0:1:0:0:
448,192,108528,1,2,0:1:0:0:
320,192,108983,1,2,0:1:0:0:
448,192,109134,1,2,0:1:0:0:
64,192,109286,1,2,0:1:0:0:
192,192,109437,1,2,0:1:0:0:
192,192,109740,1,2,0:1:0:0:
448,192,109740,1,2,0:1:0:0:
64,192,109740,1,2,0:1:0:0:
192,192,110195,1,2,0:1:0:0:
64,192,110346,1,2,0:1:0:0:
448,192,110498,1,2,0:1:0:0:
320,192,110649,1,2,0:1:0:0:
320,192,110952,1,6,0:1:0:0:
448,192,110952,1,6,0:1:0:0:
64,192,110952,1,2,0:1:0:0:
192,192,111256,128,2,111862:0:1:0:0:
320,192,111407,1,2,0:1:0:0:
64,192,111710,1,2,0:1:0:0:
320,192,111862,1,2,0:1:0:0:
64,192,111862,1,2,0:1:0:0:
448,192,112165,1,2,0:1:0:0:
320,192,112165,128,2,113377:0:1:0:0:
192,192,112316,1,2,0:1:0:0:
64,192,112468,1,2,0:1:0:0:
192,192,112619,1,2,0:1:0:0:
448,192,112771,1,2,0:1:0:0:
192,192,112922,1,2,0:1:0:0:
64,192,113074,1,2,0:1:0:0:
192,192,113225,1,2,0:1:0:0:
448,192,113377,1,6,0:1:0:0:
192,192,113377,1,2,0:1:0:0:
192,192,113680,5,2,0:1:0:0:
320,192,113831,5,2,0:1:0:0:
448,192,113983,1,2,0:1:0:0:
192,192,113983,1,2,0:1:0:0:
64,192,113983,1,2,0:1:0:0:
192,192,114286,1,2,0:1:0:0:
320,192,114286,1,2,0:1:0:0:
320,192,114589,1,2,0:1:0:0:
448,192,114589,1,2,0:1:0:0:
320,192,114892,1,2,0:1:0:0:
192,192,115043,1,2,0:1:0:0:
64,192,115195,1,2,0:1:0:0:
320,192,115195,1,2,0:1:0:0:
192,192,115346,1,2,0:1:0:0:
320,192,115498,1,2,0:1:0:0:
448,192,115498,1,2,0:1:0:0:
192,192,115801,1,2,0:1:0:0:
64,192,115801,1,2,0:1:0:0:
448,192,115801,1,2,0:1:0:0:
448,192,116104,1,2,0:1:0:0:
320,192,116256,1,2,0:1:0:0:
192,192,116407,1,2,0:1:0:0:
448,192,116407,1,2,0:1:0:0:
320,192,116559,1,2,0:1:0:0:
192,192,116710,1,2,0:1:0:0:
64,192,116710,1,2,0:1:0:0:
64,192,117013,128,2,117619:0:1:0:0:
320,192,117316,1,2,0:1:0:0:
192,192,117619,1,2,0:1:0:0:
320,192,117922,1,2,0:1:0:0:
448,192,118225,1,2,0:1:0:0:
320,192,118225,1,2,0:1:0:0:
64,192,118225,1,2,0:1:0:0:
320,192,118528,1,2,0:1:0:0:
192,192,118680,1,2,0:1:0:0:
64,192,118831,1,2,0:1:0:0:
320,192,118831,1,2,0:1:0:0:
192,192,118983,1,2,0:1:0:0:
320,192,119134,1,2,0:1:0:0:
448,192,119134,1,2,0:1:0:0:
64,192,119437,1,2,0:1:0:0:
192,192,119437,1,2,0:1:0:0:
448,192,119437,1,2,0:1:0:0:
192,192,119740,1,2,0:1:0:0:
320,192,119892,1,2,0:1:0:0:
448,192,120043,1,2,0:1:0:0:
448,192,120346,1,2,0:1:0:0:
64,192,120346,1,2,0:1:0:0:
192,192,120649,1,2,0:1:0:0:
320,192,120649,1,2,0:1:0:0:
448,192,120649,1,2,0:1:0:0:
192,192,121104,1,2,0:1:0:0:
320,192,121256,1,2,0:1:0:0:
448,192,121407,1,2,0:1:0:0:
64,192,121559,1,2,0:1:0:0:
192,192,121559,1,2,0:1:0:0:
64,192,121862,128,2,122468:0:1:0:0:
192,192,122165,1,2,0:1:0:0:
320,192,122316,1,2,0:1:0:0:
448,192,122468,1,2,0:1:0:0:
64,192,122619,1,2,0:1:0:0:
320,192,122771,1,2,0:1:0:0:
192,192,123074,1,6,0:1:0:0:
448,192,123074,1,6,0:1:0:0:
64,192,123074,1,2,0:1:0:0:
192,192,123377,1,2,0:1:0:0:
320,192,123528,1,2,0:1:0:0:
448,192,123680,1,2,0:1:0:0:
320,192,123831,1,2,0:1:0:0:
192,192,123983,1,2,0:1:0:0:
448,192,123983,1,2,0:1:0:0:
320,192,124286,1,2,0:1:0:0:
64,192,124286,1,2,0:1:0:0:
448,192,124286,1,2,0:1:0:0:
320,192,124589,1,2,0:1:0:0:
192,192,124740,1,2,0:1:0:0:
64,192,124892,1,2,0:1:0:0:
192,192,125043,1,2,0:1:0:0:
64,192,125195,1,2,0:1:0:0:
320,192,125195,1,2,0:1:0:0:
192,192,125498,1,2,0:1:0:0:
448,192,125498,1,2,0:1:0:0:
64,192,125498,1,2,0:1:0:0:
192,192,125801,1,2,0:1:0:0:
320,192,125952,1,2,0:1:0:0:
448,192,126104,1,2,0:1:0:0:
320,192,126256,1,2,0:1:0:0:
192,192,126407,1,2,0:1:0:0:
64,192,126407,1,2,0:1:0:0:
320,192,126710,1,2,0:1:0:0:
64,192,126710,1,2,0:1:0:0:
448,192,126710,1,2,0:1:0:0:
320,192,127013,1,2,0:1:0:0:
192,192,127165,1,2,0:1:0:0:
64,192,127316,1,2,0:1:0:0:
192,192,127468,1,2,0:1:0:0:
320,192,127619,1,2,0:1:0:0:
448,192,127619,1,2,0:1:0:0:
192,192,127922,1,2,0:1:0:0:
320,192,127922,1,2,0:1:0:0:
64,192,127922,1,2,0:1:0:0:
192,192,128225,1,2,0:1:0:0:
320,192,128377,1,2,0:1:0:0:
448,192,128528,1,2,0:1:0:0:
320,192,128680,1,2,0:1:0:0:
64,192,128831,1,2,0:1:0:0:
192,192,128831,1,2,0:1:0:0:
320,192,129134,1,2,0:1:0:0:
192,192,129134,1,2,0:1:0:0:
448,192,129134,1,2,0:1:0:0:
320,192,129437,1,2,0:1:0:0:
192,192,129589,1,2,0:1:0:0:
64,192,129740,1,2,0:1:0:0:
192,192,129892,1,2,0:1:0:0:
320,192,130043,1,2,0:1:0:0:
448,192,130043,1,2,0:1:0:0:
192,192,130346,1,2,0:1:0:0:
448,192,130346,1,2,0:1:0:0:
64,192,130346,1,2,0:1:0:0:
64,192,130649,1,2,0:1:0:0:
320,192,130649,1,2,0:1:0:0:
192,192,130952,1,2,0:1:0:0:
448,192,130952,1,2,0:1:0:0:
64,192,131256,1,2,0:1:0:0:
320,192,131256,1,2,0:1:0:0:
192,192,131407,1,2,0:1:0:0:
448,192,131407,1,2,0:1:0:0:
64,192,131559,128,2,132771:0:1:0:0:
192,192,131559,1,2,0:1:0:0:
448,192,131559,1,2,0:1:0:0:
320,192,131862,1,2,0:1:0:0:
192,192,132165,1,2,0:1:0:0:
448,192,132165,1,2,0:1:0:0:
320,192,132468,1,2,0:1:0:0:
448,192,132771,1,6,0:1:0:0:
192,192,132771,1,6,0:1:0:0:
320,192,132771,1,2,0:1:0:0:
64,192,137619,1,2,0:1:0:0:
320,192,137619,1,2,0:1:0:0:
448,192,137922,128,2,138831:0:1:0:0:
320,192,138074,1,2,0:1:0:0:
192,192,138377,1,2,0:1:0:0:
64,192,138528,1,2,0:1:0:0:
192,192,138680,1,2,0:1:0:0:
320,192,138831,1,2,0:1:0:0:
64,192,138831,1,2,0:1:0:0:
320,192,139134,1,2,0:1:0:0:
192,192,139134,1,2,0:1:0:0:
64,192,139437,1,2,0:1:0:0:
192,192,139589,1,2,0:1:0:0:
320,192,139740,1,2,0:1:0:0:
192,192,140043,1,2,0:1:0:0:
448,192,140043,1,2,0:1:0:0:
64,192,140346,128,2,141256:0:1:0:0:
192,192,140498,1,2,0:1:0:0:
320,192,140801,1,2,0:1:0:0:
448,192,140953,1,2,0:1:0:0:
320,192,141104,1,2,0:1:0:0:
192,192,141256,1,2,0:1:0:0:
448,192,141256,1,2,0:1:0:0:
192,192,141559,1,2,0:1:0:0:
320,192,141559,1,2,0:1:0:0:
320,192,141862,1,2,0:1:0:0:
192,192,142013,1,2,0:1:0:0:
320,192,142165,1,2,0:1:0:0:
192,192,142316,1,2,0:1:0:0:
64,192,142468,1,2,0:1:0:0:
320,192,142468,1,2,0:1:0:0:
192,192,142619,1,2,0:1:0:0:
448,192,142771,128,2,143680:0:1:0:0:
320,192,142922,1,2,0:1:0:0:
192,192,143225,1,2,0:1:0:0:
64,192,143377,1,2,0:1:0:0:
192,192,143528,1,2,0:1:0:0:
320,192,143680,1,2,0:1:0:0:
64,192,143680,1,2,0:1:0:0:
192,192,143983,1,2,0:1:0:0:
320,192,143983,1,2,0:1:0:0:
64,192,144286,1,2,0:1:0:0:
192,192,144437,1,2,0:1:0:0:
320,192,144589,1,2,0:1:0:0:
320,192,144740,1,2,0:1:0:0:
192,192,144892,1,2,0:1:0:0:
448,192,144892,1,2,0:1:0:0:
320,192,145043,1,2,0:1:0:0:
64,192,145346,1,2,0:1:0:0:
192,192,145498,1,2,0:1:0:0:
320,192,145649,1,2,0:1:0:0:
448,192,145801,1,2,0:1:0:0:
320,192,145953,1,2,0:1:0:0:
192,192,146104,1,2,0:1:0:0:
64,192,146256,1,2,0:1:0:0:
192,192,146407,1,2,0:1:0:0:
320,192,146559,1,2,0:1:0:0:
192,192,146710,128,2,147316:0:1:0:0:
320,192,146710,1,2,0:1:0:0:
448,192,146862,1,2,0:1:0:0:
64,192,147013,1,2,0:1:0:0:
448,192,147165,1,2,0:1:0:0:
320,192,147316,1,2,0:1:0:0:
64,192,147316,1,2,0:1:0:0:
320,192,147619,1,2,0:1:0:0:
448,192,147771,1,2,0:1:0:0:
192,192,148074,1,2,0:1:0:0:
320,192,148225,1,2,0:1:0:0:
448,192,148377,1,2,0:1:0:0:
192,192,148377,1,2,0:1:0:0:
192,192,148680,1,2,0:1:0:0:
320,192,148831,1,2,0:1:0:0:
192,192,148983,1,2,0:1:0:0:
64,192,149134,1,2,0:1:0:0:
320,192,149134,1,2,0:1:0:0:
320,192,149437,1,2,0:1:0:0:
320,192,149589,1,2,0:1:0:0:
192,192,149740,1,2,0:1:0:0:
448,192,149740,1,2,0:1:0:0:
64,192,150043,1,2,0:1:0:0:
320,192,150043,1,2,0:1:0:0:
192,192,150195,1,2,0:1:0:0:
448,192,150195,1,2,0:1:0:0:
64,192,150346,128,2,150953:0:1:0:0:
448,192,150649,1,2,0:1:0:0:
192,192,150953,1,6,0:1:0:0:
448,192,150953,1,2,0:1:0:0:
64,192,151862,1,2,0:1:0:0:
192,192,152013,1,2,0:1:0:0:
320,192,152165,1,2,0:1:0:0:
64,192,152165,1,2,0:1:0:0:
64,192,152468,1,2,0:1:0:0:
320,192,152468,1,2,0:1:0:0:
192,192,152619,1,2,0:1:0:0:
448,192,152619,1,2,0:1:0:0:
64,192,152771,128,2,153377:0:1:0:0:
320,192,153074,1,2,0:1:0:0:
192,192,153377,1,2,0:1:0:0:
448,192,153377,1,2,0:1:0:0:
448,192,153680,1,2,0:1:0:0:
320,192,153831,1,2,0:1:0:0:
192,192,153983,1,2,0:1:0:0:
64,192,154134,1,2,0:1:0:0:
320,192,154134,1,2,0:1:0:0:
192,192,154286,1,2,0:1:0:0:
320,192,154437,1,2,0:1:0:0:
192,192,154589,1,2,0:1:0:0:
448,192,154589,1,2,0:1:0:0:
192,192,154892,1,2,0:1:0:0:
320,192,155043,1,2,0:1:0:0:
192,192,155195,1,2,0:1:0:0:
320,192,155346,1,2,0:1:0:0:
192,192,155498,1,2,0:1:0:0:
448,192,155801,128,2,157013:0:1:0:0:
64,192,155801,1,10,0:1:0:0:
192,192,155953,1,10,0:1:0:0:
320,192,156104,1,10,0:1:0:0:
192,192,156256,1,10,0:1:0:0:
64,192,156407,1,10,0:1:0:0:
192,192,156559,1,10,0:1:0:0:
320,192,156710,1,10,0:1:0:0:
192,192,156862,1,10,0:1:0:0:
64,192,157013,1,6,0:1:0:0:
320,192,157013,1,2,0:1:0:0:
192,192,157013,1,2,0:1:0:0:
192,192,157316,1,2,0:1:0:0:
320,192,157468,1,2,0:1:0:0:
192,192,157619,1,2,0:1:0:0:
320,192,157771,1,2,0:1:0:0:
192,192,157922,1,2,0:1:0:0:
448,192,158225,128,2,159437:0:1:0:0:
64,192,158225,1,10,0:1:0:0:
192,192,158377,1,10,0:1:0:0:
320,192,158528,1,10,0:1:0:0:
192,192,158680,1,10,0:1:0:0:
64,192,158831,1,10,0:1:0:0:
192,192,158983,1,10,0:1:0:0:
320,192,159134,1,10,0:1:0:0:
192,192,159286,1,10,0:1:0:0:
64,192,159437,1,6,0:1:0:0:
320,192,159437,1,2,0:1:0:0:
192,192,159437,1,2,0:1:0:0:
320,192,159740,1,2,0:1:0:0:
192,192,159892,1,2,0:1:0:0:
64,192,160043,1,2,0:1:0:0:
320,192,160043,1,2,0:1:0:0:
192,192,160346,1,2,0:1:0:0:
320,192,160346,1,2,0:1:0:0:
64,192,160649,1,2,0:1:0:0:
448,192,160649,1,2,0:1:0:0:
192,192,160953,1,2,0:1:0:0:
448,192,160953,1,2,0:1:0:0:
320,192,161104,1,2,0:1:0:0:
64,192,161104,1,2,0:1:0:0:
448,192,161256,1,2,0:1:0:0:
192,192,161256,1,2,0:1:0:0:
192,192,161559,1,2,0:1:0:0:
320,192,161710,1,2,0:1:0:0:
192,192,161862,1,2,0:1:0:0:
448,192,161862,1,2,0:1:0:0:
192,192,162165,1,2,0:1:0:0:
320,192,162165,1,2,0:1:0:0:
64,192,162468,1,2,0:1:0:0:
448,192,162468,1,2,0:1:0:0:
64,192,162771,1,2,0:1:0:0:
320,192,162771,1,2,0:1:0:0:
192,192,162922,1,2,0:1:0:0:
448,192,162922,1,2,0:1:0:0:
64,192,163074,1,2,0:1:0:0:
320,192,163074,1,2,0:1:0:0:
192,192,163377,1,2,0:1:0:0:
320,192,163377,1,2,0:1:0:0:
64,192,163680,1,2,0:1:0:0:
448,192,163680,1,2,0:1:0:0:
320,192,163983,1,2,0:1:0:0:
192,192,164134,1,2,0:1:0:0:
320,192,164286,1,2,0:1:0:0:
448,192,164286,1,2,0:1:0:0:
64,192,164589,128,2,165498:0:1:0:0:
192,192,164892,1,2,0:1:0:0:
320,192,165195,1,2,0:1:0:0:
192,192,165498,1,2,0:1:0:0:
448,192,165498,1,2,0:1:0:0:
320,192,165801,1,2,0:1:0:0:
192,192,165953,1,2,0:1:0:0:
64,192,166104,1,2,0:1:0:0:
320,192,166104,1,2,0:1:0:0:
192,192,166407,1,2,0:1:0:0:
320,192,166407,1,2,0:1:0:0:
64,192,166710,1,2,0:1:0:0:
448,192,166710,1,2,0:1:0:0:
192,192,167013,1,2,0:1:0:0:
448,192,167013,1,2,0:1:0:0:
320,192,167165,1,2,0:1:0:0:
64,192,167165,1,2,0:1:0:0:
448,192,167316,1,2,0:1:0:0:
192,192,167316,1,2,0:1:0:0:
64,192,167619,1,2,0:1:0:0:
320,192,167619,1,2,0:1:0:0:
192,192,167771,1,2,0:1:0:0:
448,192,167771,1,2,0:1:0:0:
64,192,167922,1,2,0:1:0:0:
320,192,167922,1,2,0:1:0:0:
192,192,168225,1,2,0:1:0:0:
320,192,168377,1,2,0:1:0:0:
192,192,168528,1,2,0:1:0:0:
448,192,168528,1,2,0:1:0:0:
64,192,168831,1,2,0:1:0:0:
320,192,168831,1,2,0:1:0:0:
192,192,168983,1,2,0:1:0:0:
448,192,168983,1,2,0:1:0:0:
64,192,169134,1,2,0:1:0:0:
320,192,169134,1,2,0:1:0:0:
192,192,169437,1,2,0:1:0:0:
320,192,169437,1,2,0:1:0:0:
64,192,169740,1,2,0:1:0:0:
448,192,169740,1,2,0:1:0:0:
320,192,170043,1,2,0:1:0:0:
192,192,170195,1,2,0:1:0:0:
320,192,170346,1,2,0:1:0:0:
448,192,170346,1,2,0:1:0:0:
192,192,170801,1,2,0:1:0:0:
320,192,170953,1,2,0:1:0:0:
320,192,171256,1,2,0:1:0:0:
192,192,171559,1,2,0:1:0:0:
448,192,171559,1,2,0:1:0:0:
64,192,171559,1,2,0:1:0:0:
192,192,171862,1,2,0:1:0:0:
448,192,171862,1,2,0:1:0:0:
320,192,172013,1,2,0:1:0:0:
64,192,172013,1,2,0:1:0:0:
448,192,172165,1,2,0:1:0:0:
192,192,172165,1,2,0:1:0:0:
64,192,172468,1,2,0:1:0:0:
320,192,172468,1,2,0:1:0:0:
192,192,172619,1,2,0:1:0:0:
448,192,172619,1,2,0:1:0:0:
64,192,172771,1,2,0:1:0:0:
320,192,172771,1,2,0:1:0:0:
192,192,173074,1,2,0:1:0:0:
320,192,173225,1,2,0:1:0:0:
192,192,173377,1,2,0:1:0:0:
448,192,173377,1,2,0:1:0:0:
64,192,173680,1,2,0:1:0:0:
320,192,173680,1,2,0:1:0:0:
192,192,173831,1,2,0:1:0:0:
448,192,173831,1,2,0:1:0:0:
64,192,173983,1,2,0:1:0:0:
320,192,173983,1,2,0:1:0:0:
320,192,174286,1,2,0:1:0:0:
192,192,174437,1,2,0:1:0:0:
64,192,174589,1,2,0:1:0:0:
320,192,174589,1,2,0:1:0:0:
192,192,174892,1,2,0:1:0:0:
320,192,174892,1,2,0:1:0:0:
64,192,175195,1,2,0:1:0:0:
448,192,175195,1,2,0:1:0:0:
192,192,175498,5,2,0:1:0:0:
448,192,175498,1,2,0:1:0:0:
320,192,175649,1,2,0:1:0:0:
64,192,175649,1,2,0:1:0:0:
448,192,175801,1,2,0:1:0:0:
192,192,175801,1,2,0:1:0:0:
192,192,176104,1,2,0:1:0:0:
320,192,176104,1,2,0:1:0:0:
64,192,176407,1,6,0:1:0:0:
448,192,176407,1,6,0:1:0:0:
320,192,176710,1,2,0:1:0:0:
192,192,176862,1,2,0:1:0:0:
64,192,177013,1,2,0:1:0:0:
320,192,177013,1,2,0:1:0:0:
320,192,177316,1,2,0:1:0:0:
192,192,177468,1,2,0:1:0:0:
448,192,177619,1,2,0:1:0:0:
320,192,177619,1,2,0:1:0:0:
64,192,177619,1,2,0:1:0:0:
320,192,178074,1,2,0:1:0:0:
192,192,178377,1,2,0:1:0:0:
64,192,178528,1,2,0:1:0:0:
192,192,178831,1,2,0:1:0:0:
320,192,178831,1,2,0:1:0:0:
448,192,178831,1,2,0:1:0:0:
192,192,179134,1,2,0:1:0:0:
320,192,179286,1,2,0:1:0:0:
448,192,179740,1,2,0:1:0:0:
320,192,179892,1,2,0:1:0:0:
192,192,180043,1,2,0:1:0:0:
320,192,180195,1,2,0:1:0:0:
192,192,180346,1,2,0:1:0:0:
448,192,180346,1,2,0:1:0:0:
64,192,180346,1,2,0:1:0:0:
320,192,180952,1,2,0:1:0:0:
448,192,181104,1,2,0:1:0:0:
192,192,181256,1,2,0:1:0:0:
448,192,181256,1,2,0:1:0:0:
64,192,181256,1,2,0:1:0:0:
320,192,181710,1,2,0:1:0:0:
448,192,181862,1,2,0:1:0:0:
192,192,181862,1,2,0:1:0:0:
64,192,181862,1,2,0:1:0:0:
192,192,182165,1,2,0:1:0:0:
320,192,182316,1,2,0:1:0:0:
64,192,182468,1,2,0:1:0:0:
192,192,182468,1,2,0:1:0:0:
448,192,182468,1,2,0:1:0:0:
320,192,182922,1,2,0:1:0:0:
192,192,183225,1,2,0:1:0:0:
448,192,183377,1,2,0:1:0:0:
320,192,183680,1,2,0:1:0:0:
192,192,183831,1,2,0:1:0:0:
64,192,183983,1,2,0:1:0:0:
320,192,184286,1,2,0:1:0:0:
192,192,184437,1,2,0:1:0:0:
64,192,184589,1,2,0:1:0:0:
192,192,184892,128,2,186104:0:1:0:0:
320,192,184892,128,2,185498:0:1:0:0:
448,192,185801,1,2,0:1:0:0:
64,192,186104,1,2,0:1:0:0:
320,192,186104,1,2,0:1:0:0:
448,192,186104,1,2,0:1:0:0:
320,192,186407,1,2,0:1:0:0:
192,192,186559,1,2,0:1:0:0:
64,192,186559,1,2,0:1:0:0:
192,192,186862,1,2,0:1:0:0:
320,192,187013,1,2,0:1:0:0:
448,192,187316,1,2,0:1:0:0:
320,192,187619,1,2,0:1:0:0:
192,192,187771,1,2,0:1:0:0:
192,192,188225,1,2,0:1:0:0:
320,192,188377,1,2,0:1:0:0:
192,192,188528,1,2,0:1:0:0:
448,192,188528,1,2,0:1:0:0:
320,192,188680,1,2,0:1:0:0:
64,192,188831,1,2,0:1:0:0:
320,192,188983,1,2,0:1:0:0:
192,192,189286,1,2,0:1:0:0:
448,192,189589,1,2,0:1:0:0:
192,192,189740,1,2,0:1:0:0:
64,192,190346,1,2,0:1:0:0:
192,192,190498,1,2,0:1:0:0:
320,192,190649,1,2,0:1:0:0:
192,192,190801,1,2,0:1:0:0:
64,192,190952,1,2,0:1:0:0:
320,192,191256,1,2,0:1:0:0:
192,192,191407,1,2,0:1:0:0:
64,192,191710,128,2,192165:0:1:0:0:
192,192,191862,1,2,0:1:0:0:
192,192,192165,1,6,0:1:0:0:
192,192,192468,1,2,0:1:0:0:
320,192,192468,1,2,0:1:0:0:
448,192,192771,128,2,193377:0:1:0:0:
320,192,193074,1,2,0:1:0:0:
320,192,193377,1,6,0:1:0:0:
320,192,193831,1,2,0:1:0:0:
64,192,193983,128,2,194589:0:1:0:0:
448,192,193983,1,2,0:1:0:0:
320,192,194286,1,2,0:1:0:0:
192,192,194589,1,6,0:1:0:0:
64,192,194892,1,2,0:1:0:0:
448,192,194892,1,2,0:1:0:0:
320,192,195043,1,2,0:1:0:0:
192,192,195043,1,2,0:1:0:0:
448,192,195195,1,2,0:1:0:0:
64,192,195195,1,2,0:1:0:0:
192,192,195346,1,2,0:1:0:0:
320,192,195346,1,2,0:1:0:0:
448,192,195498,1,2,0:1:0:0:
64,192,195498,1,2,0:1:0:0:
192,192,195801,128,2,197013:0:1:0:0:
320,192,195801,128,2,197013:0:1:0:0:
64,192,197013,1,2,0:1:0:0:
448,192,197013,1,2,0:1:0:0:
192,192,197316,1,2,0:1:0:0:
320,192,197467,1,2,0:1:0:0:
448,192,197619,1,2,0:1:0:0:
192,192,197619,1,2,0:1:0:0:
320,192,197770,1,2,0:1:0:0:
448,192,197922,1,2,0:1:0:0:
192,192,197922,1,2,0:1:0:0:
320,192,198073,1,2,0:1:0:0:
448,192,198225,1,2,0:1:0:0:
192,192,198225,1,2,0:1:0:0:
64,192,198225,1,2,0:1:0:0:
320,192,198528,1,2,0:1:0:0:
192,192,198679,1,2,0:1:0:0:
64,192,198831,1,2,0:1:0:0:
320,192,198831,1,2,0:1:0:0:
192,192,198982,1,2,0:1:0:0:
64,192,199134,1,2,0:1:0:0:
320,192,199134,1,2,0:1:0:0:
192,192,199285,1,2,0:1:0:0:
64,192,199437,1,2,0:1:0:0:
320,192,199437,1,2,0:1:0:0:
448,192,199437,1,2,0:1:0:0:
192,192,199740,1,2,0:1:0:0:
320,192,199891,1,2,0:1:0:0:
192,192,200043,1,2,0:1:0:0:
448,192,200043,1,2,0:1:0:0:
320,192,200194,1,2,0:1:0:0:
448,192,200346,1,2,0:1:0:0:
320,192,200497,1,2,0:1:0:0:
448,192,200649,1,2,0:1:0:0:
64,192,200649,1,2,0:1:0:0:
192,192,200649,1,2,0:1:0:0:
192,192,200952,1,2,0:1:0:0:
64,192,201103,1,2,0:1:0:0:
192,192,201255,1,2,0:1:0:0:
448,192,201255,1,2,0:1:0:0:
320,192,201406,1,2,0:1:0:0:
448,192,201558,1,2,0:1:0:0:
320,192,201709,1,2,0:1:0:0:
448,192,201861,1,2,0:1:0:0:
192,192,201861,1,2,0:1:0:0:
192,192,202164,128,2,202770:0:1:0:0:
320,192,202316,1,2,0:1:0:0:
64,192,202467,1,2,0:1:0:0:
320,192,202467,1,2,0:1:0:0:
64,192,202619,1,2,0:1:0:0:
320,192,202770,1,2,0:1:0:0:
64,192,202770,1,2,0:1:0:0:
448,192,203073,1,2,0:1:0:0:
320,192,203376,128,2,203982:0:1:0:0:
192,192,203528,1,2,0:1:0:0:
448,192,203679,1,2,0:1:0:0:
192,192,203679,1,2,0:1:0:0:
448,192,203831,1,2,0:1:0:0:
192,192,203982,1,2,0:1:0:0:
448,192,203982,1,2,0:1:0:0:
320,192,204285,1,2,0:1:0:0:
64,192,204740,1,2,0:1:0:0:
192,192,204740,128,2,205497:0:1:0:0:
448,192,205043,1,2,0:1:0:0:
320,192,205194,1,2,0:1:0:0:
320,192,205346,1,2,0:1:0:0:
448,192,205497,1,6,0:1:0:0:
64,192,205497,1,2,0:1:0:0:
64,192,205800,1,2,0:1:0:0:
64,192,206103,128,2,206709:0:1:0:0:
448,192,206255,1,2,0:1:0:0:
320,192,206406,1,2,0:1:0:0:
192,192,206709,1,2,0:1:0:0:
448,192,206709,1,2,0:1:0:0:
64,192,207013,1,2,0:1:0:0:
192,192,207316,128,2,207922:0:1:0:0:
64,192,207467,1,2,0:1:0:0:
448,192,207619,1,2,0:1:0:0:
320,192,207922,1,2,0:1:0:0:
64,192,207922,1,2,0:1:0:0:
192,192,208225,1,2,0:1:0:0:
320,192,208528,128,2,209134:0:1:0:0:
64,192,208679,1,2,0:1:0:0:
192,192,208831,1,2,0:1:0:0:
448,192,209134,1,2,0:1:0:0:
64,192,209134,1,2,0:1:0:0:
320,192,209437,1,2,0:1:0:0:
448,192,209740,128,2,210346:0:1:0:0:
64,192,209891,1,2,0:1:0:0:
192,192,210043,1,2,0:1:0:0:
320,192,210346,1,2,0:1:0:0:
64,192,210346,1,2,0:1:0:0:
448,192,210649,1,2,0:1:0:0:
64,192,210952,1,6,0:1:0:0:
448,192,210952,1,6,0:1:0:0:
192,192,211103,1,2,0:1:0:0:
320,192,211255,1,2,0:1:0:0:
448,192,211406,1,2,0:1:0:0:
320,192,211558,1,2,0:1:0:0:
64,192,211558,1,2,0:1:0:0:
448,192,211558,1,2,0:1:0:0:
320,192,212013,1,2,0:1:0:0:
448,192,212164,1,2,0:1:0:0:
64,192,212316,1,2,0:1:0:0:
192,192,212467,1,2,0:1:0:0:
192,192,212770,1,2,0:1:0:0:
448,192,212770,1,2,0:1:0:0:
64,192,212770,1,2,0:1:0:0:
192,192,213225,1,2,0:1:0:0:
64,192,213376,1,2,0:1:0:0:
448,192,213528,1,2,0:1:0:0:
320,192,213679,1,2,0:1:0:0:
320,192,213982,1,6,0:1:0:0:
448,192,213982,1,6,0:1:0:0:
64,192,213982,1,2,0:1:0:0:
192,192,214285,128,2,214891:0:1:0:0:
320,192,214437,1,2,0:1:0:0:
64,192,214740,1,2,0:1:0:0:
320,192,214891,1,2,0:1:0:0:
64,192,214891,1,2,0:1:0:0:
448,192,215194,1,2,0:1:0:0:
320,192,215194,128,2,216406:0:1:0:0:
192,192,215346,1,2,0:1:0:0:
64,192,215497,1,2,0:1:0:0:
192,192,215649,1,2,0:1:0:0:
448,192,215800,1,2,0:1:0:0:
192,192,215952,1,2,0:1:0:0:
64,192,216103,1,2,0:1:0:0:
192,192,216255,1,2,0:1:0:0:
448,192,216406,1,6,0:1:0:0:
192,192,216406,1,2,0:1:0:0:
192,192,216709,5,2,0:1:0:0:
320,192,216861,5,2,0:1:0:0:
448,192,217013,1,2,0:1:0:0:
192,192,217013,1,2,0:1:0:0:
64,192,217013,1,2,0:1:0:0:
192,192,217316,1,2,0:1:0:0:
320,192,217316,1,2,0:1:0:0:
320,192,217619,1,2,0:1:0:0:
448,192,217619,1,2,0:1:0:0:
320,192,217922,1,2,0:1:0:0:
192,192,218073,1,2,0:1:0:0:
64,192,218225,1,2,0:1:0:0:
320,192,218225,1,2,0:1:0:0:
192,192,218376,1,2,0:1:0:0:
320,192,218528,1,2,0:1:0:0:
448,192,218528,1,2,0:1:0:0:
192,192,218831,1,2,0:1:0:0:
64,192,218831,1,2,0:1:0:0:
448,192,218831,1,2,0:1:0:0:
448,192,219134,1,2,0:1:0:0:
320,192,219285,1,2,0:1:0:0:
192,192,219437,1,2,0:1:0:0:
448,192,219437,1,2,0:1:0:0:
320,192,219588,1,2,0:1:0:0:
192,192,219740,1,2,0:1:0:0:
64,192,219740,1,2,0:1:0:0:
64,192,220043,128,2,220649:0:1:0:0:
320,192,220346,1,2,0:1:0:0:
192,192,220649,1,2,0:1:0:0:
320,192,220952,1,2,0:1:0:0:
448,192,221255,1,2,0:1:0:0:
320,192,221255,1,2,0:1:0:0:
64,192,221255,1,2,0:1:0:0:
320,192,221558,1,2,0:1:0:0:
192,192,221709,1,2,0:1:0:0:
64,192,221861,1,2,0:1:0:0:
320,192,221861,1,2,0:1:0:0:
192,192,222013,1,2,0:1:0:0:
320,192,222164,1,2,0:1:0:0:
448,192,222164,1,2,0:1:0:0:
64,192,222467,1,2,0:1:0:0:
192,192,222467,1,2,0:1:0:0:
448,192,222467,1,2,0:1:0:0:
192,192,222770,1,2,0:1:0:0:
320,192,222922,1,2,0:1:0:0:
448,192,223073,1,2,0:1:0:0:
448,192,223376,1,2,0:1:0:0:
64,192,223376,1,2,0:1:0:0:
192,192,223679,1,2,0:1:0:0:
320,192,223679,1,2,0:1:0:0:
448,192,223679,1,2,0:1:0:0:
192,192,224134,1,2,0:1:0:0:
320,192,224285,1,2,0:1:0:0:
448,192,224437,1,2,0:1:0:0:
64,192,224588,1,2,0:1:0:0:
192,192,224588,1,2,0:1:0:0:
64,192,224891,128,2,225497:0:1:0:0:
192,192,225194,1,2,0:1:0:0:
320,192,225346,1,2,0:1:0:0:
448,192,225497,1,2,0:1:0:0:
64,192,225649,1,2,0:1:0:0:
320,192,225800,1,2,0:1:0:0:
192,192,226103,1,6,0:1:0:0:
448,192,226103,1,6,0:1:0:0:
64,192,226103,1,2,0:1:0:0:
192,192,226406,1,2,0:1:0:0:
320,192,226558,1,2,0:1:0:0:
448,192,226709,1,2,0:1:0:0:
320,192,226861,1,2,0:1:0:0:
192,192,227013,1,2,0:1:0:0:
448,192,227013,1,2,0:1:0:0:
320,192,227316,1,2,0:1:0:0:
64,192,227316,1,2,0:1:0:0:
448,192,227316,1,2,0:1:0:0:
320,192,227619,1,2,0:1:0:0:
192,192,227770,1,2,0:1:0:0:
64,192,227922,1,2,0:1:0:0:
192,192,228073,1,2,0:1:0:0:
64,192,228225,1,2,0:1:0:0:
320,192,228225,1,2,0:1:0:0:
192,192,228528,1,2,0:1:0:0:
448,192,228528,1,2,0:1:0:0:
64,192,228528,1,2,0:1:0:0:
192,192,228831,1,2,0:1:0:0:
320,192,228982,1,2,0:1:0:0:
448,192,229134,1,2,0:1:0:0:
320,192,229285,1,2,0:1:0:0:
192,192,229437,1,2,0:1:0:0:
64,192,229437,1,2,0:1:0:0:
320,192,229740,1,2,0:1:0:0:
64,192,229740,1,2,0:1:0:0:
448,192,229740,1,2,0:1:0:0:
320,192,230043,1,2,0:1:0:0:
192,192,230194,1,2,0:1:0:0:
64,192,230346,1,2,0:1:0:0:
192,192,230497,1,2,0:1:0:0:
320,192,230649,1,2,0:1:0:0:
448,192,230649,1,2,0:1:0:0:
192,192,230952,1,2,0:1:0:0:
320,192,230952,1,2,0:1:0:0:
64,192,230952,1,2,0:1:0:0:
192,192,231255,1,2,0:1:0:0:
320,192,231406,1,2,0:1:0:0:
448,192,231558,1,2,0:1:0:0:
320,192,231709,1,2,0:1:0:0:
64,192,231861,1,2,0:1:0:0:
192,192,231861,1,2,0:1:0:0:
320,192,232164,1,2,0:1:0:0:
192,192,232164,1,2,0:1:0:0:
448,192,232164,1,2,0:1:0:0:
320,192,232467,1,2,0:1:0:0:
192,192,232619,1,2,0:1:0:0:
64,192,232770,1,2,0:1:0:0:
192,192,232922,1,2,0:1:0:0:
320,192,233073,1,2,0:1:0:0:
448,192,233073,1,2,0:1:0:0:
192,192,233376,1,2,0:1:0:0:
448,192,233376,1,2,0:1:0:0:
64,192,233376,1,2,0:1:0:0:
64,192,233679,1,2,0:1:0:0:
320,192,233679,1,2,0:1:0:0:
192,192,233982,1,2,0:1:0:0:
448,192,233982,1,2,0:1:0:0:
64,192,234285,1,2,0:1:0:0:
320,192,234285,1,2,0:1:0:0:
192,192,234437,1,2,0:1:0:0:
448,192,234437,1,2,0:1:0:0:
64,192,234588,128,2,235800:0:1:0:0:
192,192,234588,1,2,0:1:0:0:
448,192,234588,1,2,0:1:0:0:
320,192,234891,1,2,0:1:0:0:
192,192,235194,1,2,0:1:0:0:
448,192,235194,1,2,0:1:0:0:
320,192,235497,1,2,0:1:0:0:
448,192,235800,1,6,0:1:0:0:
192,192,235800,1,6,0:1:0:0:
320,192,235800,1,2,0:1:0:0:
192,192,236406,5,2,0:1:0:0:
320,192,236558,5,2,0:1:0:0:
64,192,236709,1,2,0:1:0:0:
192,192,236709,1,2,0:1:0:0:
448,192,236709,1,2,0:1:0:0:
320,192,237013,1,2,0:1:0:0:
192,192,237013,1,2,0:1:0:0:
448,192,237316,1,2,0:1:0:0:
320,192,237316,1,2,0:1:0:0:
320,192,237619,1,2,0:1:0:0:
192,192,237770,1,2,0:1:0:0:
320,192,237922,1,2,0:1:0:0:
64,192,237922,1,2,0:1:0:0:
192,192,238073,1,2,0:1:0:0:
448,192,238225,1,2,0:1:0:0:
320,192,238225,1,2,0:1:0:0:
448,192,238528,1,2,0:1:0:0:
64,192,238528,1,2,0:1:0:0:
192,192,238528,1,2,0:1:0:0:
448,192,238831,1,2,0:1:0:0:
320,192,238982,1,2,0:1:0:0:
448,192,239134,1,2,0:1:0:0:
192,192,239134,1,2,0:1:0:0:
320,192,239285,1,2,0:1:0:0:
64,192,239437,1,2,0:1:0:0:
192,192,239437,1,2,0:1:0:0:
64,192,239740,128,2,240346:0:1:0:0:
320,192,240043,1,2,0:1:0:0:
192,192,240346,1,2,0:1:0:0:
320,192,240649,1,2,0:1:0:0:
64,192,240952,1,2,0:1:0:0:
320,192,240952,1,2,0:1:0:0:
448,192,240952,1,2,0:1:0:0:
320,192,241255,1,2,0:1:0:0:
192,192,241406,1,2,0:1:0:0:
320,192,241558,1,2,0:1:0:0:
64,192,241558,1,2,0:1:0:0:
192,192,241709,1,2,0:1:0:0:
448,192,241861,1,2,0:1:0:0:
320,192,241861,1,2,0:1:0:0:
448,192,242164,1,2,0:1:0:0:
192,192,242164,1,2,0:1:0:0:
64,192,242164,1,2,0:1:0:0:
192,192,242467,1,2,0:1:0:0:
320,192,242619,1,2,0:1:0:0:
448,192,242770,1,2,0:1:0:0:
64,192,243073,1,2,0:1:0:0:
448,192,243073,1,2,0:1:0:0:
448,192,243376,1,2,0:1:0:0:
320,192,243376,1,2,0:1:0:0:
192,192,243376,1,2,0:1:0:0:
192,192,243831,1,2,0:1:0:0:
320,192,243982,1,2,0:1:0:0:
448,192,244134,1,2,0:1:0:0:
192,192,244285,1,2,0:1:0:0:
64,192,244285,1,2,0:1:0:0:
64,192,244588,128,2,245194:0:1:0:0:
192,192,244891,1,2,0:1:0:0:
320,192,245043,1,2,0:1:0:0:
448,192,245194,1,2,0:1:0:0:
64,192,245346,1,2,0:1:0:0:
320,192,245497,1,2,0:1:0:0:
64,192,245800,1,2,0:1:0:0:
448,192,245800,1,6,0:1:0:0:
192,192,245800,1,6,0:1:0:0:
192,192,246103,1,2,0:1:0:0:
320,192,246255,1,2,0:1:0:0:
448,192,246406,1,2,0:1:0:0:
320,192,246558,1,2,0:1:0:0:
448,192,246709,1,2,0:1:0:0:
192,192,246709,1,2,0:1:0:0:
448,192,247013,1,2,0:1:0:0:
64,192,247013,1,2,0:1:0:0:
320,192,247013,1,2,0:1:0:0:
320,192,247316,1,2,0:1:0:0:
192,192,247467,1,2,0:1:0:0:
64,192,247619,1,2,0:1:0:0:
192,192,247770,1,2,0:1:0:0:
320,192,247922,1,2,0:1:0:0:
64,192,247922,1,2,0:1:0:0:
64,192,248225,1,2,0:1:0:0:
448,192,248225,1,2,0:1:0:0:
192,192,248225,1,2,0:1:0:0:
192,192,248528,1,2,0:1:0:0:
320,192,248679,1,2,0:1:0:0:
448,192,248831,1,2,0:1:0:0:
320,192,248982,1,2,0:1:0:0:
64,192,249134,1,2,0:1:0:0:
192,192,249134,1,2,0:1:0:0:
448,192,249437,1,2,0:1:0:0:
64,192,249437,1,2,0:1:0:0:
320,192,249437,1,2,0:1:0:0:
320,192,249740,1,2,0:1:0:0:
192,192,249891,1,2,0:1:0:0:
64,192,250043,1,2,0:1:0:0:
192,192,250194,1,2,0:1:0:0:
448,192,250346,1,2,0:1:0:0:
320,192,250346,1,2,0:1:0:0:
64,192,250649,1,2,0:1:0:0:
320,192,250649,1,2,0:1:0:0:
192,192,250649,1,2,0:1:0:0:
192,192,250952,1,2,0:1:0:0:
320,192,251103,1,2,0:1:0:0:
448,192,251255,1,2,0:1:0:0:
320,192,251406,1,2,0:1:0:0:
192,192,251558,1,2,0:1:0:0:
64,192,251558,1,2,0:1:0:0:
448,192,251861,1,2,0:1:0:0:
192,192,251861,1,2,0:1:0:0:
320,192,251861,1,2,0:1:0:0:
320,192,252164,1,2,0:1:0:0:
192,192,252316,1,2,0:1:0:0:
64,192,252467,1,2,0:1:0:0:
192,192,252619,1,2,0:1:0:0:
448,192,252770,1,2,0:1:0:0:
320,192,252770,1,2,0:1:0:0:
64,192,253073,1,2,0:1:0:0:
448,192,253073,1,2,0:1:0:0:
192,192,253073,1,2,0:1:0:0:
320,192,253376,1,2,0:1:0:0:
64,192,253376,1,2,0:1:0:0:
448,192,253679,1,2,0:1:0:0:
192,192,253679,1,2,0:1:0:0:
320,192,253982,1,2,0:1:0:0:
64,192,253982,1,2,0:1:0:0:
448,192,254134,1,2,0:1:0:0:
192,192,254134,1,2,0:1:0:0:
448,192,254285,1,2,0:1:0:0:
192,192,254285,1,2,0:1:0:0:
64,192,254285,128,2,255497:0:1:0:0:
320,192,254588,1,2,0:1:0:0:
448,192,254891,1,2,0:1:0:0:
192,192,254891,1,2,0:1:0:0:
320,192,255194,1,2,0:1:0:0:
320,192,255497,1,2,0:1:0:0:
192,192,255497,1,6,0:1:0:0:
448,192,255497,1,6,0:1:0:0:
