osu file format v14

[General]
AudioFilename: audio.mp3
AudioLeadIn: 0
PreviewTime: 93983
Countdown: 1
SampleSet: None
StackLeniency: 0.7
Mode: 3
LetterboxInBreaks: 0
SpecialStyle: 0
WidescreenStoryboard: 1

[Editor]
DistanceSpacing: 1
BeatDivisor: 4
GridSize: 8
TimelineZoom: 1

[Metadata]
Title:Love Is Beautiful Pain
TitleUnicode:Love Is Beautiful Pain
Artist:Endless Tears
ArtistUnicode:Endless Tears
Creator:tuandi
Version:Hyper 4k (drain)
Source:Endless Tears
Tags:Osu,Mania,Step,Opening,Romance,Amime,Song,Project,4k,Live,Action
BeatmapID:996801
BeatmapSetID:465600

[Difficulty]
HPDrainRate:5
CircleSize:4
OverallDifficulty:6
ApproachRate:5
SliderMultiplier:1.4
SliderTickRate:1

[Events]
//Background and Video events
0,0,"bg0.jpg",0,0
//Break Periods
//Storyboard Layer 0 (Background)
//Storyboard Layer 1 (Fail)
//Storyboard Layer 2 (Pass)
//Storyboard Layer 3 (Foreground)
//Storyboard Sound Samples

[TimingPoints]
650,606.060606060606,4,1,0,30,1,0
30953,606.060606060606,4,1,0,30,1,0
30953,-100,4,1,0,30,0,1
50346,-100,4,1,0,30,0,0
55195,-100,4,1,0,30,0,0
74589,-100,4,1,0,30,0,0
93983,-100,4,1,0,30,0,1
112165,-100,4,1,0,30,0,0
113377,-100,4,1,0,30,0,1
132771,-100,4,1,0,30,0,0
176407,-100,4,1,0,30,0,0
197013,606.060606060606,4,1,0,30,1,0
197013,-100,4,1,0,30,0,1
215194,-100,4,1,0,30,0,0
216406,-100,4,1,0,30,0,1
235800,-100,4,1,0,30,0,0

[HitObjects]
64,192,650,5,8,0:2:0:0:
192,192,650,1,8,0:2:0:0:
448,192,650,1,8,0:2:0:0:
448,192,801,1,8,0:2:0:0:
320,192,953,1,8,0:2:0:0:
192,192,1104,1,8,0:2:0:0:
64,192,1256,1,8,0:2:0:0:
320,192,1256,1,8,0:2:0:0:
320,192,1559,1,8,0:2:0:0:
192,192,1710,1,8,0:2:0:0:
448,192,1862,1,8,0:2:0:0:
320,192,1862,1,8,0:2:0:0:
64,192,1862,1,8,0:2:0:0:
320,192,2316,1,8,0:2:0:0:
192,192,2619,1,8,0:2:0:0:
64,192,2771,1,8,0:2:0:0:
192,192,3074,1,8,0:2:0:0:
320,192,3074,1,8,0:2:0:0:
448,192,3074,1,8,0:2:0:0:
192,192,3225,1,8,0:2:0:0:
320,192,3377,1,8,0:2:0:0:
448,192,3528,1,8,0:2:0:0:
320,192,3680,1,8,0:2:0:0:
64,192,3680,1,8,0:2:0:0:
448,192,3680,1,8,0:2:0:0:
448,192,3983,1,8,0:2:0:0:
320,192,4134,1,8,0:2:0:0:
192,192,4286,1,8,0:2:0:0:
320,192,4437,1,8,0:2:0:0:
192,192,4589,1,8,0:2:0:0:
448,192,4589,1,8,0:2:0:0:
64,192,4589,1,8,0:2:0:0:
64,192,4892,1,8,0:2:0:0:
192,192,5043,1,8,0:2:0:0:
320,192,5195,1,8,0:2:0:0:
448,192,5346,1,8,0:2:0:0:
192,192,5498,1,8,0:2:0:0:
448,192,5498,1,8,0:2:0:0:
64,192,5498,1,8,0:2:0:0:
64,192,5650,1,8,0:2:0:0:
192,192,5801,1,8,0:2:0:0:
320,192,5953,1,8,0:2:0:0:
448,192,6104,1,8,0:2:0:0:
192,192,6104,1,8,0:2:0:0:
64,192,6104,1,8,0:2:0:0:
192,192,6407,1,8,0:2:0:0:
320,192,6559,1,8,0:2:0:0:
64,192,6710,1,8,0:2:0:0:
192,192,6710,1,8,0:2:0:0:
448,192,6710,1,8,0:2:0:0:
320,192,7165,1,8,0:2:0:0:
192,192,7468,1,8,0:2:0:0:
448,192,7619,1,8,0:2:0:0:
320,192,7922,1,8,0:2:0:0:
192,192,8074,1,8,0:2:0:0:
64,192,8225,1,8,0:2:0:0:
192,192,8377,1,8,0:2:0:0:
320,192,8528,1,8,0:2:0:0:
448,192,8528,1,8,0:2:0:0:
64,192,8528,1,8,0:2:0:0:
192,192,8680,1,8,0:2:0:0:
64,192,8831,1,8,0:2:0:0:
192,192,9134,128,8,10346:0:2:0:0:
320,192,9134,128,8,9740:0:2:0:0:
448,192,9740,128,8,10346:0:2:0:0:
64,192,10346,1,8,0:2:0:0:
320,192,10346,1,8,0:2:0:0:
192,192,10498,1,8,0:2:0:0:
320,192,10650,1,8,0:2:0:0:
192,192,10801,1,8,0:2:0:0:
64,192,10801,1,8,0:2:0:0:
192,192,11104,1,8,0:2:0:0:
320,192,11256,1,8,0:2:0:0:
448,192,11559,1,8,0:2:0:0:
192,192,11559,1,8,0:2:0:0:
192,192,11710,1,8,0:2:0:0:
320,192,11862,1,8,0:2:0:0:
192,192,12013,1,8,0:2:0:0:
64,192,12013,1,8,0:2:0:0:
192,192,12468,1,8,0:2:0:0:
320,192,12619,1,8,0:2:0:0:
192,192,12771,1,8,0:2:0:0:
448,192,12771,1,8,0:2:0:0:
320,192,12922,1,8,0:2:0:0:
64,192,13074,1,8,0:2:0:0:
320,192,13225,1,8,0:2:0:0:
192,192,13528,1,8,0:2:0:0:
448,192,13831,1,8,0:2:0:0:
192,192,13983,1,8,0:2:0:0:
64,192,14589,1,8,0:2:0:0:
192,192,14740,1,8,0:2:0:0:
320,192,14892,1,8,0:2:0:0:
192,192,15043,1,8,0:2:0:0:
192,192,15195,1,8,0:2:0:0:
64,192,15195,1,8,0:2:0:0:
320,192,15346,1,8,0:2:0:0:
192,192,15498,1,8,0:2:0:0:
320,192,15649,1,8,0:2:0:0:
448,192,15649,1,8,0:2:0:0:
192,192,16104,1,8,0:2:0:0:
192,192,16407,1,8,0:2:0:0:
64,192,16407,1,8,0:2:0:0:
320,192,16559,1,8,0:2:0:0:
448,192,16710,1,8,0:2:0:0:
320,192,16862,1,8,0:2:0:0:
192,192,16862,1,8,0:2:0:0:
320,192,17165,1,8,0:2:0:0:
192,192,17316,1,8,0:2:0:0:
320,192,17468,1,8,0:2:0:0:
192,192,17619,1,8,0:2:0:0:
448,192,17619,1,8,0:2:0:0:
64,192,18074,1,8,0:2:0:0:
448,192,18074,1,8,0:2:0:0:
448,192,18377,1,8,0:2:0:0:
320,192,18528,1,8,0:2:0:0:
192,192,18680,1,8,0:2:0:0:
192,192,18831,1,8,0:2:0:0:
64,192,18831,1,8,0:2:0:0:
448,192,18831,1,8,0:2:0:0:
64,192,19437,1,8,0:2:0:0:
192,192,19589,1,8,0:2:0:0:
320,192,19740,1,8,0:2:0:0:
192,192,19892,1,8,0:2:0:0:
64,192,20043,1,8,0:2:0:0:
320,192,20043,1,8,0:2:0:0:
448,192,20043,1,8,0:2:0:0:
192,192,20346,1,8,0:2:0:0:
64,192,20498,1,8,0:2:0:0:
192,192,20953,1,8,0:2:0:0:
320,192,21104,1,8,0:2:0:0:
192,192,21256,1,8,0:2:0:0:
448,192,21256,1,8,0:2:0:0:
64,192,21256,1,8,0:2:0:0:
448,192,21559,1,8,0:2:0:0:
320,192,21710,1,8,0:2:0:0:
64,192,22013,1,8,0:2:0:0:
192,192,22165,1,8,0:2:0:0:
320,192,22316,1,8,0:2:0:0:
192,192,22468,1,8,0:2:0:0:
448,192,22468,1,8,0:2:0:0:
64,192,22468,1,8,0:2:0:0:
320,192,22771,1,8,0:2:0:0:
192,192,22922,1,8,0:2:0:0:
64,192,23225,128,8,23680:0:2:0:0:
192,192,23377,1,8,0:2:0:0:
192,192,23680,1,12,0:2:0:0:
192,192,23983,1,8,0:2:0:0:
320,192,23983,1,8,0:2:0:0:
448,192,24286,128,8,24892:0:2:0:0:
320,192,24589,1,8,0:2:0:0:
320,192,24892,1,12,0:2:0:0:
192,192,25195,1,8,0:2:0:0:
320,192,25346,1,8,0:2:0:0:
64,192,25498,128,8,26104:0:2:0:0:
448,192,25498,1,8,0:2:0:0:
320,192,25801,1,8,0:2:0:0:
192,192,26104,1,12,0:2:0:0:
64,192,26407,1,8,0:2:0:0:
192,192,26559,1,8,0:2:0:0:
320,192,26710,1,8,0:2:0:0:
192,192,26862,1,8,0:2:0:0:
448,192,27013,1,8,0:2:0:0:
320,192,27165,1,8,0:2:0:0:
192,192,27316,1,8,0:2:0:0:
64,192,27316,1,8,0:2:0:0:
448,192,27316,1,8,0:2:0:0:
320,192,27771,1,8,0:2:0:0:
192,192,28225,1,8,0:2:0:0:
448,192,28528,128,8,29740:0:2:0:0:
64,192,28831,1,8,0:2:0:0:
320,192,28831,1,8,0:2:0:0:
192,192,29134,1,8,0:2:0:0:
192,192,29437,1,8,0:2:0:0:
320,192,29740,1,12,0:2:0:0:
64,192,29740,1,12,0:2:0:0:
192,192,29740,1,12,0:2:0:0:
64,192,30953,1,8,0:2:0:0:
320,192,30953,1,8,0:2:0:0:
192,192,31256,1,8,0:2:0:0:
320,192,31407,1,8,0:2:0:0:
448,192,31559,1,8,0:2:0:0:
192,192,31559,1,8,0:2:0:0:
320,192,31710,1,8,0:2:0:0:
448,192,31862,1,8,0:2:0:0:
192,192,31862,1,8,0:2:0:0:
320,192,32013,1,8,0:2:0:0:
448,192,32165,1,8,0:2:0:0:
192,192,32165,1,8,0:2:0:0:
64,192,32165,1,8,0:2:0:0:
320,192,32468,1,8,0:2:0:0:
192,192,32619,1,8,0:2:0:0:
64,192,32771,1,8,0:2:0:0:
320,192,32771,1,8,0:2:0:0:
192,192,32922,1,8,0:2:0:0:
64,192,33074,1,8,0:2:0:0:
320,192,33074,1,8,0:2:0:0:
192,192,33225,1,8,0:2:0:0:
64,192,33377,1,8,0:2:0:0:
320,192,33377,1,8,0:2:0:0:
448,192,33377,1,8,0:2:0:0:
192,192,33680,1,8,0:2:0:0:
320,192,33831,1,8,0:2:0:0:
192,192,33983,1,8,0:2:0:0:
448,192,33983,1,8,0:2:0:0:
320,192,34134,1,8,0:2:0:0:
448,192,34286,1,8,0:2:0:0:
320,192,34437,1,8,0:2:0:0:
448,192,34589,1,8,0:2:0:0:
64,192,34589,1,8,0:2:0:0:
192,192,34589,1,8,0:2:0:0:
192,192,34892,1,8,0:2:0:0:
64,192,35043,1,8,0:2:0:0:
192,192,35195,1,8,0:2:0:0:
448,192,35195,1,8,0:2:0:0:
320,192,35346,1,8,0:2:0:0:
448,192,35498,1,8,0:2:0:0:
320,192,35649,1,8,0:2:0:0:
448,192,35801,1,8,0:2:0:0:
192,192,35801,1,8,0:2:0:0:
192,192,36104,128,8,36710:0:2:0:0:
320,192,36256,1,8,0:2:0:0:
64,192,36407,1,8,0:2:0:0:
320,192,36407,1,8,0:2:0:0:
64,192,36559,1,8,0:2:0:0:
320,192,36710,1,8,0:2:0:0:
64,192,36710,1,8,0:2:0:0:
448,192,37013,1,8,0:2:0:0:
320,192,37316,128,8,37922:0:2:0:0:
192,192,37468,1,8,0:2:0:0:
448,192,37619,1,8,0:2:0:0:
192,192,37619,1,8,0:2:0:0:
448,192,37771,1,8,0:2:0:0:
192,192,37922,1,8,0:2:0:0:
448,192,37922,1,8,0:2:0:0:
320,192,38225,1,8,0:2:0:0:
64,192,38680,1,8,0:2:0:0:
192,192,38680,128,8,39437:0:2:0:0:
448,192,38983,1,8,0:2:0:0:
320,192,39134,1,8,0:2:0:0:
320,192,39286,1,8,0:2:0:0:
448,192,39437,1,12,0:2:0:0:
64,192,39437,1,8,0:2:0:0:
64,192,39740,1,8,0:2:0:0:
64,192,40043,128,8,40649:0:2:0:0:
448,192,40195,1,8,0:2:0:0:
320,192,40346,1,8,0:2:0:0:
192,192,40649,1,8,0:2:0:0:
448,192,40649,1,8,0:2:0:0:
64,192,40953,1,8,0:2:0:0:
192,192,41256,128,8,41862:0:2:0:0:
64,192,41407,1,8,0:2:0:0:
448,192,41559,1,8,0:2:0:0:
320,192,41862,1,8,0:2:0:0:
64,192,41862,1,8,0:2:0:0:
192,192,42165,1,8,0:2:0:0:
320,192,42468,128,8,43074:0:2:0:0:
64,192,42619,1,8,0:2:0:0:
192,192,42771,1,8,0:2:0:0:
448,192,43074,1,8,0:2:0:0:
64,192,43074,1,8,0:2:0:0:
320,192,43377,1,8,0:2:0:0:
448,192,43680,128,8,44286:0:2:0:0:
64,192,43831,1,8,0:2:0:0:
192,192,43983,1,8,0:2:0:0:
320,192,44286,1,8,0:2:0:0:
64,192,44286,1,8,0:2:0:0:
448,192,44589,1,8,0:2:0:0:
64,192,44892,1,12,0:2:0:0:
448,192,44892,1,12,0:2:0:0:
192,192,45043,1,8,0:2:0:0:
320,192,45195,1,8,0:2:0:0:
448,192,45346,1,8,0:2:0:0:
320,192,45498,1,8,0:2:0:0:
64,192,45498,1,8,0:2:0:0:
448,192,45498,1,8,0:2:0:0:
320,192,45953,1,8,0:2:0:0:
448,192,46104,1,8,0:2:0:0:
64,192,46256,1,8,0:2:0:0:
192,192,46407,1,8,0:2:0:0:
192,192,46710,1,8,0:2:0:0:
448,192,46710,1,8,0:2:0:0:
64,192,46710,1,8,0:2:0:0:
192,192,47165,1,8,0:2:0:0:
64,192,47316,1,8,0:2:0:0:
448,192,47468,1,8,0:2:0:0:
320,192,47619,1,8,0:2:0:0:
320,192,47922,1,12,0:2:0:0:
448,192,47922,1,12,0:2:0:0:
64,192,47922,1,8,0:2:0:0:
192,192,48225,128,8,48831:0:2:0:0:
320,192,48377,1,8,0:2:0:0:
64,192,48680,1,8,0:2:0:0:
320,192,48831,1,8,0:2:0:0:
64,192,48831,1,8,0:2:0:0:
448,192,49134,1,8,0:2:0:0:
320,192,49134,128,8,50346:0:2:0:0:
192,192,49286,1,8,0:2:0:0:
64,192,49437,1,8,0:2:0:0:
192,192,49589,1,8,0:2:0:0:
448,192,49740,1,8,0:2:0:0:
192,192,49892,1,8,0:2:0:0:
64,192,50043,1,8,0:2:0:0:
192,192,50195,1,8,0:2:0:0:
448,192,50346,1,12,0:2:0:0:
192,192,50346,1,8,0:2:0:0:
64,192,55195,1,8,0:2:0:0:
320,192,55195,1,8,0:2:0:0:
448,192,55498,128,8,56407:0:2:0:0:
320,192,55649,1,8,0:2:0:0:
192,192,55953,1,8,0:2:0:0:
64,192,56104,1,8,0:2:0:0:
192,192,56256,1,8,0:2:0:0:
320,192,56407,1,8,0:2:0:0:
64,192,56407,1,8,0:2:0:0:
320,192,56710,1,8,0:2:0:0:
192,192,56710,1,8,0:2:0:0:
64,192,57013,1,8,0:2:0:0:
192,192,57165,1,8,0:2:0:0:
320,192,57316,1,8,0:2:0:0:
192,192,57619,1,8,0:2:0:0:
448,192,57619,1,8,0:2:0:0:
64,192,57922,128,8,58831:0:2:0:0:
192,192,58074,1,8,0:2:0:0:
320,192,58377,1,8,0:2:0:0:
448,192,58528,1,8,0:2:0:0:
320,192,58680,1,8,0:2:0:0:
192,192,58831,1,8,0:2:0:0:
448,192,58831,1,8,0:2:0:0:
192,192,59134,1,8,0:2:0:0:
320,192,59134,1,8,0:2:0:0:
448,192,59437,1,8,0:2:0:0:
320,192,59589,1,8,0:2:0:0:
192,192,59740,1,8,0:2:0:0:
64,192,60043,1,8,0:2:0:0:
320,192,60043,1,8,0:2:0:0:
192,192,60195,1,8,0:2:0:0:
448,192,60346,128,8,61256:0:2:0:0:
320,192,60498,1,8,0:2:0:0:
192,192,60801,1,8,0:2:0:0:
64,192,60953,1,8,0:2:0:0:
192,192,61104,1,8,0:2:0:0:
320,192,61256,1,8,0:2:0:0:
64,192,61256,1,8,0:2:0:0:
192,192,61559,1,8,0:2:0:0:
320,192,61559,1,8,0:2:0:0:
64,192,61862,1,8,0:2:0:0:
192,192,62013,1,8,0:2:0:0:
320,192,62165,1,8,0:2:0:0:
320,192,62316,1,8,0:2:0:0:
192,192,62468,1,8,0:2:0:0:
448,192,62468,1,8,0:2:0:0:
320,192,62619,1,8,0:2:0:0:
64,192,62922,1,8,0:2:0:0:
192,192,63074,1,8,0:2:0:0:
320,192,63225,1,8,0:2:0:0:
448,192,63377,1,8,0:2:0:0:
320,192,63528,1,8,0:2:0:0:
192,192,63680,1,8,0:2:0:0:
64,192,63831,1,8,0:2:0:0:
192,192,63983,1,8,0:2:0:0:
320,192,64134,1,8,0:2:0:0:
192,192,64286,128,8,64892:0:2:0:0:
320,192,64286,1,8,0:2:0:0:
448,192,64437,1,8,0:2:0:0:
64,192,64589,1,8,0:2:0:0:
448,192,64740,1,8,0:2:0:0:
320,192,64892,1,8,0:2:0:0:
64,192,64892,1,8,0:2:0:0:
320,192,65195,1,8,0:2:0:0:
448,192,65346,1,8,0:2:0:0:
192,192,65649,1,8,0:2:0:0:
320,192,65801,1,8,0:2:0:0:
448,192,65953,1,8,0:2:0:0:
192,192,65953,1,8,0:2:0:0:
192,192,66256,1,8,0:2:0:0:
320,192,66407,1,8,0:2:0:0:
192,192,66559,1,8,0:2:0:0:
64,192,66710,1,8,0:2:0:0:
320,192,66710,1,8,0:2:0:0:
320,192,67013,1,8,0:2:0:0:
320,192,67165,1,8,0:2:0:0:
192,192,67316,1,8,0:2:0:0:
448,192,67316,1,8,0:2:0:0:
64,192,67619,1,8,0:2:0:0:
320,192,67619,1,8,0:2:0:0:
192,192,67771,1,8,0:2:0:0:
448,192,67771,1,8,0:2:0:0:
64,192,67922,128,8,68528:0:2:0:0:
448,192,68225,1,8,0:2:0:0:
192,192,68528,1,12,0:2:0:0:
448,192,68528,1,8,0:2:0:0:
64,192,69437,1,8,0:2:0:0:
192,192,69589,1,8,0:2:0:0:
320,192,69740,1,8,0:2:0:0:
64,192,69740,1,8,0:2:0:0:
64,192,70043,1,8,0:2:0:0:
320,192,70043,1,8,0:2:0:0:
192,192,70195,1,8,0:2:0:0:
448,192,70195,1,8,0:2:0:0:
64,192,70346,128,8,70953:0:2:0:0:
320,192,70649,1,8,0:2:0:0:
192,192,70953,1,8,0:2:0:0:
448,192,70953,1,8,0:2:0:0:
448,192,71256,1,8,0:2:0:0:
320,192,71407,1,8,0:2:0:0:
192,192,71559,1,8,0:2:0:0:
64,192,71710,1,8,0:2:0:0:
320,192,71710,1,8,0:2:0:0:
192,192,71862,1,8,0:2:0:0:
320,192,72013,1,8,0:2:0:0:
192,192,72165,1,8,0:2:0:0:
448,192,72165,1,8,0:2:0:0:
320,192,72619,1,8,0:2:0:0:
192,192,72771,1,8,0:2:0:0:
320,192,72922,1,8,0:2:0:0:
192,192,73074,1,8,0:2:0:0:
448,192,73377,128,8,74589:0:2:0:0:
64,192,73377,1,8,0:2:0:0:
192,192,73528,1,8,0:2:0:0:
320,192,73680,1,8,0:2:0:0:
192,192,73831,1,8,0:2:0:0:
64,192,73983,1,8,0:2:0:0:
192,192,74134,1,8,0:2:0:0:
320,192,74286,1,8,0:2:0:0:
192,192,74437,1,8,0:2:0:0:
64,192,74589,1,12,0:2:0:0:
320,192,74589,1,8,0:2:0:0:
192,192,74589,1,8,0:2:0:0:
320,192,74892,1,8,0:2:0:0:
192,192,75043,1,8,0:2:0:0:
64,192,75195,1,8,0:2:0:0:
320,192,75195,1,8,0:2:0:0:
192,192,75498,1,8,0:2:0:0:
320,192,75498,1,8,0:2:0:0:
64,192,75801,1,8,0:2:0:0:
448,192,75801,1,8,0:2:0:0:
192,192,76104,1,8,0:2:0:0:
448,192,76104,1,8,0:2:0:0:
320,192,76256,1,8,0:2:0:0:
64,192,76256,1,8,0:2:0:0:
448,192,76407,1,8,0:2:0:0:
192,192,76407,1,8,0:2:0:0:
192,192,76710,1,8,0:2:0:0:
320,192,76862,1,8,0:2:0:0:
192,192,77013,1,8,0:2:0:0:
448,192,77013,1,8,0:2:0:0:
192,192,77316,1,8,0:2:0:0:
320,192,77316,1,8,0:2:0:0:
64,192,77619,1,8,0:2:0:0:
448,192,77619,1,8,0:2:0:0:
64,192,77922,1,8,0:2:0:0:
320,192,77922,1,8,0:2:0:0:
192,192,78074,1,8,0:2:0:0:
448,192,78074,1,8,0:2:0:0:
64,192,78225,1,8,0:2:0:0:
320,192,78225,1,8,0:2:0:0:
192,192,78528,1,8,0:2:0:0:
320,192,78528,1,8,0:2:0:0:
64,192,78831,1,8,0:2:0:0:
448,192,78831,1,8,0:2:0:0:
320,192,79134,1,8,0:2:0:0:
192,192,79286,1,8,0:2:0:0:
320,192,79437,1,8,0:2:0:0:
448,192,79437,1,8,0:2:0:0:
64,192,79740,128,8,80649:0:2:0:0:
192,192,80043,1,8,0:2:0:0:
320,192,80346,1,8,0:2:0:0:
192,192,80649,1,8,0:2:0:0:
448,192,80649,1,8,0:2:0:0:
320,192,80953,1,8,0:2:0:0:
192,192,81104,1,8,0:2:0:0:
64,192,81256,1,8,0:2:0:0:
320,192,81256,1,8,0:2:0:0:
192,192,81559,1,8,0:2:0:0:
320,192,81559,1,8,0:2:0:0:
64,192,81862,1,8,0:2:0:0:
448,192,81862,1,8,0:2:0:0:
192,192,82165,1,8,0:2:0:0:
448,192,82165,1,8,0:2:0:0:
320,192,82316,1,8,0:2:0:0:
64,192,82316,1,8,0:2:0:0:
448,192,82468,1,8,0:2:0:0:
192,192,82468,1,8,0:2:0:0:
64,192,82771,1,8,0:2:0:0:
320,192,82771,1,8,0:2:0:0:
192,192,82922,1,8,0:2:0:0:
448,192,82922,1,8,0:2:0:0:
64,192,83074,1,8,0:2:0:0:
320,192,83074,1,8,0:2:0:0:
192,192,83377,1,8,0:2:0:0:
320,192,83528,1,8,0:2:0:0:
192,192,83680,1,8,0:2:0:0:
448,192,83680,1,8,0:2:0:0:
64,192,83983,1,8,0:2:0:0:
320,192,83983,1,8,0:2:0:0:
192,192,84134,1,8,0:2:0:0:
448,192,84134,1,8,0:2:0:0:
64,192,84286,1,8,0:2:0:0:
320,192,84286,1,8,0:2:0:0:
192,192,84589,1,8,0:2:0:0:
320,192,84589,1,8,0:2:0:0:
64,192,84892,1,8,0:2:0:0:
448,192,84892,1,8,0:2:0:0:
320,192,85195,1,8,0:2:0:0:
192,192,85346,1,8,0:2:0:0:
320,192,85498,1,8,0:2:0:0:
448,192,85498,1,8,0:2:0:0:
192,192,85953,1,8,0:2:0:0:
320,192,86104,1,8,0:2:0:0:
320,192,86407,1,8,0:2:0:0:
192,192,86710,1,8,0:2:0:0:
448,192,86710,1,8,0:2:0:0:
64,192,86710,1,8,0:2:0:0:
192,192,87013,1,8,0:2:0:0:
448,192,87013,1,8,0:2:0:0:
320,192,87165,1,8,0:2:0:0:
64,192,87165,1,8,0:2:0:0:
448,192,87316,1,8,0:2:0:0:
192,192,87316,1,8,0:2:0:0:
64,192,87619,1,8,0:2:0:0:
320,192,87619,1,8,0:2:0:0:
192,192,87771,1,8,0:2:0:0:
448,192,87771,1,8,0:2:0:0:
64,192,87922,1,8,0:2:0:0:
320,192,87922,1,8,0:2:0:0:
192,192,88225,1,8,0:2:0:0:
320,192,88377,1,8,0:2:0:0:
192,192,88528,1,8,0:2:0:0:
448,192,88528,1,8,0:2:0:0:
64,192,88831,1,8,0:2:0:0:
320,192,88831,1,8,0:2:0:0:
192,192,88983,1,8,0:2:0:0:
448,192,88983,1,8,0:2:0:0:
64,192,89134,1,8,0:2:0:0:
320,192,89134,1,8,0:2:0:0:
320,192,89437,1,8,0:2:0:0:
192,192,89589,1,8,0:2:0:0:
64,192,89740,1,8,0:2:0:0:
320,192,89740,1,8,0:2:0:0:
192,192,90043,1,8,0:2:0:0:
320,192,90043,1,8,0:2:0:0:
64,192,90346,1,8,0:2:0:0:
448,192,90346,1,8,0:2:0:0:
192,192,90649,1,8,0:2:0:0:
448,192,90649,1,8,0:2:0:0:
320,192,90801,1,8,0:2:0:0:
64,192,90801,1,8,0:2:0:0:
448,192,90953,1,8,0:2:0:0:
192,192,90953,1,8,0:2:0:0:
192,192,91256,1,8,0:2:0:0:
320,192,91407,1,8,0:2:0:0:
192,192,91559,1,8,0:2:0:0:
448,192,91559,1,8,0:2:0:0:
320,192,91862,1,8,0:2:0:0:
192,192,92013,1,8,0:2:0:0:
320,192,92165,1,8,0:2:0:0:
64,192,92165,1,8,0:2:0:0:
320,192,92468,1,8,0:2:0:0:
192,192,92468,1,8,0:2:0:0:
448,192,92771,1,8,0:2:0:0:
64,192,92771,1,8,0:2:0:0:
448,192,93074,5,8,0:2:0:0:
192,192,93074,1,8,0:2:0:0:
64,192,93225,1,8,0:2:0:0:
320,192,93225,1,8,0:2:0:0:
192,192,93377,1,8,0:2:0:0:
448,192,93377,1,8,0:2:0:0:
64,192,93983,1,8,0:2:0:0:
320,192,93983,1,8,0:2:0:0:
192,192,94286,1,8,0:2:0:0:
320,192,94437,1,8,0:2:0:0:
448,192,94589,1,8,0:2:0:0:
192,192,94589,1,8,0:2:0:0:
320,192,94740,1,8,0:2:0:0:
448,192,94892,1,8,0:2:0:0:
192,192,94892,1,8,0:2:0:0:
320,192,95043,1,8,0:2:0:0:
448,192,95195,1,8,0:2:0:0:
192,192,95195,1,8,0:2:0:0:
64,192,95195,1,8,0:2:0:0:
320,192,95498,1,8,0:2:0:0:
192,192,95649,1,8,0:2:0:0:
64,192,95801,1,8,0:2:0:0:
320,192,95801,1,8,0:2:0:0:
192,192,95953,1,8,0:2:0:0:
64,192,96104,1,8,0:2:0:0:
320,192,96104,1,8,0:2:0:0:
192,192,96256,1,8,0:2:0:0:
64,192,96407,1,8,0:2:0:0:
320,192,96407,1,8,0:2:0:0:
448,192,96407,1,8,0:2:0:0:
192,192,96710,1,8,0:2:0:0:
320,192,96862,1,8,0:2:0:0:
192,192,97013,1,8,0:2:0:0:
448,192,97013,1,8,0:2:0:0:
320,192,97165,1,8,0:2:0:0:
448,192,97316,1,8,0:2:0:0:
320,192,97468,1,8,0:2:0:0:
448,192,97619,1,8,0:2:0:0:
64,192,97619,1,8,0:2:0:0:
192,192,97619,1,8,0:2:0:0:
192,192,97922,1,8,0:2:0:0:
64,192,98074,1,8,0:2:0:0:
192,192,98225,1,8,0:2:0:0:
448,192,98225,1,8,0:2:0:0:
320,192,98377,1,8,0:2:0:0:
448,192,98528,1,8,0:2:0:0:
320,192,98680,1,8,0:2:0:0:
448,192,98831,1,8,0:2:0:0:
192,192,98831,1,8,0:2:0:0:
192,192,99134,128,8,99740:0:2:0:0:
320,192,99286,1,8,0:2:0:0:
64,192,99437,1,8,0:2:0:0:
320,192,99437,1,8,0:2:0:0:
64,192,99589,1,8,0:2:0:0:
320,192,99740,1,8,0:2:0:0:
64,192,99740,1,8,0:2:0:0:
448,192,100043,1,8,0:2:0:0:
320,192,100346,128,8,100952:0:2:0:0:
192,192,100498,1,8,0:2:0:0:
448,192,100649,1,8,0:2:0:0:
192,192,100649,1,8,0:2:0:0:
448,192,100801,1,8,0:2:0:0:
192,192,100952,1,8,0:2:0:0:
448,192,100952,1,8,0:2:0:0:
320,192,101256,1,8,0:2:0:0:
64,192,101710,1,8,0:2:0:0:
192,192,101710,128,8,102468:0:2:0:0:
448,192,102013,1,8,0:2:0:0:
320,192,102165,1,8,0:2:0:0:
320,192,102316,1,8,0:2:0:0:
448,192,102468,1,12,0:2:0:0:
64,192,102468,1,8,0:2:0:0:
64,192,102771,1,8,0:2:0:0:
64,192,103074,128,8,103680:0:2:0:0:
448,192,103225,1,8,0:2:0:0:
320,192,103377,1,8,0:2:0:0:
192,192,103680,1,8,0:2:0:0:
448,192,103680,1,8,0:2:0:0:
64,192,103983,1,8,0:2:0:0:
192,192,104286,128,8,104892:0:2:0:0:
64,192,104437,1,8,0:2:0:0:
448,192,104589,1,8,0:2:0:0:
320,192,104892,1,8,0:2:0:0:
64,192,104892,1,8,0:2:0:0:
192,192,105195,1,8,0:2:0:0:
320,192,105498,128,8,106104:0:2:0:0:
64,192,105649,1,8,0:2:0:0:
192,192,105801,1,8,0:2:0:0:
448,192,106104,1,8,0:2:0:0:
64,192,106104,1,8,0:2:0:0:
320,192,106407,1,8,0:2:0:0:
448,192,106710,128,8,107316:0:2:0:0:
64,192,106862,1,8,0:2:0:0:
192,192,107013,1,8,0:2:0:0:
320,192,107316,1,8,0:2:0:0:
64,192,107316,1,8,0:2:0:0:
448,192,107619,1,8,0:2:0:0:
64,192,107922,1,12,0:2:0:0:
448,192,107922,1,12,0:2:0:0:
192,192,108074,1,8,0:2:0:0:
320,192,108225,1,8,0:2:0:0:
448,192,108377,1,8,0:2:0:0:
320,192,108528,1,8,0:2:0:0:
64,192,108528,1,8,0:2:0:0:
448,192,108528,1,8,0:2:0:0:
320,192,108983,1,8,0:2:0:0:
448,192,109134,1,8,0:2:0:0:
64,192,109286,1,8,0:2:0:0:
192,192,109437,1,8,0:2:0:0:
192,192,109740,1,8,0:2:0:0:
448,192,109740,1,8,0:2:0:0:
64,192,109740,1,8,0:2:0:0:
192,192,110195,1,8,0:2:0:0:
64,192,110346,1,8,0:2:0:0:
448,192,110498,1,8,0:2:0:0:
320,192,110649,1,8,0:2:0:0:
320,192,110952,1,12,0:2:0:0:
448,192,110952,1,12,0:2:0:0:
64,192,110952,1,8,0:2:0:0:
192,192,111256,128,8,111862:0:2:0:0:
320,192,111407,1,8,0:2:0:0:
64,192,111710,1,8,0:2:0:0:
320,192,111862,1,8,0:2:0:0:
64,192,111862,1,8,0:2:0:0:
448,192,112165,1,8,0:2:0:0:
320,192,112165,128,8,113377:0:2:0:0:
192,192,112316,1,8,0:2:0:0:
64,192,112468,1,8,0:2:0:0:
192,192,112619,1,8,0:2:0:0:
448,192,112771,1,8,0:2:0:0:
192,192,112922,1,8,0:2:0:0:
64,192,113074,1,8,0:2:0:0:
192,192,113225,1,8,0:2:0:0:
448,192,113377,1,12,0:2:0:0:
192,192,113377,1,8,0:2:0:0:
192,192,113680,5,8,0:2:0:0:
320,192,113831,5,8,0:2:0:0:
448,192,113983,1,8,0:2:0:0:
192,192,113983,1,8,0:2:0:0:
64,192,113983,1,8,0:2:0:0:
192,192,114286,1,8,0:2:0:0:
320,192,114286,1,8,0:2:0:0:
320,192,114589,1,8,0:2:0:0:
448,192,114589,1,8,0:2:0:0:
320,192,114892,1,8,0:2:0:0:
192,192,115043,1,8,0:2:0:0:
64,192,115195,1,8,0:2:0:0:
320,192,115195,1,8,0:2:0:0:
192,192,115346,1,8,0:2:0:0:
320,192,115498,1,8,0:2:0:0:
448,192,115498,1,8,0:2:0:0:
192,192,115801,1,8,0:2:0:0:
64,192,115801,1,8,0:2:0:0:
448,192,115801,1,8,0:2:0:0:
448,192,116104,1,8,0:2:0:0:
320,192,116256,1,8,0:2:0:0:
192,192,116407,1,8,0:2:0:0:
448,192,116407,1,8,0:2:0:0:
320,192,116559,1,8,0:2:0:0:
192,192,116710,1,8,0:2:0:0:
64,192,116710,1,8,0:2:0:0:
64,192,117013,128,8,117619:0:2:0:0:
320,192,117316,1,8,0:2:0:0:
192,192,117619,1,8,0:2:0:0:
320,192,117922,1,8,0:2:0:0:
448,192,118225,1,8,0:2:0:0:
320,192,118225,1,8,0:2:0:0:
64,192,118225,1,8,0:2:0:0:
320,192,118528,1,8,0:2:0:0:
192,192,118680,1,8,0:2:0:0:
64,192,118831,1,8,0:2:0:0:
320,192,118831,1,8,0:2:0:0:
192,192,118983,1,8,0:2:0:0:
320,192,119134,1,8,0:2:0:0:
448,192,119134,1,8,0:2:0:0:
64,192,119437,1,8,0:2:0:0:
192,192,119437,1,8,0:2:0:0:
448,192,119437,1,8,0:2:0:0:
192,192,119740,1,8,0:2:0:0:
320,192,119892,1,8,0:2:0:0:
448,192,120043,1,8,0:2:0:0:
448,192,120346,1,8,0:2:0:0:
64,192,120346,1,8,0:2:0:0:
192,192,120649,1,8,0:2:0:0:
320,192,120649,1,8,0:2:0:0:
448,192,120649,1,8,0:2:0:0:
192,192,121104,1,8,0:2:0:0:
320,192,121256,1,8,0:2:0:0:
448,192,121407,1,8,0:2:0:0:
64,192,121559,1,8,0:2:0:0:
192,192,121559,1,8,0:2:0:0:
64,192,121862,128,8,122468:0:2:0:0:
192,192,122165,1,8,0:2:0:0:
320,192,122316,1,8,0:2:0:0:
448,192,122468,1,8,0:2:0:0:
64,192,122619,1,8,0:2:0:0:
320,192,122771,1,8,0:2:0:0:
192,192,123074,1,12,0:2:0:0:
448,192,123074,1,12,0:2:0:0:
64,192,123074,1,8,0:2:0:0:
192,192,123377,1,8,0:2:0:0:
320,192,123528,1,8,0:2:0:0:
448,192,123680,1,8,0:2:0:0:
320,192,123831,1,8,0:2:0:0:
192,192,123983,1,8,0:2:0:0:
448,192,123983,1,8,0:2:0:0:
320,192,124286,1,8,0:2:0:0:
64,192,124286,1,8,0:2:0:0:
448,192,124286,1,8,0:2:0:0:
320,192,124589,1,8,0:2:0:0:
192,192,124740,1,8,0:2:0:0:
64,192,124892,1,8,0:2:0:0:
192,192,125043,1,8,0:2:0:0:
64,192,125195,1,8,0:2:0:0:
320,192,125195,1,8,0:2:0:0:
192,192,125498,1,8,0:2:0:0:
448,192,125498,1,8,0:2:0:0:
64,192,125498,1,8,0:2:0:0:
192,192,125801,1,8,0:2:0:0:
320,192,125952,1,8,0:2:0:0:
448,192,126104,1,8,0:2:0:0:
320,192,126256,1,8,0:2:0:0:
192,192,126407,1,8,0:2:0:0:
64,192,126407,1,8,0:2:0:0:
320,192,126710,1,8,0:2:0:0:
64,192,126710,1,8,0:2:0:0:
448,192,126710,1,8,0:2:0:0:
320,192,127013,1,8,0:2:0:0:
192,192,127165,1,8,0:2:0:0:
64,192,127316,1,8,0:2:0:0:
192,192,127468,1,8,0:2:0:0:
320,192,127619,1,8,0:2:0:0:
448,192,127619,1,8,0:2:0:0:
192,192,127922,1,8,0:2:0:0:
320,192,127922,1,8,0:2:0:0:
64,192,127922,1,8,0:2:0:0:
192,192,128225,1,8,0:2:0:0:
320,192,128377,1,8,0:2:0:0:
448,192,128528,1,8,0:2:0:0:
320,192,128680,1,8,0:2:0:0:
64,192,128831,1,8,0:2:0:0:
192,192,128831,1,8,0:2:0:0:
320,192,129134,1,8,0:2:0:0:
192,192,129134,1,8,0:2:0:0:
448,192,129134,1,8,0:2:0:0:
320,192,129437,1,8,0:2:0:0:
192,192,129589,1,8,0:2:0:0:
64,192,129740,1,8,0:2:0:0:
192,192,129892,1,8,0:2:0:0:
320,192,130043,1,8,0:2:0:0:
448,192,130043,1,8,0:2:0:0:
192,192,130346,1,8,0:2:0:0:
448,192,130346,1,8,0:2:0:0:
64,192,130346,1,8,0:2:0:0:
64,192,130649,1,8,0:2:0:0:
320,192,130649,1,8,0:2:0:0:
192,192,130952,1,8,0:2:0:0:
448,192,130952,1,8,0:2:0:0:
64,192,131256,1,8,0:2:0:0:
320,192,131256,1,8,0:2:0:0:
192,192,131407,1,8,0:2:0:0:
448,192,131407,1,8,0:2:0:0:
64,192,131559,128,8,132771:0:2:0:0:
192,192,131559,1,8,0:2:0:0:
448,192,131559,1,8,0:2:0:0:
320,192,131862,1,8,0:2:0:0:
192,192,132165,1,8,0:2:0:0:
448,192,132165,1,8,0:2:0:0:
320,192,132468,1,8,0:2:0:0:
448,192,132771,1,12,0:2:0:0:
192,192,132771,1,12,0:2:0:0:
320,192,132771,1,8,0:2:0:0:
