osu file format v14

[General]
AudioFilename: audio.mp3
AudioLeadIn: 0
PreviewTime: 93983
Countdown: 1
SampleSet: Normal
StackLeniency: 0.7
Mode: 3
LetterboxInBreaks: 0
SpecialStyle: 0
WidescreenStoryboard: 1

[Editor]
DistanceSpacing: 1
BeatDivisor: 8
GridSize: 8
TimelineZoom: 1

[Metadata]
Title:Love Is Beautiful Pain
TitleUnicode:Love Is Beautiful Pain
Artist:Endless Tears
ArtistUnicode:Endless Tears
Creator:tuandi
Version:7k SUPERIOR (Bonus DIFF!)
Source:Endless Tears - Love is Beautifull Pain
Tags:Osu,Mania,Step,Opening,Romance,Amime,Song,Project,4k,Live,Action
BeatmapID:996796
BeatmapSetID:465600

[Difficulty]
HPDrainRate:7
CircleSize:7
OverallDifficulty:7
ApproachRate:5
SliderMultiplier:1.4
SliderTickRate:1

[Events]
//Background and Video events
0,0,"Bonus!! BG.jpg",0,0
//Break Periods
2,132971,136722
//Storyboard Layer 0 (Background)
//Storyboard Layer 1 (Fail)
//Storyboard Layer 2 (Pass)
//Storyboard Layer 3 (Foreground)
//Storyboard Sound Samples

[TimingPoints]
650,606.060606060606,4,1,0,30,1,0
30953,606.060606060606,4,1,0,30,1,0
30953,-100,4,1,0,30,0,1
50346,-100,4,1,0,30,0,0
55195,-100,4,1,0,30,0,0
74589,-100,4,1,0,30,0,0
93983,-100,4,1,0,30,0,1
112165,-100,4,1,0,30,0,0
113377,-100,4,1,0,30,0,1
132771,-100,4,1,0,30,0,0
176407,-100,4,1,0,30,0,0
197013,606.060606060606,4,1,0,30,1,0
197013,-100,4,1,0,30,0,1
215194,-100,4,1,0,30,0,0
216406,-100,4,1,0,30,0,1
235800,-100,4,1,0,30,0,0

[HitObjects]
192,192,650,5,2,0:0:0:0:
448,192,650,1,2,0:0:0:0:
109,192,650,128,2,1180:0:0:0:0:
320,192,801,1,2,0:0:0:0:
448,192,953,1,2,0:0:0:0:
320,192,1028,1,2,0:0:0:0:
448,192,1104,1,2,0:0:0:0:
192,192,1104,1,2,0:0:0:0:
320,192,1180,1,2,0:0:0:0:
320,192,1559,1,2,0:0:0:0:
64,192,1559,1,2,0:0:0:0:
475,192,1559,128,2,2392:0:0:0:0:
192,192,1710,1,2,0:0:0:0:
64,192,1862,1,2,0:0:0:0:
320,192,1862,1,2,0:0:0:0:
402,192,1862,128,2,2392:0:0:0:0:
192,192,2013,1,2,0:0:0:0:
64,192,2165,1,2,0:0:0:0:
192,192,2240,1,2,0:0:0:0:
64,192,2316,1,2,0:0:0:0:
320,192,2316,1,2,0:0:0:0:
192,192,2392,1,2,0:0:0:0:
192,192,2771,1,2,0:0:0:0:
256,192,2771,128,2,3604:0:0:0:0:
320,192,2922,1,2,0:0:0:0:
448,192,3074,1,2,0:0:0:0:
192,192,3074,1,2,0:0:0:0:
402,192,3074,128,2,3604:0:0:0:0:
320,192,3225,1,2,0:0:0:0:
320,192,3377,1,2,0:0:0:0:
192,192,3453,1,2,0:0:0:0:
64,192,3528,1,2,0:0:0:0:
320,192,3528,1,2,0:0:0:0:
192,192,3604,1,2,0:0:0:0:
320,192,3831,1,10,0:0:0:0:
402,192,3831,128,2,4286:0:0:0:0:
109,192,3831,128,2,4286:0:0:0:0:
192,192,3983,1,10,0:0:0:0:
475,192,3983,128,2,4286:0:0:0:0:
256,192,4134,128,2,4286:0:0:0:0:
320,192,4286,1,6,0:0:0:0:
64,192,4286,1,6,0:0:0:0:
64,192,4892,1,10,0:0:0:0:
192,192,4968,1,10,0:0:0:0:
320,192,5043,1,10,0:0:0:0:
448,192,5119,1,10,0:0:0:0:
320,192,5195,1,10,0:0:0:0:
256,192,5195,128,2,6028:0:0:0:0:
192,192,5271,1,10,0:0:0:0:
64,192,5346,1,10,0:0:0:0:
448,192,5498,1,6,0:0:0:0:
192,192,5498,1,6,0:0:0:0:
109,192,5498,128,2,6028:0:0:0:0:
320,192,5650,1,2,0:0:0:0:
448,192,5801,1,2,0:0:0:0:
320,192,5877,1,2,0:0:0:0:
448,192,5953,1,2,0:0:0:0:
192,192,5953,1,2,0:0:0:0:
320,192,6028,1,2,0:0:0:0:
320,192,6407,1,2,0:0:0:0:
64,192,6407,1,2,0:0:0:0:
256,192,6407,128,2,7240:0:0:0:0:
192,192,6559,1,2,0:0:0:0:
64,192,6710,1,2,0:0:0:0:
320,192,6710,1,2,0:0:0:0:
402,192,6710,128,2,7240:0:0:0:0:
192,192,6862,1,2,0:0:0:0:
64,192,7013,1,2,0:0:0:0:
192,192,7089,1,2,0:0:0:0:
64,192,7165,1,2,0:0:0:0:
320,192,7165,1,2,0:0:0:0:
192,192,7240,1,2,0:0:0:0:
192,192,7619,1,2,0:0:0:0:
402,192,7619,128,2,8453:0:0:0:0:
320,192,7771,1,2,0:0:0:0:
448,192,7922,1,2,0:0:0:0:
192,192,7922,1,2,0:0:0:0:
256,192,7922,128,2,8453:0:0:0:0:
320,192,8074,1,2,0:0:0:0:
320,192,8225,1,2,0:0:0:0:
192,192,8301,1,2,0:0:0:0:
64,192,8377,1,2,0:0:0:0:
320,192,8377,1,2,0:0:0:0:
192,192,8453,1,2,0:0:0:0:
448,192,8680,1,2,0:0:0:0:
320,192,8756,1,2,0:0:0:0:
448,192,8831,1,2,0:0:0:0:
192,192,8831,1,10,0:0:0:0:
64,192,9134,1,6,0:1:0:0:
192,192,9134,128,2,10346:0:1:0:0:
320,192,9286,1,2,0:0:0:0:
256,192,9286,128,2,9892:0:0:0:0:
109,192,9286,128,2,10346:0:0:0:0:
448,192,9437,128,2,10346:0:0:0:0:
320,192,9589,1,2,0:0:0:0:
64,192,9740,1,2,0:0:0:0:
320,192,9892,1,2,0:0:0:0:
402,192,9892,128,2,10346:0:0:0:0:
320,192,10195,1,2,0:0:0:0:
64,192,10346,1,2,0:1:0:0:
256,192,10346,1,2,0:0:0:0:
329,192,10346,1,2,0:0:0:0:
192,192,10498,1,2,0:1:0:0:
320,192,10574,1,2,0:0:0:0:
192,192,10650,1,2,0:0:0:0:
64,192,10801,1,2,0:1:0:0:
320,192,10801,1,2,0:0:0:0:
64,192,11104,1,2,0:0:0:0:
256,192,11104,128,2,12165:0:0:0:0:
192,192,11180,1,2,0:0:0:0:
64,192,11256,1,2,0:0:0:0:
320,192,11256,1,2,0:1:0:0:
192,192,11559,1,2,0:2:0:0:
448,192,11559,1,2,0:2:0:0:
109,192,11559,128,2,12165:0:0:0:0:
320,192,11710,1,2,0:0:0:0:
448,192,11786,1,2,0:0:0:0:
320,192,11862,1,2,0:2:0:0:
402,192,11862,128,2,12165:0:0:0:0:
64,192,12013,1,2,0:2:0:0:
192,192,12013,1,2,0:2:0:0:
36,192,12165,1,2,0:0:0:0:
182,192,12165,1,2,0:0:0:0:
329,192,12165,1,2,0:0:0:0:
475,192,12165,1,2,0:0:0:0:
64,192,12316,1,2,0:0:0:0:
192,192,12468,1,2,0:1:0:0:
256,192,12468,128,2,13377:0:0:0:0:
320,192,12619,1,2,0:1:0:0:
448,192,12771,1,2,0:1:0:0:
192,192,12771,1,2,0:1:0:0:
320,192,12922,1,2,0:1:0:0:
402,192,12922,128,2,13377:0:0:0:0:
192,192,12998,1,2,0:0:0:0:
64,192,13074,1,2,0:1:0:0:
109,192,13074,128,2,13377:0:0:0:0:
192,192,13149,1,2,0:0:0:0:
320,192,13225,1,2,0:1:0:0:
36,192,13377,1,2,0:0:0:0:
182,192,13377,1,2,0:0:0:0:
329,192,13377,1,2,0:0:0:0:
475,192,13377,1,2,0:0:0:0:
192,192,13528,1,2,0:1:0:0:
256,192,13680,128,2,14286:0:0:0:0:
448,192,13831,1,2,0:0:0:0:
320,192,13907,1,2,0:0:0:0:
448,192,13983,1,2,0:0:0:0:
192,192,13983,1,2,0:2:0:0:
402,192,13983,128,2,14589:0:0:0:0:
109,192,14134,128,2,14589:0:0:0:0:
64,192,14589,1,2,0:3:0:0:
192,192,14740,1,2,0:3:0:0:
320,192,14892,1,2,0:3:0:0:
256,192,14892,128,2,15801:0:0:0:0:
192,192,15043,1,2,0:3:0:0:
64,192,15195,1,2,0:1:0:0:
192,192,15195,1,2,0:1:0:0:
320,192,15346,1,2,0:1:0:0:
109,192,15346,128,2,15801:0:0:0:0:
192,192,15422,1,2,0:0:0:0:
64,192,15498,1,2,0:0:0:0:
402,192,15498,128,2,15801:0:0:0:0:
448,192,15649,1,2,0:1:0:0:
320,192,15649,1,2,0:1:0:0:
36,192,15801,1,2,0:0:0:0:
182,192,15801,1,2,0:0:0:0:
329,192,15801,1,2,0:0:0:0:
475,192,15801,1,2,0:0:0:0:
64,192,16104,1,2,0:0:0:0:
192,192,16180,1,2,0:0:0:0:
320,192,16256,1,2,0:0:0:0:
64,192,16407,1,2,0:2:0:0:
192,192,16407,1,2,0:2:0:0:
192,192,16559,1,2,0:0:0:0:
320,192,16634,1,2,0:0:0:0:
448,192,16710,1,2,0:2:0:0:
256,192,16710,128,2,17619:0:0:0:0:
192,192,16862,1,2,0:2:0:0:
320,192,16862,1,2,0:2:0:0:
320,192,17165,1,2,0:1:0:0:
402,192,17165,128,2,17619:0:0:0:0:
192,192,17240,1,2,0:0:0:0:
64,192,17316,1,2,0:0:0:0:
109,192,17316,128,2,17619:0:0:0:0:
192,192,17392,1,2,0:0:0:0:
320,192,17468,1,2,0:1:0:0:
448,192,17619,1,2,0:1:0:0:
192,192,17619,1,2,0:1:0:0:
329,192,17619,1,2,0:0:0:0:
36,192,17619,1,2,0:0:0:0:
109,192,17922,128,2,18225:0:0:0:0:
448,192,18074,1,2,0:1:0:0:
320,192,18150,1,2,0:0:0:0:
192,192,18225,1,2,0:0:0:0:
256,192,18225,128,2,18528:0:0:0:0:
64,192,18301,1,2,0:0:0:0:
192,192,18377,1,2,0:0:0:0:
320,192,18453,1,2,0:0:0:0:
448,192,18528,1,2,0:0:0:0:
402,192,18528,128,2,18831:0:0:0:0:
320,192,18604,1,2,0:0:0:0:
192,192,18680,1,2,0:1:0:0:
448,192,18831,1,2,0:1:0:0:
320,192,18831,128,2,19437:0:0:0:0:
192,192,18831,1,2,0:1:0:0:
64,192,18831,1,2,0:1:0:0:
109,192,19134,128,2,20649:0:0:0:0:
64,192,19513,1,2,0:0:0:0:
192,192,19589,1,2,0:0:0:0:
320,192,19665,1,2,0:0:0:0:
448,192,19740,1,2,0:0:0:0:
256,192,19740,128,2,20649:0:0:0:0:
320,192,19816,1,2,0:0:0:0:
192,192,19892,1,2,0:0:0:0:
448,192,20043,1,2,0:1:0:0:
320,192,20043,1,2,0:1:0:0:
64,192,20043,1,2,0:1:0:0:
448,192,20195,1,2,0:0:0:0:
402,192,20195,128,2,20649:0:0:0:0:
320,192,20346,1,2,0:0:0:0:
192,192,20422,1,2,0:0:0:0:
320,192,20498,1,2,0:0:0:0:
64,192,20498,1,2,0:1:0:0:
36,192,20649,1,2,0:0:0:0:
182,192,20649,1,2,0:0:0:0:
329,192,20649,1,2,0:0:0:0:
475,192,20725,1,2,0:0:0:0:
320,192,20801,1,2,0:0:0:0:
192,192,20877,1,2,0:0:0:0:
64,192,20953,1,2,0:0:0:0:
109,192,20953,128,2,21862:0:0:0:0:
192,192,21028,1,2,0:0:0:0:
320,192,21104,1,2,0:0:0:0:
64,192,21256,1,2,0:2:0:0:
448,192,21256,1,2,0:2:0:0:
192,192,21256,1,2,0:2:0:0:
256,192,21256,128,2,21862:0:0:0:0:
448,192,21559,1,2,0:2:0:0:
402,192,21559,128,2,21862:0:0:0:0:
192,192,21634,1,2,0:0:0:0:
64,192,21710,1,2,0:0:0:0:
320,192,21710,1,2,0:2:0:0:
36,192,21862,1,2,0:0:0:0:
182,192,21862,1,2,0:0:0:0:
329,192,21862,1,2,0:0:0:0:
475,192,21862,1,2,0:0:0:0:
64,192,22165,1,2,0:0:0:0:
192,192,22240,1,2,0:0:0:0:
320,192,22316,1,2,0:1:0:0:
64,192,22468,1,2,0:1:0:0:
448,192,22468,1,2,0:1:0:0:
192,192,22468,1,2,0:1:0:0:
402,192,22468,128,2,22922:0:0:0:0:
448,192,22771,1,2,0:0:0:0:
320,192,22846,1,2,0:0:0:0:
192,192,22922,1,2,0:1:0:0:
256,192,22922,128,2,23377:0:0:0:0:
192,192,23377,1,2,0:1:0:0:
109,192,23377,128,2,23680:0:0:0:0:
320,192,23453,1,2,0:0:0:0:
448,192,23528,1,2,0:0:0:0:
320,192,23604,1,2,0:0:0:0:
192,192,23680,1,6,0:1:0:0:
192,192,23907,1,2,0:0:0:0:
320,192,23983,1,2,0:1:0:0:
192,192,24059,1,2,0:0:0:0:
448,192,24286,128,2,24892:0:1:0:0:
402,192,24437,128,2,24892:0:0:0:0:
320,192,24589,1,2,0:1:0:0:
192,192,24665,1,2,0:0:0:0:
64,192,24740,1,2,0:0:0:0:
192,192,24816,1,2,0:0:0:0:
320,192,24892,1,6,0:1:0:0:
64,192,25195,1,2,0:0:0:0:
192,192,25271,1,2,0:0:0:0:
320,192,25346,1,2,0:1:0:0:
448,192,25498,1,2,0:1:0:0:
64,192,25498,128,2,26104:0:1:0:0:
109,192,25649,128,2,26104:0:0:0:0:
448,192,25801,1,2,0:0:0:0:
320,192,25953,1,2,0:0:0:0:
192,192,26104,1,6,0:1:0:0:
402,192,26104,128,2,26407:0:0:0:0:
475,192,26256,128,2,26710:0:0:0:0:
320,192,26407,1,2,0:0:0:0:
192,192,26483,1,2,0:0:0:0:
64,192,26559,1,2,0:0:0:0:
402,192,26559,128,2,26710:0:0:0:0:
192,192,26634,1,2,0:0:0:0:
320,192,26710,1,2,0:1:0:0:
64,192,27013,1,2,0:0:0:0:
192,192,27089,1,2,0:0:0:0:
320,192,27165,1,2,0:0:0:0:
448,192,27316,1,2,0:1:0:0:
64,192,27316,1,2,0:1:0:0:
192,192,27316,1,2,0:1:0:0:
256,192,27316,128,2,28528:0:0:0:0:
402,192,27468,128,2,27771:0:0:0:0:
448,192,27922,1,2,0:0:0:0:
320,192,27922,1,2,0:0:0:0:
109,192,27922,128,2,28377:0:0:0:0:
320,192,28225,1,2,0:0:0:0:
192,192,28225,1,2,0:0:0:0:
402,192,28225,128,2,28528:0:0:0:0:
192,192,28528,1,2,0:0:0:0:
64,192,28528,1,2,0:0:0:0:
448,192,28528,128,6,29740:0:1:0:0:
320,192,28831,1,2,0:1:0:0:
64,192,28831,1,2,0:1:0:0:
402,192,28983,128,2,29740:0:0:0:0:
192,192,29134,1,2,0:1:0:0:
192,192,29437,1,2,0:1:0:0:
256,192,29437,128,2,29740:0:0:0:0:
320,192,29740,1,6,0:0:0:0:
192,192,29740,1,6,0:0:0:0:
64,192,29740,128,6,30953:0:0:0:0:
192,192,30346,1,2,0:0:0:0:
109,192,30346,128,2,30953:0:0:0:0:
320,192,30422,1,2,0:0:0:0:
448,192,30498,1,2,0:0:0:0:
320,192,30574,1,2,0:0:0:0:
192,192,30649,1,2,0:0:0:0:
320,192,30725,1,2,0:0:0:0:
448,192,30801,1,2,0:0:0:0:
320,192,30877,1,2,0:0:0:0:
192,192,30953,5,2,0:0:0:0:
448,192,30953,1,2,0:0:0:0:
320,192,31104,1,2,0:0:0:0:
109,192,31104,128,2,31559:0:0:0:0:
448,192,31256,1,2,0:0:0:0:
320,192,31331,1,2,0:0:0:0:
192,192,31407,1,2,0:0:0:0:
448,192,31407,1,2,0:0:0:0:
320,192,31483,1,2,0:0:0:0:
475,192,31862,128,2,32695:0:0:0:0:
64,192,31862,1,2,0:0:0:0:
320,192,31862,1,2,0:0:0:0:
192,192,32013,1,2,0:0:0:0:
402,192,32165,128,2,32695:0:0:0:0:
320,192,32165,1,2,0:0:0:0:
64,192,32165,1,2,0:0:0:0:
192,192,32316,1,2,0:0:0:0:
64,192,32468,1,2,0:0:0:0:
192,192,32543,1,2,0:0:0:0:
320,192,32619,1,2,0:0:0:0:
64,192,32619,1,2,0:0:0:0:
192,192,32695,1,2,0:0:0:0:
256,192,33074,128,2,33907:0:0:0:0:
192,192,33074,1,2,0:0:0:0:
320,192,33225,1,2,0:0:0:0:
402,192,33377,128,2,33907:0:0:0:0:
192,192,33377,1,2,0:0:0:0:
448,192,33377,1,2,0:0:0:0:
320,192,33528,1,2,0:0:0:0:
320,192,33680,1,2,0:0:0:0:
192,192,33756,1,2,0:0:0:0:
320,192,33831,1,2,0:0:0:0:
64,192,33831,1,2,0:0:0:0:
192,192,33907,1,2,0:0:0:0:
109,192,34134,128,2,34589:0:0:0:0:
402,192,34134,128,2,34589:0:0:0:0:
320,192,34134,1,10,0:0:0:0:
475,192,34286,128,2,34589:0:0:0:0:
192,192,34286,1,10,0:0:0:0:
256,192,34437,128,2,34589:0:0:0:0:
64,192,34589,1,6,0:0:0:0:
320,192,34589,1,6,0:0:0:0:
64,192,35195,1,10,0:0:0:0:
192,192,35271,1,10,0:0:0:0:
320,192,35346,1,10,0:0:0:0:
448,192,35422,1,10,0:0:0:0:
256,192,35498,128,2,36331:0:0:0:0:
320,192,35498,1,10,0:0:0:0:
192,192,35574,1,10,0:0:0:0:
64,192,35649,1,10,0:0:0:0:
109,192,35801,128,2,36331:0:0:0:0:
192,192,35801,1,6,0:0:0:0:
448,192,35801,1,6,0:0:0:0:
320,192,35953,1,2,0:0:0:0:
448,192,36104,1,2,0:0:0:0:
320,192,36180,1,2,0:0:0:0:
192,192,36256,1,2,0:0:0:0:
448,192,36256,1,2,0:0:0:0:
320,192,36331,1,2,0:0:0:0:
256,192,36710,128,2,37543:0:0:0:0:
64,192,36710,1,2,0:0:0:0:
320,192,36710,1,2,0:0:0:0:
192,192,36862,1,2,0:0:0:0:
402,192,37013,128,2,37543:0:0:0:0:
320,192,37013,1,2,0:0:0:0:
64,192,37013,1,2,0:0:0:0:
192,192,37165,1,2,0:0:0:0:
64,192,37316,1,2,0:0:0:0:
192,192,37392,1,2,0:0:0:0:
320,192,37468,1,2,0:0:0:0:
64,192,37468,1,2,0:0:0:0:
192,192,37543,1,2,0:0:0:0:
402,192,37922,128,2,38756:0:0:0:0:
192,192,37922,1,2,0:0:0:0:
320,192,38074,1,2,0:0:0:0:
256,192,38225,128,2,38756:0:0:0:0:
192,192,38225,1,2,0:0:0:0:
448,192,38225,1,2,0:0:0:0:
320,192,38377,1,2,0:0:0:0:
320,192,38528,1,2,0:0:0:0:
192,192,38604,1,2,0:0:0:0:
320,192,38680,1,2,0:0:0:0:
64,192,38680,1,2,0:0:0:0:
192,192,38756,1,2,0:0:0:0:
448,192,38983,1,2,0:0:0:0:
320,192,39059,1,2,0:0:0:0:
192,192,39134,1,10,0:0:0:0:
448,192,39134,1,2,0:0:0:0:
192,192,39437,128,2,40649:0:1:0:0:
64,192,39437,1,6,0:1:0:0:
109,192,39589,128,2,40649:0:0:0:0:
256,192,39589,128,2,40195:0:0:0:0:
320,192,39589,1,2,0:0:0:0:
448,192,39740,128,2,40649:0:0:0:0:
320,192,39892,1,2,0:0:0:0:
64,192,40043,1,2,0:0:0:0:
402,192,40195,128,2,40649:0:0:0:0:
320,192,40195,1,2,0:0:0:0:
320,192,40498,1,2,0:0:0:0:
329,192,40649,1,2,0:0:0:0:
256,192,40649,1,2,0:0:0:0:
64,192,40649,1,2,0:1:0:0:
192,192,40801,1,2,0:1:0:0:
320,192,40877,1,2,0:0:0:0:
192,192,40953,1,2,0:0:0:0:
320,192,41104,1,2,0:0:0:0:
64,192,41104,1,2,0:1:0:0:
256,192,41407,128,2,42468:0:0:0:0:
64,192,41407,1,2,0:0:0:0:
192,192,41483,1,2,0:0:0:0:
320,192,41559,1,2,0:1:0:0:
64,192,41559,1,2,0:0:0:0:
109,192,41862,128,2,42468:0:0:0:0:
448,192,41862,1,2,0:2:0:0:
192,192,41862,1,2,0:2:0:0:
320,192,42013,1,2,0:0:0:0:
448,192,42089,1,2,0:0:0:0:
402,192,42165,128,2,42468:0:0:0:0:
320,192,42165,1,2,0:2:0:0:
192,192,42316,1,2,0:2:0:0:
64,192,42316,1,2,0:2:0:0:
329,192,42468,1,2,0:0:0:0:
475,192,42468,1,2,0:0:0:0:
36,192,42468,1,2,0:0:0:0:
182,192,42468,1,2,0:0:0:0:
64,192,42619,1,2,0:0:0:0:
256,192,42771,128,2,43680:0:0:0:0:
192,192,42771,1,2,0:1:0:0:
320,192,42922,1,2,0:1:0:0:
192,192,43074,1,2,0:1:0:0:
448,192,43074,1,2,0:1:0:0:
402,192,43225,128,2,43680:0:0:0:0:
320,192,43225,1,2,0:1:0:0:
192,192,43301,1,2,0:0:0:0:
109,192,43377,128,2,43680:0:0:0:0:
64,192,43377,1,2,0:1:0:0:
192,192,43453,1,2,0:0:0:0:
320,192,43528,1,2,0:1:0:0:
329,192,43680,1,2,0:0:0:0:
475,192,43680,1,2,0:0:0:0:
36,192,43680,1,2,0:0:0:0:
182,192,43680,1,2,0:0:0:0:
192,192,43831,1,2,0:1:0:0:
256,192,43983,128,2,44589:0:0:0:0:
448,192,44134,1,2,0:0:0:0:
320,192,44210,1,2,0:0:0:0:
402,192,44286,128,2,44892:0:0:0:0:
192,192,44286,1,2,0:2:0:0:
448,192,44286,1,2,0:0:0:0:
109,192,44437,128,2,44892:0:0:0:0:
64,192,44892,1,2,0:3:0:0:
192,192,45043,1,2,0:3:0:0:
256,192,45195,128,2,46104:0:0:0:0:
320,192,45195,1,2,0:3:0:0:
192,192,45346,1,2,0:3:0:0:
192,192,45498,1,2,0:1:0:0:
64,192,45498,1,2,0:1:0:0:
109,192,45649,128,2,46104:0:0:0:0:
320,192,45649,1,2,0:1:0:0:
192,192,45725,1,2,0:0:0:0:
402,192,45801,128,2,46104:0:0:0:0:
64,192,45801,1,2,0:0:0:0:
320,192,45953,1,2,0:1:0:0:
448,192,45953,1,2,0:1:0:0:
329,192,46104,1,2,0:0:0:0:
475,192,46104,1,2,0:0:0:0:
36,192,46104,1,2,0:0:0:0:
182,192,46104,1,2,0:0:0:0:
64,192,46407,1,2,0:0:0:0:
192,192,46483,1,2,0:0:0:0:
320,192,46559,1,2,0:0:0:0:
192,192,46710,1,2,0:2:0:0:
64,192,46710,1,2,0:2:0:0:
192,192,46862,1,2,0:0:0:0:
320,192,46937,1,2,0:0:0:0:
256,192,47013,128,2,47922:0:0:0:0:
448,192,47013,1,2,0:2:0:0:
320,192,47165,1,2,0:2:0:0:
192,192,47165,1,2,0:2:0:0:
402,192,47468,128,2,47922:0:0:0:0:
320,192,47468,1,2,0:1:0:0:
192,192,47543,1,2,0:0:0:0:
109,192,47619,128,2,47922:0:0:0:0:
64,192,47619,1,2,0:0:0:0:
192,192,47695,1,2,0:0:0:0:
320,192,47771,1,2,0:1:0:0:
329,192,47922,1,2,0:0:0:0:
36,192,47922,1,2,0:0:0:0:
448,192,47922,1,2,0:1:0:0:
192,192,47922,1,2,0:1:0:0:
109,192,48225,128,2,48528:0:0:0:0:
448,192,48377,1,2,0:1:0:0:
320,192,48453,1,2,0:0:0:0:
256,192,48528,128,2,48831:0:0:0:0:
192,192,48528,1,2,0:0:0:0:
64,192,48604,1,2,0:0:0:0:
192,192,48680,1,2,0:0:0:0:
320,192,48756,1,2,0:0:0:0:
402,192,48831,128,2,49134:0:0:0:0:
448,192,48831,1,2,0:0:0:0:
320,192,48907,1,2,0:0:0:0:
192,192,48983,1,2,0:1:0:0:
192,192,49134,1,2,0:1:0:0:
64,192,49134,1,2,0:1:0:0:
448,192,49134,1,2,0:1:0:0:
320,192,49134,128,2,49740:0:0:0:0:
109,192,49437,128,2,50953:0:0:0:0:
64,192,49816,1,2,0:0:0:0:
192,192,49892,1,2,0:0:0:0:
320,192,49968,1,2,0:0:0:0:
256,192,50043,128,2,50953:0:0:0:0:
448,192,50043,1,2,0:0:0:0:
320,192,50119,1,2,0:0:0:0:
192,192,50195,1,2,0:0:0:0:
64,192,50346,1,2,0:1:0:0:
320,192,50346,1,2,0:1:0:0:
448,192,50346,1,2,0:1:0:0:
402,192,50498,128,2,50953:0:0:0:0:
448,192,50498,1,2,0:0:0:0:
320,192,50649,1,2,0:0:0:0:
192,192,50725,1,2,0:0:0:0:
64,192,50801,1,2,0:1:0:0:
320,192,50801,1,2,0:0:0:0:
329,192,50953,1,2,0:0:0:0:
182,192,50953,1,2,0:0:0:0:
36,192,50953,1,2,0:0:0:0:
475,192,51028,1,2,0:0:0:0:
320,192,51104,1,2,0:0:0:0:
192,192,51180,1,2,0:0:0:0:
109,192,51256,128,2,52165:0:0:0:0:
64,192,51256,1,2,0:0:0:0:
192,192,51331,1,2,0:0:0:0:
320,192,51407,1,2,0:0:0:0:
192,192,51559,1,2,0:2:0:0:
256,192,51559,128,2,52165:0:0:0:0:
64,192,51559,1,2,0:2:0:0:
448,192,51559,1,2,0:2:0:0:
402,192,51862,128,2,52165:0:0:0:0:
448,192,51862,1,2,0:2:0:0:
192,192,51937,1,2,0:0:0:0:
320,192,52013,1,2,0:2:0:0:
64,192,52013,1,2,0:0:0:0:
329,192,52165,1,2,0:0:0:0:
475,192,52165,1,2,0:0:0:0:
36,192,52165,1,2,0:0:0:0:
182,192,52165,1,2,0:0:0:0:
64,192,52468,1,2,0:0:0:0:
192,192,52543,1,2,0:0:0:0:
320,192,52619,1,2,0:1:0:0:
192,192,52771,1,2,0:1:0:0:
64,192,52771,1,2,0:1:0:0:
448,192,52771,1,2,0:1:0:0:
402,192,52771,128,2,53377:0:0:0:0:
475,192,53377,128,2,53680:0:0:0:0:
402,192,53680,128,2,53983:0:0:0:0:
329,192,53983,128,2,55195:0:0:0:0:
182,192,54437,128,2,54740:0:0:0:0:
109,192,54589,128,2,55195:0:0:0:0:
64,192,55195,5,2,0:0:0:0:
448,192,55498,128,2,56407:0:0:0:0:
320,192,55649,1,2,0:0:0:0:
192,192,55953,1,2,0:0:0:0:
402,192,55953,128,2,56407:0:0:0:0:
64,192,56104,1,2,0:0:0:0:
256,192,56104,128,2,56407:0:0:0:0:
192,192,56256,1,2,0:0:0:0:
64,192,56407,1,2,0:0:0:0:
320,192,56407,1,2,0:0:0:0:
192,192,56710,1,2,0:0:0:0:
320,192,56710,1,2,0:0:0:0:
64,192,57013,1,2,0:0:0:0:
192,192,57165,1,2,0:0:0:0:
320,192,57316,1,2,0:0:0:0:
448,192,57619,1,2,0:0:0:0:
192,192,57619,1,2,0:0:0:0:
64,192,57922,128,2,58831:0:0:0:0:
192,192,58074,1,2,0:0:0:0:
320,192,58377,1,2,0:0:0:0:
256,192,58377,128,2,58831:0:0:0:0:
448,192,58528,1,2,0:0:0:0:
109,192,58528,128,2,58831:0:0:0:0:
320,192,58680,1,2,0:0:0:0:
402,192,58680,128,2,58831:0:0:0:0:
448,192,58831,1,2,0:0:0:0:
192,192,58831,1,2,0:0:0:0:
320,192,59134,1,2,0:0:0:0:
192,192,59134,1,2,0:0:0:0:
448,192,59437,1,2,0:0:0:0:
320,192,59589,1,2,0:0:0:0:
192,192,59740,1,2,0:0:0:0:
320,192,60043,1,2,0:0:0:0:
64,192,60043,1,2,0:0:0:0:
192,192,60195,1,2,0:0:0:0:
448,192,60346,128,2,61256:0:0:0:0:
320,192,60498,1,2,0:0:0:0:
256,192,60649,128,2,61256:0:0:0:0:
192,192,60801,1,2,0:0:0:0:
64,192,60953,1,2,0:0:0:0:
109,192,60953,128,2,61256:0:0:0:0:
192,192,61104,1,2,0:0:0:0:
64,192,61256,1,2,0:0:0:0:
320,192,61256,1,2,0:0:0:0:
320,192,61559,1,2,0:0:0:0:
192,192,61559,1,2,0:0:0:0:
64,192,61862,1,2,0:0:0:0:
192,192,62013,1,2,0:0:0:0:
320,192,62165,1,2,0:0:0:0:
109,192,62165,128,2,63074:0:0:0:0:
320,192,62316,1,2,0:0:0:0:
448,192,62468,1,2,0:0:0:0:
192,192,62468,1,2,0:0:0:0:
256,192,62468,128,2,63074:0:0:0:0:
320,192,62619,1,2,0:0:0:0:
402,192,62771,128,2,63074:0:0:0:0:
64,192,62922,1,2,0:0:0:0:
475,192,62922,128,2,63074:0:0:0:0:
192,192,63074,1,2,0:0:0:0:
320,192,63225,1,2,0:0:0:0:
448,192,63377,1,2,0:0:0:0:
320,192,63528,1,2,0:0:0:0:
402,192,63528,128,2,64589:0:0:0:0:
192,192,63680,1,2,0:0:0:0:
64,192,63831,1,2,0:0:0:0:
192,192,63983,1,2,0:0:0:0:
320,192,64134,1,2,0:0:0:0:
320,192,64286,1,2,0:0:0:0:
192,192,64286,128,2,64892:0:0:0:0:
448,192,64437,1,2,0:0:0:0:
64,192,64589,1,2,0:0:0:0:
256,192,64589,128,2,64892:0:0:0:0:
448,192,64740,1,2,0:0:0:0:
64,192,64892,1,2,0:0:0:0:
320,192,64892,1,2,0:0:0:0:
320,192,65195,1,2,0:0:0:0:
448,192,65346,1,2,0:0:0:0:
192,192,65649,1,2,0:0:0:0:
320,192,65801,1,2,0:0:0:0:
192,192,65953,1,2,0:0:0:0:
448,192,65953,1,2,0:0:0:0:
192,192,66256,1,2,0:0:0:0:
320,192,66407,1,2,0:0:0:0:
192,192,66559,1,2,0:0:0:0:
320,192,66710,1,2,0:0:0:0:
64,192,66710,1,2,0:0:0:0:
320,192,67013,1,2,0:0:0:0:
320,192,67165,1,2,0:0:0:0:
448,192,67316,1,2,0:0:0:0:
192,192,67316,1,2,0:0:0:0:
402,192,67316,128,2,68528:0:0:0:0:
320,192,67619,1,2,0:0:0:0:
64,192,67619,1,2,0:0:0:0:
448,192,67771,1,2,0:0:0:0:
192,192,67771,1,2,0:0:0:0:
329,192,67771,128,2,68528:0:0:0:0:
64,192,67922,128,2,68528:0:0:0:0:
256,192,68074,128,2,68528:0:0:0:0:
448,192,68225,1,2,0:0:0:0:
448,192,68528,1,2,0:0:0:0:
192,192,68528,1,6,0:0:0:0:
64,192,69437,1,2,0:0:0:0:
192,192,69589,1,2,0:0:0:0:
64,192,69740,1,2,0:0:0:0:
320,192,69740,1,2,0:0:0:0:
320,192,70043,1,2,0:0:0:0:
64,192,70043,1,2,0:0:0:0:
448,192,70195,1,2,0:0:0:0:
192,192,70195,1,2,0:0:0:0:
256,192,70195,128,2,70953:0:0:0:0:
64,192,70346,128,2,70953:0:0:0:0:
402,192,70498,128,2,70953:0:0:0:0:
320,192,70649,1,2,0:0:0:0:
448,192,70953,1,2,0:0:0:0:
192,192,70953,1,2,0:0:0:0:
448,192,71256,1,2,0:0:0:0:
320,192,71407,1,2,0:0:0:0:
192,192,71559,1,2,0:0:0:0:
320,192,71710,1,2,0:0:0:0:
64,192,71710,1,2,0:0:0:0:
192,192,71862,1,2,0:0:0:0:
320,192,72013,1,2,0:0:0:0:
448,192,72165,1,2,0:0:0:0:
192,192,72165,1,2,0:0:0:0:
402,192,72165,128,2,73377:0:0:0:0:
256,192,72468,128,2,73074:0:0:0:0:
320,192,72619,1,2,0:0:0:0:
192,192,72771,1,2,0:0:0:0:
320,192,72922,1,2,0:0:0:0:
192,192,73074,1,2,0:0:0:0:
109,192,73074,128,2,73377:0:0:0:0:
64,192,73377,1,10,0:0:0:0:
448,192,73377,128,2,74589:0:0:0:0:
192,192,73528,1,10,0:0:0:0:
320,192,73680,1,10,0:0:0:0:
192,192,73831,1,10,0:0:0:0:
64,192,73983,1,10,0:0:0:0:
192,192,74134,1,10,0:0:0:0:
320,192,74286,1,10,0:0:0:0:
192,192,74437,1,10,0:0:0:0:
192,192,74589,1,2,0:0:0:0:
320,192,74589,1,2,0:0:0:0:
64,192,74589,1,6,0:0:0:0:
320,192,74892,1,2,0:0:0:0:
192,192,75043,1,2,0:0:0:0:
320,192,75195,1,2,0:0:0:0:
64,192,75195,1,2,0:0:0:0:
402,192,75195,128,2,77013:0:0:0:0:
320,192,75498,1,2,0:0:0:0:
192,192,75498,1,2,0:0:0:0:
448,192,75801,1,2,0:0:0:0:
64,192,75801,1,2,0:0:0:0:
448,192,76104,1,2,0:0:0:0:
192,192,76104,1,2,0:0:0:0:
64,192,76256,1,2,0:0:0:0:
320,192,76256,1,2,0:0:0:0:
192,192,76407,1,2,0:0:0:0:
448,192,76407,1,2,0:0:0:0:
192,192,76710,1,2,0:0:0:0:
320,192,76862,1,2,0:0:0:0:
448,192,77013,1,2,0:0:0:0:
192,192,77013,1,2,0:0:0:0:
320,192,77316,1,2,0:0:0:0:
192,192,77316,1,2,0:0:0:0:
448,192,77619,1,2,0:0:0:0:
64,192,77619,1,2,0:0:0:0:
109,192,77619,128,2,79437:0:0:0:0:
320,192,77922,1,2,0:0:0:0:
64,192,77922,1,2,0:0:0:0:
448,192,78074,1,2,0:0:0:0:
192,192,78074,1,2,0:0:0:0:
320,192,78225,1,2,0:0:0:0:
64,192,78225,1,2,0:0:0:0:
320,192,78528,1,2,0:0:0:0:
192,192,78528,1,2,0:0:0:0:
448,192,78831,1,2,0:0:0:0:
64,192,78831,1,2,0:0:0:0:
320,192,79134,1,2,0:0:0:0:
192,192,79286,1,2,0:0:0:0:
448,192,79437,1,2,0:0:0:0:
320,192,79437,1,2,0:0:0:0:
64,192,79740,128,2,80649:0:0:0:0:
192,192,80043,1,2,0:0:0:0:
320,192,80346,1,2,0:0:0:0:
448,192,80649,1,2,0:0:0:0:
192,192,80649,1,2,0:0:0:0:
402,192,80649,128,2,81862:0:0:0:0:
320,192,80953,1,2,0:0:0:0:
192,192,81104,1,2,0:0:0:0:
320,192,81256,1,2,0:0:0:0:
64,192,81256,1,2,0:0:0:0:
320,192,81559,1,2,0:0:0:0:
192,192,81559,1,2,0:0:0:0:
448,192,81862,1,2,0:0:0:0:
64,192,81862,1,2,0:0:0:0:
109,192,81862,128,2,83074:0:0:0:0:
448,192,82165,1,2,0:0:0:0:
192,192,82165,1,2,0:0:0:0:
64,192,82316,1,2,0:0:0:0:
320,192,82316,1,2,0:0:0:0:
192,192,82468,1,2,0:0:0:0:
448,192,82468,1,2,0:0:0:0:
320,192,82771,1,2,0:0:0:0:
64,192,82771,1,2,0:0:0:0:
448,192,82922,1,2,0:0:0:0:
192,192,82922,1,2,0:0:0:0:
320,192,83074,1,2,0:0:0:0:
64,192,83074,1,2,0:0:0:0:
256,192,83074,128,2,84286:0:0:0:0:
192,192,83377,1,2,0:0:0:0:
320,192,83528,1,2,0:0:0:0:
448,192,83680,1,2,0:0:0:0:
192,192,83680,1,2,0:0:0:0:
320,192,83983,1,2,0:0:0:0:
64,192,83983,1,2,0:0:0:0:
448,192,84134,1,2,0:0:0:0:
192,192,84134,1,2,0:0:0:0:
320,192,84286,1,2,0:0:0:0:
64,192,84286,1,2,0:0:0:0:
320,192,84589,1,2,0:0:0:0:
192,192,84589,1,2,0:0:0:0:
448,192,84892,1,2,0:0:0:0:
64,192,84892,1,2,0:0:0:0:
320,192,85195,1,2,0:0:0:0:
192,192,85346,1,2,0:0:0:0:
448,192,85498,1,2,0:0:0:0:
320,192,85498,1,2,0:0:0:0:
192,192,85953,1,2,0:0:0:0:
320,192,86104,1,2,0:0:0:0:
320,192,86407,1,2,0:0:0:0:
64,192,86710,1,2,0:0:0:0:
448,192,86710,1,2,0:0:0:0:
192,192,86710,1,2,0:0:0:0:
402,192,86710,128,2,88528:0:0:0:0:
448,192,87013,1,2,0:0:0:0:
192,192,87013,1,2,0:0:0:0:
64,192,87165,1,2,0:0:0:0:
320,192,87165,1,2,0:0:0:0:
192,192,87316,1,2,0:0:0:0:
448,192,87316,1,2,0:0:0:0:
320,192,87619,1,2,0:0:0:0:
64,192,87619,1,2,0:0:0:0:
448,192,87771,1,2,0:0:0:0:
192,192,87771,1,2,0:0:0:0:
320,192,87922,1,2,0:0:0:0:
64,192,87922,1,2,0:0:0:0:
192,192,88225,1,2,0:0:0:0:
320,192,88377,1,2,0:0:0:0:
448,192,88528,1,2,0:0:0:0:
192,192,88528,1,2,0:0:0:0:
320,192,88831,1,2,0:0:0:0:
64,192,88831,1,2,0:0:0:0:
448,192,88983,1,2,0:0:0:0:
192,192,88983,1,2,0:0:0:0:
320,192,89134,1,2,0:0:0:0:
64,192,89134,1,2,0:0:0:0:
320,192,89437,1,2,0:0:0:0:
192,192,89589,1,2,0:0:0:0:
320,192,89740,1,2,0:0:0:0:
64,192,89740,1,2,0:0:0:0:
320,192,90043,1,2,0:0:0:0:
192,192,90043,1,2,0:0:0:0:
448,192,90346,1,2,0:1:0:0:
64,192,90346,1,2,0:1:0:0:
192,192,90346,1,2,0:1:0:0:
256,192,90346,128,2,91559:0:0:0:0:
402,192,90498,128,2,90801:0:0:0:0:
448,192,90649,1,2,0:0:0:0:
192,192,90649,1,2,0:0:0:0:
64,192,90801,1,2,0:0:0:0:
320,192,90801,1,2,0:0:0:0:
192,192,90953,1,2,0:0:0:0:
448,192,90953,1,2,0:0:0:0:
320,192,90953,1,2,0:0:0:0:
109,192,90953,128,2,91407:0:0:0:0:
320,192,91256,1,2,0:0:0:0:
192,192,91256,1,2,0:0:0:0:
402,192,91256,128,2,91559:0:0:0:0:
320,192,91407,1,2,0:0:0:0:
192,192,91559,1,2,0:0:0:0:
64,192,91559,1,2,0:0:0:0:
448,192,91559,128,6,92771:0:1:0:0:
320,192,91862,1,2,0:1:0:0:
64,192,91862,1,2,0:1:0:0:
192,192,92013,1,2,0:0:0:0:
402,192,92013,128,2,92771:0:0:0:0:
320,192,92165,1,2,0:0:0:0:
64,192,92165,1,2,0:0:0:0:
192,192,92165,1,2,0:1:0:0:
320,192,92468,1,2,0:0:0:0:
192,192,92468,1,2,0:1:0:0:
256,192,92468,128,2,92771:0:0:0:0:
320,192,92771,1,6,0:0:0:0:
192,192,92771,1,6,0:0:0:0:
64,192,92771,128,6,93983:0:0:0:0:
320,192,93225,1,2,0:0:0:0:
448,192,93377,1,2,0:0:0:0:
192,192,93377,1,2,0:0:0:0:
109,192,93377,128,2,93983:0:0:0:0:
320,192,93453,1,2,0:0:0:0:
448,192,93528,1,2,0:0:0:0:
320,192,93604,1,2,0:0:0:0:
192,192,93680,1,2,0:0:0:0:
320,192,93756,1,2,0:0:0:0:
448,192,93831,1,2,0:0:0:0:
320,192,93907,1,2,0:0:0:0:
192,192,93983,5,2,0:0:0:0:
448,192,93983,1,2,0:0:0:0:
109,192,94134,128,2,94589:0:0:0:0:
320,192,94134,1,2,0:0:0:0:
448,192,94286,1,2,0:0:0:0:
320,192,94362,1,2,0:0:0:0:
448,192,94437,1,2,0:0:0:0:
192,192,94437,1,2,0:0:0:0:
320,192,94513,1,2,0:0:0:0:
320,192,94892,1,2,0:0:0:0:
64,192,94892,1,2,0:0:0:0:
475,192,94892,128,2,95725:0:0:0:0:
192,192,95043,1,2,0:0:0:0:
64,192,95195,1,2,0:0:0:0:
320,192,95195,1,2,0:0:0:0:
402,192,95195,128,2,95725:0:0:0:0:
192,192,95346,1,2,0:0:0:0:
64,192,95498,1,2,0:0:0:0:
192,192,95574,1,2,0:0:0:0:
64,192,95649,1,2,0:0:0:0:
320,192,95649,1,2,0:0:0:0:
192,192,95725,1,2,0:0:0:0:
192,192,96104,1,2,0:0:0:0:
256,192,96104,128,2,96937:0:0:0:0:
320,192,96256,1,2,0:0:0:0:
448,192,96407,1,2,0:0:0:0:
192,192,96407,1,2,0:0:0:0:
402,192,96407,128,2,96937:0:0:0:0:
320,192,96559,1,2,0:0:0:0:
320,192,96710,1,2,0:0:0:0:
192,192,96786,1,2,0:0:0:0:
64,192,96862,1,2,0:0:0:0:
320,192,96862,1,2,0:0:0:0:
192,192,96937,1,2,0:0:0:0:
320,192,97165,1,10,0:0:0:0:
402,192,97165,128,2,97619:0:0:0:0:
109,192,97165,128,2,97619:0:0:0:0:
192,192,97316,1,10,0:0:0:0:
475,192,97316,128,2,97619:0:0:0:0:
256,192,97468,128,2,97619:0:0:0:0:
320,192,97619,1,6,0:0:0:0:
64,192,97619,1,6,0:0:0:0:
64,192,98225,1,10,0:0:0:0:
192,192,98301,1,10,0:0:0:0:
320,192,98377,1,10,0:0:0:0:
448,192,98453,1,10,0:0:0:0:
320,192,98528,1,10,0:0:0:0:
256,192,98528,128,2,99362:0:0:0:0:
192,192,98604,1,10,0:0:0:0:
64,192,98680,1,10,0:0:0:0:
448,192,98831,1,6,0:0:0:0:
192,192,98831,1,6,0:0:0:0:
109,192,98831,128,2,99362:0:0:0:0:
320,192,98983,1,2,0:0:0:0:
448,192,99134,1,2,0:0:0:0:
320,192,99210,1,2,0:0:0:0:
448,192,99286,1,2,0:0:0:0:
192,192,99286,1,2,0:0:0:0:
320,192,99362,1,2,0:0:0:0:
320,192,99740,1,2,0:0:0:0:
64,192,99740,1,2,0:0:0:0:
256,192,99740,128,2,100574:0:0:0:0:
192,192,99892,1,2,0:0:0:0:
64,192,100043,1,2,0:0:0:0:
320,192,100043,1,2,0:0:0:0:
402,192,100043,128,2,100574:0:0:0:0:
192,192,100195,1,2,0:0:0:0:
64,192,100346,1,2,0:0:0:0:
192,192,100422,1,2,0:0:0:0:
64,192,100498,1,2,0:0:0:0:
320,192,100498,1,2,0:0:0:0:
192,192,100574,1,2,0:0:0:0:
192,192,100952,1,2,0:0:0:0:
402,192,100952,128,2,101786:0:0:0:0:
320,192,101104,1,2,0:0:0:0:
448,192,101256,1,2,0:0:0:0:
192,192,101256,1,2,0:0:0:0:
256,192,101256,128,2,101786:0:0:0:0:
320,192,101407,1,2,0:0:0:0:
320,192,101559,1,2,0:0:0:0:
192,192,101634,1,2,0:0:0:0:
64,192,101710,1,2,0:0:0:0:
320,192,101710,1,2,0:0:0:0:
192,192,101786,1,2,0:0:0:0:
448,192,102013,1,2,0:0:0:0:
320,192,102089,1,2,0:0:0:0:
448,192,102165,1,2,0:0:0:0:
192,192,102165,1,10,0:0:0:0:
64,192,102468,1,6,0:1:0:0:
192,192,102468,128,2,103680:0:1:0:0:
320,192,102619,1,2,0:0:0:0:
256,192,102619,128,2,103225:0:0:0:0:
109,192,102619,128,2,103680:0:0:0:0:
448,192,102771,128,2,103680:0:0:0:0:
320,192,102922,1,2,0:0:0:0:
64,192,103074,1,2,0:0:0:0:
320,192,103225,1,2,0:0:0:0:
402,192,103225,128,2,103680:0:0:0:0:
320,192,103528,1,2,0:0:0:0:
64,192,103680,1,2,0:1:0:0:
256,192,103680,1,2,0:0:0:0:
329,192,103680,1,2,0:0:0:0:
192,192,103831,1,2,0:1:0:0:
320,192,103907,1,2,0:0:0:0:
192,192,103983,1,2,0:0:0:0:
64,192,104134,1,2,0:1:0:0:
320,192,104134,1,2,0:0:0:0:
64,192,104437,1,2,0:0:0:0:
256,192,104437,128,2,105498:0:0:0:0:
192,192,104513,1,2,0:0:0:0:
64,192,104589,1,2,0:0:0:0:
320,192,104589,1,2,0:1:0:0:
192,192,104892,1,2,0:2:0:0:
448,192,104892,1,2,0:2:0:0:
109,192,104892,128,2,105498:0:0:0:0:
320,192,105043,1,2,0:0:0:0:
448,192,105119,1,2,0:0:0:0:
320,192,105195,1,2,0:2:0:0:
402,192,105195,128,2,105498:0:0:0:0:
64,192,105346,1,2,0:2:0:0:
192,192,105346,1,2,0:2:0:0:
36,192,105498,1,2,0:0:0:0:
182,192,105498,1,2,0:0:0:0:
329,192,105498,1,2,0:0:0:0:
475,192,105498,1,2,0:0:0:0:
64,192,105649,1,2,0:0:0:0:
192,192,105801,1,2,0:1:0:0:
256,192,105801,128,2,106710:0:0:0:0:
320,192,105952,1,2,0:1:0:0:
448,192,106104,1,2,0:1:0:0:
192,192,106104,1,2,0:1:0:0:
320,192,106256,1,2,0:1:0:0:
402,192,106256,128,2,106710:0:0:0:0:
192,192,106331,1,2,0:0:0:0:
64,192,106407,1,2,0:1:0:0:
109,192,106407,128,2,106710:0:0:0:0:
192,192,106483,1,2,0:0:0:0:
320,192,106559,1,2,0:1:0:0:
36,192,106710,1,2,0:0:0:0:
182,192,106710,1,2,0:0:0:0:
329,192,106710,1,2,0:0:0:0:
475,192,106710,1,2,0:0:0:0:
192,192,106862,1,2,0:1:0:0:
256,192,107013,128,2,107619:0:0:0:0:
448,192,107165,1,2,0:0:0:0:
320,192,107240,1,2,0:0:0:0:
448,192,107316,1,2,0:0:0:0:
192,192,107316,1,2,0:2:0:0:
402,192,107316,128,2,107922:0:0:0:0:
109,192,107468,128,2,107922:0:0:0:0:
64,192,107922,1,2,0:3:0:0:
192,192,108074,1,2,0:3:0:0:
320,192,108225,1,2,0:3:0:0:
256,192,108225,128,2,109134:0:0:0:0:
192,192,108377,1,2,0:3:0:0:
64,192,108528,1,2,0:1:0:0:
192,192,108528,1,2,0:1:0:0:
320,192,108680,1,2,0:1:0:0:
109,192,108680,128,2,109134:0:0:0:0:
192,192,108756,1,2,0:0:0:0:
64,192,108831,1,2,0:0:0:0:
402,192,108831,128,2,109134:0:0:0:0:
448,192,108983,1,2,0:1:0:0:
320,192,108983,1,2,0:1:0:0:
36,192,109134,1,2,0:0:0:0:
182,192,109134,1,2,0:0:0:0:
329,192,109134,1,2,0:0:0:0:
475,192,109134,1,2,0:0:0:0:
64,192,109437,1,2,0:0:0:0:
192,192,109513,1,2,0:0:0:0:
320,192,109589,1,2,0:0:0:0:
64,192,109740,1,2,0:2:0:0:
192,192,109740,1,2,0:2:0:0:
192,192,109892,1,2,0:0:0:0:
320,192,109968,1,2,0:0:0:0:
448,192,110043,1,2,0:2:0:0:
256,192,110043,128,2,110952:0:0:0:0:
192,192,110195,1,2,0:2:0:0:
320,192,110195,1,2,0:2:0:0:
320,192,110498,1,2,0:1:0:0:
402,192,110498,128,2,110952:0:0:0:0:
192,192,110574,1,2,0:0:0:0:
64,192,110649,1,2,0:0:0:0:
109,192,110649,128,2,110952:0:0:0:0:
192,192,110725,1,2,0:0:0:0:
320,192,110801,1,2,0:1:0:0:
448,192,110952,1,2,0:1:0:0:
192,192,110952,1,2,0:1:0:0:
329,192,110952,1,2,0:0:0:0:
36,192,110952,1,2,0:0:0:0:
109,192,111256,128,2,111559:0:0:0:0:
448,192,111407,1,2,0:1:0:0:
320,192,111483,1,2,0:0:0:0:
192,192,111559,1,2,0:0:0:0:
256,192,111559,128,2,111862:0:0:0:0:
64,192,111634,1,2,0:0:0:0:
192,192,111710,1,2,0:0:0:0:
320,192,111786,1,2,0:0:0:0:
448,192,111862,1,2,0:0:0:0:
402,192,111862,128,2,112165:0:0:0:0:
320,192,111937,1,2,0:0:0:0:
192,192,112013,1,2,0:1:0:0:
448,192,112165,1,2,0:1:0:0:
320,192,112165,128,2,112771:0:0:0:0:
192,192,112165,1,2,0:1:0:0:
64,192,112165,1,2,0:1:0:0:
109,192,112468,128,2,113983:0:0:0:0:
64,192,112846,1,2,0:0:0:0:
192,192,112922,1,2,0:0:0:0:
320,192,112998,1,2,0:0:0:0:
448,192,113074,1,2,0:0:0:0:
256,192,113074,128,2,113983:0:0:0:0:
320,192,113149,1,2,0:0:0:0:
192,192,113225,1,2,0:0:0:0:
448,192,113377,1,2,0:1:0:0:
320,192,113377,1,2,0:1:0:0:
64,192,113377,1,2,0:1:0:0:
448,192,113528,1,2,0:0:0:0:
402,192,113528,128,2,113983:0:0:0:0:
320,192,113680,1,2,0:0:0:0:
192,192,113756,1,2,0:0:0:0:
320,192,113831,1,2,0:0:0:0:
64,192,113831,1,2,0:1:0:0:
36,192,113983,1,2,0:0:0:0:
182,192,113983,1,2,0:0:0:0:
329,192,113983,1,2,0:0:0:0:
475,192,114059,1,2,0:0:0:0:
320,192,114134,1,2,0:0:0:0:
192,192,114210,1,2,0:0:0:0:
64,192,114286,1,2,0:0:0:0:
109,192,114286,128,2,115195:0:0:0:0:
192,192,114362,1,2,0:0:0:0:
320,192,114437,1,2,0:0:0:0:
64,192,114589,1,2,0:2:0:0:
448,192,114589,1,2,0:2:0:0:
192,192,114589,1,2,0:2:0:0:
256,192,114589,128,2,115195:0:0:0:0:
448,192,114892,1,2,0:2:0:0:
402,192,114892,128,2,115195:0:0:0:0:
320,192,114968,5,2,0:0:0:0:
192,192,115043,1,2,0:0:0:0:
36,192,115195,1,2,0:0:0:0:
182,192,115195,1,2,0:0:0:0:
329,192,115195,1,2,0:0:0:0:
475,192,115195,1,2,0:0:0:0:
64,192,115271,1,2,0:0:0:0:
320,192,115346,1,2,0:0:0:0:
448,192,115498,1,2,0:0:0:0:
320,192,115498,1,2,0:0:0:0:
64,192,115498,1,2,0:0:0:0:
192,192,115574,1,2,0:0:0:0:
320,192,115649,1,2,0:1:0:0:
448,192,115801,1,2,0:0:0:0:
64,192,115801,1,2,0:0:0:0:
192,192,115801,1,2,0:0:0:0:
64,192,116104,1,2,0:0:0:0:
192,192,116180,1,2,0:0:0:0:
320,192,116256,1,2,0:0:0:0:
448,192,116407,1,2,0:0:0:0:
402,192,116407,128,2,117013:0:0:0:0:
320,192,116483,1,2,0:0:0:0:
192,192,116559,1,2,0:0:0:0:
64,192,116710,1,2,0:0:0:0:
192,192,116710,1,2,0:0:0:0:
192,192,116862,1,2,0:0:0:0:
320,192,116862,1,2,0:0:0:0:
64,192,117013,128,2,117619:0:0:0:0:
320,192,117013,1,2,0:0:0:0:
448,192,117013,1,2,0:0:0:0:
320,192,117316,1,2,0:0:0:0:
192,192,117619,1,2,0:0:0:0:
320,192,117922,1,2,0:0:0:0:
64,192,118225,1,2,0:0:0:0:
320,192,118225,1,2,0:0:0:0:
448,192,118225,1,2,0:0:0:0:
448,192,118528,1,2,0:0:0:0:
320,192,118604,1,2,0:0:0:0:
192,192,118680,1,2,0:0:0:0:
64,192,118831,1,2,0:0:0:0:
402,192,118831,128,2,119437:0:0:0:0:
192,192,118907,1,2,0:0:0:0:
320,192,118983,1,2,0:0:0:0:
448,192,119134,1,2,0:0:0:0:
320,192,119134,1,2,0:0:0:0:
320,192,119286,1,2,0:0:0:0:
448,192,119437,1,2,0:0:0:0:
192,192,119437,1,2,0:0:0:0:
64,192,119437,1,2,0:0:0:0:
64,192,119740,1,2,0:0:0:0:
192,192,119816,1,2,0:0:0:0:
320,192,119892,1,2,0:0:0:0:
448,192,119968,1,2,0:0:0:0:
320,192,120043,1,2,0:0:0:0:
402,192,120043,128,2,120649:0:0:0:0:
192,192,120119,1,2,0:0:0:0:
64,192,120195,1,2,0:0:0:0:
64,192,120346,1,2,0:0:0:0:
448,192,120346,1,2,0:0:0:0:
448,192,120649,1,2,0:0:0:0:
320,192,120649,1,2,0:0:0:0:
192,192,120649,1,2,0:0:0:0:
64,192,121104,1,2,0:0:0:0:
192,192,121180,1,2,0:0:0:0:
320,192,121256,1,2,0:0:0:0:
448,192,121331,1,2,0:0:0:0:
320,192,121407,1,2,0:0:0:0:
192,192,121483,1,2,0:0:0:0:
64,192,121559,1,2,0:0:0:0:
64,192,121862,128,2,122468:0:0:0:0:
192,192,122165,1,2,0:0:0:0:
320,192,122316,1,2,0:0:0:0:
448,192,122468,1,2,0:0:0:0:
64,192,122619,1,2,0:0:0:0:
192,192,122695,1,2,0:0:0:0:
320,192,122771,1,2,0:0:0:0:
448,192,122846,1,2,0:0:0:0:
320,192,122922,1,2,0:0:0:0:
192,192,122998,1,2,0:0:0:0:
64,192,123074,1,2,0:0:0:0:
448,192,123074,1,6,0:0:0:0:
402,192,123074,128,2,123680:0:0:0:0:
64,192,123377,1,2,0:0:0:0:
192,192,123452,1,2,0:0:0:0:
320,192,123528,1,2,0:0:0:0:
448,192,123604,1,2,0:0:0:0:
320,192,123680,1,2,0:0:0:0:
192,192,123756,1,2,0:0:0:0:
320,192,123831,1,2,0:0:0:0:
448,192,123907,1,2,0:0:0:0:
320,192,123983,1,2,0:0:0:0:
192,192,124134,1,2,0:0:0:0:
448,192,124286,1,2,0:0:0:0:
64,192,124286,1,2,0:0:0:0:
320,192,124286,1,2,0:0:0:0:
402,192,124286,128,2,124892:0:0:0:0:
320,192,124589,1,2,0:0:0:0:
192,192,124665,1,2,0:0:0:0:
64,192,124740,1,2,0:0:0:0:
192,192,124816,1,2,0:0:0:0:
320,192,124892,1,2,0:0:0:0:
448,192,124968,1,2,0:0:0:0:
320,192,125043,1,2,0:0:0:0:
192,192,125119,1,2,0:0:0:0:
64,192,125195,1,2,0:0:0:0:
192,192,125271,1,2,0:0:0:0:
320,192,125346,1,2,0:0:0:0:
64,192,125498,1,2,0:0:0:0:
448,192,125498,1,2,0:0:0:0:
192,192,125498,1,2,0:0:0:0:
402,192,125498,128,2,126104:0:0:0:0:
64,192,125801,1,2,0:0:0:0:
192,192,125877,1,2,0:0:0:0:
320,192,125952,1,2,0:0:0:0:
448,192,126104,1,2,0:0:0:0:
320,192,126256,1,2,0:0:0:0:
64,192,126407,1,2,0:0:0:0:
192,192,126407,1,2,0:0:0:0:
448,192,126710,1,2,0:0:0:0:
64,192,126710,1,2,0:0:0:0:
320,192,126710,1,2,0:0:0:0:
448,192,127013,1,2,0:0:0:0:
320,192,127089,1,2,0:0:0:0:
192,192,127165,1,2,0:0:0:0:
64,192,127316,1,2,0:0:0:0:
192,192,127468,1,2,0:0:0:0:
448,192,127619,1,2,0:0:0:0:
320,192,127619,1,2,0:0:0:0:
64,192,127922,1,2,0:0:0:0:
320,192,127922,1,2,0:0:0:0:
192,192,127922,1,2,0:0:0:0:
402,192,127922,128,2,128528:0:0:0:0:
64,192,128225,1,2,0:0:0:0:
192,192,128301,1,2,0:0:0:0:
320,192,128377,1,2,0:0:0:0:
448,192,128528,1,2,0:0:0:0:
320,192,128680,1,2,0:0:0:0:
192,192,128831,1,2,0:0:0:0:
64,192,128831,1,2,0:0:0:0:
448,192,129134,1,2,0:0:0:0:
192,192,129134,1,2,0:0:0:0:
320,192,129134,1,2,0:0:0:0:
402,192,129134,128,2,129740:0:0:0:0:
448,192,129437,1,2,0:0:0:0:
320,192,129513,1,2,0:0:0:0:
192,192,129589,1,2,0:0:0:0:
64,192,129740,1,2,0:0:0:0:
192,192,129892,1,2,0:0:0:0:
448,192,130043,1,2,0:0:0:0:
320,192,130043,1,2,0:0:0:0:
64,192,130346,1,2,0:0:0:0:
448,192,130346,1,2,0:0:0:0:
192,192,130346,1,2,0:0:0:0:
402,192,130346,128,2,130952:0:0:0:0:
320,192,130649,1,2,0:0:0:0:
64,192,130649,1,2,0:0:0:0:
192,192,130725,1,2,0:0:0:0:
320,192,130801,1,2,0:0:0:0:
448,192,130952,1,2,0:0:0:0:
192,192,130952,1,2,0:0:0:0:
64,192,131256,1,2,0:0:0:0:
192,192,131331,1,2,0:0:0:0:
448,192,131407,1,2,0:0:0:0:
320,192,131407,1,2,0:0:0:0:
448,192,131559,1,2,0:0:0:0:
64,192,131559,128,2,132771:0:0:0:0:
320,192,131862,1,2,0:0:0:0:
192,192,132165,1,2,0:0:0:0:
320,192,132240,1,2,0:0:0:0:
448,192,132316,1,2,0:0:0:0:
320,192,132392,1,2,0:0:0:0:
192,192,132468,1,2,0:0:0:0:
320,192,132543,1,2,0:0:0:0:
448,192,132619,1,2,0:0:0:0:
320,192,132695,1,2,0:0:0:0:
192,192,132771,1,6,0:0:0:0:
448,192,132771,1,2,0:0:0:0:
320,192,137922,5,2,0:0:0:0:
402,192,137922,128,2,138225:0:0:0:0:
192,192,138074,1,2,0:0:0:0:
320,192,138225,1,2,0:0:0:0:
64,192,138225,1,2,0:0:0:0:
320,192,138528,1,2,0:0:0:0:
192,192,138528,1,2,0:0:0:0:
448,192,138831,1,2,0:0:0:0:
64,192,138831,1,2,0:0:0:0:
448,192,139134,1,2,0:0:0:0:
192,192,139134,1,2,0:0:0:0:
64,192,139286,1,2,0:0:0:0:
320,192,139286,1,2,0:0:0:0:
192,192,139437,1,2,0:0:0:0:
448,192,139437,1,2,0:0:0:0:
192,192,139740,1,2,0:0:0:0:
320,192,139892,1,2,0:0:0:0:
448,192,140043,1,2,0:0:0:0:
192,192,140043,1,2,0:0:0:0:
320,192,140346,1,2,0:0:0:0:
192,192,140346,1,2,0:0:0:0:
448,192,140649,1,2,0:0:0:0:
64,192,140649,1,2,0:0:0:0:
320,192,140953,1,2,0:0:0:0:
64,192,140953,1,2,0:0:0:0:
448,192,141104,1,2,0:0:0:0:
192,192,141104,1,2,0:0:0:0:
320,192,141256,1,2,0:0:0:0:
64,192,141256,1,2,0:0:0:0:
320,192,141559,1,2,0:0:0:0:
192,192,141559,1,2,0:0:0:0:
402,192,141559,128,2,141862:0:0:0:0:
448,192,141862,1,2,0:0:0:0:
64,192,141862,1,2,0:0:0:0:
320,192,142165,1,2,0:0:0:0:
192,192,142316,1,2,0:0:0:0:
448,192,142468,1,2,0:0:0:0:
320,192,142468,1,2,0:0:0:0:
64,192,142771,128,2,143680:0:0:0:0:
192,192,143074,1,2,0:0:0:0:
320,192,143377,1,2,0:0:0:0:
448,192,143680,1,2,0:0:0:0:
192,192,143680,1,2,0:0:0:0:
320,192,143983,1,2,0:0:0:0:
192,192,144134,1,2,0:0:0:0:
320,192,144286,1,2,0:0:0:0:
64,192,144286,1,2,0:0:0:0:
320,192,144589,1,2,0:0:0:0:
192,192,144589,1,2,0:0:0:0:
448,192,144892,1,2,0:0:0:0:
64,192,144892,1,2,0:0:0:0:
448,192,145195,1,2,0:0:0:0:
192,192,145195,1,2,0:0:0:0:
64,192,145346,1,2,0:0:0:0:
320,192,145346,1,2,0:0:0:0:
192,192,145498,1,2,0:0:0:0:
448,192,145498,1,2,0:0:0:0:
320,192,145801,1,2,0:0:0:0:
64,192,145801,1,2,0:0:0:0:
448,192,145953,1,2,0:0:0:0:
192,192,145953,1,2,0:0:0:0:
320,192,146104,1,2,0:0:0:0:
64,192,146104,1,2,0:0:0:0:
192,192,146407,1,2,0:0:0:0:
320,192,146559,1,2,0:0:0:0:
448,192,146710,1,2,0:0:0:0:
192,192,146710,1,2,0:0:0:0:
320,192,147013,1,2,0:0:0:0:
64,192,147013,1,2,0:0:0:0:
448,192,147165,1,2,0:0:0:0:
192,192,147165,1,2,0:0:0:0:
320,192,147316,1,2,0:0:0:0:
64,192,147316,1,2,0:0:0:0:
320,192,147619,1,2,0:0:0:0:
192,192,147619,1,2,0:0:0:0:
448,192,147922,1,2,0:0:0:0:
64,192,147922,1,2,0:0:0:0:
320,192,148225,1,2,0:0:0:0:
192,192,148377,1,2,0:0:0:0:
448,192,148528,1,2,0:0:0:0:
320,192,148528,1,2,0:0:0:0:
192,192,148983,1,2,0:0:0:0:
320,192,149134,1,2,0:0:0:0:
320,192,149437,1,2,0:0:0:0:
64,192,149740,1,2,0:0:0:0:
448,192,149740,1,2,0:0:0:0:
192,192,149740,1,2,0:0:0:0:
448,192,150043,1,2,0:0:0:0:
192,192,150043,1,2,0:0:0:0:
64,192,150195,1,2,0:0:0:0:
320,192,150195,1,2,0:0:0:0:
192,192,150346,1,2,0:0:0:0:
448,192,150346,1,2,0:0:0:0:
320,192,150649,1,2,0:0:0:0:
64,192,150649,1,2,0:0:0:0:
448,192,150801,1,2,0:0:0:0:
192,192,150801,1,2,0:0:0:0:
320,192,150953,1,2,0:0:0:0:
64,192,150953,1,2,0:0:0:0:
192,192,151256,1,2,0:0:0:0:
320,192,151407,1,2,0:0:0:0:
448,192,151559,1,2,0:0:0:0:
192,192,151559,1,2,0:0:0:0:
320,192,151862,1,2,0:0:0:0:
64,192,151862,1,2,0:0:0:0:
448,192,152013,1,2,0:0:0:0:
192,192,152013,1,2,0:0:0:0:
320,192,152165,1,2,0:0:0:0:
64,192,152165,1,2,0:0:0:0:
320,192,152468,1,2,0:0:0:0:
192,192,152619,1,2,0:0:0:0:
320,192,152771,1,2,0:0:0:0:
64,192,152771,1,2,0:0:0:0:
320,192,153074,1,2,0:0:0:0:
192,192,153074,1,2,0:0:0:0:
448,192,153377,1,2,0:0:0:0:
64,192,153377,1,2,0:0:0:0:
448,192,153680,1,2,0:0:0:0:
192,192,153680,1,2,0:0:0:0:
64,192,153831,1,2,0:0:0:0:
320,192,153831,1,2,0:0:0:0:
192,192,153983,1,2,0:0:0:0:
448,192,153983,1,2,0:0:0:0:
192,192,154286,1,2,0:0:0:0:
320,192,154437,1,2,0:0:0:0:
448,192,154589,1,2,0:0:0:0:
192,192,154589,1,2,0:0:0:0:
320,192,154892,1,2,0:0:0:0:
192,192,155043,1,2,0:0:0:0:
64,192,155195,1,2,0:0:0:0:
320,192,155195,1,2,0:0:0:0:
192,192,155498,1,2,0:0:0:0:
320,192,155498,1,2,0:0:0:0:
64,192,155801,1,2,0:0:0:0:
448,192,155801,1,2,0:0:0:0:
448,192,156104,5,2,0:0:0:0:
192,192,156104,1,2,0:0:0:0:
320,192,156256,1,2,0:0:0:0:
64,192,156256,1,2,0:0:0:0:
448,192,156407,1,2,0:0:0:0:
192,192,156407,1,2,0:0:0:0:
320,192,156710,1,2,0:0:0:0:
192,192,156862,1,2,0:0:0:0:
64,192,157013,1,2,0:0:0:0:
320,192,157013,1,2,0:0:0:0:
192,192,157316,1,2,0:0:0:0:
320,192,157316,1,2,0:0:0:0:
64,192,157619,1,2,0:0:0:0:
448,192,157619,1,2,0:0:0:0:
192,192,157922,1,2,0:0:0:0:
448,192,157922,1,2,0:0:0:0:
320,192,158074,1,2,0:0:0:0:
64,192,158074,1,2,0:0:0:0:
448,192,158225,1,2,0:0:0:0:
192,192,158225,1,2,0:0:0:0:
192,192,158528,1,2,0:0:0:0:
320,192,158680,1,2,0:0:0:0:
192,192,158831,1,2,0:0:0:0:
448,192,158831,1,2,0:0:0:0:
192,192,159134,1,2,0:0:0:0:
320,192,159134,1,2,0:0:0:0:
64,192,159437,1,2,0:0:0:0:
448,192,159437,1,2,0:0:0:0:
64,192,159740,1,2,0:0:0:0:
320,192,159740,1,2,0:0:0:0:
192,192,159892,1,2,0:0:0:0:
448,192,159892,1,2,0:0:0:0:
64,192,160043,1,2,0:0:0:0:
320,192,160043,1,2,0:0:0:0:
192,192,160346,1,2,0:0:0:0:
320,192,160346,1,2,0:0:0:0:
64,192,160649,1,2,0:0:0:0:
448,192,160649,1,2,0:0:0:0:
320,192,160953,1,2,0:0:0:0:
192,192,161104,1,2,0:0:0:0:
320,192,161256,1,2,0:0:0:0:
448,192,161256,1,2,0:0:0:0:
64,192,161559,128,2,162468:0:0:0:0:
192,192,161862,1,2,0:0:0:0:
402,192,161862,128,2,163074:0:0:0:0:
320,192,162165,1,2,0:0:0:0:
192,192,162468,1,2,0:0:0:0:
448,192,162468,1,2,0:0:0:0:
320,192,162771,1,2,0:0:0:0:
192,192,162922,1,2,0:0:0:0:
64,192,163074,1,2,0:0:0:0:
320,192,163074,1,2,0:0:0:0:
192,192,163377,1,2,0:0:0:0:
320,192,163377,1,2,0:0:0:0:
64,192,163680,1,2,0:0:0:0:
448,192,163680,1,2,0:0:0:0:
192,192,163983,1,2,0:0:0:0:
448,192,163983,1,2,0:0:0:0:
320,192,164134,1,2,0:0:0:0:
64,192,164134,1,2,0:0:0:0:
448,192,164286,1,2,0:0:0:0:
192,192,164286,1,2,0:0:0:0:
256,192,164286,128,2,165498:0:0:0:0:
64,192,164589,1,2,0:0:0:0:
320,192,164589,1,2,0:0:0:0:
192,192,164740,1,2,0:0:0:0:
448,192,164740,1,2,0:0:0:0:
64,192,164892,1,2,0:0:0:0:
320,192,164892,1,2,0:0:0:0:
192,192,165195,1,2,0:0:0:0:
320,192,165346,1,2,0:0:0:0:
192,192,165498,1,2,0:0:0:0:
448,192,165498,1,2,0:0:0:0:
64,192,165801,1,2,0:0:0:0:
320,192,165801,1,2,0:0:0:0:
192,192,165952,1,2,0:0:0:0:
448,192,165952,1,2,0:0:0:0:
64,192,166104,1,2,0:0:0:0:
320,192,166104,1,2,0:0:0:0:
192,192,166407,1,2,0:0:0:0:
320,192,166407,1,2,0:0:0:0:
64,192,166710,1,2,0:0:0:0:
448,192,166710,1,2,0:0:0:0:
109,192,166710,128,2,167922:0:0:0:0:
320,192,167013,1,2,0:0:0:0:
192,192,167165,1,2,0:0:0:0:
320,192,167316,1,2,0:0:0:0:
448,192,167316,1,2,0:0:0:0:
192,192,167771,1,2,0:0:0:0:
320,192,167922,1,2,0:0:0:0:
320,192,168225,1,2,0:0:0:0:
192,192,168528,1,2,0:0:0:0:
448,192,168528,1,2,0:0:0:0:
64,192,168528,1,2,0:0:0:0:
192,192,168831,1,2,0:0:0:0:
448,192,168831,1,2,0:0:0:0:
320,192,168983,1,2,0:0:0:0:
64,192,168983,1,2,0:0:0:0:
448,192,169134,1,2,0:0:0:0:
192,192,169134,1,2,0:0:0:0:
402,192,169134,128,2,170346:0:0:0:0:
64,192,169437,1,2,0:0:0:0:
320,192,169437,1,2,0:0:0:0:
192,192,169589,1,2,0:0:0:0:
448,192,169589,1,2,0:0:0:0:
64,192,169740,1,2,0:0:0:0:
320,192,169740,1,2,0:0:0:0:
192,192,170043,1,2,0:0:0:0:
320,192,170195,1,2,0:0:0:0:
192,192,170346,1,2,0:0:0:0:
448,192,170346,1,2,0:0:0:0:
64,192,170649,1,2,0:0:0:0:
320,192,170649,1,2,0:0:0:0:
192,192,170801,1,2,0:0:0:0:
448,192,170801,1,2,0:0:0:0:
64,192,170952,1,2,0:0:0:0:
320,192,170952,1,2,0:0:0:0:
256,192,170953,128,2,172165:0:0:0:0:
320,192,171256,1,2,0:0:0:0:
192,192,171407,1,2,0:0:0:0:
64,192,171559,1,2,0:0:0:0:
320,192,171559,1,2,0:0:0:0:
192,192,171862,1,2,0:0:0:0:
320,192,171862,1,2,0:0:0:0:
64,192,172165,1,2,0:0:0:0:
448,192,172165,1,2,0:0:0:0:
192,192,172468,1,2,0:0:0:0:
448,192,172468,1,2,0:0:0:0:
320,192,172619,1,2,0:0:0:0:
64,192,172619,1,2,0:0:0:0:
448,192,172771,1,2,0:0:0:0:
192,192,172771,1,2,0:0:0:0:
109,192,172771,128,2,173983:0:0:0:0:
192,192,173074,1,2,0:0:0:0:
320,192,173225,1,2,0:0:0:0:
192,192,173377,1,2,0:0:0:0:
448,192,173377,1,2,0:0:0:0:
320,192,173680,1,2,0:0:0:0:
192,192,173831,1,2,0:0:0:0:
320,192,173983,1,2,0:0:0:0:
64,192,173983,1,2,0:0:0:0:
320,192,174286,1,2,0:0:0:0:
192,192,174286,1,2,0:0:0:0:
448,192,174589,1,2,0:0:0:0:
64,192,174589,1,2,0:0:0:0:
448,192,174892,5,2,0:0:0:0:
192,192,174892,1,2,0:0:0:0:
64,192,175043,1,2,0:0:0:0:
320,192,175043,1,2,0:0:0:0:
192,192,175195,1,2,0:0:0:0:
448,192,175195,1,2,0:0:0:0:
256,192,175271,128,2,176407:0:0:0:0:
329,192,175498,128,2,176407:0:0:0:0:
402,192,175801,128,2,176407:0:0:0:0:
36,192,175953,128,2,176407:0:0:0:0:
192,192,176407,5,2,0:0:0:0:
448,192,176407,1,2,0:0:0:0:
109,192,176407,128,2,176937:0:0:0:0:
320,192,176559,1,2,0:0:0:0:
448,192,176710,1,2,0:0:0:0:
320,192,176786,1,2,0:0:0:0:
192,192,176862,1,2,0:0:0:0:
320,192,176937,1,2,0:0:0:0:
320,192,177316,1,2,0:0:0:0:
64,192,177316,1,2,0:0:0:0:
475,192,177316,128,2,178149:0:0:0:0:
192,192,177468,1,2,0:0:0:0:
64,192,177619,1,2,0:0:0:0:
320,192,177619,1,2,0:0:0:0:
402,192,177619,128,2,178149:0:0:0:0:
192,192,177771,1,2,0:0:0:0:
64,192,177922,1,2,0:0:0:0:
192,192,177998,1,2,0:0:0:0:
64,192,178074,1,2,0:0:0:0:
320,192,178074,1,2,0:0:0:0:
192,192,178149,1,2,0:0:0:0:
192,192,178528,1,2,0:0:0:0:
256,192,178528,128,2,179362:0:0:0:0:
320,192,178680,1,2,0:0:0:0:
448,192,178831,1,2,0:0:0:0:
192,192,178831,1,2,0:0:0:0:
402,192,178831,128,2,179362:0:0:0:0:
320,192,178983,1,2,0:0:0:0:
320,192,179134,1,2,0:0:0:0:
192,192,179210,1,2,0:0:0:0:
64,192,179286,1,2,0:0:0:0:
320,192,179286,1,2,0:0:0:0:
192,192,179362,1,2,0:0:0:0:
320,192,179589,1,10,0:0:0:0:
402,192,179589,128,2,180043:0:0:0:0:
109,192,179589,128,2,180043:0:0:0:0:
192,192,179740,1,10,0:0:0:0:
475,192,179740,128,2,180043:0:0:0:0:
256,192,179892,128,2,180043:0:0:0:0:
320,192,180043,1,6,0:0:0:0:
64,192,180043,1,6,0:0:0:0:
64,192,180649,1,10,0:0:0:0:
192,192,180725,1,10,0:0:0:0:
320,192,180801,1,10,0:0:0:0:
448,192,180877,1,10,0:0:0:0:
320,192,180952,1,10,0:0:0:0:
256,192,180952,128,2,181786:0:0:0:0:
192,192,181028,1,10,0:0:0:0:
64,192,181104,1,10,0:0:0:0:
448,192,181256,1,6,0:0:0:0:
192,192,181256,1,6,0:0:0:0:
109,192,181256,128,2,181786:0:0:0:0:
320,192,181407,1,2,0:0:0:0:
448,192,181559,1,2,0:0:0:0:
320,192,181634,1,2,0:0:0:0:
448,192,181710,1,2,0:0:0:0:
192,192,181710,1,2,0:0:0:0:
320,192,181786,1,2,0:0:0:0:
320,192,182165,1,2,0:0:0:0:
64,192,182165,1,2,0:0:0:0:
256,192,182165,128,2,182998:0:0:0:0:
192,192,182316,1,2,0:0:0:0:
64,192,182468,1,2,0:0:0:0:
320,192,182468,1,2,0:0:0:0:
402,192,182468,128,2,182998:0:0:0:0:
192,192,182619,1,2,0:0:0:0:
64,192,182771,1,2,0:0:0:0:
192,192,182846,1,2,0:0:0:0:
64,192,182922,1,2,0:0:0:0:
320,192,182922,1,2,0:0:0:0:
192,192,182998,1,2,0:0:0:0:
192,192,183377,1,2,0:0:0:0:
402,192,183377,128,2,184210:0:0:0:0:
320,192,183528,1,2,0:0:0:0:
448,192,183680,1,2,0:0:0:0:
192,192,183680,1,2,0:0:0:0:
256,192,183680,128,2,184210:0:0:0:0:
320,192,183831,1,2,0:0:0:0:
320,192,183983,1,2,0:0:0:0:
192,192,184059,1,2,0:0:0:0:
64,192,184134,1,2,0:0:0:0:
320,192,184134,1,2,0:0:0:0:
192,192,184210,1,2,0:0:0:0:
448,192,184437,1,2,0:0:0:0:
320,192,184513,1,2,0:0:0:0:
448,192,184589,1,2,0:0:0:0:
192,192,184589,1,10,0:0:0:0:
64,192,184892,1,6,0:1:0:0:
192,192,184892,128,2,186104:0:1:0:0:
320,192,185043,1,2,0:0:0:0:
256,192,185043,128,2,185649:0:0:0:0:
109,192,185043,128,2,186104:0:0:0:0:
448,192,185195,128,2,186104:0:0:0:0:
320,192,185346,1,2,0:0:0:0:
64,192,185498,1,2,0:0:0:0:
320,192,185649,1,2,0:0:0:0:
402,192,185649,128,2,186104:0:0:0:0:
320,192,185952,1,2,0:0:0:0:
64,192,186104,1,2,0:1:0:0:
256,192,186104,1,2,0:0:0:0:
329,192,186104,1,2,0:0:0:0:
192,192,186256,1,2,0:1:0:0:
320,192,186331,1,2,0:0:0:0:
192,192,186407,1,2,0:0:0:0:
64,192,186559,1,2,0:1:0:0:
320,192,186559,1,2,0:0:0:0:
64,192,186862,1,2,0:0:0:0:
256,192,186862,128,2,187922:0:0:0:0:
192,192,186937,1,2,0:0:0:0:
64,192,187013,1,2,0:0:0:0:
320,192,187013,1,2,0:1:0:0:
192,192,187316,1,2,0:2:0:0:
448,192,187316,1,2,0:2:0:0:
109,192,187316,128,2,187922:0:0:0:0:
320,192,187468,1,2,0:0:0:0:
448,192,187543,1,2,0:0:0:0:
320,192,187619,1,2,0:2:0:0:
402,192,187619,128,2,187922:0:0:0:0:
64,192,187771,1,2,0:2:0:0:
192,192,187771,1,2,0:2:0:0:
36,192,187922,1,2,0:0:0:0:
182,192,187922,1,2,0:0:0:0:
329,192,187922,1,2,0:0:0:0:
475,192,187922,1,2,0:0:0:0:
64,192,188074,1,2,0:0:0:0:
192,192,188225,1,2,0:1:0:0:
256,192,188225,128,2,189134:0:0:0:0:
320,192,188377,1,2,0:1:0:0:
448,192,188528,1,2,0:1:0:0:
192,192,188528,1,2,0:1:0:0:
320,192,188680,1,2,0:1:0:0:
402,192,188680,128,2,189134:0:0:0:0:
192,192,188756,1,2,0:0:0:0:
64,192,188831,1,2,0:1:0:0:
109,192,188831,128,2,189134:0:0:0:0:
192,192,188907,1,2,0:0:0:0:
320,192,188983,1,2,0:1:0:0:
36,192,189134,1,2,0:0:0:0:
182,192,189134,1,2,0:0:0:0:
329,192,189134,1,2,0:0:0:0:
475,192,189134,1,2,0:0:0:0:
192,192,189286,1,2,0:1:0:0:
256,192,189437,128,2,190043:0:0:0:0:
448,192,189589,1,2,0:0:0:0:
320,192,189665,1,2,0:0:0:0:
448,192,189740,1,2,0:0:0:0:
192,192,189740,1,2,0:2:0:0:
402,192,189740,128,2,190346:0:0:0:0:
109,192,189892,128,2,190346:0:0:0:0:
64,192,190346,1,2,0:3:0:0:
192,192,190498,1,2,0:3:0:0:
320,192,190649,1,2,0:3:0:0:
256,192,190649,128,2,191559:0:0:0:0:
192,192,190801,1,2,0:3:0:0:
64,192,190952,1,2,0:1:0:0:
192,192,190952,1,2,0:1:0:0:
320,192,191104,1,2,0:1:0:0:
109,192,191104,128,2,191559:0:0:0:0:
192,192,191180,1,2,0:0:0:0:
64,192,191256,1,2,0:0:0:0:
402,192,191256,128,2,191559:0:0:0:0:
448,192,191407,1,2,0:1:0:0:
320,192,191407,1,2,0:1:0:0:
36,192,191559,1,2,0:0:0:0:
182,192,191559,1,2,0:0:0:0:
329,192,191559,1,2,0:0:0:0:
475,192,191559,1,2,0:0:0:0:
448,192,191710,1,2,0:0:0:0:
320,192,191786,1,2,0:0:0:0:
448,192,191862,1,2,0:0:0:0:
192,192,191862,1,10,0:0:0:0:
64,192,192165,1,6,0:1:0:0:
192,192,192165,128,2,193377:0:1:0:0:
320,192,192316,1,2,0:0:0:0:
256,192,192316,128,2,192922:0:0:0:0:
109,192,192316,128,2,193377:0:0:0:0:
448,192,192468,128,2,193377:0:0:0:0:
320,192,192619,1,2,0:0:0:0:
64,192,192771,1,2,0:0:0:0:
320,192,192922,1,2,0:0:0:0:
402,192,192922,128,2,193377:0:0:0:0:
320,192,193225,1,2,0:0:0:0:
64,192,193377,1,2,0:1:0:0:
256,192,193377,1,2,0:0:0:0:
329,192,193377,1,2,0:0:0:0:
192,192,193528,1,2,0:1:0:0:
320,192,193604,1,2,0:0:0:0:
192,192,193680,1,2,0:0:0:0:
64,192,193831,1,2,0:1:0:0:
320,192,193831,1,2,0:0:0:0:
64,192,194134,1,2,0:0:0:0:
256,192,194134,128,2,195195:0:0:0:0:
192,192,194210,1,2,0:0:0:0:
64,192,194286,1,2,0:0:0:0:
320,192,194286,1,2,0:1:0:0:
192,192,194589,1,2,0:2:0:0:
448,192,194589,1,2,0:2:0:0:
109,192,194589,128,2,195195:0:0:0:0:
320,192,194740,1,2,0:0:0:0:
448,192,194816,1,2,0:0:0:0:
64,192,194892,1,2,0:1:0:0:
320,192,194892,1,2,0:2:0:0:
402,192,195043,128,2,195801:0:0:0:0:
64,192,195043,1,2,0:2:0:0:
192,192,195043,1,2,0:2:0:0:
320,192,195195,1,2,0:0:0:0:
36,192,195195,1,2,0:0:0:0:
182,192,195195,1,2,0:0:0:0:
475,192,195195,1,2,0:0:0:0:
320,192,195498,1,2,0:0:0:0:
192,192,195498,1,2,0:1:0:0:
256,192,195498,128,2,195801:0:0:0:0:
320,192,195801,1,6,0:0:0:0:
192,192,195801,1,6,0:0:0:0:
64,192,195801,128,6,197013:0:0:0:0:
320,192,196256,5,2,0:0:0:0:
448,192,196407,1,2,0:0:0:0:
192,192,196407,1,2,0:0:0:0:
109,192,196407,128,2,197013:0:0:0:0:
320,192,196483,1,2,0:0:0:0:
448,192,196559,1,2,0:0:0:0:
320,192,196634,1,2,0:0:0:0:
192,192,196710,1,2,0:0:0:0:
320,192,196786,1,2,0:0:0:0:
448,192,196862,1,2,0:0:0:0:
320,192,196937,1,2,0:0:0:0:
192,192,197013,5,2,0:0:0:0:
448,192,197013,1,2,0:0:0:0:
109,192,197164,128,2,197619:0:0:0:0:
182,192,197164,1,2,0:0:0:0:
329,192,197240,1,2,0:0:0:0:
320,192,197391,1,2,0:0:0:0:
448,192,197467,1,2,0:0:0:0:
320,192,197543,1,2,0:0:0:0:
475,192,197922,128,2,198755:0:0:0:0:
64,192,197922,1,2,0:0:0:0:
320,192,197922,1,2,0:0:0:0:
192,192,198073,1,2,0:0:0:0:
402,192,198225,128,2,198755:0:0:0:0:
320,192,198225,1,2,0:0:0:0:
64,192,198225,1,2,0:0:0:0:
192,192,198376,1,2,0:0:0:0:
64,192,198528,1,2,0:0:0:0:
192,192,198603,1,2,0:0:0:0:
320,192,198679,1,2,0:0:0:0:
64,192,198679,1,2,0:0:0:0:
192,192,198755,1,2,0:0:0:0:
256,192,199134,128,2,199967:0:0:0:0:
192,192,199134,1,2,0:0:0:0:
320,192,199285,1,2,0:0:0:0:
402,192,199437,128,2,199967:0:0:0:0:
192,192,199437,1,2,0:0:0:0:
448,192,199437,1,2,0:0:0:0:
320,192,199588,1,2,0:0:0:0:
320,192,199740,1,2,0:0:0:0:
192,192,199816,1,2,0:0:0:0:
320,192,199891,1,2,0:0:0:0:
64,192,199891,1,2,0:0:0:0:
192,192,199967,1,2,0:0:0:0:
109,192,200194,128,2,200649:0:0:0:0:
402,192,200194,128,2,200649:0:0:0:0:
320,192,200194,1,10,0:0:0:0:
475,192,200346,128,2,200649:0:0:0:0:
192,192,200346,1,10,0:0:0:0:
256,192,200497,128,2,200649:0:0:0:0:
64,192,200649,1,6,0:0:0:0:
320,192,200649,1,6,0:0:0:0:
64,192,201255,1,10,0:0:0:0:
192,192,201331,1,10,0:0:0:0:
320,192,201406,1,10,0:0:0:0:
448,192,201482,1,10,0:0:0:0:
256,192,201558,128,2,202391:0:0:0:0:
320,192,201558,1,10,0:0:0:0:
192,192,201634,1,10,0:0:0:0:
64,192,201709,1,10,0:0:0:0:
109,192,201861,128,2,202391:0:0:0:0:
192,192,201861,1,6,0:0:0:0:
448,192,201861,1,6,0:0:0:0:
320,192,202013,1,2,0:0:0:0:
448,192,202164,1,2,0:0:0:0:
320,192,202240,1,2,0:0:0:0:
192,192,202316,1,2,0:0:0:0:
448,192,202316,1,2,0:0:0:0:
320,192,202391,1,2,0:0:0:0:
256,192,202770,128,2,203603:0:0:0:0:
64,192,202770,1,2,0:0:0:0:
320,192,202770,1,2,0:0:0:0:
192,192,202922,1,2,0:0:0:0:
402,192,203073,128,2,203603:0:0:0:0:
320,192,203073,1,2,0:0:0:0:
64,192,203073,1,2,0:0:0:0:
192,192,203225,1,2,0:0:0:0:
64,192,203376,1,2,0:0:0:0:
192,192,203452,1,2,0:0:0:0:
320,192,203528,1,2,0:0:0:0:
64,192,203528,1,2,0:0:0:0:
192,192,203603,1,2,0:0:0:0:
402,192,203982,128,2,204816:0:0:0:0:
192,192,203982,1,2,0:0:0:0:
320,192,204134,1,2,0:0:0:0:
256,192,204285,128,2,204816:0:0:0:0:
192,192,204285,1,2,0:0:0:0:
448,192,204285,1,2,0:0:0:0:
320,192,204437,1,2,0:0:0:0:
320,192,204588,1,2,0:0:0:0:
192,192,204664,1,2,0:0:0:0:
320,192,204740,1,2,0:0:0:0:
64,192,204740,1,2,0:0:0:0:
192,192,204816,1,2,0:0:0:0:
448,192,205043,1,2,0:0:0:0:
320,192,205119,1,2,0:0:0:0:
192,192,205194,1,10,0:0:0:0:
448,192,205194,1,2,0:0:0:0:
192,192,205497,128,2,206709:0:1:0:0:
64,192,205497,1,6,0:1:0:0:
109,192,205649,128,2,206709:0:0:0:0:
256,192,205649,128,2,206255:0:0:0:0:
320,192,205649,1,2,0:0:0:0:
448,192,205800,128,2,206709:0:0:0:0:
320,192,205952,1,2,0:0:0:0:
64,192,206103,1,2,0:0:0:0:
402,192,206255,128,2,206709:0:0:0:0:
320,192,206255,1,2,0:0:0:0:
320,192,206558,1,2,0:0:0:0:
329,192,206709,1,2,0:0:0:0:
256,192,206709,1,2,0:0:0:0:
64,192,206709,1,2,0:1:0:0:
192,192,206861,1,2,0:1:0:0:
320,192,206937,1,2,0:0:0:0:
192,192,207013,1,2,0:0:0:0:
320,192,207164,1,2,0:0:0:0:
64,192,207164,1,2,0:1:0:0:
256,192,207467,128,2,208528:0:0:0:0:
64,192,207467,1,2,0:0:0:0:
192,192,207543,1,2,0:0:0:0:
320,192,207619,1,2,0:1:0:0:
64,192,207619,1,2,0:0:0:0:
109,192,207922,128,2,208528:0:0:0:0:
448,192,207922,1,2,0:2:0:0:
192,192,207922,1,2,0:2:0:0:
320,192,208073,1,2,0:0:0:0:
448,192,208149,1,2,0:0:0:0:
402,192,208225,128,2,208528:0:0:0:0:
320,192,208225,1,2,0:2:0:0:
192,192,208376,1,2,0:2:0:0:
64,192,208376,1,2,0:2:0:0:
329,192,208528,1,2,0:0:0:0:
475,192,208528,1,2,0:0:0:0:
36,192,208528,1,2,0:0:0:0:
182,192,208528,1,2,0:0:0:0:
64,192,208679,1,2,0:0:0:0:
256,192,208831,128,2,209740:0:0:0:0:
192,192,208831,1,2,0:1:0:0:
320,192,208982,1,2,0:1:0:0:
192,192,209134,1,2,0:1:0:0:
448,192,209134,1,2,0:1:0:0:
402,192,209285,128,2,209740:0:0:0:0:
320,192,209285,1,2,0:1:0:0:
192,192,209361,1,2,0:0:0:0:
109,192,209437,128,2,209740:0:0:0:0:
64,192,209437,1,2,0:1:0:0:
192,192,209513,1,2,0:0:0:0:
320,192,209588,1,2,0:1:0:0:
329,192,209740,1,2,0:0:0:0:
475,192,209740,1,2,0:0:0:0:
36,192,209740,1,2,0:0:0:0:
182,192,209740,1,2,0:0:0:0:
192,192,209891,1,2,0:1:0:0:
256,192,210043,128,2,210649:0:0:0:0:
448,192,210194,1,2,0:0:0:0:
320,192,210270,1,2,0:0:0:0:
402,192,210346,128,2,210952:0:0:0:0:
192,192,210346,1,2,0:2:0:0:
448,192,210346,1,2,0:0:0:0:
109,192,210497,128,2,210952:0:0:0:0:
64,192,210952,1,2,0:3:0:0:
192,192,211103,1,2,0:3:0:0:
256,192,211255,128,2,212164:0:0:0:0:
320,192,211255,1,2,0:3:0:0:
192,192,211406,1,2,0:3:0:0:
192,192,211558,1,2,0:1:0:0:
64,192,211558,1,2,0:1:0:0:
109,192,211709,128,2,212164:0:0:0:0:
320,192,211709,1,2,0:1:0:0:
192,192,211785,1,2,0:0:0:0:
402,192,211861,128,2,212164:0:0:0:0:
64,192,211861,1,2,0:0:0:0:
320,192,212013,1,2,0:1:0:0:
448,192,212013,1,2,0:1:0:0:
329,192,212164,1,2,0:0:0:0:
475,192,212164,1,2,0:0:0:0:
36,192,212164,1,2,0:0:0:0:
182,192,212164,1,2,0:0:0:0:
64,192,212467,1,2,0:0:0:0:
192,192,212543,1,2,0:0:0:0:
320,192,212619,1,2,0:0:0:0:
192,192,212770,1,2,0:2:0:0:
64,192,212770,1,2,0:2:0:0:
192,192,212922,1,2,0:0:0:0:
320,192,212997,1,2,0:0:0:0:
256,192,213073,128,2,213982:0:0:0:0:
448,192,213073,1,2,0:2:0:0:
320,192,213225,1,2,0:2:0:0:
192,192,213225,1,2,0:2:0:0:
402,192,213528,128,2,213982:0:0:0:0:
320,192,213528,1,2,0:1:0:0:
192,192,213603,1,2,0:0:0:0:
109,192,213679,128,2,213982:0:0:0:0:
64,192,213679,1,2,0:0:0:0:
192,192,213755,1,2,0:0:0:0:
320,192,213831,1,2,0:1:0:0:
329,192,213982,1,2,0:0:0:0:
36,192,213982,1,2,0:0:0:0:
448,192,213982,1,2,0:1:0:0:
192,192,213982,1,2,0:1:0:0:
109,192,214285,128,2,214588:0:0:0:0:
448,192,214437,1,2,0:1:0:0:
320,192,214513,1,2,0:0:0:0:
256,192,214588,128,2,214891:0:0:0:0:
192,192,214588,1,2,0:0:0:0:
64,192,214664,1,2,0:0:0:0:
192,192,214740,1,2,0:0:0:0:
320,192,214816,1,2,0:0:0:0:
402,192,214891,128,2,215194:0:0:0:0:
448,192,214891,1,2,0:0:0:0:
320,192,214967,1,2,0:0:0:0:
192,192,215043,1,2,0:1:0:0:
192,192,215194,1,2,0:1:0:0:
64,192,215194,1,2,0:1:0:0:
448,192,215194,1,2,0:1:0:0:
320,192,215194,128,2,215800:0:0:0:0:
109,192,215497,128,2,217013:0:0:0:0:
64,192,215876,1,2,0:0:0:0:
192,192,215952,1,2,0:0:0:0:
320,192,216028,1,2,0:0:0:0:
256,192,216103,128,2,217013:0:0:0:0:
448,192,216103,1,2,0:0:0:0:
320,192,216179,1,2,0:0:0:0:
192,192,216255,1,2,0:0:0:0:
64,192,216406,1,2,0:1:0:0:
320,192,216406,1,2,0:1:0:0:
448,192,216406,1,2,0:1:0:0:
402,192,216558,128,2,217013:0:0:0:0:
448,192,216558,1,2,0:0:0:0:
320,192,216709,1,2,0:0:0:0:
192,192,216785,1,2,0:0:0:0:
64,192,216861,1,2,0:1:0:0:
320,192,216861,1,2,0:0:0:0:
329,192,217013,1,2,0:0:0:0:
182,192,217013,1,2,0:0:0:0:
36,192,217013,1,2,0:0:0:0:
475,192,217088,1,2,0:0:0:0:
320,192,217164,1,2,0:0:0:0:
192,192,217240,1,2,0:0:0:0:
109,192,217316,128,2,218225:0:0:0:0:
64,192,217316,1,2,0:0:0:0:
192,192,217391,1,2,0:0:0:0:
320,192,217467,1,2,0:0:0:0:
192,192,217619,1,2,0:2:0:0:
256,192,217619,128,2,218225:0:0:0:0:
64,192,217619,1,2,0:2:0:0:
448,192,217619,1,2,0:2:0:0:
402,192,217922,128,2,218225:0:0:0:0:
448,192,217922,1,2,0:2:0:0:
320,192,217997,5,2,0:0:0:0:
192,192,218073,1,2,0:0:0:0:
329,192,218225,1,2,0:0:0:0:
475,192,218225,1,2,0:0:0:0:
182,192,218225,1,2,0:0:0:0:
64,192,218225,1,2,0:0:0:0:
36,192,218300,1,2,0:0:0:0:
320,192,218376,1,2,0:0:0:0:
64,192,218528,1,2,0:0:0:0:
320,192,218528,1,2,0:0:0:0:
448,192,218528,1,2,0:0:0:0:
192,192,218603,1,2,0:0:0:0:
320,192,218679,1,2,0:1:0:0:
192,192,218831,1,2,0:0:0:0:
64,192,218831,1,2,0:0:0:0:
448,192,218831,1,2,0:0:0:0:
64,192,219134,1,2,0:0:0:0:
192,192,219209,1,2,0:0:0:0:
320,192,219285,1,2,0:0:0:0:
402,192,219437,128,2,220043:0:0:0:0:
448,192,219437,1,2,0:0:0:0:
320,192,219513,1,2,0:0:0:0:
192,192,219588,1,2,0:0:0:0:
192,192,219740,1,2,0:0:0:0:
64,192,219740,1,2,0:0:0:0:
320,192,219891,1,2,0:0:0:0:
192,192,219891,1,2,0:0:0:0:
448,192,220043,1,2,0:0:0:0:
320,192,220043,1,2,0:0:0:0:
64,192,220043,128,2,220649:0:0:0:0:
320,192,220346,1,2,0:0:0:0:
192,192,220649,1,2,0:0:0:0:
320,192,220952,1,2,0:0:0:0:
448,192,221255,1,2,0:0:0:0:
320,192,221255,1,2,0:0:0:0:
64,192,221255,1,2,0:0:0:0:
448,192,221558,1,2,0:0:0:0:
320,192,221634,1,2,0:0:0:0:
192,192,221709,1,2,0:0:0:0:
402,192,221861,128,2,222467:0:0:0:0:
64,192,221861,1,2,0:0:0:0:
192,192,221937,1,2,0:0:0:0:
320,192,222013,1,2,0:0:0:0:
320,192,222164,1,2,0:0:0:0:
448,192,222164,1,2,0:0:0:0:
320,192,222316,1,2,0:0:0:0:
64,192,222467,1,2,0:0:0:0:
192,192,222467,1,2,0:0:0:0:
448,192,222467,1,2,0:0:0:0:
64,192,222770,1,2,0:0:0:0:
192,192,222846,1,2,0:0:0:0:
320,192,222922,1,2,0:0:0:0:
448,192,222997,1,2,0:0:0:0:
402,192,223073,128,2,223679:0:0:0:0:
320,192,223073,1,2,0:0:0:0:
192,192,223149,1,2,0:0:0:0:
64,192,223225,1,2,0:0:0:0:
448,192,223376,1,2,0:0:0:0:
64,192,223376,1,2,0:0:0:0:
192,192,223679,1,2,0:0:0:0:
320,192,223679,1,2,0:0:0:0:
448,192,223679,1,2,0:0:0:0:
64,192,224134,1,2,0:0:0:0:
192,192,224209,1,2,0:0:0:0:
320,192,224285,1,2,0:0:0:0:
448,192,224361,1,2,0:0:0:0:
320,192,224437,1,2,0:0:0:0:
192,192,224513,1,2,0:0:0:0:
64,192,224588,1,2,0:0:0:0:
64,192,224891,128,2,225497:0:0:0:0:
192,192,225194,1,2,0:0:0:0:
320,192,225346,1,2,0:0:0:0:
448,192,225497,1,2,0:0:0:0:
64,192,225649,1,2,0:0:0:0:
192,192,225725,1,2,0:0:0:0:
320,192,225800,1,2,0:0:0:0:
448,192,225876,1,2,0:0:0:0:
320,192,225952,1,2,0:0:0:0:
192,192,226028,1,2,0:0:0:0:
402,192,226103,128,2,226709:0:0:0:0:
448,192,226103,1,6,0:0:0:0:
64,192,226103,1,2,0:0:0:0:
64,192,226406,1,2,0:0:0:0:
192,192,226482,1,2,0:0:0:0:
320,192,226558,1,2,0:0:0:0:
448,192,226634,1,2,0:0:0:0:
320,192,226709,1,2,0:0:0:0:
192,192,226785,1,2,0:0:0:0:
320,192,226861,1,2,0:0:0:0:
448,192,226937,1,2,0:0:0:0:
320,192,227013,1,2,0:0:0:0:
192,192,227164,1,2,0:0:0:0:
320,192,227316,1,2,0:0:0:0:
402,192,227316,128,2,227922:0:0:0:0:
448,192,227316,1,2,0:0:0:0:
64,192,227316,1,2,0:0:0:0:
320,192,227619,1,2,0:0:0:0:
192,192,227694,1,2,0:0:0:0:
64,192,227770,1,2,0:0:0:0:
192,192,227846,1,2,0:0:0:0:
320,192,227922,1,2,0:0:0:0:
448,192,227997,1,2,0:0:0:0:
320,192,228073,1,2,0:0:0:0:
192,192,228149,1,2,0:0:0:0:
64,192,228225,1,2,0:0:0:0:
192,192,228300,1,2,0:0:0:0:
320,192,228376,1,2,0:0:0:0:
192,192,228528,1,2,0:0:0:0:
402,192,228528,128,2,229134:0:0:0:0:
64,192,228528,1,2,0:0:0:0:
448,192,228528,1,2,0:0:0:0:
64,192,228831,1,2,0:0:0:0:
192,192,228906,1,2,0:0:0:0:
320,192,228982,1,2,0:0:0:0:
448,192,229134,1,2,0:0:0:0:
320,192,229285,1,2,0:0:0:0:
192,192,229437,1,2,0:0:0:0:
64,192,229437,1,2,0:0:0:0:
320,192,229740,1,2,0:0:0:0:
64,192,229740,1,2,0:0:0:0:
448,192,229740,1,2,0:0:0:0:
448,192,230043,1,2,0:0:0:0:
320,192,230119,1,2,0:0:0:0:
192,192,230194,1,2,0:0:0:0:
64,192,230346,1,2,0:0:0:0:
192,192,230497,1,2,0:0:0:0:
320,192,230649,1,2,0:0:0:0:
448,192,230649,1,2,0:0:0:0:
192,192,230952,1,2,0:0:0:0:
402,192,230952,128,2,231558:0:0:0:0:
64,192,230952,1,2,0:0:0:0:
320,192,230952,1,2,0:0:0:0:
64,192,231255,1,2,0:0:0:0:
192,192,231331,1,2,0:0:0:0:
320,192,231406,1,2,0:0:0:0:
448,192,231558,1,2,0:0:0:0:
320,192,231709,1,2,0:0:0:0:
64,192,231861,1,2,0:0:0:0:
192,192,231861,1,2,0:0:0:0:
320,192,232164,1,2,0:0:0:0:
402,192,232164,128,2,232770:0:0:0:0:
448,192,232164,1,2,0:0:0:0:
192,192,232164,1,2,0:0:0:0:
448,192,232467,1,2,0:0:0:0:
320,192,232543,1,2,0:0:0:0:
192,192,232619,1,2,0:0:0:0:
64,192,232770,1,2,0:0:0:0:
192,192,232922,1,2,0:0:0:0:
320,192,233073,1,2,0:0:0:0:
448,192,233073,1,2,0:0:0:0:
192,192,233376,1,2,0:0:0:0:
402,192,233376,128,2,233982:0:0:0:0:
64,192,233376,1,2,0:0:0:0:
448,192,233376,1,2,0:0:0:0:
64,192,233679,1,2,0:0:0:0:
320,192,233679,1,2,0:0:0:0:
192,192,233755,1,2,0:0:0:0:
320,192,233831,1,2,0:0:0:0:
192,192,233982,1,2,0:0:0:0:
448,192,233982,1,2,0:0:0:0:
64,192,234285,1,2,0:0:0:0:
192,192,234361,1,2,0:0:0:0:
320,192,234437,1,2,0:0:0:0:
448,192,234437,1,2,0:0:0:0:
64,192,234588,128,2,235800:0:0:0:0:
448,192,234588,1,2,0:0:0:0:
320,192,234891,1,2,0:0:0:0:
192,192,235194,5,2,0:0:0:0:
320,192,235270,1,2,0:0:0:0:
448,192,235346,1,2,0:0:0:0:
320,192,235422,1,2,0:0:0:0:
192,192,235497,1,2,0:0:0:0:
320,192,235573,1,2,0:0:0:0:
448,192,235649,1,2,0:0:0:0:
320,192,235725,1,2,0:0:0:0:
448,192,235800,1,2,0:0:0:0:
192,192,235800,1,6,0:0:0:0:
448,192,236103,5,2,0:0:0:0:
320,192,236179,1,2,0:0:0:0:
192,192,236255,1,2,0:0:0:0:
64,192,236406,1,2,0:0:0:0:
192,192,236482,1,2,0:0:0:0:
320,192,236558,1,2,0:0:0:0:
448,192,236709,1,2,0:0:0:0:
320,192,236709,1,2,0:0:0:0:
320,192,236861,1,2,0:0:0:0:
448,192,237013,1,2,0:0:0:0:
192,192,237013,1,2,0:0:0:0:
64,192,237013,1,2,0:0:0:0:
64,192,237316,1,2,0:0:0:0:
192,192,237391,1,2,0:0:0:0:
320,192,237467,1,2,0:0:0:0:
448,192,237543,1,2,0:0:0:0:
320,192,237619,1,2,0:0:0:0:
192,192,237694,1,2,0:0:0:0:
64,192,237770,1,2,0:0:0:0:
64,192,237922,1,2,0:0:0:0:
448,192,237922,1,2,0:0:0:0:
448,192,238225,1,2,0:0:0:0:
320,192,238225,1,2,0:0:0:0:
192,192,238225,1,2,0:0:0:0:
64,192,238679,1,2,0:0:0:0:
192,192,238755,1,2,0:0:0:0:
320,192,238831,1,2,0:0:0:0:
448,192,238906,1,2,0:0:0:0:
320,192,238982,1,2,0:0:0:0:
192,192,239058,1,2,0:0:0:0:
64,192,239134,1,2,0:0:0:0:
64,192,239437,128,2,240043:0:0:0:0:
192,192,239740,1,2,0:0:0:0:
320,192,239891,1,2,0:0:0:0:
448,192,240043,1,2,0:0:0:0:
64,192,240194,1,2,0:0:0:0:
192,192,240270,1,2,0:0:0:0:
320,192,240346,1,2,0:0:0:0:
448,192,240422,1,2,0:0:0:0:
320,192,240497,1,2,0:0:0:0:
192,192,240573,1,2,0:0:0:0:
64,192,240649,1,2,0:0:0:0:
448,192,240649,1,6,0:0:0:0:
64,192,240952,1,2,0:0:0:0:
192,192,241028,1,2,0:0:0:0:
320,192,241103,1,2,0:0:0:0:
448,192,241179,1,2,0:0:0:0:
320,192,241255,1,2,0:0:0:0:
192,192,241331,1,2,0:0:0:0:
320,192,241406,1,2,0:0:0:0:
448,192,241482,1,2,0:0:0:0:
320,192,241558,1,2,0:0:0:0:
192,192,241709,1,2,0:0:0:0:
448,192,241861,1,2,0:0:0:0:
64,192,241861,1,2,0:0:0:0:
320,192,241861,1,2,0:0:0:0:
320,192,242164,1,2,0:0:0:0:
192,192,242240,1,2,0:0:0:0:
64,192,242316,1,2,0:0:0:0:
192,192,242391,1,2,0:0:0:0:
320,192,242467,1,2,0:0:0:0:
448,192,242543,1,2,0:0:0:0:
320,192,242619,1,2,0:0:0:0:
192,192,242694,1,2,0:0:0:0:
64,192,242770,1,2,0:0:0:0:
192,192,242846,1,2,0:0:0:0:
320,192,242922,1,2,0:0:0:0:
64,192,243073,1,2,0:0:0:0:
448,192,243073,1,2,0:0:0:0:
192,192,243073,1,2,0:0:0:0:
64,192,243376,1,2,0:0:0:0:
192,192,243452,1,2,0:0:0:0:
320,192,243528,1,2,0:0:0:0:
448,192,243679,1,2,0:0:0:0:
320,192,243831,1,2,0:0:0:0:
64,192,243982,1,2,0:0:0:0:
192,192,243982,1,2,0:0:0:0:
448,192,244285,1,2,0:0:0:0:
64,192,244285,1,2,0:0:0:0:
320,192,244285,1,2,0:0:0:0:
448,192,244588,1,2,0:0:0:0:
320,192,244664,1,2,0:0:0:0:
192,192,244740,1,2,0:0:0:0:
64,192,244891,1,2,0:0:0:0:
192,192,245043,1,2,0:0:0:0:
448,192,245194,1,2,0:0:0:0:
320,192,245194,1,2,0:0:0:0:
64,192,245497,1,2,0:0:0:0:
320,192,245497,1,2,0:0:0:0:
192,192,245497,1,2,0:0:0:0:
64,192,245800,1,2,0:0:0:0:
192,192,245876,1,2,0:0:0:0:
320,192,245952,1,2,0:0:0:0:
448,192,246103,1,2,0:0:0:0:
320,192,246255,1,2,0:0:0:0:
192,192,246406,1,2,0:0:0:0:
64,192,246406,1,2,0:0:0:0:
448,192,246709,1,2,0:0:0:0:
192,192,246709,1,2,0:0:0:0:
320,192,246709,1,2,0:0:0:0:
448,192,247013,1,2,0:0:0:0:
320,192,247088,1,2,0:0:0:0:
192,192,247164,1,2,0:0:0:0:
64,192,247316,1,2,0:0:0:0:
192,192,247467,1,2,0:0:0:0:
448,192,247619,1,2,0:0:0:0:
320,192,247619,1,2,0:0:0:0:
64,192,247922,1,2,0:0:0:0:
448,192,247922,1,2,0:0:0:0:
192,192,247922,1,2,0:0:0:0:
320,192,248225,1,2,0:0:0:0:
64,192,248225,1,2,0:0:0:0:
192,192,248300,1,2,0:0:0:0:
320,192,248376,1,2,0:0:0:0:
448,192,248528,1,2,0:0:0:0:
192,192,248528,1,2,0:0:0:0:
64,192,248831,1,2,0:0:0:0:
192,192,248906,1,2,0:0:0:0:
448,192,248982,1,2,0:0:0:0:
320,192,248982,1,2,0:0:0:0:
448,192,249134,1,2,0:0:0:0:
64,192,249134,128,2,250346:0:0:0:0:
320,192,249437,1,2,0:0:0:0:
192,192,249740,1,2,0:0:0:0:
320,192,249816,1,2,0:0:0:0:
448,192,249891,1,2,0:0:0:0:
320,192,249967,1,2,0:0:0:0:
192,192,250043,1,2,0:0:0:0:
320,192,250119,1,2,0:0:0:0:
448,192,250194,1,2,0:0:0:0:
320,192,250270,1,2,0:0:0:0:
192,192,250346,1,6,0:0:0:0:
448,192,250346,1,2,0:0:0:0:
448,192,250649,1,2,0:0:0:0:
320,192,250725,1,2,0:0:0:0:
192,192,250800,1,2,0:0:0:0:
64,192,250952,1,2,0:0:0:0:
192,192,251028,1,2,0:0:0:0:
320,192,251103,1,2,0:0:0:0:
320,192,251255,1,2,0:0:0:0:
448,192,251255,1,2,0:0:0:0:
320,192,251406,1,2,0:0:0:0:
64,192,251558,1,2,0:0:0:0:
192,192,251558,1,2,0:0:0:0:
448,192,251558,1,2,0:0:0:0:
64,192,251861,1,2,0:0:0:0:
192,192,251937,1,2,0:0:0:0:
320,192,252013,1,2,0:0:0:0:
448,192,252088,1,2,0:0:0:0:
320,192,252164,1,2,0:0:0:0:
192,192,252240,1,2,0:0:0:0:
64,192,252316,1,2,0:0:0:0:
448,192,252467,1,2,0:0:0:0:
64,192,252467,1,2,0:0:0:0:
192,192,252770,1,2,0:0:0:0:
320,192,252770,1,2,0:0:0:0:
448,192,252770,1,2,0:0:0:0:
64,192,253225,1,2,0:0:0:0:
192,192,253300,1,2,0:0:0:0:
320,192,253376,1,2,0:0:0:0:
448,192,253452,1,2,0:0:0:0:
320,192,253528,1,2,0:0:0:0:
192,192,253603,1,2,0:0:0:0:
64,192,253679,1,2,0:0:0:0:
64,192,253982,128,2,254588:0:0:0:0:
192,192,254285,1,2,0:0:0:0:
320,192,254437,1,2,0:0:0:0:
448,192,254588,1,2,0:0:0:0:
64,192,254740,1,2,0:0:0:0:
192,192,254816,1,2,0:0:0:0:
320,192,254891,1,2,0:0:0:0:
448,192,254967,1,2,0:0:0:0:
320,192,255043,1,2,0:0:0:0:
475,192,255194,128,2,256406:0:0:0:0:
256,192,255194,1,2,0:0:0:0:
402,192,255649,128,2,256861:0:0:0:0:
329,192,256103,128,2,257316:0:0:0:0:
256,192,256558,128,2,257619:0:0:0:0:
36,192,256709,128,2,257013:0:0:0:0:
109,192,257013,128,2,257316:0:0:0:0:
182,192,257316,128,2,257619:0:0:0:0:
