osu file format v14

[General]
AudioFilename: audio.mp3
AudioLeadIn: 0
PreviewTime: -1
Countdown: 1
SampleSet: None
StackLeniency: 0.7
Mode: 0
LetterboxInBreaks: 0
WidescreenStoryboard: 0

[Editor]
DistanceSpacing: 1.1
BeatDivisor: 4
GridSize: 8
TimelineZoom: 1

[Metadata]
Title:Un Amigo es una Luz
TitleUnicode:Un Amigo es una Luz
Artist:Enanitos Verdes
ArtistUnicode:Enanitos Verdes
Creator:Ale555
Version:Hard
Source:
Tags:
BeatmapID:1064268
BeatmapSetID:500068

[Difficulty]
HPDrainRate:6
CircleSize:4
OverallDifficulty:6
ApproachRate:8
SliderMultiplier:1.2
SliderTickRate:1

[Events]
//Background and Video events
//Break Periods
//Storyboard Layer 0 (Background)
//Storyboard Layer 1 (Fail)
//Storyboard Layer 2 (Pass)
//Storyboard Layer 3 (Foreground)
//Storyboard Sound Samples

[TimingPoints]
820,389.357560025957,4,2,0,100,1,0
38194,387.847446670976,4,2,0,100,1,0
50605,389.357560025957,4,2,0,100,1,0
73966,-100,4,2,0,90,0,1
94213,-100,4,2,0,70,0,0
117574,-100,4,2,0,70,0,1
162739,-100,4,2,0,70,0,0

[Colours]
Combo1 : 45,255,45
Combo2 : 192,192,192

[HitObjects]
184,256,820,6,0,B|192:216|208:184|232:152|264:136|312:128|352:128|376:144,2,240
136,176,2766,1,0,0:0:0:0:
192,80,3156,1,2,0:0:0:0:
304,104,3545,1,0,0:0:0:0:
248,208,3934,2,0,B|360:224|448:176|448:104,2,240
248,112,5881,1,0,0:0:0:0:
144,128,6271,2,0,P|96:144|64:216,1,120,2|0,0:0|0:0,0:0:0:0:
144,272,7049,5,0,0:0:0:0:
232,200,7439,1,0,0:0:0:0:
296,112,7828,1,0,0:0:0:0:
360,200,8217,1,0,0:0:0:0:
248,288,8607,1,0,0:0:0:0:
208,288,8801,1,0,0:0:0:0:
168,288,8996,1,0,0:0:0:0:
120,192,9385,2,0,P|152:176|248:168,1,120,2|0,0:0|0:0,0:0:0:0:
344,160,10164,5,0,0:0:0:0:
344,56,10553,1,0,0:0:0:0:
232,56,10943,1,0,0:0:0:0:
232,160,11332,1,0,0:0:0:0:
120,104,11722,1,0,0:0:0:0:
120,152,11916,1,0,0:0:0:0:
120,200,12111,1,0,0:0:0:0:
224,200,12500,2,0,B|264:224|272:296|264:312,1,120,2|0,0:0|0:0,0:0:0:0:
368,312,13279,6,0,B|368:248|320:128|200:112|96:200|64:312|120:368,1,480
256,192,15615,1,2,0:0:0:0:
80,184,16394,2,0,P|112:120|416:216,1,480
256,304,18730,1,2,0:0:0:0:
160,208,19509,6,0,L|192:80,1,120
232,72,20093,1,0,0:0:0:0:
280,72,20287,1,8,0:0:0:0:
368,136,20677,1,0,0:0:0:0:
296,240,21066,1,0,0:0:0:0:
296,240,21261,1,0,0:0:0:0:
152,240,21845,5,8,0:0:0:0:
184,128,22234,1,0,0:0:0:0:
304,144,22624,2,0,L|432:168,2,120,0|0|8,0:0|0:0|0:0,0:0:0:0:
304,240,23792,1,0,0:0:0:0:
304,144,24181,6,0,L|304:16,1,120
208,48,24960,1,8,0:0:0:0:
144,168,25349,1,0,0:0:0:0:
104,72,25738,1,0,0:0:0:0:
240,112,26128,1,0,0:0:0:0:
192,240,26517,1,8,0:0:0:0:
128,144,26906,1,2,0:0:0:0:
296,184,27296,1,0,0:0:0:0:
192,272,27685,1,0,0:0:0:0:
200,152,28075,1,8,0:0:0:0:
312,280,28464,1,2,0:0:0:0:
272,160,28853,2,0,P|296:104|456:48,2,240
256,192,31968,12,0,36640,0:0:0:0:
112,120,38194,6,0,P|160:96|352:128,1,240
336,224,39745,2,0,P|264:240|88:224,1,240
208,160,41296,2,0,L|208:24,1,120
304,40,42072,2,0,L|304:176,1,120
304,256,42848,1,0,0:0:0:0:
192,304,43236,1,0,0:0:0:0:
240,152,43623,1,2,0:0:0:0:
312,320,44011,1,0,0:0:0:0:
384,232,44399,2,0,P|384:184|224:96,1,240
112,96,45563,1,0,0:0:0:0:
112,208,45950,5,0,0:0:0:0:
112,208,46144,1,0,0:0:0:0:
232,208,46532,1,0,0:0:0:0:
232,208,46726,2,0,L|376:208,1,120,8|2,0:0|0:0,0:0:0:0:
352,104,47502,2,0,L|232:104,2,120,0|0|8,0:0|0:0|0:0,0:0:0:0:
352,192,48665,1,2,0:0:0:0:
256,192,49053,2,0,P|192:192|104:56,1,240,0|8,0:0|0:0,0:0:0:0:
208,56,50217,5,0,0:0:0:0:
320,56,50605,2,0,P|368:64|456:224,1,240
360,264,51773,1,0,0:0:0:0:
248,136,52162,1,0,0:0:0:0:
128,272,52551,1,0,0:0:0:0:
256,104,52941,1,0,0:0:0:0:
296,104,53135,1,0,0:0:0:0:
336,128,53330,1,0,0:0:0:0:
384,128,53525,1,0,0:0:0:0:
432,152,53719,1,0,0:0:0:0:
432,264,54109,1,0,0:0:0:0:
304,256,54498,1,0,0:0:0:0:
304,144,54887,1,0,0:0:0:0:
184,144,55277,1,0,0:0:0:0:
256,296,56056,5,2,0:0:0:0:
256,192,56834,2,0,B|256:88|256:88|320:40|320:40|400:40,1,240
376,40,58002,1,0,0:0:0:0:
232,40,58392,1,0,0:0:0:0:
232,40,58586,1,0,0:0:0:0:
232,176,58976,1,0,0:0:0:0:
232,176,59170,1,8,0:0:0:0:
360,176,59560,1,0,0:0:0:0:
360,64,59949,2,0,L|232:64,1,120
240,160,60728,2,0,L|240:288,1,120,8|0,0:0|0:0,0:0:0:0:
240,96,61507,1,0,0:0:0:0:
64,192,62285,5,8,0:0:0:0:
256,48,62675,1,0,0:0:0:0:
456,192,63064,1,0,0:0:0:0:
256,336,63453,1,0,0:0:0:0:
112,192,63843,1,8,0:0:0:0:
256,88,64232,1,0,0:0:0:0:
400,192,64621,1,0,0:0:0:0:
256,272,65011,1,0,0:0:0:0:
168,184,65400,1,8,0:0:0:0:
344,192,65789,1,0,0:0:0:0:
248,88,66179,2,0,P|192:88|80:232,1,240
80,312,67736,1,2,0:0:0:0:
256,192,69294,12,0,72409,0:0:0:0:
176,240,73966,5,0,0:0:0:0:
304,136,74355,1,0,0:0:0:0:
144,272,74745,1,0,0:0:0:0:
344,112,75134,1,0,0:0:0:0:
232,56,75523,2,0,P|176:64|88:216,2,240
328,56,77470,5,0,0:0:0:0:
328,200,77860,1,0,0:0:0:0:
176,200,78249,1,0,0:0:0:0:
288,104,78638,1,0,0:0:0:0:
136,104,79028,1,0,0:0:0:0:
328,200,79417,1,0,0:0:0:0:
200,272,79806,1,0,0:0:0:0:
128,176,80196,2,0,L|224:80,1,120
288,152,80974,2,0,L|200:240,1,120
136,144,81753,5,0,0:0:0:0:
288,144,82142,1,0,0:0:0:0:
104,80,82532,2,0,L|224:120,1,120
288,64,83311,2,0,P|336:64|408:112,1,120
400,200,84089,1,0,0:0:0:0:
288,272,84479,1,0,0:0:0:0:
232,168,84868,2,0,L|344:72,1,120
352,64,85647,1,0,0:0:0:0:
144,88,86036,5,0,0:0:0:0:
280,160,86425,1,0,0:0:0:0:
112,64,86815,1,0,0:0:0:0:
312,176,87204,1,0,0:0:0:0:
216,64,87593,1,0,0:0:0:0:
144,208,87983,2,0,P|224:232|392:200,2,240
136,208,89930,5,0,0:0:0:0:
136,320,90319,1,0,0:0:0:0:
248,208,90708,1,0,0:0:0:0:
248,320,91098,2,0,L|392:320,1,120
368,224,91876,2,0,L|368:96,1,120
264,104,92655,2,0,L|16:104,1,240
24,216,94213,6,0,P|80:240|272:208,2,240
88,128,96159,1,0,0:0:0:0:
88,128,96549,1,0,0:0:0:0:
224,136,96938,1,0,0:0:0:0:
80,128,97327,2,0,P|80:192|240:280,1,240
216,296,98495,1,0,0:0:0:0:
320,296,98885,2,0,P|384:288|432:136,2,240
176,296,100832,5,0,0:0:0:0:
176,176,101221,1,0,0:0:0:0:
176,56,101610,1,0,0:0:0:0:
304,56,102000,2,0,P|304:104|152:208,1,240
40,208,103168,1,0,0:0:0:0:
40,208,103557,2,0,L|136:128,1,120
216,72,104336,1,0,0:0:0:0:
344,96,104725,1,0,0:0:0:0:
432,168,105115,1,0,0:0:0:0:
472,296,105504,1,0,0:0:0:0:
360,296,105893,6,0,L|216:296,1,120
128,296,106672,1,0,0:0:0:0:
240,168,107061,1,0,0:0:0:0:
344,296,107451,1,0,0:0:0:0:
160,240,107840,1,0,0:0:0:0:
296,112,108229,1,0,0:0:0:0:
368,280,108619,1,0,0:0:0:0:
176,200,109008,1,0,0:0:0:0:
312,88,109397,1,0,0:0:0:0:
368,248,109787,2,0,L|472:32,2,240
256,192,112902,12,0,116017,0:0:0:0:
160,192,117574,5,0,0:0:0:0:
336,192,117963,1,0,0:0:0:0:
120,192,118353,1,0,0:0:0:0:
376,192,118742,1,0,0:0:0:0:
232,80,119131,1,0,0:0:0:0:
232,80,119521,1,0,0:0:0:0:
232,328,119910,1,0,0:0:0:0:
232,328,120300,1,0,0:0:0:0:
232,176,120689,2,0,P|392:184|440:240,1,240
432,240,121857,1,0,0:0:0:0:
320,320,122246,2,0,B|224:312|88:272|64:288,1,240
88,184,123414,5,0,0:0:0:0:
160,88,123804,1,0,0:0:0:0:
272,64,124193,1,0,0:0:0:0:
408,144,124582,1,0,0:0:0:0:
376,40,124972,1,0,0:0:0:0:
304,184,125361,1,0,0:0:0:0:
440,128,125751,1,0,0:0:0:0:
336,64,126140,1,0,0:0:0:0:
408,232,126529,1,0,0:0:0:0:
248,192,126919,1,0,0:0:0:0:
384,112,127308,1,0,0:0:0:0:
296,312,127697,1,0,0:0:0:0:
160,256,128087,1,0,0:0:0:0:
280,200,128476,2,0,B|320:168|408:32|472:64,1,240
456,192,129644,5,0,0:0:0:0:
264,192,130033,1,0,0:0:0:0:
40,192,130423,1,0,0:0:0:0:
256,192,130812,1,0,0:0:0:0:
456,192,131202,1,0,0:0:0:0:
352,112,131591,2,0,P|304:96|144:208,1,240
152,184,132759,1,0,0:0:0:0:
240,120,133148,2,0,B|280:88|352:104|440:56|496:112,1,240
472,216,134316,1,0,0:0:0:0:
472,216,134706,2,0,L|336:216,1,120
352,216,135484,6,0,L|248:136,1,120
256,136,136263,2,0,L|128:136,1,120
136,136,137042,2,0,L|32:216,1,120
40,208,137821,2,0,P|96:256|464:184,1,480
376,104,139767,1,0,0:0:0:0:
280,160,140157,1,0,0:0:0:0:
248,56,140546,2,0,P|160:80|104:208,2,240
360,56,142493,5,0,0:0:0:0:
360,192,142882,1,0,0:0:0:0:
448,120,143272,1,0,0:0:0:0:
280,120,143661,1,0,0:0:0:0:
448,120,144050,2,0,L|200:120,2,240
448,120,145997,1,0,0:0:0:0:
352,56,146386,1,0,0:0:0:0:
352,56,146776,1,0,0:0:0:0:
336,184,147165,2,0,P|240:232|208:368,1,240
200,352,148333,1,0,0:0:0:0:
200,248,148723,5,0,0:0:0:0:
240,144,149112,1,0,0:0:0:0:
328,80,149501,1,0,0:0:0:0:
440,64,149891,1,0,0:0:0:0:
376,168,150280,2,0,B|344:200|232:320|176:328,1,240
136,248,151837,2,0,P|192:176|320:72,1,240
424,184,153395,2,0,P|352:216|192:176,1,240
304,88,154563,5,0,0:0:0:0:
120,136,154952,1,0,0:0:0:0:
288,56,155342,1,0,0:0:0:0:
144,176,155731,1,0,0:0:0:0:
248,40,156120,1,0,0:0:0:0:
192,200,156510,1,0,0:0:0:0:
208,40,156899,1,0,0:0:0:0:
240,200,157288,1,0,0:0:0:0:
160,48,157678,1,0,0:0:0:0:
296,176,158067,1,0,0:0:0:0:
128,88,158457,1,0,0:0:0:0:
336,136,158846,1,0,0:0:0:0:
360,96,159235,1,0,0:0:0:0:
96,120,159625,2,0,L|352:120,2,240
216,120,161961,5,0,0:0:0:0:
360,64,162739,2,0,B|288:64|288:64|240:48|240:48|176:88|176:88|128:56|128:56|64:104|64:104|144:192|144:192|80:264|80:264|184:320|184:320|96:392|136:376|136:376|248:376|248:376|312:296|312:296|360:368|360:368|432:296|432:296|376:232|376:232|472:168|320:128|320:128|288:128,1,1440
